  0
SECTION
  2
HEADER
  9
$ACADVER
  1
AC1014
  9
$ACADMAINTVER
 70
     9
  9
$DWGCODEPAGE
  3
ANSI_932
  9
$INSBASE
 10
0.0
 20
0.0
 30
0.0
  9
$EXTMIN
 10
-120.5887787465562
 20
-519.2607792098949
 30
-0.0000000000000023
  9
$EXTMAX
 10
399.7340138630365
 20
410.3078862794495
 30
0.0000000000000129
  9
$LIMMIN
 10
-296.316999476111
 20
-370.7034300441653
  9
$LIMMAX
 10
623.3128432133979
 20
328.6261559379898
  9
$ORTHOMODE
 70
     0
  9
$REGENMODE
 70
     1
  9
$FILLMODE
 70
     1
  9
$QTEXTMODE
 70
     0
  9
$MIRRTEXT
 70
     1
  9
$DRAGMODE
 70
     2
  9
$LTSCALE
 40
10.0
  9
$OSMODE
 70
    37
  9
$ATTMODE
 70
     1
  9
$TEXTSIZE
 40
5.0
  9
$TRACEWID
 40
0.05
  9
$TEXTSTYLE
  7
STANDARD1
  9
$CLAYER
  8
30
  9
$CELTYPE
  6
CONTINUOUS
  9
$CECOLOR
 62
   256
  9
$CELTSCALE
 40
1.0
  9
$DELOBJ
 70
     1
  9
$DISPSILH
 70
     0
  9
$DIMSCALE
 40
1.0
  9
$DIMASZ
 40
2.0
  9
$DIMEXO
 40
1.0
  9
$DIMDLI
 40
0.5
  9
$DIMRND
 40
0.0
  9
$DIMDLE
 40
0.0
  9
$DIMEXE
 40
0.5
  9
$DIMTP
 40
0.0
  9
$DIMTM
 40
0.0
  9
$DIMTXT
 40
4.0
  9
$DIMCEN
 40
0.09
  9
$DIMTSZ
 40
0.0
  9
$DIMTOL
 70
     0
  9
$DIMLIM
 70
     0
  9
$DIMTIH
 70
     0
  9
$DIMTOH
 70
     1
  9
$DIMSE1
 70
     0
  9
$DIMSE2
 70
     0
  9
$DIMTAD
 70
     3
  9
$DIMZIN
 70
    12
  9
$DIMBLK
  1
OPEN
  9
$DIMASO
 70
     1
  9
$DIMSHO
 70
     1
  9
$DIMPOST
  1

  9
$DIMAPOST
  1

  9
$DIMALT
 70
     0
  9
$DIMALTD
 70
     2
  9
$DIMALTF
 40
25.4
  9
$DIMLFAC
 40
1.0
  9
$DIMTOFL
 70
     0
  9
$DIMTVP
 40
0.0
  9
$DIMTIX
 70
     0
  9
$DIMSOXD
 70
     0
  9
$DIMSAH
 70
     0
  9
$DIMBLK1
  1

  9
$DIMBLK2
  1

  9
$DIMSTYLE
  2
STANDARD
  9
$DIMCLRD
 70
     0
  9
$DIMCLRE
 70
     0
  9
$DIMCLRT
 70
     0
  9
$DIMTFAC
 40
1.0
  9
$DIMGAP
 40
1.0
  9
$DIMJUST
 70
     0
  9
$DIMSD1
 70
     0
  9
$DIMSD2
 70
     0
  9
$DIMTOLJ
 70
     1
  9
$DIMTZIN
 70
     0
  9
$DIMALTZ
 70
     0
  9
$DIMALTTZ
 70
     0
  9
$DIMFIT
 70
     3
  9
$DIMUPT
 70
     0
  9
$DIMUNIT
 70
     2
  9
$DIMDEC
 70
     1
  9
$DIMTDEC
 70
     1
  9
$DIMALTU
 70
     2
  9
$DIMALTTD
 70
     2
  9
$DIMTXSTY
  7
STANDARD
  9
$DIMAUNIT
 70
     0
  9
$LUNITS
 70
     2
  9
$LUPREC
 70
     4
  9
$SKETCHINC
 40
0.1
  9
$FILLETRAD
 40
0.0
  9
$AUNITS
 70
     0
  9
$AUPREC
 70
     0
  9
$MENU
  1
.
  9
$ELEVATION
 40
0.0
  9
$PELEVATION
 40
0.0
  9
$THICKNESS
 40
0.0
  9
$LIMCHECK
 70
     0
  9
$BLIPMODE
 70
     0
  9
$CHAMFERA
 40
0.0
  9
$CHAMFERB
 40
0.0
  9
$CHAMFERC
 40
0.0
  9
$CHAMFERD
 40
0.0
  9
$SKPOLY
 70
     0
  9
$TDCREATE
 40
2452286.555658657
  9
$TDUPDATE
 40
2453188.516516736
  9
$TDINDWG
 40
1.3220978009
  9
$TDUSRTIMER
 40
1.3220950579
  9
$USRTIMER
 70
     1
  9
$ANGBASE
 50
0.0
  9
$ANGDIR
 70
     0
  9
$PDMODE
 70
     0
  9
$PDSIZE
 40
0.0
  9
$PLINEWID
 40
0.0
  9
$COORDS
 70
     0
  9
$SPLFRAME
 70
     0
  9
$SPLINETYPE
 70
     6
  9
$SPLINESEGS
 70
     8
  9
$ATTDIA
 70
     0
  9
$ATTREQ
 70
     1
  9
$HANDLING
 70
 22529
  9
$HANDSEED
  5
818E
  9
$SURFTAB1
 70
     6
  9
$SURFTAB2
 70
     6
  9
$SURFTYPE
 70
     6
  9
$SURFU
 70
     6
  9
$SURFV
 70
     6
  9
$UCSNAME
  2

  9
$UCSORG
 10
0.0
 20
0.0
 30
0.0
  9
$UCSXDIR
 10
1.0
 20
0.0
 30
0.0
  9
$UCSYDIR
 10
0.0
 20
1.0
 30
0.0
  9
$PUCSNAME
  2

  9
$PUCSORG
 10
0.0
 20
0.0
 30
0.0
  9
$PUCSXDIR
 10
1.0
 20
0.0
 30
0.0
  9
$PUCSYDIR
 10
0.0
 20
1.0
 30
0.0
  9
$USERI1
 70
     0
  9
$USERI2
 70
     0
  9
$USERI3
 70
     0
  9
$USERI4
 70
     0
  9
$USERI5
 70
     0
  9
$USERR1
 40
0.0
  9
$USERR2
 40
0.0
  9
$USERR3
 40
0.0
  9
$USERR4
 40
0.0
  9
$USERR5
 40
0.0
  9
$WORLDVIEW
 70
     1
  9
$SHADEDGE
 70
     3
  9
$SHADEDIF
 70
    70
  9
$TILEMODE
 70
     1
  9
$MAXACTVP
 70
    48
  9
$PINSBASE
 10
0.0
 20
0.0
 30
0.0
  9
$PLIMCHECK
 70
     0
  9
$PEXTMIN
 10
4.273573
 20
5.205245999999998
 30
0.0
  9
$PEXTMAX
 10
194.610095
 20
283.0697009999996
 30
0.0
  9
$PLIMMIN
 10
-5.873749
 20
-5.87375
  9
$PLIMMAX
 10
204.099579
 20
291.1369009999999
  9
$UNITMODE
 70
     0
  9
$VISRETAIN
 70
     1
  9
$PLINEGEN
 70
     0
  9
$PSLTSCALE
 70
     1
  9
$TREEDEPTH
 70
  3020
  9
$PICKSTYLE
 70
     1
  9
$CMLSTYLE
  2
STANDARD
  9
$CMLJUST
 70
     0
  9
$CMLSCALE
 40
1.0
  9
$PROXYGRAPHICS
 70
     1
  9
$MEASUREMENT
 70
     0
  0
ENDSEC
  0
SECTION
  2
CLASSES
  0
CLASS
  1
ACDBDICTIONARYWDFLT
  2
AcDbDictionaryWithDefault
  3
AutoCAD 2000
 90
        0
280
     0
281
     0
  0
CLASS
  1
ACDBPLACEHOLDER
  2
AcDbPlaceHolder
  3
AutoCAD 2000
 90
        0
280
     0
281
     0
  0
CLASS
  1
LAYOUT
  2
AcDbLayout
  3
AutoCAD 2000
 90
        0
280
     0
281
     0
  0
CLASS
  1
LONG_TRANSACTION
  2
AcDbLongTransaction
  3
AutoCAD 2000
 90
        0
280
     0
281
     0
  0
CLASS
  1
LWPOLYLINE
  2
AcDbPolyline
  3
AutoCAD 2000
 90
        0
280
     0
281
     1
  0
CLASS
  1
HATCH
  2
AcDbHatch
  3
AutoCAD 2000
 90
        0
280
     0
281
     1
  0
CLASS
  1
XRECORD
  2
AcDbXrecord
  3
AutoCAD 2000
 90
        0
280
     0
281
     0
  0
CLASS
  1
LONG_TRANSACTION
  2
AcDbLongTransaction
  3
AutoCAD 2000
 90
        0
280
     0
281
     0
  0
CLASS
  1
LWPOLYLINE
  2
AcDbPolyline
  3
AutoCAD 2000
 90
        0
280
     0
281
     1
  0
CLASS
  1
HATCH
  2
AcDbHatch
  3
AutoCAD 2000
 90
        0
280
     0
281
     1
  0
CLASS
  1
XRECORD
  2
AcDbXrecord
  3
AutoCAD 2000
 90
        0
280
     0
281
     0
  0
CLASS
  1
LONG_TRANSACTION
  2
AcDbLongTransaction
  3
AutoCAD 2000
 90
        0
280
     0
281
     0
  0
CLASS
  1
LWPOLYLINE
  2
AcDbPolyline
  3
AutoCAD 2000
 90
        0
280
     0
281
     1
  0
CLASS
  1
HATCH
  2
AcDbHatch
  3
AutoCAD 2000
 90
        0
280
     0
281
     1
  0
CLASS
  1
XRECORD
  2
AcDbXrecord
  3
AutoCAD 2000
 90
        0
280
     0
281
     0
  0
CLASS
  1
LONG_TRANSACTION
  2
AcDbLongTransaction
  3
AutoCAD 2000
 90
        0
280
     0
281
     0
  0
CLASS
  1
LWPOLYLINE
  2
AcDbPolyline
  3
AutoCAD 2000
 90
        0
280
     0
281
     1
  0
CLASS
  1
HATCH
  2
AcDbHatch
  3
AutoCAD 2000
 90
        0
280
     0
281
     1
  0
CLASS
  1
XRECORD
  2
AcDbXrecord
  3
AutoCAD 2000
 90
        0
280
     0
281
     0
  0
CLASS
  1
LONG_TRANSACTION
  2
AcDbLongTransaction
  3
AutoCAD 2000
 90
        0
280
     0
281
     0
  0
CLASS
  1
LWPOLYLINE
  2
AcDbPolyline
  3
AutoCAD 2000
 90
        0
280
     0
281
     1
  0
CLASS
  1
HATCH
  2
AcDbHatch
  3
AutoCAD 2000
 90
        0
280
     0
281
     1
  0
CLASS
  1
XRECORD
  2
AcDbXrecord
  3
AutoCAD 2000
 90
        0
280
     0
281
     0
  0
CLASS
  1
LONG_TRANSACTION
  2
AcDbLongTransaction
  3
AutoCAD 2000
 90
        0
280
     0
281
     0
  0
CLASS
  1
LWPOLYLINE
  2
AcDbPolyline
  3
AutoCAD 2000
 90
        0
280
     0
281
     1
  0
CLASS
  1
HATCH
  2
AcDbHatch
  3
AutoCAD 2000
 90
        0
280
     0
281
     1
  0
CLASS
  1
XRECORD
  2
AcDbXrecord
  3
AutoCAD 2000
 90
        0
280
     0
281
     0
  0
CLASS
  1
LONG_TRANSACTION
  2
AcDbLongTransaction
  3
AutoCAD 2000
 90
        0
280
     0
281
     0
  0
CLASS
  1
LWPOLYLINE
  2
AcDbPolyline
  3
AutoCAD 2000
 90
        0
280
     0
281
     1
  0
CLASS
  1
HATCH
  2
AcDbHatch
  3
AutoCAD 2000
 90
        0
280
     0
281
     1
  0
CLASS
  1
XRECORD
  2
AcDbXrecord
  3
AutoCAD 2000
 90
        0
280
     0
281
     0
  0
CLASS
  1
LONG_TRANSACTION
  2
AcDbLongTransaction
  3
AutoCAD 2000
 90
        0
280
     0
281
     0
  0
CLASS
  1
LWPOLYLINE
  2
AcDbPolyline
  3
AutoCAD 2000
 90
        0
280
     0
281
     1
  0
CLASS
  1
HATCH
  2
AcDbHatch
  3
AutoCAD 2000
 90
        0
280
     0
281
     1
  0
CLASS
  1
XRECORD
  2
AcDbXrecord
  3
AutoCAD 2000
 90
        0
280
     0
281
     0
  0
CLASS
  1
LONG_TRANSACTION
  2
AcDbLongTransaction
  3
AutoCAD 2000
 90
        0
280
     0
281
     0
  0
CLASS
  1
LWPOLYLINE
  2
AcDbPolyline
  3
AutoCAD 2000
 90
        0
280
     0
281
     1
  0
CLASS
  1
HATCH
  2
AcDbHatch
  3
AutoCAD 2000
 90
        0
280
     0
281
     1
  0
CLASS
  1
XRECORD
  2
AcDbXrecord
  3
AutoCAD 2000
 90
        0
280
     0
281
     0
  0
CLASS
  1
LONG_TRANSACTION
  2
AcDbLongTransaction
  3
AutoCAD 2000
 90
        0
280
     0
281
     0
  0
CLASS
  1
LWPOLYLINE
  2
AcDbPolyline
  3
AutoCAD 2000
 90
        0
280
     0
281
     1
  0
CLASS
  1
HATCH
  2
AcDbHatch
  3
AutoCAD 2000
 90
        0
280
     0
281
     1
  0
CLASS
  1
XRECORD
  2
AcDbXrecord
  3
AutoCAD 2000
 90
        0
280
     0
281
     0
  0
CLASS
  1
LONG_TRANSACTION
  2
AcDbLongTransaction
  3
AutoCAD 2000
 90
        0
280
     0
281
     0
  0
CLASS
  1
LWPOLYLINE
  2
AcDbPolyline
  3
AutoCAD 2000
 90
        0
280
     0
281
     1
  0
CLASS
  1
HATCH
  2
AcDbHatch
  3
AutoCAD 2000
 90
        0
280
     0
281
     1
  0
CLASS
  1
XRECORD
  2
AcDbXrecord
  3
AutoCAD 2000
 90
        0
280
     0
281
     0
  0
CLASS
  1
LONG_TRANSACTION
  2
AcDbLongTransaction
  3
AutoCAD 2000
 90
        0
280
     0
281
     0
  0
CLASS
  1
LWPOLYLINE
  2
AcDbPolyline
  3
AutoCAD 2000
 90
        0
280
     0
281
     1
  0
CLASS
  1
HATCH
  2
AcDbHatch
  3
AutoCAD 2000
 90
        0
280
     0
281
     1
  0
CLASS
  1
XRECORD
  2
AcDbXrecord
  3
AutoCAD 2000
 90
        0
280
     0
281
     0
  0
CLASS
  1
LONG_TRANSACTION
  2
AcDbLongTransaction
  3
AutoCAD 2000
 90
        0
280
     0
281
     0
  0
CLASS
  1
LWPOLYLINE
  2
AcDbPolyline
  3
AutoCAD 2000
 90
        0
280
     0
281
     1
  0
CLASS
  1
HATCH
  2
AcDbHatch
  3
AutoCAD 2000
 90
        0
280
     0
281
     1
  0
CLASS
  1
XRECORD
  2
AcDbXrecord
  3
AutoCAD 2000
 90
        0
280
     0
281
     0
  0
CLASS
  1
LONG_TRANSACTION
  2
AcDbLongTransaction
  3
AutoCAD 2000
 90
        0
280
     0
281
     0
  0
CLASS
  1
LWPOLYLINE
  2
AcDbPolyline
  3
AutoCAD 2000
 90
        0
280
     0
281
     1
  0
CLASS
  1
HATCH
  2
AcDbHatch
  3
AutoCAD 2000
 90
        0
280
     0
281
     1
  0
CLASS
  1
XRECORD
  2
AcDbXrecord
  3
AutoCAD 2000
 90
        0
280
     0
281
     0
  0
CLASS
  1
LONG_TRANSACTION
  2
AcDbLongTransaction
  3
AutoCAD 2000
 90
        0
280
     0
281
     0
  0
CLASS
  1
LWPOLYLINE
  2
AcDbPolyline
  3
AutoCAD 2000
 90
        0
280
     0
281
     1
  0
CLASS
  1
HATCH
  2
AcDbHatch
  3
AutoCAD 2000
 90
        0
280
     0
281
     1
  0
CLASS
  1
XRECORD
  2
AcDbXrecord
  3
AutoCAD 2000
 90
        0
280
     0
281
     0
  0
CLASS
  1
LONG_TRANSACTION
  2
AcDbLongTransaction
  3
AutoCAD 2000
 90
        0
280
     0
281
     0
  0
CLASS
  1
LWPOLYLINE
  2
AcDbPolyline
  3
AutoCAD 2000
 90
        0
280
     0
281
     1
  0
CLASS
  1
HATCH
  2
AcDbHatch
  3
AutoCAD 2000
 90
        0
280
     0
281
     1
  0
CLASS
  1
XRECORD
  2
AcDbXrecord
  3
AutoCAD 2000
 90
        0
280
     0
281
     0
  0
CLASS
  1
LONG_TRANSACTION
  2
AcDbLongTransaction
  3
AutoCAD 2000
 90
        0
280
     0
281
     0
  0
CLASS
  1
LWPOLYLINE
  2
AcDbPolyline
  3
AutoCAD 2000
 90
        0
280
     0
281
     1
  0
CLASS
  1
HATCH
  2
AcDbHatch
  3
AutoCAD 2000
 90
        0
280
     0
281
     1
  0
CLASS
  1
XRECORD
  2
AcDbXrecord
  3
AutoCAD 2000
 90
        0
280
     0
281
     0
  0
CLASS
  1
LONG_TRANSACTION
  2
AcDbLongTransaction
  3
AutoCAD 2000
 90
        0
280
     0
281
     0
  0
CLASS
  1
LWPOLYLINE
  2
AcDbPolyline
  3
AutoCAD 2000
 90
        0
280
     0
281
     1
  0
CLASS
  1
HATCH
  2
AcDbHatch
  3
AutoCAD 2000
 90
        0
280
     0
281
     1
  0
CLASS
  1
XRECORD
  2
AcDbXrecord
  3
AutoCAD 2000
 90
        0
280
     0
281
     0
  0
CLASS
  1
LONG_TRANSACTION
  2
AcDbLongTransaction
  3
AutoCAD 2000
 90
        0
280
     0
281
     0
  0
CLASS
  1
LWPOLYLINE
  2
AcDbPolyline
  3
AutoCAD 2000
 90
        0
280
     0
281
     1
  0
CLASS
  1
HATCH
  2
AcDbHatch
  3
AutoCAD 2000
 90
        0
280
     0
281
     1
  0
CLASS
  1
XRECORD
  2
AcDbXrecord
  3
AutoCAD 2000
 90
        0
280
     0
281
     0
  0
CLASS
  1
LONG_TRANSACTION
  2
AcDbLongTransaction
  3
AutoCAD 2000
 90
        0
280
     0
281
     0
  0
CLASS
  1
LWPOLYLINE
  2
AcDbPolyline
  3
AutoCAD 2000
 90
        0
280
     0
281
     1
  0
CLASS
  1
HATCH
  2
AcDbHatch
  3
AutoCAD 2000
 90
        0
280
     0
281
     1
  0
CLASS
  1
XRECORD
  2
AcDbXrecord
  3
AutoCAD 2000
 90
        0
280
     0
281
     0
  0
CLASS
  1
LONG_TRANSACTION
  2
AcDbLongTransaction
  3
AutoCAD 2000
 90
        0
280
     0
281
     0
  0
CLASS
  1
LWPOLYLINE
  2
AcDbPolyline
  3
AutoCAD 2000
 90
        0
280
     0
281
     1
  0
CLASS
  1
HATCH
  2
AcDbHatch
  3
AutoCAD 2000
 90
        0
280
     0
281
     1
  0
CLASS
  1
XRECORD
  2
AcDbXrecord
  3
AutoCAD 2000
 90
        0
280
     0
281
     0
  0
CLASS
  1
LONG_TRANSACTION
  2
AcDbLongTransaction
  3
AutoCAD 2000
 90
        0
280
     0
281
     0
  0
CLASS
  1
LWPOLYLINE
  2
AcDbPolyline
  3
AutoCAD 2000
 90
        0
280
     0
281
     1
  0
CLASS
  1
HATCH
  2
AcDbHatch
  3
AutoCAD 2000
 90
        0
280
     0
281
     1
  0
CLASS
  1
XRECORD
  2
AcDbXrecord
  3
AutoCAD 2000
 90
        0
280
     0
281
     0
  0
CLASS
  1
LONG_TRANSACTION
  2
AcDbLongTransaction
  3
AutoCAD 2000
 90
        0
280
     0
281
     0
  0
CLASS
  1
LWPOLYLINE
  2
AcDbPolyline
  3
AutoCAD 2000
 90
        0
280
     0
281
     1
  0
CLASS
  1
HATCH
  2
AcDbHatch
  3
AutoCAD 2000
 90
        0
280
     0
281
     1
  0
CLASS
  1
XRECORD
  2
AcDbXrecord
  3
AutoCAD 2000
 90
        0
280
     0
281
     0
  0
CLASS
  1
LONG_TRANSACTION
  2
AcDbLongTransaction
  3
AutoCAD 2000
 90
        0
280
     0
281
     0
  0
CLASS
  1
LWPOLYLINE
  2
AcDbPolyline
  3
AutoCAD 2000
 90
        0
280
     0
281
     1
  0
CLASS
  1
HATCH
  2
AcDbHatch
  3
AutoCAD 2000
 90
        0
280
     0
281
     1
  0
CLASS
  1
XRECORD
  2
AcDbXrecord
  3
AutoCAD 2000
 90
        0
280
     0
281
     0
  0
CLASS
  1
LONG_TRANSACTION
  2
AcDbLongTransaction
  3
AutoCAD 2000
 90
        0
280
     0
281
     0
  0
CLASS
  1
LWPOLYLINE
  2
AcDbPolyline
  3
AutoCAD 2000
 90
        0
280
     0
281
     1
  0
CLASS
  1
HATCH
  2
AcDbHatch
  3
AutoCAD 2000
 90
        0
280
     0
281
     1
  0
CLASS
  1
XRECORD
  2
AcDbXrecord
  3
AutoCAD 2000
 90
        0
280
     0
281
     0
  0
CLASS
  1
LONG_TRANSACTION
  2
AcDbLongTransaction
  3
AutoCAD 2000
 90
        0
280
     0
281
     0
  0
CLASS
  1
LWPOLYLINE
  2
AcDbPolyline
  3
AutoCAD 2000
 90
        0
280
     0
281
     1
  0
CLASS
  1
HATCH
  2
AcDbHatch
  3
AutoCAD 2000
 90
        0
280
     0
281
     1
  0
CLASS
  1
XRECORD
  2
AcDbXrecord
  3
AutoCAD 2000
 90
        0
280
     0
281
     0
  0
CLASS
  1
LONG_TRANSACTION
  2
AcDbLongTransaction
  3
AutoCAD 2000
 90
        0
280
     0
281
     0
  0
CLASS
  1
LWPOLYLINE
  2
AcDbPolyline
  3
AutoCAD 2000
 90
        0
280
     0
281
     1
  0
CLASS
  1
HATCH
  2
AcDbHatch
  3
AutoCAD 2000
 90
        0
280
     0
281
     1
  0
CLASS
  1
XRECORD
  2
AcDbXrecord
  3
AutoCAD 2000
 90
        0
280
     0
281
     0
  0
CLASS
  1
LONG_TRANSACTION
  2
AcDbLongTransaction
  3
AutoCAD 2000
 90
        0
280
     0
281
     0
  0
CLASS
  1
LWPOLYLINE
  2
AcDbPolyline
  3
AutoCAD 2000
 90
        0
280
     0
281
     1
  0
CLASS
  1
HATCH
  2
AcDbHatch
  3
AutoCAD 2000
 90
        0
280
     0
281
     1
  0
CLASS
  1
XRECORD
  2
AcDbXrecord
  3
AutoCAD 2000
 90
        0
280
     0
281
     0
  0
CLASS
  1
LONG_TRANSACTION
  2
AcDbLongTransaction
  3
AutoCAD 2000
 90
        0
280
     0
281
     0
  0
CLASS
  1
LWPOLYLINE
  2
AcDbPolyline
  3
AutoCAD 2000
 90
        0
280
     0
281
     1
  0
CLASS
  1
HATCH
  2
AcDbHatch
  3
AutoCAD 2000
 90
        0
280
     0
281
     1
  0
CLASS
  1
XRECORD
  2
AcDbXrecord
  3
AutoCAD 2000
 90
        0
280
     0
281
     0
  0
CLASS
  1
LONG_TRANSACTION
  2
AcDbLongTransaction
  3
AutoCAD 2000
 90
        0
280
     0
281
     0
  0
CLASS
  1
LWPOLYLINE
  2
AcDbPolyline
  3
AutoCAD 2000
 90
        0
280
     0
281
     1
  0
CLASS
  1
HATCH
  2
AcDbHatch
  3
AutoCAD 2000
 90
        0
280
     0
281
     1
  0
CLASS
  1
XRECORD
  2
AcDbXrecord
  3
AutoCAD 2000
 90
        0
280
     0
281
     0
  0
CLASS
  1
LONG_TRANSACTION
  2
AcDbLongTransaction
  3
AutoCAD 2000
 90
        0
280
     0
281
     0
  0
CLASS
  1
LWPOLYLINE
  2
AcDbPolyline
  3
AutoCAD 2000
 90
        0
280
     0
281
     1
  0
CLASS
  1
HATCH
  2
AcDbHatch
  3
AutoCAD 2000
 90
        0
280
     0
281
     1
  0
CLASS
  1
XRECORD
  2
AcDbXrecord
  3
AutoCAD 2000
 90
        0
280
     0
281
     0
  0
CLASS
  1
LONG_TRANSACTION
  2
AcDbLongTransaction
  3
AutoCAD 2000
 90
        0
280
     0
281
     0
  0
CLASS
  1
LWPOLYLINE
  2
AcDbPolyline
  3
AutoCAD 2000
 90
        0
280
     0
281
     1
  0
CLASS
  1
HATCH
  2
AcDbHatch
  3
AutoCAD 2000
 90
        0
280
     0
281
     1
  0
CLASS
  1
XRECORD
  2
AcDbXrecord
  3
AutoCAD 2000
 90
        0
280
     0
281
     0
  0
CLASS
  1
LONG_TRANSACTION
  2
AcDbLongTransaction
  3
AutoCAD 2000
 90
        0
280
     0
281
     0
  0
CLASS
  1
LWPOLYLINE
  2
AcDbPolyline
  3
AutoCAD 2000
 90
        0
280
     0
281
     1
  0
CLASS
  1
HATCH
  2
AcDbHatch
  3
AutoCAD 2000
 90
        0
280
     0
281
     1
  0
CLASS
  1
XRECORD
  2
AcDbXrecord
  3
AutoCAD 2000
 90
        0
280
     0
281
     0
  0
CLASS
  1
DICTIONARYVAR
  2
AcDbDictionaryVar
  3
AutoCAD 2000
 90
        0
280
     0
281
     0
  0
CLASS
  1
LONG_TRANSACTION
  2
AcDbLongTransaction
  3
AutoCAD 2000
 90
        0
280
     0
281
     0
  0
CLASS
  1
LWPOLYLINE
  2
AcDbPolyline
  3
AutoCAD 2000
 90
        0
280
     0
281
     1
  0
CLASS
  1
HATCH
  2
AcDbHatch
  3
AutoCAD 2000
 90
        0
280
     0
281
     1
  0
CLASS
  1
XRECORD
  2
AcDbXrecord
  3
AutoCAD 2000
 90
        0
280
     0
281
     0
  0
CLASS
  1
LONG_TRANSACTION
  2
AcDbLongTransaction
  3
AutoCAD 2000
 90
        0
280
     0
281
     0
  0
CLASS
  1
LWPOLYLINE
  2
AcDbPolyline
  3
AutoCAD 2000
 90
        0
280
     0
281
     1
  0
CLASS
  1
HATCH
  2
AcDbHatch
  3
AutoCAD 2000
 90
        0
280
     0
281
     1
  0
CLASS
  1
XRECORD
  2
AcDbXrecord
  3
AutoCAD 2000
 90
        0
280
     0
281
     0
  0
CLASS
  1
LONG_TRANSACTION
  2
AcDbLongTransaction
  3
AutoCAD 2000
 90
        0
280
     0
281
     0
  0
CLASS
  1
LWPOLYLINE
  2
AcDbPolyline
  3
AutoCAD 2000
 90
        0
280
     0
281
     1
  0
CLASS
  1
HATCH
  2
AcDbHatch
  3
AutoCAD 2000
 90
        0
280
     0
281
     1
  0
CLASS
  1
XRECORD
  2
AcDbXrecord
  3
AutoCAD 2000
 90
        0
280
     0
281
     0
  0
CLASS
  1
LONG_TRANSACTION
  2
AcDbLongTransaction
  3
AutoCAD 2000
 90
        0
280
     0
281
     0
  0
CLASS
  1
LWPOLYLINE
  2
AcDbPolyline
  3
AutoCAD 2000
 90
        0
280
     0
281
     1
  0
CLASS
  1
HATCH
  2
AcDbHatch
  3
AutoCAD 2000
 90
        0
280
     0
281
     1
  0
CLASS
  1
XRECORD
  2
AcDbXrecord
  3
AutoCAD 2000
 90
        0
280
     0
281
     0
  0
CLASS
  1
LONG_TRANSACTION
  2
AcDbLongTransaction
  3
AutoCAD 2000
 90
        0
280
     0
281
     0
  0
CLASS
  1
LWPOLYLINE
  2
AcDbPolyline
  3
AutoCAD 2000
 90
        0
280
     0
281
     1
  0
CLASS
  1
HATCH
  2
AcDbHatch
  3
AutoCAD 2000
 90
        0
280
     0
281
     1
  0
CLASS
  1
XRECORD
  2
AcDbXrecord
  3
AutoCAD 2000
 90
        0
280
     0
281
     0
  0
CLASS
  1
LONG_TRANSACTION
  2
AcDbLongTransaction
  3
AutoCAD 2000
 90
        0
280
     0
281
     0
  0
CLASS
  1
LWPOLYLINE
  2
AcDbPolyline
  3
AutoCAD 2000
 90
        0
280
     0
281
     1
  0
CLASS
  1
HATCH
  2
AcDbHatch
  3
AutoCAD 2000
 90
        0
280
     0
281
     1
  0
CLASS
  1
XRECORD
  2
AcDbXrecord
  3
AutoCAD 2000
 90
        0
280
     0
281
     0
  0
CLASS
  1
LONG_TRANSACTION
  2
AcDbLongTransaction
  3
AutoCAD 2000
 90
        0
280
     0
281
     0
  0
CLASS
  1
LWPOLYLINE
  2
AcDbPolyline
  3
AutoCAD 2000
 90
        0
280
     0
281
     1
  0
CLASS
  1
HATCH
  2
AcDbHatch
  3
AutoCAD 2000
 90
        0
280
     0
281
     1
  0
CLASS
  1
XRECORD
  2
AcDbXrecord
  3
AutoCAD 2000
 90
        0
280
     0
281
     0
  0
CLASS
  1
LONG_TRANSACTION
  2
AcDbLongTransaction
  3
AutoCAD 2000
 90
        0
280
     0
281
     0
  0
CLASS
  1
LWPOLYLINE
  2
AcDbPolyline
  3
AutoCAD 2000
 90
        0
280
     0
281
     1
  0
CLASS
  1
HATCH
  2
AcDbHatch
  3
AutoCAD 2000
 90
        0
280
     0
281
     1
  0
CLASS
  1
XRECORD
  2
AcDbXrecord
  3
AutoCAD 2000
 90
        0
280
     0
281
     0
  0
CLASS
  1
LONG_TRANSACTION
  2
AcDbLongTransaction
  3
AutoCAD 2000
 90
        0
280
     0
281
     0
  0
CLASS
  1
LWPOLYLINE
  2
AcDbPolyline
  3
AutoCAD 2000
 90
        0
280
     0
281
     1
  0
CLASS
  1
HATCH
  2
AcDbHatch
  3
AutoCAD 2000
 90
        0
280
     0
281
     1
  0
CLASS
  1
XRECORD
  2
AcDbXrecord
  3
AutoCAD 2000
 90
        0
280
     0
281
     0
  0
CLASS
  1
LONG_TRANSACTION
  2
AcDbLongTransaction
  3
AutoCAD 2000
 90
        0
280
     0
281
     0
  0
CLASS
  1
LWPOLYLINE
  2
AcDbPolyline
  3
AutoCAD 2000
 90
        0
280
     0
281
     1
  0
CLASS
  1
HATCH
  2
AcDbHatch
  3
AutoCAD 2000
 90
        0
280
     0
281
     1
  0
CLASS
  1
XRECORD
  2
AcDbXrecord
  3
AutoCAD 2000
 90
        0
280
     0
281
     0
  0
CLASS
  1
LONG_TRANSACTION
  2
AcDbLongTransaction
  3
AutoCAD 2000
 90
        0
280
     0
281
     0
  0
CLASS
  1
LWPOLYLINE
  2
AcDbPolyline
  3
AutoCAD 2000
 90
        0
280
     0
281
     1
  0
CLASS
  1
HATCH
  2
AcDbHatch
  3
AutoCAD 2000
 90
        0
280
     0
281
     1
  0
CLASS
  1
XRECORD
  2
AcDbXrecord
  3
AutoCAD 2000
 90
        0
280
     0
281
     0
  0
CLASS
  1
LONG_TRANSACTION
  2
AcDbLongTransaction
  3
AutoCAD 2000
 90
        0
280
     0
281
     0
  0
CLASS
  1
LWPOLYLINE
  2
AcDbPolyline
  3
AutoCAD 2000
 90
        0
280
     0
281
     1
  0
CLASS
  1
HATCH
  2
AcDbHatch
  3
AutoCAD 2000
 90
        0
280
     0
281
     1
  0
CLASS
  1
XRECORD
  2
AcDbXrecord
  3
AutoCAD 2000
 90
        0
280
     0
281
     0
  0
CLASS
  1
LONG_TRANSACTION
  2
AcDbLongTransaction
  3
AutoCAD 2000
 90
        0
280
     0
281
     0
  0
CLASS
  1
LWPOLYLINE
  2
AcDbPolyline
  3
AutoCAD 2000
 90
        0
280
     0
281
     1
  0
CLASS
  1
HATCH
  2
AcDbHatch
  3
AutoCAD 2000
 90
        0
280
     0
281
     1
  0
CLASS
  1
XRECORD
  2
AcDbXrecord
  3
AutoCAD 2000
 90
        0
280
     0
281
     0
  0
CLASS
  1
LONG_TRANSACTION
  2
AcDbLongTransaction
  3
AutoCAD 2000
 90
        0
280
     0
281
     0
  0
CLASS
  1
LWPOLYLINE
  2
AcDbPolyline
  3
AutoCAD 2000
 90
        0
280
     0
281
     1
  0
CLASS
  1
HATCH
  2
AcDbHatch
  3
AutoCAD 2000
 90
        0
280
     0
281
     1
  0
CLASS
  1
XRECORD
  2
AcDbXrecord
  3
AutoCAD 2000
 90
        0
280
     0
281
     0
  0
CLASS
  1
LONG_TRANSACTION
  2
AcDbLongTransaction
  3
AutoCAD 2000
 90
        0
280
     0
281
     0
  0
CLASS
  1
LWPOLYLINE
  2
AcDbPolyline
  3
AutoCAD 2000
 90
        0
280
     0
281
     1
  0
CLASS
  1
HATCH
  2
AcDbHatch
  3
AutoCAD 2000
 90
        0
280
     0
281
     1
  0
CLASS
  1
XRECORD
  2
AcDbXrecord
  3
AutoCAD 2000
 90
        0
280
     0
281
     0
  0
ENDSEC
  0
SECTION
  2
TABLES
  0
TABLE
  2
VPORT
  5
8
330
0
100
AcDbSymbolTable
 70
     2
  0
VPORT
  5
8146
330
8
100
AcDbSymbolTableRecord
100
AcDbViewportTableRecord
  2
*ACTIVE
 70
     0
 10
0.0
 20
0.0
 11
1.0
 21
1.0
 12
139.5726175582401
 22
-54.47644646522269
 13
0.0
 23
0.0
 14
1.0
 24
1.0
 15
10.0
 25
10.0
 16
0.0
 26
0.0
 36
1.0
 17
0.0
 27
0.0
 37
0.0
 40
941.5117318553745
 41
2.152360515021459
 42
50.0
 43
0.0
 44
0.0
 50
0.0
 51
0.0
 71
     0
 72
   100
 73
     1
 74
     1
 75
     0
 76
     0
 77
     0
 78
     0
  0
ENDTAB
  0
TABLE
  2
LTYPE
  5
5
330
0
100
AcDbSymbolTable
 70
     8
  0
LTYPE
  5
13
330
5
100
AcDbSymbolTableRecord
100
AcDbLinetypeTableRecord
  2
BYBLOCK
 70
     0
  3

 72
    65
 73
     0
 40
0.0
  0
LTYPE
  5
14
330
5
100
AcDbSymbolTableRecord
100
AcDbLinetypeTableRecord
  2
BYLAYER
 70
     0
  3

 72
    65
 73
     0
 40
0.0
  0
LTYPE
  5
15
330
5
100
AcDbSymbolTableRecord
100
AcDbLinetypeTableRecord
  2
CONTINUOUS
 70
     0
  3
Solid line
 72
    65
 73
     0
 40
0.0
  0
LTYPE
  5
22
330
5
100
AcDbSymbolTableRecord
100
AcDbLinetypeTableRecord
  2
CONTINOUS
 70
     0
  3
Solid line
 72
    65
 73
     0
 40
0.0
  0
LTYPE
  5
23
330
5
100
AcDbSymbolTableRecord
100
AcDbLinetypeTableRecord
  2
DASHED
 70
     0
  3
__ __ __ __ __ __ __ __ __ __ __ __ __ __ __
 72
    65
 73
     2
 40
0.75
 49
0.5
 74
     0
 49
-0.25
 74
     0
  0
LTYPE
  5
24
330
5
100
AcDbSymbolTableRecord
100
AcDbLinetypeTableRecord
  2
DASHDOT
 70
     0
  3
__ . __ . __ . __ . __ . __ . __ . __ . __ . __
 72
    65
 73
     4
 40
1.0
 49
0.5
 74
     0
 49
-0.25
 74
     0
 49
0.0
 74
     0
 49
-0.25
 74
     0
  0
LTYPE
  5
4C47
330
5
100
AcDbSymbolTableRecord
100
AcDbLinetypeTableRecord
  2
DIVIDE
 70
     0
  3
Divide ____ . . ____ . . ____ . . ____ . . ____
 72
    65
 73
     6
 40
1.25
 49
0.5
 74
     0
 49
-0.25
 74
     0
 49
0.0
 74
     0
 49
-0.25
 74
     0
 49
0.0
 74
     0
 49
-0.25
 74
     0
  0
LTYPE
  5
6265
330
5
100
AcDbSymbolTableRecord
100
AcDbLinetypeTableRecord
  2
CENTER
 70
     0
  3
Center ____ _ ____ _ ____ _ ____ _ ____ _ ____
 72
    65
 73
     4
 40
50.8
 49
31.75
 74
     0
 49
-6.349999999999997
 74
     0
 49
6.349999999999997
 74
     0
 49
-6.349999999999997
 74
     0
  0
LTYPE
  5
685F
330
5
100
AcDbSymbolTableRecord
100
AcDbLinetypeTableRecord
  2
PHANTOM
 70
     0
  3
Phantom ______  __  __  ______  __  __  ______
 72
    65
 73
     6
 40
63.5
 49
31.75
 74
     0
 49
-6.349999999999997
 74
     0
 49
6.349999999999997
 74
     0
 49
-6.349999999999997
 74
     0
 49
6.349999999999997
 74
     0
 49
-6.349999999999997
 74
     0
  0
LTYPE
  5
6FA1
330
5
100
AcDbSymbolTableRecord
100
AcDbLinetypeTableRecord
  2
HIDDEN
 70
     0
  3
_ _ _ _ _ _ _ _ _ _ _ _ _ _ _ _ _ _ _ _ _ _ _
 72
    65
 73
     2
 40
0.5
 49
0.25
 74
     0
 49
-0.25
 74
     0
  0
ENDTAB
  0
TABLE
  2
LAYER
  5
2
330
0
100
AcDbSymbolTable
 70
    13
  0
LAYER
  5
10
330
2
100
AcDbSymbolTableRecord
100
AcDbLayerTableRecord
  2
0
 70
     0
 62
     7
  6
CONTINOUS
  0
LAYER
  5
2F
330
2
100
AcDbSymbolTableRecord
100
AcDbLayerTableRecord
  2
10
 70
     0
 62
     4
  6
CONTINOUS
  0
LAYER
  5
31
330
2
100
AcDbSymbolTableRecord
100
AcDbLayerTableRecord
  2
12
 70
     0
 62
     3
  6
CONTINOUS
  0
LAYER
  5
35
330
2
100
AcDbSymbolTableRecord
100
AcDbLayerTableRecord
  2
16
 70
     0
 62
     6
  6
DASHDOT
  0
LAYER
  5
38
330
2
100
AcDbSymbolTableRecord
100
AcDbLayerTableRecord
  2
19
 70
     0
 62
     7
  6
CONTINOUS
  0
LAYER
  5
3D
330
2
100
AcDbSymbolTableRecord
100
AcDbLayerTableRecord
  2
24
 70
     0
 62
     2
  6
CONTINOUS
  0
LAYER
  5
3A2
330
2
100
AcDbSymbolTableRecord
100
AcDbLayerTableRecord
  2
30
 70
     0
 62
     9
  6
CONTINUOUS
  0
LAYER
  5
3A4
330
2
100
AcDbSymbolTableRecord
100
AcDbLayerTableRecord
  2
DEFPOINTS
 70
     0
 62
     7
  6
CONTINUOUS
  0
LAYER
  5
3BBA
330
2
100
AcDbSymbolTableRecord
100
AcDbLayerTableRecord
  2
18
 70
     0
 62
     5
  6
DIVIDE
  0
LAYER
  5
67A8
330
2
100
AcDbSymbolTableRecord
100
AcDbLayerTableRecord
  2
11
 70
     0
 62
     1
  6
CONTINOUS
  0
LAYER
  5
7837
330
2
100
AcDbSymbolTableRecord
100
AcDbLayerTableRecord
  2
17
 70
     0
 62
     2
  6
DASHDOT
  0
LAYER
  5
7BC8
330
2
100
AcDbSymbolTableRecord
100
AcDbLayerTableRecord
  2
1
 70
     0
 62
     7
  6
CONTINUOUS
  0
LAYER
  5
7BC9
330
2
100
AcDbSymbolTableRecord
100
AcDbLayerTableRecord
  2
2
 70
     0
 62
     7
  6
CONTINUOUS
  0
ENDTAB
  0
TABLE
  2
STYLE
  5
3
330
0
100
AcDbSymbolTable
 70
     4
  0
STYLE
  5
11
330
3
100
AcDbSymbolTableRecord
100
AcDbTextStyleTableRecord
  2
STANDARD
 70
     0
 40
0.0
 41
1.0
 50
0.0
 71
     0
 42
2.0
  3
txt.shx
  4
bigfont.shx
  0
STYLE
  5
42
330
3
100
AcDbSymbolTableRecord
100
AcDbTextStyleTableRecord
  2
STANDARD1
 70
     0
 40
0.0
 41
1.0
 50
0.0
 71
     0
 42
5.0
  3
MONOTXT
  4
BIGFONT
  0
STYLE
  5
6861
330
3
100
AcDbSymbolTableRecord
100
AcDbTextStyleTableRecord
  2
MX_NOTE_STANDARD
 70
     0
 40
0.0
 41
1.0
 50
0.0
 71
     0
 42
5.891046
  3
txt.shx
  4
extfont.shx
  0
STYLE
  5
6D9B
330
3
100
AcDbSymbolTableRecord
100
AcDbTextStyleTableRecord
  2
UGMTXT
 70
     0
 40
0.0
 41
1.0
 50
0.0
 71
     0
 42
0.2
  3
ugmtxt
  4
bigfont
  0
ENDTAB
  0
TABLE
  2
VIEW
  5
6
330
0
100
AcDbSymbolTable
 70
     3
  0
VIEW
  5
230C
330
6
100
AcDbSymbolTableRecord
100
AcDbViewTableRecord
  2
OLE1
 70
     0
 40
148.912488
 10
429.497628
 20
2.560627
 41
103.145806
 11
0.0
 21
0.0
 31
1.0
 12
0.0
 22
0.0
 32
0.0
 42
50.0
 43
0.0
 44
0.0
 50
0.0
 71
     0
  0
VIEW
  5
230E
330
6
100
AcDbSymbolTableRecord
100
AcDbViewTableRecord
  2
OLE2
 70
     0
 40
170.778692
 10
322.66497
 20
-5.978304
 41
102.467215
 11
0.0
 21
0.0
 31
1.0
 12
0.0
 22
0.0
 32
0.0
 42
50.0
 43
0.0
 44
0.0
 50
0.0
 71
     0
  0
VIEW
  5
23AA
330
6
100
AcDbSymbolTableRecord
100
AcDbViewTableRecord
  2
OLE3
 70
     0
 40
591.7897389999998
 10
84.79698199999999
 20
-46.09335999999998
 41
388.792096
 11
0.0
 21
0.0
 31
1.0
 12
0.0
 22
0.0
 32
0.0
 42
50.0
 43
0.0
 44
0.0
 50
0.0
 71
     0
  0
ENDTAB
  0
TABLE
  2
UCS
  5
7
330
0
100
AcDbSymbolTable
 70
     0
  0
ENDTAB
  0
TABLE
  2
APPID
  5
9
330
0
100
AcDbSymbolTable
 70
     2
  0
APPID
  5
12
330
9
100
AcDbSymbolTableRecord
100
AcDbRegAppTableRecord
  2
ACAD
 70
     0
  0
APPID
  5
ECD
330
9
100
AcDbSymbolTableRecord
100
AcDbRegAppTableRecord
  2
CONTENTBLOCKICON
 70
     0
  0
ENDTAB
  0
TABLE
  2
DIMSTYLE
  5
A
330
0
100
AcDbSymbolTable
 70
     1
  0
DIMSTYLE
105
175
102
{ACAD_REACTORS
330
7671
330
767E
330
7694
330
76A8
330
76B5
330
76C3
330
76D0
330
76DD
330
772F
330
773C
330
7749
330
7895
330
78B0
330
78C5
330
7B7C
330
7771
330
7BE2
330
7CAD
330
7CBA
330
7CC7
330
7CD4
330
7DAE
330
7E23
102
}
330
A
100
AcDbSymbolTableRecord
100
AcDbDimStyleTableRecord
  2
STANDARD
 70
     0
  3

  4

  5
OPEN
  6

  7

 40
1.0
 41
2.0
 42
1.0
 43
0.5
 44
0.5
 45
0.0
 46
0.0
 47
0.0
 48
0.0
140
4.0
141
0.09
142
0.0
143
25.4
144
1.0
145
0.0
146
1.0
147
1.0
 71
     0
 72
     0
 73
     0
 74
     1
 75
     0
 76
     0
 77
     3
 78
    12
170
     0
171
     2
172
     0
173
     0
174
     0
175
     0
176
     0
177
     0
178
     0
270
     2
271
     1
272
     1
273
     2
274
     2
340
11
275
     0
280
     0
281
     0
282
     0
283
     1
284
     0
285
     0
286
     0
287
     3
288
     0
  0
ENDTAB
  0
TABLE
  2
BLOCK_RECORD
  5
1
330
0
100
AcDbSymbolTable
 70
    44
  0
BLOCK_RECORD
  5
1E
102
{ACAD_XDICTIONARY
360
178
102
}
330
1
100
AcDbSymbolTableRecord
100
AcDbBlockTableRecord
  2
*MODEL_SPACE
  0
BLOCK_RECORD
  5
1A
102
{ACAD_XDICTIONARY
360
17A
102
}
330
1
100
AcDbSymbolTableRecord
100
AcDbBlockTableRecord
  2
*PAPER_SPACE
  0
BLOCK_RECORD
  5
3B2
330
1
100
AcDbSymbolTableRecord
100
AcDbBlockTableRecord
  2
_OPEN
  0
BLOCK_RECORD
  5
676A
330
1
100
AcDbSymbolTableRecord
100
AcDbBlockTableRecord
  2
_OPEN30
  0
BLOCK_RECORD
  5
6D9C
330
1
100
AcDbSymbolTableRecord
100
AcDbBlockTableRecord
  2
A$C21544DCF
  0
BLOCK_RECORD
  5
725D
330
1
100
AcDbSymbolTableRecord
100
AcDbBlockTableRecord
  2
A$C15744025
  0
BLOCK_RECORD
  5
7672
330
1
100
AcDbSymbolTableRecord
100
AcDbBlockTableRecord
  2
*D4
  0
BLOCK_RECORD
  5
767F
330
1
100
AcDbSymbolTableRecord
100
AcDbBlockTableRecord
  2
*D5
  0
BLOCK_RECORD
  5
7695
330
1
100
AcDbSymbolTableRecord
100
AcDbBlockTableRecord
  2
*D6
  0
BLOCK_RECORD
  5
76A9
330
1
100
AcDbSymbolTableRecord
100
AcDbBlockTableRecord
  2
*D7
  0
BLOCK_RECORD
  5
76B6
330
1
100
AcDbSymbolTableRecord
100
AcDbBlockTableRecord
  2
*D8
  0
BLOCK_RECORD
  5
76C4
330
1
100
AcDbSymbolTableRecord
100
AcDbBlockTableRecord
  2
*D9
  0
BLOCK_RECORD
  5
76D1
330
1
100
AcDbSymbolTableRecord
100
AcDbBlockTableRecord
  2
*D10
  0
BLOCK_RECORD
  5
76DE
330
1
100
AcDbSymbolTableRecord
100
AcDbBlockTableRecord
  2
*D11
  0
BLOCK_RECORD
  5
770D
330
1
100
AcDbSymbolTableRecord
100
AcDbBlockTableRecord
  2
*D12
  0
BLOCK_RECORD
  5
7723
330
1
100
AcDbSymbolTableRecord
100
AcDbBlockTableRecord
  2
*D13
  0
BLOCK_RECORD
  5
7730
330
1
100
AcDbSymbolTableRecord
100
AcDbBlockTableRecord
  2
*D14
  0
BLOCK_RECORD
  5
773D
330
1
100
AcDbSymbolTableRecord
100
AcDbBlockTableRecord
  2
*D15
  0
BLOCK_RECORD
  5
774A
330
1
100
AcDbSymbolTableRecord
100
AcDbBlockTableRecord
  2
*D16
  0
BLOCK_RECORD
  5
7758
330
1
100
AcDbSymbolTableRecord
100
AcDbBlockTableRecord
  2
*D17
  0
BLOCK_RECORD
  5
7765
330
1
100
AcDbSymbolTableRecord
100
AcDbBlockTableRecord
  2
*D18
  0
BLOCK_RECORD
  5
7772
330
1
100
AcDbSymbolTableRecord
100
AcDbBlockTableRecord
  2
*D19
  0
BLOCK_RECORD
  5
77D6
330
1
100
AcDbSymbolTableRecord
100
AcDbBlockTableRecord
  2
*D20
  0
BLOCK_RECORD
  5
77EC
330
1
100
AcDbSymbolTableRecord
100
AcDbBlockTableRecord
  2
*D21
  0
BLOCK_RECORD
  5
780B
330
1
100
AcDbSymbolTableRecord
100
AcDbBlockTableRecord
  2
*D22
  0
BLOCK_RECORD
  5
7818
330
1
100
AcDbSymbolTableRecord
100
AcDbBlockTableRecord
  2
*D23
  0
BLOCK_RECORD
  5
7896
330
1
100
AcDbSymbolTableRecord
100
AcDbBlockTableRecord
  2
*D24
  0
BLOCK_RECORD
  5
78B1
330
1
100
AcDbSymbolTableRecord
100
AcDbBlockTableRecord
  2
*D25
  0
BLOCK_RECORD
  5
78C6
330
1
100
AcDbSymbolTableRecord
100
AcDbBlockTableRecord
  2
*D26
  0
BLOCK_RECORD
  5
7AF2
330
1
100
AcDbSymbolTableRecord
100
AcDbBlockTableRecord
  2
*D27
  0
BLOCK_RECORD
  5
7B60
330
1
100
AcDbSymbolTableRecord
100
AcDbBlockTableRecord
  2
*D28
  0
BLOCK_RECORD
  5
7B6B
330
1
100
AcDbSymbolTableRecord
100
AcDbBlockTableRecord
  2
*D29
  0
BLOCK_RECORD
  5
7B7E
330
1
100
AcDbSymbolTableRecord
100
AcDbBlockTableRecord
  2
*D30
  0
BLOCK_RECORD
  5
7B89
330
1
100
AcDbSymbolTableRecord
100
AcDbBlockTableRecord
  2
*D31
  0
BLOCK_RECORD
  5
7BE3
330
1
100
AcDbSymbolTableRecord
100
AcDbBlockTableRecord
  2
*D32
  0
BLOCK_RECORD
  5
7BEF
330
1
100
AcDbSymbolTableRecord
100
AcDbBlockTableRecord
  2
*D33
  0
BLOCK_RECORD
  5
7C65
330
1
100
AcDbSymbolTableRecord
100
AcDbBlockTableRecord
  2
*D34
  0
BLOCK_RECORD
  5
7CAE
330
1
100
AcDbSymbolTableRecord
100
AcDbBlockTableRecord
  2
*D35
  0
BLOCK_RECORD
  5
7CBB
330
1
100
AcDbSymbolTableRecord
100
AcDbBlockTableRecord
  2
*D36
  0
BLOCK_RECORD
  5
7CC8
330
1
100
AcDbSymbolTableRecord
100
AcDbBlockTableRecord
  2
*D37
  0
BLOCK_RECORD
  5
7CD5
330
1
100
AcDbSymbolTableRecord
100
AcDbBlockTableRecord
  2
*D38
  0
BLOCK_RECORD
  5
7CE3
330
1
100
AcDbSymbolTableRecord
100
AcDbBlockTableRecord
  2
*D39
  0
BLOCK_RECORD
  5
7D61
330
1
100
AcDbSymbolTableRecord
100
AcDbBlockTableRecord
  2
*D40
  0
BLOCK_RECORD
  5
7DAF
330
1
100
AcDbSymbolTableRecord
100
AcDbBlockTableRecord
  2
*D41
  0
BLOCK_RECORD
  5
7E24
330
1
100
AcDbSymbolTableRecord
100
AcDbBlockTableRecord
  2
*D42
  0
ENDTAB
  0
ENDSEC
  0
SECTION
  2
BLOCKS
  0
BLOCK
  5
1F
330
1E
100
AcDbEntity
  8
0
100
AcDbBlockBegin
  2
*MODEL_SPACE
 70
     0
 10
0.0
 20
0.0
 30
0.0
  3
*MODEL_SPACE
  1

  0
ENDBLK
  5
20
330
1E
100
AcDbEntity
  8
0
100
AcDbBlockEnd
  0
BLOCK
  5
1B
330
1A
100
AcDbEntity
 67
     1
  8
0
100
AcDbBlockBegin
  2
*PAPER_SPACE
 70
     0
 10
0.0
 20
0.0
 30
0.0
  3
*PAPER_SPACE
  1

  0
ENDBLK
  5
1C
330
1A
100
AcDbEntity
 67
     1
  8
0
100
AcDbBlockEnd
  0
BLOCK
  5
3B6
330
3B2
100
AcDbEntity
  8
0
100
AcDbBlockBegin
  2
_OPEN
 70
     0
 10
0.0
 20
0.0
 30
0.0
  3
_OPEN
  1

  0
LINE
  5
3B3
330
3B2
100
AcDbEntity
  8
30
  6
CONTINUOUS
 62
     0
100
AcDbLine
 10
-1.0
 20
0.166667
 30
0.0
 11
0.0
 21
0.0
 31
0.0
  0
LINE
  5
3B4
330
3B2
100
AcDbEntity
  8
30
  6
CONTINUOUS
 62
     0
100
AcDbLine
 10
-1.0
 20
-0.166667
 30
0.0
 11
0.0
 21
0.0
 31
0.0
  0
LINE
  5
3B5
330
3B2
100
AcDbEntity
  8
30
  6
CONTINUOUS
 62
     0
100
AcDbLine
 10
0.0
 20
0.0
 30
0.0
 11
-1.0
 21
0.0
 31
0.0
  0
ENDBLK
  5
3B7
330
3B2
100
AcDbEntity
  8
0
100
AcDbBlockEnd
  0
BLOCK
  5
676E
330
676A
100
AcDbEntity
  8
0
100
AcDbBlockBegin
  2
_OPEN30
 70
     0
 10
0.0
 20
0.0
 30
0.0
  3
_OPEN30
  1

  0
LINE
  5
676B
330
676A
100
AcDbEntity
  8
0
  6
BYBLOCK
 62
     0
100
AcDbLine
 10
-1.0
 20
0.26794919
 30
0.0
 11
0.0
 21
0.0
 31
0.0
  0
LINE
  5
676C
330
676A
100
AcDbEntity
  8
0
  6
BYBLOCK
 62
     0
100
AcDbLine
 10
0.0
 20
0.0
 30
0.0
 11
-1.0
 21
-0.26794919
 31
0.0
  0
LINE
  5
676D
330
676A
100
AcDbEntity
  8
0
  6
BYBLOCK
 62
     0
100
AcDbLine
 10
0.0
 20
0.0
 30
0.0
 11
-1.0
 21
0.0
 31
0.0
  0
ENDBLK
  5
676F
330
676A
100
AcDbEntity
  8
0
100
AcDbBlockEnd
  0
BLOCK
  5
6E0C
330
6D9C
100
AcDbEntity
  8
0
100
AcDbBlockBegin
  2
A$C21544DCF
 70
     0
 10
0.0
 20
0.0
 30
0.0
  3
A$C21544DCF
  1

  0
LINE
  5
6D9D
330
6D9C
100
AcDbEntity
  8
0
  6
CONTINUOUS
100
AcDbLine
 10
0.0
 20
92.5
 30
0.0
 11
0.0
 21
-92.5
 31
0.0
  0
LINE
  5
6D9E
330
6D9C
100
AcDbEntity
  8
0
  6
CONTINUOUS
100
AcDbLine
 10
-52.5
 20
82.5
 30
0.0
 11
-52.5
 21
-82.5
 31
0.0
  0
LINE
  5
6D9F
330
6D9C
100
AcDbEntity
  8
0
  6
CONTINUOUS
100
AcDbLine
 10
52.5
 20
-82.5
 30
0.0
 11
52.5
 21
82.5
 31
0.0
  0
ARC
  5
6DA0
330
6D9C
100
AcDbEntity
  8
0
  6
CONTINUOUS
100
AcDbCircle
 10
28.0
 20
-65.0
 30
0.0
 40
5.0
210
0.0
220
0.0
230
-1.0
100
AcDbArc
 50
90.0
 51
180.0
  0
LINE
  5
6DA1
330
6D9C
100
AcDbEntity
  8
0
  6
CONTINUOUS
100
AcDbLine
 10
-49.0
 20
-25.0
 30
0.0
 11
49.0
 21
-25.0
 31
0.0
  0
LINE
  5
6DA2
330
6D9C
100
AcDbEntity
  8
0
  6
CONTINUOUS
100
AcDbLine
 10
-49.0
 20
25.0
 30
0.0
 11
49.0
 21
25.0
 31
0.0
  0
LINE
  5
6DA3
330
6D9C
100
AcDbEntity
  8
0
  6
CONTINUOUS
100
AcDbLine
 10
-52.5
 20
-51.0
 30
0.0
 11
47.0
 21
-51.0
 31
0.0
  0
LINE
  5
6DA4
330
6D9C
100
AcDbEntity
  8
0
  6
CONTINUOUS
100
AcDbLine
 10
-52.5
 20
-82.5
 30
0.0
 11
47.0
 21
-82.5
 31
0.0
  0
LINE
  5
6DA5
330
6D9C
100
AcDbEntity
  8
0
  6
CONTINUOUS
100
AcDbLine
 10
-57.5
 20
0.0
 30
0.0
 11
58.2251927359449
 21
0.0
 31
0.0
  0
LINE
  5
6DA6
330
6D9C
100
AcDbEntity
  8
0
  6
CONTINUOUS
100
AcDbLine
 10
-49.0
 20
-25.0
 30
0.0
 11
49.0
 21
-25.0
 31
0.0
  0
CIRCLE
  5
6DA7
330
6D9C
100
AcDbEntity
  8
0
  6
CONTINUOUS
100
AcDbCircle
 10
-35.0
 20
-72.0
 30
0.0
 40
5.0
  0
LINE
  5
6DA8
330
6D9C
100
AcDbEntity
  8
0
  6
CONTINUOUS
100
AcDbLine
 10
-47.0
 20
-82.5
 30
0.0
 11
-47.0
 21
-65.0
 31
0.0
  0
LINE
  5
6DA9
330
6D9C
100
AcDbEntity
  8
0
  6
CONTINUOUS
100
AcDbLine
 10
-35.0
 20
-65.0
 30
0.0
 11
-35.0
 21
-79.0
 31
0.0
  0
LINE
  5
6DAA
330
6D9C
100
AcDbEntity
  8
0
  6
CONTINUOUS
100
AcDbLine
 10
-49.0
 20
25.0
 30
0.0
 11
-49.0
 21
-25.0
 31
0.0
  0
ARC
  5
6DAB
330
6D9C
100
AcDbEntity
  8
0
  6
CONTINUOUS
100
AcDbCircle
 10
42.0
 20
-65.0
 30
0.0
 40
5.0
210
0.0
220
0.0
230
-1.0
100
AcDbArc
 50
0.0
 51
90.0
  0
LINE
  5
6DAC
330
6D9C
100
AcDbEntity
  8
0
  6
CONTINUOUS
100
AcDbLine
 10
-42.0
 20
-72.0
 30
0.0
 11
-28.0
 21
-72.0
 31
0.0
  0
LINE
  5
6DAD
330
6D9C
100
AcDbEntity
  8
0
  6
CONTINUOUS
100
AcDbLine
 10
-28.0
 20
-60.0
 30
0.0
 11
-42.0
 21
-60.0
 31
0.0
  0
CIRCLE
  5
6DAE
330
6D9C
100
AcDbEntity
  8
0
  6
CONTINUOUS
100
AcDbCircle
 10
35.0
 20
-72.0
 30
0.0
 40
5.0
  0
CIRCLE
  5
6DAF
330
6D9C
100
AcDbEntity
  8
0
  6
CONTINUOUS
100
AcDbCircle
 10
0.0
 20
-72.0
 30
0.0
 40
5.0
  0
LINE
  5
6DB0
330
6D9C
100
AcDbEntity
  8
0
  6
CONTINUOUS
100
AcDbLine
 10
-23.0
 20
-82.5
 30
0.0
 11
-23.0
 21
-65.0
 31
0.0
  0
LINE
  5
6DB1
330
6D9C
100
AcDbEntity
  8
0
  6
CONTINUOUS
100
AcDbLine
 10
12.0
 20
-82.5
 30
0.0
 11
12.0
 21
-65.0
 31
0.0
  0
LINE
  5
6DB2
330
6D9C
100
AcDbEntity
  8
0
  6
CONTINUOUS
100
AcDbLine
 10
-12.0
 20
-82.5
 30
0.0
 11
-12.0
 21
-65.0
 31
0.0
  0
LINE
  5
6DB3
330
6D9C
100
AcDbEntity
  8
0
  6
CONTINUOUS
100
AcDbLine
 10
47.0
 20
-82.5
 30
0.0
 11
47.0
 21
-65.0
 31
0.0
  0
LINE
  5
6DB4
330
6D9C
100
AcDbEntity
  8
0
  6
CONTINUOUS
100
AcDbLine
 10
23.0
 20
-82.5
 30
0.0
 11
23.0
 21
-65.0
 31
0.0
  0
LINE
  5
6DB5
330
6D9C
100
AcDbEntity
  8
0
  6
CONTINUOUS
100
AcDbLine
 10
35.0
 20
-65.0
 30
0.0
 11
35.0
 21
-79.0
 31
0.0
  0
LINE
  5
6DB6
330
6D9C
100
AcDbEntity
  8
0
  6
CONTINUOUS
100
AcDbLine
 10
49.0
 20
-25.0
 30
0.0
 11
49.0
 21
-131.5101879612343
 31
0.0
  0
LINE
  5
6DB7
330
6D9C
100
AcDbEntity
  8
0
  6
CONTINUOUS
100
AcDbLine
 10
47.0
 20
-25.0
 30
0.0
 11
47.0
 21
-131.5214696541707
 31
0.0
  0
LINE
  5
6DB8
330
6D9C
100
AcDbEntity
  8
0
  6
CONTINUOUS
100
AcDbLine
 10
48.0
 20
-149.845960942616
 30
0.0
 11
48.0
 21
-153.845960942616
 31
0.0
  0
LINE
  5
6DB9
330
6D9C
100
AcDbEntity
  8
0
  6
CONTINUOUS
100
AcDbLine
 10
47.0
 20
-134.5214696541707
 30
0.0
 11
47.0
 21
-153.845960942616
 31
0.0
  0
LINE
  5
6DBA
330
6D9C
100
AcDbEntity
  8
0
  6
CONTINUOUS
100
AcDbLine
 10
49.0
 20
-134.5101879612343
 30
0.0
 11
49.0
 21
-153.845960942616
 31
0.0
  0
SPLINE
  5
6DBB
330
6D9C
100
AcDbEntity
  8
0
  6
CONTINUOUS
100
AcDbSpline
210
0.0
220
0.0
230
1.0
 70
     8
 71
     3
 72
    12
 73
     8
 74
     0
 42
0.0000000001
 43
0.0000000001
 40
0.0
 40
0.0
 40
0.0
 40
0.0
 40
0.25
 40
0.5
 40
0.75
 40
0.9027560157721172
 40
1.0
 40
1.0
 40
1.0
 40
1.0
 10
49.0
 20
-153.845960942616
 30
0.0
 10
49.15692719906866
 20
-155.0345150325693
 30
0.0
 10
49.37589598553778
 20
-155.9207784093739
 30
0.0
 10
49.76687264274589
 20
-157.0318195661038
 30
0.0
 10
50.35438487459838
 20
-158.4317914732045
 30
0.0
 10
50.65699082607824
 20
-159.2027110017873
 30
0.0
 10
50.9174311296145
 20
-159.8815494359974
 30
0.0
 10
51.10274862781523
 20
-160.4220588057494
 30
0.0
  0
SPLINE
  5
6DBC
330
6D9C
100
AcDbEntity
  8
0
  6
CONTINUOUS
100
AcDbSpline
210
0.0
220
0.0
230
1.0
 70
     8
 71
     3
 72
    12
 73
     8
 74
     0
 42
0.0000000001
 43
0.0000000001
 40
0.0
 40
0.0
 40
0.0
 40
0.0
 40
0.25
 40
0.5
 40
0.75
 40
0.9027560157721172
 40
1.0
 40
1.0
 40
1.0
 40
1.0
 10
47.0
 20
-153.845960942616
 30
0.0
 10
46.84307280093134
 20
-155.0345150325693
 30
0.0
 10
46.6241040144622
 20
-155.9207784093739
 30
0.0
 10
46.23312735725408
 20
-157.0318195661038
 30
0.0
 10
45.64561512540166
 20
-158.4317914732045
 30
0.0
 10
45.34300917392175
 20
-159.2027110017873
 30
0.0
 10
45.0825688703855
 20
-159.8815494359974
 30
0.0
 10
44.8972513721848
 20
-160.4220588057494
 30
0.0
  0
ARC
  5
6DBD
330
6D9C
100
AcDbEntity
  8
0
  6
CONTINUOUS
100
AcDbCircle
 10
48.0
 20
-161.545960942616
 30
0.0
 40
3.299999999999998
100
AcDbArc
 50
160.0881997351804
 51
19.91180026481925
  0
CIRCLE
  5
6DBE
330
6D9C
100
AcDbEntity
  8
0
  6
CONTINUOUS
100
AcDbCircle
 10
48.0
 20
-161.545960942616
 30
0.0
 40
2.149999999999999
  0
LINE
  5
6DBF
330
6D9C
100
AcDbEntity
  8
0
  6
CONTINUOUS
100
AcDbLine
 10
47.0
 20
-153.845960942616
 30
0.0
 11
49.0
 21
-153.845960942616
 31
0.0
  0
LINE
  5
6DC0
330
6D9C
100
AcDbEntity
  8
0
  6
CONTINUOUS
100
AcDbLine
 10
47.0
 20
-149.845960942616
 30
0.0
 11
49.0
 21
-149.845960942616
 31
0.0
  0
SPLINE
  5
6DC1
330
6D9C
100
AcDbEntity
  8
0
  6
CONTINUOUS
100
AcDbSpline
210
0.0
220
0.0
230
1.0
 70
     8
 71
     3
 72
     8
 73
     4
 74
     0
 42
0.0000000001
 43
0.0000000001
 40
0.0
 40
0.0
 40
0.0
 40
0.0
 40
1.0
 40
1.0
 40
1.0
 40
1.0
 10
47.00000000073258
 20
-134.5214696541707
 30
0.0
 10
47.5463266700256
 20
-133.5619339293595
 30
0.0
 10
48.48752698565374
 20
-135.8187863795232
 30
0.0
 10
49.00000000116675
 20
-134.5101879612343
 30
0.0
  0
SPLINE
  5
6DC2
330
6D9C
100
AcDbEntity
  8
0
  6
CONTINUOUS
100
AcDbSpline
210
0.0
220
0.0
230
1.0
 70
     8
 71
     3
 72
     8
 73
     4
 74
     0
 42
0.0000000001
 43
0.0000000001
 40
0.0
 40
0.0
 40
0.0
 40
0.0
 40
1.0
 40
1.0
 40
1.0
 40
1.0
 10
47.00000000073258
 20
-131.5214696541707
 30
0.0
 10
47.5463266700256
 20
-130.5619339293595
 30
0.0
 10
48.48752698565374
 20
-132.8187863795232
 30
0.0
 10
49.00000000116675
 20
-131.5101879612343
 30
0.0
  0
LINE
  5
6DC3
330
6D9C
100
AcDbEntity
  8
0
  6
CONTINUOUS
100
AcDbLine
 10
49.0
 20
-82.5
 30
0.0
 11
52.5
 21
-82.5
 31
0.0
  0
LINE
  5
6DC4
330
6D9C
100
AcDbEntity
  8
0
  6
CONTINUOUS
100
AcDbLine
 10
-11.0
 20
25.0
 30
0.0
 11
-11.0
 21
-25.0
 31
0.0
  0
LINE
  5
6DC5
330
6D9C
100
AcDbEntity
  8
0
  6
CONTINUOUS
100
AcDbLine
 10
11.0
 20
25.0
 30
0.0
 11
11.0
 21
-25.0
 31
0.0
  0
LINE
  5
6DC6
330
6D9C
100
AcDbEntity
  8
0
  6
CONTINUOUS
100
AcDbLine
 10
49.0
 20
25.0
 30
0.0
 11
49.0
 21
-25.0
 31
0.0
  0
CIRCLE
  5
6DC7
330
6D9C
100
AcDbEntity
  8
0
  6
CONTINUOUS
100
AcDbCircle
 10
17.5
 20
-63.0
 30
0.0
 40
4.0
  0
LINE
  5
6DC8
330
6D9C
100
AcDbEntity
  8
0
  6
CONTINUOUS
100
AcDbLine
 10
12.0
 20
-63.0
 30
0.0
 11
23.0
 21
-63.0
 31
0.0
  0
LINE
  5
6DC9
330
6D9C
100
AcDbEntity
  8
0
  6
CONTINUOUS
100
AcDbLine
 10
7.0
 20
-60.0
 30
0.0
 11
-7.0
 21
-60.0
 31
0.0
  0
LINE
  5
6DCA
330
6D9C
100
AcDbEntity
  8
0
  6
CONTINUOUS
100
AcDbLine
 10
-7.0
 20
-72.0
 30
0.0
 11
7.0
 21
-72.0
 31
0.0
  0
ARC
  5
6DCB
330
6D9C
100
AcDbEntity
  8
0
  6
CONTINUOUS
100
AcDbCircle
 10
7.0
 20
-65.0
 30
0.0
 40
5.0
210
0.0
220
0.0
230
-1.0
100
AcDbArc
 50
0.0
 51
90.0
  0
ARC
  5
6DCC
330
6D9C
100
AcDbEntity
  8
0
  6
CONTINUOUS
100
AcDbCircle
 10
-7.0
 20
-65.0
 30
0.0
 40
5.0
210
0.0
220
0.0
230
-1.0
100
AcDbArc
 50
90.0
 51
180.0
  0
LINE
  5
6DCD
330
6D9C
100
AcDbEntity
  8
0
  6
CONTINUOUS
100
AcDbLine
 10
17.5
 20
-57.5
 30
0.0
 11
17.5
 21
-68.5
 31
0.0
  0
LINE
  5
6DCE
330
6D9C
100
AcDbEntity
  8
0
  6
CONTINUOUS
100
AcDbLine
 10
42.0
 20
-60.0
 30
0.0
 11
28.0
 21
-60.0
 31
0.0
  0
LINE
  5
6DCF
330
6D9C
100
AcDbEntity
  8
0
  6
CONTINUOUS
100
AcDbLine
 10
28.0
 20
-72.0
 30
0.0
 11
42.0
 21
-72.0
 31
0.0
  0
ARC
  5
6DD0
330
6D9C
100
AcDbEntity
  8
0
  6
CONTINUOUS
100
AcDbCircle
 10
-28.0
 20
-65.0
 30
0.0
 40
5.0
210
0.0
220
0.0
230
-1.0
100
AcDbArc
 50
0.0
 51
90.0
  0
ARC
  5
6DD1
330
6D9C
100
AcDbEntity
  8
0
  6
CONTINUOUS
100
AcDbCircle
 10
-42.0
 20
-65.0
 30
0.0
 40
5.0
210
0.0
220
0.0
230
-1.0
100
AcDbArc
 50
90.0
 51
180.0
  0
LINE
  5
6DD2
330
6D9C
100
AcDbEntity
  8
0
  6
CONTINUOUS
100
AcDbLine
 10
49.0
 20
-51.0
 30
0.0
 11
52.5
 21
-51.0
 31
0.0
  0
LINE
  5
6DD3
330
6D9C
100
AcDbEntity
  8
0
  6
CONTINUOUS
100
AcDbLine
 10
-7.0
 20
-18.5
 30
0.0
 11
-6.999999999999943
 21
20.15486870581022
 31
0.0
  0
LINE
  5
6DD4
330
6D9C
100
AcDbEntity
  8
0
  6
CONTINUOUS
100
AcDbLine
 10
7.0
 20
-18.5
 30
0.0
 11
7.000000000000056
 21
20.15486870581028
 31
0.0
  0
LINE
  5
6DD5
330
6D9C
100
AcDbEntity
  8
0
  6
CONTINUOUS
100
AcDbLine
 10
-7.0
 20
-18.5
 30
0.0
 11
7.0
 21
-18.5
 31
0.0
  0
LINE
  5
6DD6
330
6D9C
100
AcDbEntity
  8
0
  6
CONTINUOUS
100
AcDbLine
 10
7.0
 20
6.840789306861521
 30
0.0
 11
-6.999999999999147
 21
6.84078930686158
 31
0.0
  0
LINE
  5
6DD7
330
6D9C
100
AcDbEntity
  8
0
  6
CONTINUOUS
100
AcDbLine
 10
7.0
 20
20.15486870581028
 30
0.0
 11
-7.000000000000909
 21
20.15486870581022
 31
0.0
  0
LINE
  5
6DD8
330
6D9C
100
AcDbEntity
  8
0
  6
CONTINUOUS
100
AcDbLine
 10
7.0
 20
15.23995644007664
 30
0.0
 11
-7.0
 21
15.23995644007664
 31
0.0
  0
LINE
  5
6DD9
330
6D9C
100
AcDbEntity
  8
0
  6
CONTINUOUS
100
AcDbLine
 10
31.10000000000002
 20
10.0495722744776
 30
0.0
 11
31.10000000000002
 21
-6.431389353983262
 31
0.0
  0
LINE
  5
6DDA
330
6D9C
100
AcDbEntity
  8
0
  6
CONTINUOUS
100
AcDbLine
 10
31.60000000000001
 20
-6.33774752654889
 30
0.0
 11
31.60000000000001
 21
-16.98662646131889
 31
0.0
  0
LINE
  5
6DDB
330
6D9C
100
AcDbEntity
  8
0
  6
CONTINUOUS
100
AcDbLine
 10
27.0
 20
-7.000000000000027
 30
0.0
 11
27.0
 21
-11.00000000000002
 31
0.0
  0
LINE
  5
6DDC
330
6D9C
100
AcDbEntity
  8
0
  6
CONTINUOUS
100
AcDbLine
 10
36.19999999999999
 20
-7.000000000000027
 30
0.0
 11
36.19999999999999
 21
-11.00000000000002
 31
0.0
  0
LINE
  5
6DDD
330
6D9C
100
AcDbEntity
  8
0
  6
CONTINUOUS
100
AcDbLine
 10
27.0
 20
-12.0
 30
0.0
 11
36.2000000000001
 21
-12.0
 31
0.0
  0
LINE
  5
6DDE
330
6D9C
100
AcDbEntity
  8
0
  6
CONTINUOUS
100
AcDbLine
 10
27.0
 20
-16.0
 30
0.0
 11
36.2000000000001
 21
-16.0
 31
0.0
  0
LINE
  5
6DDF
330
6D9C
100
AcDbEntity
  8
0
  6
CONTINUOUS
100
AcDbLine
 10
25.36102323011846
 20
-14.0
 30
0.0
 11
37.44706175765649
 21
-14.0
 31
0.0
  0
LINE
  5
6DE0
330
6D9C
100
AcDbEntity
  8
0
  6
CONTINUOUS
100
AcDbLine
 10
27.0
 20
-11.0
 30
0.0
 11
36.2000000000001
 21
-11.0
 31
0.0
  0
LINE
  5
6DE1
330
6D9C
100
AcDbEntity
  8
0
  6
CONTINUOUS
100
AcDbLine
 10
27.0
 20
-12.00000000000001
 30
0.0
 11
27.0
 21
-16.00000000000003
 31
0.0
  0
LINE
  5
6DE2
330
6D9C
100
AcDbEntity
  8
0
  6
CONTINUOUS
100
AcDbLine
 10
36.19999999999999
 20
-12.00000000000001
 30
0.0
 11
36.19999999999999
 21
-16.00000000000003
 31
0.0
  0
CIRCLE
  5
6DE3
330
6D9C
100
AcDbEntity
  8
0
  6
CONTINUOUS
100
AcDbCircle
 10
31.10000000000002
 20
-1.900000000000004
 30
0.0
 40
2.5
  0
CIRCLE
  5
6DE4
330
6D9C
100
AcDbEntity
  8
0
  6
CONTINUOUS
100
AcDbCircle
 10
31.10000000000002
 20
-1.900000000000004
 30
0.0
 40
3.6
  0
LINE
  5
6DE5
330
6D9C
100
AcDbEntity
  8
0
  6
CONTINUOUS
100
AcDbLine
 10
25.4609078460486
 20
-1.900000000000004
 30
0.0
 11
36.34833098242575
 21
-1.900000000000004
 31
0.0
  0
LINE
  5
6DE6
330
6D9C
100
AcDbEntity
  8
0
  6
CONTINUOUS
100
AcDbLine
 10
27.0
 20
-7.0
 30
0.0
 11
36.2000000000001
 21
-7.0
 31
0.0
  0
LINE
  5
6DE7
330
6D9C
100
AcDbEntity
  8
0
  6
CONTINUOUS
100
AcDbLine
 10
25.36102323011846
 20
-9.0
 30
0.0
 11
37.44706175765649
 21
-9.0
 31
0.0
  0
CIRCLE
  5
6DE8
330
6D9C
100
AcDbEntity
  8
0
  6
CONTINUOUS
100
AcDbCircle
 10
31.10000000000002
 20
5.799999999999952
 30
0.0
 40
2.75
  0
LINE
  5
6DE9
330
6D9C
100
AcDbEntity
  8
0
  6
CONTINUOUS
100
AcDbLine
 10
25.4609078460486
 20
5.800000000000013
 30
0.0
 11
36.34833098242575
 21
5.800000000000013
 31
0.0
  0
ARC
  5
6DEA
330
6D9C
100
AcDbEntity
  8
0
  6
CONTINUOUS
100
AcDbCircle
 10
-28.0
 20
65.0
 30
0.0
 40
5.0
100
AcDbArc
 50
270.0
 51
0.0
  0
LINE
  5
6DEB
330
6D9C
100
AcDbEntity
  8
0
  6
CONTINUOUS
100
AcDbLine
 10
-52.5
 20
51.0
 30
0.0
 11
52.5
 21
51.0
 31
0.0
  0
LINE
  5
6DEC
330
6D9C
100
AcDbEntity
  8
0
  6
CONTINUOUS
100
AcDbLine
 10
52.5
 20
82.5
 30
0.0
 11
-52.5
 21
82.5
 31
0.0
  0
LINE
  5
6DED
330
6D9C
100
AcDbEntity
  8
0
  6
CONTINUOUS
100
AcDbLine
 10
-47.0
 20
82.5
 30
0.0
 11
-47.0
 21
65.0
 31
0.0
  0
ARC
  5
6DEE
330
6D9C
100
AcDbEntity
  8
0
  6
CONTINUOUS
100
AcDbCircle
 10
-42.0
 20
65.0
 30
0.0
 40
5.0
100
AcDbArc
 50
180.0
 51
270.0
  0
CIRCLE
  5
6DEF
330
6D9C
100
AcDbEntity
  8
0
  6
CONTINUOUS
100
AcDbCircle
 10
-35.0
 20
72.0
 30
0.0
 40
5.0
  0
LINE
  5
6DF0
330
6D9C
100
AcDbEntity
  8
0
  6
CONTINUOUS
100
AcDbLine
 10
-35.0
 20
79.0
 30
0.0
 11
-35.0
 21
65.0
 31
0.0
  0
LINE
  5
6DF1
330
6D9C
100
AcDbEntity
  8
0
  6
CONTINUOUS
100
AcDbLine
 10
-28.0
 20
60.0
 30
0.0
 11
-42.0
 21
60.0
 31
0.0
  0
LINE
  5
6DF2
330
6D9C
100
AcDbEntity
  8
0
  6
CONTINUOUS
100
AcDbLine
 10
-42.0
 20
72.0
 30
0.0
 11
-28.0
 21
72.0
 31
0.0
  0
LINE
  5
6DF3
330
6D9C
100
AcDbEntity
  8
0
  6
CONTINUOUS
100
AcDbLine
 10
-23.0
 20
82.5
 30
0.0
 11
-23.0
 21
65.0
 31
0.0
  0
LINE
  5
6DF4
330
6D9C
100
AcDbEntity
  8
0
  6
CONTINUOUS
100
AcDbLine
 10
12.0
 20
82.5
 30
0.0
 11
12.0
 21
65.0
 31
0.0
  0
LINE
  5
6DF5
330
6D9C
100
AcDbEntity
  8
0
  6
CONTINUOUS
100
AcDbLine
 10
-12.0
 20
82.5
 30
0.0
 11
-12.0
 21
65.0
 31
0.0
  0
LINE
  5
6DF6
330
6D9C
100
AcDbEntity
  8
0
  6
CONTINUOUS
100
AcDbLine
 10
23.0
 20
82.5
 30
0.0
 11
23.0
 21
65.0
 31
0.0
  0
LINE
  5
6DF7
330
6D9C
100
AcDbEntity
  8
0
  6
CONTINUOUS
100
AcDbLine
 10
47.0
 20
82.5
 30
0.0
 11
47.0
 21
65.0
 31
0.0
  0
CIRCLE
  5
6DF8
330
6D9C
100
AcDbEntity
  8
0
  6
CONTINUOUS
100
AcDbCircle
 10
0.0
 20
72.0
 30
0.0
 40
5.0
  0
LINE
  5
6DF9
330
6D9C
100
AcDbEntity
  8
0
  6
CONTINUOUS
100
AcDbLine
 10
7.0
 20
60.0
 30
0.0
 11
-7.0
 21
60.0
 31
0.0
  0
LINE
  5
6DFA
330
6D9C
100
AcDbEntity
  8
0
  6
CONTINUOUS
100
AcDbLine
 10
-7.0
 20
72.0
 30
0.0
 11
7.0
 21
72.0
 31
0.0
  0
LINE
  5
6DFB
330
6D9C
100
AcDbEntity
  8
0
  6
CONTINUOUS
100
AcDbLine
 10
-17.5
 20
68.5
 30
0.0
 11
-17.5
 21
57.5
 31
0.0
  0
ARC
  5
6DFC
330
6D9C
100
AcDbEntity
  8
0
  6
CONTINUOUS
100
AcDbCircle
 10
-7.0
 20
65.0
 30
0.0
 40
5.0
100
AcDbArc
 50
180.0
 51
270.0
  0
LINE
  5
6DFD
330
6D9C
100
AcDbEntity
  8
0
  6
CONTINUOUS
100
AcDbLine
 10
-23.0
 20
63.0
 30
0.0
 11
-12.0
 21
63.0
 31
0.0
  0
CIRCLE
  5
6DFE
330
6D9C
100
AcDbEntity
  8
0
  6
CONTINUOUS
100
AcDbCircle
 10
-17.5
 20
63.0
 30
0.0
 40
4.0
  0
ARC
  5
6DFF
330
6D9C
100
AcDbEntity
  8
0
  6
CONTINUOUS
100
AcDbCircle
 10
7.0
 20
65.0
 30
0.0
 40
5.0
100
AcDbArc
 50
270.0
 51
0.0
  0
LINE
  5
6E00
330
6D9C
100
AcDbEntity
  8
0
  6
CONTINUOUS
100
AcDbLine
 10
42.0
 20
60.0
 30
0.0
 11
28.0
 21
60.0
 31
0.0
  0
LINE
  5
6E01
330
6D9C
100
AcDbEntity
  8
0
  6
CONTINUOUS
100
AcDbLine
 10
28.0
 20
72.0
 30
0.0
 11
42.0
 21
72.0
 31
0.0
  0
CIRCLE
  5
6E02
330
6D9C
100
AcDbEntity
  8
0
  6
CONTINUOUS
100
AcDbCircle
 10
35.0
 20
72.0
 30
0.0
 40
5.0
  0
LINE
  5
6E03
330
6D9C
100
AcDbEntity
  8
0
  6
CONTINUOUS
100
AcDbLine
 10
35.0
 20
79.0
 30
0.0
 11
35.0
 21
65.0
 31
0.0
  0
ARC
  5
6E04
330
6D9C
100
AcDbEntity
  8
0
  6
CONTINUOUS
100
AcDbCircle
 10
28.0
 20
65.0
 30
0.0
 40
5.0
100
AcDbArc
 50
180.0
 51
270.0
  0
ARC
  5
6E05
330
6D9C
100
AcDbEntity
  8
0
  6
CONTINUOUS
100
AcDbCircle
 10
42.0
 20
65.0
 30
0.0
 40
5.0
100
AcDbArc
 50
270.0
 51
0.0
  0
LINE
  5
6E06
330
6D9C
100
AcDbEntity
  8
0
  6
PHANTOM
100
AcDbLine
 10
19.0
 20
129.4999999999999
 30
0.0
 11
19.0
 21
82.49999999999992
 31
0.0
  0
LINE
  5
6E07
330
6D9C
100
AcDbEntity
  8
0
  6
PHANTOM
100
AcDbLine
 10
16.0
 20
129.4999999999999
 30
0.0
 11
16.0
 21
82.49999999999992
 31
0.0
  0
LINE
  5
6E08
330
6D9C
100
AcDbEntity
  8
0
  6
PHANTOM
100
AcDbLine
 10
-16.0
 20
129.4999999999999
 30
0.0
 11
-16.0
 21
82.49999999999992
 31
0.0
  0
LINE
  5
6E09
330
6D9C
100
AcDbEntity
  8
0
  6
PHANTOM
100
AcDbLine
 10
-19.0
 20
129.4999999999999
 30
0.0
 11
-19.0
 21
82.49999999999992
 31
0.0
  0
LINE
  5
6E0A
330
6D9C
100
AcDbEntity
  8
0
  6
PHANTOM
100
AcDbLine
 10
-16.0
 20
129.4999999999999
 30
0.0
 11
-19.0
 21
129.4999999999999
 31
0.0
  0
LINE
  5
6E0B
330
6D9C
100
AcDbEntity
  8
0
  6
PHANTOM
100
AcDbLine
 10
16.0
 20
129.4999999999999
 30
0.0
 11
19.0
 21
129.4999999999999
 31
0.0
  0
ENDBLK
  5
6E0D
330
6D9C
100
AcDbEntity
  8
0
100
AcDbBlockEnd
  0
BLOCK
  5
731F
330
725D
100
AcDbEntity
  8
0
100
AcDbBlockBegin
  2
A$C15744025
 70
     0
 10
0.0
 20
0.0
 30
0.0
  3
A$C15744025
  1

  0
LINE
  5
725E
330
725D
100
AcDbEntity
  8
0
100
AcDbLine
 10
46.0
 20
-174.5
 30
0.0
 11
74.0
 21
-174.5
 31
0.0
  0
LINE
  5
725F
330
725D
100
AcDbEntity
  8
0
100
AcDbLine
 10
49.0
 20
-160.0
 30
0.0
 11
71.0
 21
-160.0
 31
0.0
  0
LINE
  5
7260
330
725D
100
AcDbEntity
  8
0
100
AcDbLine
 10
49.0
 20
160.0000000000002
 30
0.0
 11
71.0
 21
160.0000000000002
 31
0.0
  0
LINE
  5
7261
330
725D
100
AcDbEntity
  8
0
100
AcDbLine
 10
46.0
 20
174.5000000000002
 30
0.0
 11
74.0
 21
174.5000000000002
 31
0.0
  0
LINE
  5
7262
330
725D
100
AcDbEntity
  8
0
100
AcDbLine
 10
-70.00000000000007
 20
50.99999999999909
 30
0.0
 11
70.0
 21
50.99999999999909
 31
0.0
  0
LINE
  5
7263
330
725D
100
AcDbEntity
  8
0
100
AcDbLine
 10
-53.0
 20
45.0000000000001
 30
0.0
 11
53.0
 21
45.0000000000001
 31
0.0
  0
LINE
  5
7264
330
725D
100
AcDbEntity
  8
0
100
AcDbLine
 10
70.0
 20
130.0
 30
0.0
 11
-70.00000000000007
 21
130.0
 31
0.0
  0
LINE
  5
7265
330
725D
100
AcDbEntity
  8
0
100
AcDbLine
 10
-53.0
 20
-45.0
 30
0.0
 11
53.0
 21
-45.0
 31
0.0
  0
LINE
  5
7266
330
725D
100
AcDbEntity
  8
0
100
AcDbLine
 10
-75.00000000000007
 20
0.0
 30
0.0
 11
75.0
 21
0.0
 31
0.0
  0
LINE
  5
7267
330
725D
100
AcDbEntity
  8
0
100
AcDbLine
 10
36.0
 20
-114.0
 30
0.0
 11
54.0
 21
-114.0
 31
0.0
  0
LINE
  5
7268
330
725D
100
AcDbEntity
  8
0
100
AcDbLine
 10
36.0
 20
114.0000000000001
 30
0.0
 11
54.0
 21
114.0000000000001
 31
0.0
  0
LINE
  5
7269
330
725D
100
AcDbEntity
  8
0
100
AcDbLine
 10
-70.00000000000007
 20
-130.0
 30
0.0
 11
70.0
 21
-130.0
 31
0.0
  0
LINE
  5
726A
330
725D
100
AcDbEntity
  8
0
100
AcDbLine
 10
-70.00000000000007
 20
-51.0
 30
0.0
 11
70.0
 21
-51.0
 31
0.0
  0
LINE
  5
726B
330
725D
100
AcDbEntity
  8
0
100
AcDbLine
 10
0.0
 20
178.5
 30
0.0
 11
0.0
 21
-178.5
 31
0.0
  0
LINE
  5
726C
330
725D
100
AcDbEntity
  8
0
100
AcDbLine
 10
-25.49999999999977
 20
-45.0
 30
0.0
 11
-25.5
 21
45.0000000000001
 31
0.0
  0
LINE
  5
726D
330
725D
100
AcDbEntity
  8
0
100
AcDbLine
 10
25.49999999999977
 20
-45.0
 30
0.0
 11
25.49999999999977
 21
45.0000000000001
 31
0.0
  0
LINE
  5
726E
330
725D
100
AcDbEntity
  8
0
100
AcDbLine
 10
-70.00000000000007
 20
130.0
 30
0.0
 11
-70.00000000000007
 21
-130.0
 31
0.0
  0
ARC
  5
726F
330
725D
100
AcDbEntity
  8
0
100
AcDbCircle
 10
-53.0
 20
-40.0
 30
0.0
 40
5.0
100
AcDbArc
 50
180.0
 51
270.0
  0
LINE
  5
7270
330
725D
100
AcDbEntity
  8
0
100
AcDbLine
 10
-71.00000000000004
 20
-160.0
 30
0.0
 11
-49.0
 21
-160.0
 31
0.0
  0
LINE
  5
7271
330
725D
100
AcDbEntity
  8
0
100
AcDbLine
 10
-74.00000000000004
 20
-150.0000000000003
 30
0.0
 11
-59.0
 21
-130.0000000000003
 31
0.0
  0
LINE
  5
7272
330
725D
100
AcDbEntity
  8
0
100
AcDbLine
 10
-74.00000000000004
 20
-174.5
 30
0.0
 11
-46.0
 21
-174.5
 31
0.0
  0
CIRCLE
  5
7273
330
725D
100
AcDbEntity
  8
0
100
AcDbCircle
 10
60.0
 20
-160.0
 30
0.0
 40
7.0
210
0.0
220
0.0
230
-1.0
  0
LINE
  5
7274
330
725D
100
AcDbEntity
  8
0
100
AcDbLine
 10
-74.00000000000004
 20
-174.5
 30
0.0
 11
-74.00000000000004
 21
-150.0000000000003
 31
0.0
  0
LINE
  5
7275
330
725D
100
AcDbEntity
  8
0
100
AcDbLine
 10
14.0
 20
-174.5
 30
0.0
 11
14.0
 21
-130.0
 31
0.0
  0
LINE
  5
7276
330
725D
100
AcDbEntity
  8
0
100
AcDbLine
 10
31.0
 20
-130.0000000000003
 30
0.0
 11
46.0
 21
-150.0000000000003
 31
0.0
  0
LINE
  5
7277
330
725D
100
AcDbEntity
  8
0
100
AcDbLine
 10
-46.0
 20
-150.0000000000003
 30
0.0
 11
-31.0
 21
-130.0000000000003
 31
0.0
  0
LINE
  5
7278
330
725D
100
AcDbEntity
  8
0
100
AcDbLine
 10
-14.0
 20
-174.5
 30
0.0
 11
-14.0
 21
-130.0
 31
0.0
  0
LINE
  5
7279
330
725D
100
AcDbEntity
  8
0
100
AcDbLine
 10
-11.0
 20
-160.0
 30
0.0
 11
11.0
 21
-160.0
 31
0.0
  0
LINE
  5
727A
330
725D
100
AcDbEntity
  8
0
100
AcDbLine
 10
-14.0
 20
-174.5
 30
0.0
 11
14.0
 21
-174.5
 31
0.0
  0
CIRCLE
  5
727B
330
725D
100
AcDbEntity
  8
0
100
AcDbCircle
 10
0.0
 20
-160.0
 30
0.0
 40
7.0
210
0.0
220
0.0
230
-1.0
  0
LINE
  5
727C
330
725D
100
AcDbEntity
  8
0
100
AcDbLine
 10
-60.0
 20
-149.0
 30
0.0
 11
-60.0
 21
-171.0
 31
0.0
  0
LINE
  5
727D
330
725D
100
AcDbEntity
  8
0
100
AcDbLine
 10
-46.0
 20
-174.5
 30
0.0
 11
-46.0
 21
-150.0000000000003
 31
0.0
  0
LINE
  5
727E
330
725D
100
AcDbEntity
  8
0
100
AcDbLine
 10
46.0
 20
-174.5
 30
0.0
 11
46.0
 21
-150.0000000000003
 31
0.0
  0
LINE
  5
727F
330
725D
100
AcDbEntity
  8
0
100
AcDbLine
 10
-9.0
 20
-114.0
 30
0.0
 11
9.0
 21
-114.0
 31
0.0
  0
LINE
  5
7280
330
725D
100
AcDbEntity
  8
0
100
AcDbLine
 10
-45.0000000000001
 20
-109.3811978464831
 30
0.0
 11
-41.0
 21
-111.6905989232416
 31
0.0
  0
LINE
  5
7281
330
725D
100
AcDbEntity
  8
0
100
AcDbLine
 10
-49.0
 20
-111.6905989232416
 30
0.0
 11
-45.0000000000001
 21
-109.3811978464831
 31
0.0
  0
LINE
  5
7282
330
725D
100
AcDbEntity
  8
0
100
AcDbLine
 10
-45.0
 20
-123.0
 30
0.0
 11
-45.0
 21
-105.0
 31
0.0
  0
ARC
  5
7283
330
725D
100
AcDbEntity
  8
0
100
AcDbCircle
 10
45.0
 20
-114.0
 30
0.0
 40
5.5
210
0.0
220
0.0
230
-1.0
100
AcDbArc
 50
0.0
 51
180.0
  0
LINE
  5
7284
330
725D
100
AcDbEntity
  8
0
100
AcDbLine
 10
-54.0
 20
-114.0
 30
0.0
 11
-36.0
 21
-114.0
 31
0.0
  0
LINE
  5
7285
330
725D
100
AcDbEntity
  8
0
100
AcDbLine
 10
-41.0
 20
-111.6905989232416
 30
0.0
 11
-41.0
 21
-116.3094010767586
 31
0.0
  0
LINE
  5
7286
330
725D
100
AcDbEntity
  8
0
100
AcDbLine
 10
-49.0
 20
-116.3094010767586
 30
0.0
 11
-49.0
 21
-111.6905989232416
 31
0.0
  0
LINE
  5
7287
330
725D
100
AcDbEntity
  8
0
100
AcDbLine
 10
-45.0
 20
-118.6188021535169
 30
0.0
 11
-49.0
 21
-116.3094010767586
 31
0.0
  0
LINE
  5
7288
330
725D
100
AcDbEntity
  8
0
100
AcDbLine
 10
-41.0
 20
-116.3094010767586
 30
0.0
 11
-45.0
 21
-118.6188021535169
 31
0.0
  0
LINE
  5
7289
330
725D
100
AcDbEntity
  8
0
100
AcDbLine
 10
-50.5
 20
-114.0
 30
0.0
 11
-50.5
 21
-130.0
 31
0.0
  0
LINE
  5
728A
330
725D
100
AcDbEntity
  8
0
100
AcDbLine
 10
-39.5
 20
-114.0
 30
0.0
 11
-39.5
 21
-130.0
 31
0.0
  0
ARC
  5
728B
330
725D
100
AcDbEntity
  8
0
100
AcDbCircle
 10
45.0
 20
-114.0
 30
0.0
 40
8.0
210
0.0
220
0.0
230
-1.0
100
AcDbArc
 50
226.5674634422111
 51
313.4325365577887
  0
LINE
  5
728C
330
725D
100
AcDbEntity
  8
0
100
AcDbLine
 10
-22.5
 20
-99.0
 30
0.0
 11
-22.5
 21
-115.0
 31
0.0
  0
CIRCLE
  5
728D
330
725D
100
AcDbEntity
  8
0
100
AcDbCircle
 10
-22.5
 20
-107.0
 30
0.0
 40
4.0
  0
LINE
  5
728E
330
725D
100
AcDbEntity
  8
0
100
AcDbLine
 10
-14.5
 20
-107.0
 30
0.0
 11
-30.5
 21
-107.0
 31
0.0
  0
LINE
  5
728F
330
725D
100
AcDbEntity
  8
0
100
AcDbLine
 10
30.5
 20
-107.0
 30
0.0
 11
14.5
 21
-107.0
 31
0.0
  0
CIRCLE
  5
7290
330
725D
100
AcDbEntity
  8
0
100
AcDbCircle
 10
22.5
 20
-107.0
 30
0.0
 40
4.0
  0
LINE
  5
7291
330
725D
100
AcDbEntity
  8
0
100
AcDbLine
 10
-0.0000000000001137
 20
-109.3811978464831
 30
0.0
 11
4.0
 21
-111.6905989232416
 31
0.0
  0
LINE
  5
7292
330
725D
100
AcDbEntity
  8
0
100
AcDbLine
 10
-4.0
 20
-111.6905989232416
 30
0.0
 11
-0.0000000000001137
 21
-109.3811978464831
 31
0.0
  0
LINE
  5
7293
330
725D
100
AcDbEntity
  8
0
100
AcDbLine
 10
22.5
 20
-99.0
 30
0.0
 11
22.5
 21
-115.0
 31
0.0
  0
LINE
  5
7294
330
725D
100
AcDbEntity
  8
0
100
AcDbLine
 10
0.0
 20
-123.0
 30
0.0
 11
0.0
 21
-105.0
 31
0.0
  0
ARC
  5
7295
330
725D
100
AcDbEntity
  8
0
100
AcDbCircle
 10
0.0
 20
-114.0
 30
0.0
 40
5.5
210
0.0
220
0.0
230
-1.0
100
AcDbArc
 50
0.0
 51
180.0
  0
LINE
  5
7296
330
725D
100
AcDbEntity
  8
0
100
AcDbLine
 10
4.0
 20
-111.6905989232416
 30
0.0
 11
4.0
 21
-116.3094010767586
 31
0.0
  0
LINE
  5
7297
330
725D
100
AcDbEntity
  8
0
100
AcDbLine
 10
-4.0
 20
-116.3094010767586
 30
0.0
 11
-4.0
 21
-111.6905989232416
 31
0.0
  0
LINE
  5
7298
330
725D
100
AcDbEntity
  8
0
100
AcDbLine
 10
0.0
 20
-118.6188021535169
 30
0.0
 11
-4.0
 21
-116.3094010767586
 31
0.0
  0
LINE
  5
7299
330
725D
100
AcDbEntity
  8
0
100
AcDbLine
 10
4.0
 20
-116.3094010767586
 30
0.0
 11
0.0
 21
-118.6188021535169
 31
0.0
  0
LINE
  5
729A
330
725D
100
AcDbEntity
  8
0
100
AcDbLine
 10
-5.5
 20
-114.0
 30
0.0
 11
-5.5
 21
-130.0
 31
0.0
  0
LINE
  5
729B
330
725D
100
AcDbEntity
  8
0
100
AcDbLine
 10
5.5
 20
-114.0
 30
0.0
 11
5.5
 21
-130.0
 31
0.0
  0
ARC
  5
729C
330
725D
100
AcDbEntity
  8
0
100
AcDbCircle
 10
0.0
 20
-114.0
 30
0.0
 40
8.0
210
0.0
220
0.0
230
-1.0
100
AcDbArc
 50
226.5674634422111
 51
313.4325365577887
  0
LINE
  5
729D
330
725D
100
AcDbEntity
  8
0
100
AcDbLine
 10
44.99999999999988
 20
-109.3811978464831
 30
0.0
 11
49.0
 21
-111.6905989232416
 31
0.0
  0
LINE
  5
729E
330
725D
100
AcDbEntity
  8
0
100
AcDbLine
 10
41.0
 20
-111.6905989232416
 30
0.0
 11
44.99999999999988
 21
-109.3811978464831
 31
0.0
  0
LINE
  5
729F
330
725D
100
AcDbEntity
  8
0
100
AcDbLine
 10
45.0
 20
-123.0
 30
0.0
 11
45.0
 21
-105.0
 31
0.0
  0
ARC
  5
72A0
330
725D
100
AcDbEntity
  8
0
100
AcDbCircle
 10
-45.0
 20
-114.0
 30
0.0
 40
5.5
210
0.0
220
0.0
230
-1.0
100
AcDbArc
 50
0.0
 51
180.0
  0
LINE
  5
72A1
330
725D
100
AcDbEntity
  8
0
100
AcDbLine
 10
49.0
 20
-111.6905989232416
 30
0.0
 11
49.0
 21
-116.3094010767586
 31
0.0
  0
LINE
  5
72A2
330
725D
100
AcDbEntity
  8
0
100
AcDbLine
 10
41.0
 20
-116.3094010767586
 30
0.0
 11
41.0
 21
-111.6905989232416
 31
0.0
  0
LINE
  5
72A3
330
725D
100
AcDbEntity
  8
0
100
AcDbLine
 10
45.0
 20
-118.6188021535169
 30
0.0
 11
41.0
 21
-116.3094010767586
 31
0.0
  0
LINE
  5
72A4
330
725D
100
AcDbEntity
  8
0
100
AcDbLine
 10
49.0
 20
-116.3094010767586
 30
0.0
 11
45.0
 21
-118.6188021535169
 31
0.0
  0
LINE
  5
72A5
330
725D
100
AcDbEntity
  8
0
100
AcDbLine
 10
39.5
 20
-114.0
 30
0.0
 11
39.5
 21
-130.0
 31
0.0
  0
LINE
  5
72A6
330
725D
100
AcDbEntity
  8
0
100
AcDbLine
 10
50.5
 20
-114.0
 30
0.0
 11
50.5
 21
-130.0
 31
0.0
  0
ARC
  5
72A7
330
725D
100
AcDbEntity
  8
0
100
AcDbCircle
 10
-45.0
 20
-114.0
 30
0.0
 40
8.0
210
0.0
220
0.0
230
-1.0
100
AcDbArc
 50
226.5674634422111
 51
313.4325365577887
  0
LINE
  5
72A8
330
725D
100
AcDbEntity
  8
0
100
AcDbLine
 10
14.0
 20
174.5000000000002
 30
0.0
 11
14.0
 21
130.0
 31
0.0
  0
LINE
  5
72A9
330
725D
100
AcDbEntity
  8
0
100
AcDbLine
 10
31.0
 20
130.0
 30
0.0
 11
46.0
 21
150.0
 31
0.0
  0
LINE
  5
72AA
330
725D
100
AcDbEntity
  8
0
100
AcDbLine
 10
-46.0
 20
150.0
 30
0.0
 11
-31.0
 21
130.0
 31
0.0
  0
LINE
  5
72AB
330
725D
100
AcDbEntity
  8
0
100
AcDbLine
 10
-74.00000000000004
 20
150.0
 30
0.0
 11
-59.0
 21
130.0
 31
0.0
  0
LINE
  5
72AC
330
725D
100
AcDbEntity
  8
0
100
AcDbLine
 10
-14.0
 20
174.5000000000002
 30
0.0
 11
-14.0
 21
130.0
 31
0.0
  0
LINE
  5
72AD
330
725D
100
AcDbEntity
  8
0
100
AcDbLine
 10
17.99999999999988
 20
-31.0
 30
0.0
 11
-18.0
 21
-31.0
 31
0.0
  0
LINE
  5
72AE
330
725D
100
AcDbEntity
  8
0
100
AcDbLine
 10
17.0
 20
17.0337027253521
 30
0.0
 11
-17.0
 21
17.0337027253521
 31
0.0
  0
LINE
  5
72AF
330
725D
100
AcDbEntity
  8
0
100
AcDbLine
 10
17.0
 20
28.03853193396571
 30
0.0
 11
-17.00000000000011
 21
28.03853193396571
 31
0.0
  0
LINE
  5
72B0
330
725D
100
AcDbEntity
  8
0
100
AcDbLine
 10
17.0
 20
39.33264411704204
 30
0.0
 11
-17.00000000000011
 21
39.33264411704204
 31
0.0
  0
LINE
  5
72B1
330
725D
100
AcDbEntity
  8
0
100
AcDbLine
 10
-18.0
 20
-31.0
 30
0.0
 11
-18.00000000000011
 21
31.00000000000011
 31
0.0
  0
LINE
  5
72B2
330
725D
100
AcDbEntity
  8
0
100
AcDbLine
 10
-58.0
 20
40.00000000000009
 30
0.0
 11
-58.0
 21
-40.0
 31
0.0
  0
ARC
  5
72B3
330
725D
100
AcDbEntity
  8
0
100
AcDbCircle
 10
-53.0
 20
40.00000000000009
 30
0.0
 40
5.0
100
AcDbArc
 50
90.0
 51
180.0
  0
LINE
  5
72B4
330
725D
100
AcDbEntity
  8
0
100
AcDbLine
 10
-17.00000000000011
 20
17.0337027253521
 30
0.0
 11
-17.00000000000011
 21
39.33264411704204
 31
0.0
  0
LINE
  5
72B5
330
725D
100
AcDbEntity
  8
0
100
AcDbLine
 10
-17.00000000000011
 20
31.00000000000011
 30
0.0
 11
-18.00000000000011
 21
31.00000000000011
 31
0.0
  0
LINE
  5
72B6
330
725D
100
AcDbEntity
  8
0
100
AcDbLine
 10
17.99999999999988
 20
-31.0
 30
0.0
 11
18.0
 21
31.00000000000011
 31
0.0
  0
CIRCLE
  5
72B7
330
725D
100
AcDbEntity
  8
0
100
AcDbCircle
 10
40.94999999999993
 20
5.0
 30
0.0
 40
5.5
  0
CIRCLE
  5
72B8
330
725D
100
AcDbEntity
  8
0
100
AcDbCircle
 10
40.94999999999993
 20
5.0
 30
0.0
 40
3.5
  0
LINE
  5
72B9
330
725D
100
AcDbEntity
  8
0
100
AcDbLine
 10
19.0
 20
-40.45000000000015
 30
0.0
 11
24.29999999999994
 21
-40.45000000000015
 31
0.0
  0
LINE
  5
72BA
330
725D
100
AcDbEntity
  8
0
100
AcDbLine
 10
19.0
 20
-33.85000000000013
 30
0.0
 11
24.29999999999994
 21
-33.85000000000013
 31
0.0
  0
LINE
  5
72BB
330
725D
100
AcDbEntity
  8
0
100
AcDbLine
 10
19.0
 20
-33.85000000000013
 30
0.0
 11
19.0
 21
-40.45000000000015
 31
0.0
  0
LINE
  5
72BC
330
725D
100
AcDbEntity
  8
0
100
AcDbLine
 10
36.94999999999993
 20
-28.5
 30
0.0
 11
44.94999999999993
 21
-28.5
 31
0.0
  0
LINE
  5
72BD
330
725D
100
AcDbEntity
  8
0
100
AcDbLine
 10
36.94999999999993
 20
-23.5
 30
0.0
 11
44.94999999999993
 21
-23.5
 31
0.0
  0
LINE
  5
72BE
330
725D
100
AcDbEntity
  8
0
100
AcDbLine
 10
36.94999999999993
 20
-25.5
 30
0.0
 11
44.94999999999993
 21
-25.5
 31
0.0
  0
LINE
  5
72BF
330
725D
100
AcDbEntity
  8
0
100
AcDbLine
 10
36.94999999999993
 20
-20.5
 30
0.0
 11
44.94999999999993
 21
-20.5
 31
0.0
  0
LINE
  5
72C0
330
725D
100
AcDbEntity
  8
0
100
AcDbLine
 10
36.94999999999993
 20
-25.5
 30
0.0
 11
36.94999999999993
 21
-28.5
 31
0.0
  0
LINE
  5
72C1
330
725D
100
AcDbEntity
  8
0
100
AcDbLine
 10
36.94999999999993
 20
-20.5
 30
0.0
 11
36.94999999999993
 21
-23.5
 31
0.0
  0
LINE
  5
72C2
330
725D
100
AcDbEntity
  8
0
100
AcDbLine
 10
24.29999999999994
 20
-33.85000000000013
 30
0.0
 11
24.29999999999994
 21
-40.45000000000015
 31
0.0
  0
LINE
  5
72C3
330
725D
100
AcDbEntity
  8
0
100
AcDbLine
 10
44.94999999999993
 20
-25.5
 30
0.0
 11
44.94999999999993
 21
-28.5
 31
0.0
  0
LINE
  5
72C4
330
725D
100
AcDbEntity
  8
0
100
AcDbLine
 10
44.94999999999993
 20
-20.5
 30
0.0
 11
44.94999999999993
 21
-23.5
 31
0.0
  0
CIRCLE
  5
72C5
330
725D
100
AcDbEntity
  8
0
100
AcDbCircle
 10
40.94999999999993
 20
-10.0
 30
0.0
 40
3.5
  0
LINE
  5
72C6
330
725D
100
AcDbEntity
  8
0
100
AcDbLine
 10
17.0
 20
17.0337027253521
 30
0.0
 11
17.0
 21
39.33264411704204
 31
0.0
  0
LINE
  5
72C7
330
725D
100
AcDbEntity
  8
0
100
AcDbLine
 10
18.0
 20
31.00000000000011
 30
0.0
 11
17.0
 21
31.00000000000011
 31
0.0
  0
LINE
  5
72C8
330
725D
100
AcDbEntity
  8
0
100
AcDbLine
 10
-9.0
 20
114.0000000000001
 30
0.0
 11
9.0
 21
114.0000000000001
 31
0.0
  0
LINE
  5
72C9
330
725D
100
AcDbEntity
  8
0
100
AcDbLine
 10
-50.5
 20
114.0000000000001
 30
0.0
 11
-50.5
 21
130.0
 31
0.0
  0
LINE
  5
72CA
330
725D
100
AcDbEntity
  8
0
100
AcDbLine
 10
-39.5
 20
114.0000000000001
 30
0.0
 11
-39.5
 21
130.0
 31
0.0
  0
LINE
  5
72CB
330
725D
100
AcDbEntity
  8
0
100
AcDbLine
 10
-45.0
 20
105.0
 30
0.0
 11
-45.0
 21
123.0000000000001
 31
0.0
  0
ARC
  5
72CC
330
725D
100
AcDbEntity
  8
0
100
AcDbCircle
 10
-45.0
 20
114.0000000000001
 30
0.0
 40
5.5
100
AcDbArc
 50
180.0
 51
0.0
  0
LINE
  5
72CD
330
725D
100
AcDbEntity
  8
0
100
AcDbLine
 10
-54.0
 20
114.0000000000001
 30
0.0
 11
-36.0
 21
114.0000000000001
 31
0.0
  0
LINE
  5
72CE
330
725D
100
AcDbEntity
  8
0
100
AcDbLine
 10
-41.0
 20
111.6905989232412
 30
0.0
 11
-41.0
 21
116.3094010767582
 31
0.0
  0
LINE
  5
72CF
330
725D
100
AcDbEntity
  8
0
100
AcDbLine
 10
-45.0000000000001
 20
109.3811978464827
 30
0.0
 11
-41.0
 21
111.6905989232412
 31
0.0
  0
LINE
  5
72D0
330
725D
100
AcDbEntity
  8
0
100
AcDbLine
 10
-49.0
 20
111.6905989232412
 30
0.0
 11
-45.0000000000001
 21
109.3811978464827
 31
0.0
  0
LINE
  5
72D1
330
725D
100
AcDbEntity
  8
0
100
AcDbLine
 10
-49.0
 20
116.3094010767582
 30
0.0
 11
-49.0
 21
111.6905989232412
 31
0.0
  0
LINE
  5
72D2
330
725D
100
AcDbEntity
  8
0
100
AcDbLine
 10
-45.0
 20
118.6188021535167
 30
0.0
 11
-49.0
 21
116.3094010767582
 31
0.0
  0
LINE
  5
72D3
330
725D
100
AcDbEntity
  8
0
100
AcDbLine
 10
-41.0
 20
116.3094010767582
 30
0.0
 11
-45.0
 21
118.6188021535167
 31
0.0
  0
ARC
  5
72D4
330
725D
100
AcDbEntity
  8
0
100
AcDbCircle
 10
-45.0
 20
114.0000000000001
 30
0.0
 40
8.0
100
AcDbArc
 50
46.5674634422112
 51
133.4325365577887
  0
CIRCLE
  5
72D5
330
725D
100
AcDbEntity
  8
0
100
AcDbCircle
 10
22.50000000000011
 20
107.0
 30
0.0
 40
4.0
210
0.0
220
0.0
230
-1.0
  0
LINE
  5
72D6
330
725D
100
AcDbEntity
  8
0
100
AcDbLine
 10
-14.5
 20
107.0
 30
0.0
 11
-30.5
 21
107.0
 31
0.0
  0
LINE
  5
72D7
330
725D
100
AcDbEntity
  8
0
100
AcDbLine
 10
-22.5
 20
115.0000000000001
 30
0.0
 11
-22.5
 21
99.00000000000012
 31
0.0
  0
LINE
  5
72D8
330
725D
100
AcDbEntity
  8
0
100
AcDbLine
 10
30.5
 20
107.0
 30
0.0
 11
14.5
 21
107.0
 31
0.0
  0
CIRCLE
  5
72D9
330
725D
100
AcDbEntity
  8
0
100
AcDbCircle
 10
-22.49999999999988
 20
107.0
 30
0.0
 40
4.0
210
0.0
220
0.0
230
-1.0
  0
LINE
  5
72DA
330
725D
100
AcDbEntity
  8
0
100
AcDbLine
 10
-5.5
 20
114.0000000000001
 30
0.0
 11
-5.5
 21
130.0
 31
0.0
  0
LINE
  5
72DB
330
725D
100
AcDbEntity
  8
0
100
AcDbLine
 10
5.5
 20
114.0000000000001
 30
0.0
 11
5.5
 21
130.0
 31
0.0
  0
LINE
  5
72DC
330
725D
100
AcDbEntity
  8
0
100
AcDbLine
 10
0.0
 20
105.0
 30
0.0
 11
0.0
 21
123.0000000000001
 31
0.0
  0
ARC
  5
72DD
330
725D
100
AcDbEntity
  8
0
100
AcDbCircle
 10
0.0
 20
114.0000000000001
 30
0.0
 40
5.5
100
AcDbArc
 50
180.0
 51
0.0
  0
LINE
  5
72DE
330
725D
100
AcDbEntity
  8
0
100
AcDbLine
 10
4.0
 20
111.6905989232412
 30
0.0
 11
4.0
 21
116.3094010767582
 31
0.0
  0
LINE
  5
72DF
330
725D
100
AcDbEntity
  8
0
100
AcDbLine
 10
-0.0000000000001137
 20
109.3811978464827
 30
0.0
 11
4.0
 21
111.6905989232412
 31
0.0
  0
LINE
  5
72E0
330
725D
100
AcDbEntity
  8
0
100
AcDbLine
 10
-4.0
 20
111.6905989232412
 30
0.0
 11
-0.0000000000001137
 21
109.3811978464827
 31
0.0
  0
LINE
  5
72E1
330
725D
100
AcDbEntity
  8
0
100
AcDbLine
 10
-4.0
 20
116.3094010767582
 30
0.0
 11
-4.0
 21
111.6905989232412
 31
0.0
  0
LINE
  5
72E2
330
725D
100
AcDbEntity
  8
0
100
AcDbLine
 10
0.0
 20
118.6188021535167
 30
0.0
 11
-4.0
 21
116.3094010767582
 31
0.0
  0
LINE
  5
72E3
330
725D
100
AcDbEntity
  8
0
100
AcDbLine
 10
4.0
 20
116.3094010767582
 30
0.0
 11
0.0
 21
118.6188021535167
 31
0.0
  0
LINE
  5
72E4
330
725D
100
AcDbEntity
  8
0
100
AcDbLine
 10
22.5
 20
115.0000000000001
 30
0.0
 11
22.5
 21
99.00000000000012
 31
0.0
  0
ARC
  5
72E5
330
725D
100
AcDbEntity
  8
0
100
AcDbCircle
 10
0.0
 20
114.0000000000001
 30
0.0
 40
8.0
100
AcDbArc
 50
46.5674634422112
 51
133.4325365577887
  0
LINE
  5
72E6
330
725D
100
AcDbEntity
  8
0
100
AcDbLine
 10
39.5
 20
114.0000000000001
 30
0.0
 11
39.5
 21
130.0
 31
0.0
  0
LINE
  5
72E7
330
725D
100
AcDbEntity
  8
0
100
AcDbLine
 10
50.5
 20
114.0000000000001
 30
0.0
 11
50.5
 21
130.0
 31
0.0
  0
LINE
  5
72E8
330
725D
100
AcDbEntity
  8
0
100
AcDbLine
 10
45.0
 20
105.0
 30
0.0
 11
45.0
 21
123.0000000000001
 31
0.0
  0
ARC
  5
72E9
330
725D
100
AcDbEntity
  8
0
100
AcDbCircle
 10
45.0
 20
114.0000000000001
 30
0.0
 40
5.5
100
AcDbArc
 50
180.0
 51
0.0
  0
LINE
  5
72EA
330
725D
100
AcDbEntity
  8
0
100
AcDbLine
 10
49.0
 20
111.6905989232412
 30
0.0
 11
49.0
 21
116.3094010767582
 31
0.0
  0
LINE
  5
72EB
330
725D
100
AcDbEntity
  8
0
100
AcDbLine
 10
44.99999999999988
 20
109.3811978464827
 30
0.0
 11
49.0
 21
111.6905989232412
 31
0.0
  0
LINE
  5
72EC
330
725D
100
AcDbEntity
  8
0
100
AcDbLine
 10
41.0
 20
111.6905989232412
 30
0.0
 11
44.99999999999988
 21
109.3811978464827
 31
0.0
  0
LINE
  5
72ED
330
725D
100
AcDbEntity
  8
0
100
AcDbLine
 10
41.0
 20
116.3094010767582
 30
0.0
 11
41.0
 21
111.6905989232412
 31
0.0
  0
LINE
  5
72EE
330
725D
100
AcDbEntity
  8
0
100
AcDbLine
 10
45.0
 20
118.6188021535167
 30
0.0
 11
41.0
 21
116.3094010767582
 31
0.0
  0
LINE
  5
72EF
330
725D
100
AcDbEntity
  8
0
100
AcDbLine
 10
49.0
 20
116.3094010767582
 30
0.0
 11
45.0
 21
118.6188021535167
 31
0.0
  0
ARC
  5
72F0
330
725D
100
AcDbEntity
  8
0
100
AcDbCircle
 10
45.0
 20
114.0000000000001
 30
0.0
 40
8.0
100
AcDbArc
 50
46.5674634422112
 51
133.4325365577887
  0
LINE
  5
72F1
330
725D
100
AcDbEntity
  8
0
100
AcDbLine
 10
-74.00000000000004
 20
174.5000000000002
 30
0.0
 11
-46.0
 21
174.5000000000002
 31
0.0
  0
LINE
  5
72F2
330
725D
100
AcDbEntity
  8
0
100
AcDbLine
 10
-71.00000000000004
 20
160.0000000000002
 30
0.0
 11
-49.0
 21
160.0000000000002
 31
0.0
  0
CIRCLE
  5
72F3
330
725D
100
AcDbEntity
  8
0
100
AcDbCircle
 10
-60.0
 20
160.0000000000002
 30
0.0
 40
7.0
  0
LINE
  5
72F4
330
725D
100
AcDbEntity
  8
0
100
AcDbLine
 10
-74.00000000000004
 20
174.5000000000002
 30
0.0
 11
-74.00000000000004
 21
150.0
 31
0.0
  0
LINE
  5
72F5
330
725D
100
AcDbEntity
  8
0
100
AcDbLine
 10
-11.0
 20
160.0000000000002
 30
0.0
 11
11.0
 21
160.0000000000002
 31
0.0
  0
LINE
  5
72F6
330
725D
100
AcDbEntity
  8
0
100
AcDbLine
 10
-14.0
 20
174.5000000000002
 30
0.0
 11
14.0
 21
174.5000000000002
 31
0.0
  0
CIRCLE
  5
72F7
330
725D
100
AcDbEntity
  8
0
100
AcDbCircle
 10
0.0
 20
160.0000000000002
 30
0.0
 40
7.0
  0
LINE
  5
72F8
330
725D
100
AcDbEntity
  8
0
100
AcDbLine
 10
-60.0
 20
171.0
 30
0.0
 11
-60.0
 21
149.0
 31
0.0
  0
LINE
  5
72F9
330
725D
100
AcDbEntity
  8
0
100
AcDbLine
 10
-46.0
 20
174.5000000000002
 30
0.0
 11
-46.0
 21
150.0
 31
0.0
  0
LINE
  5
72FA
330
725D
100
AcDbEntity
  8
0
100
AcDbLine
 10
46.0
 20
174.5000000000002
 30
0.0
 11
46.0
 21
150.0
 31
0.0
  0
ARC
  5
72FB
330
725D
100
AcDbEntity
  8
0
100
AcDbCircle
 10
53.0
 20
-40.0
 30
0.0
 40
5.0
100
AcDbArc
 50
270.0
 51
0.0
  0
LINE
  5
72FC
330
725D
100
AcDbEntity
  8
0
100
AcDbLine
 10
70.0
 20
130.0
 30
0.0
 11
70.0
 21
-130.0
 31
0.0
  0
LINE
  5
72FD
330
725D
100
AcDbEntity
  8
0
100
AcDbLine
 10
101.2499999999999
 20
-220.0727983283795
 30
0.0
 11
101.2499999999999
 21
-245.0
 31
0.0
  0
LINE
  5
72FE
330
725D
100
AcDbEntity
  8
0
100
AcDbLine
 10
99.25
 20
-218.6397501985154
 30
0.0
 11
99.25
 21
-245.0
 31
0.0
  0
LINE
  5
72FF
330
725D
100
AcDbEntity
  8
0
100
AcDbLine
 10
98.54999999999996
 20
-245.0
 30
0.0
 11
98.54999999999996
 21
-249.946911919693
 31
0.0
  0
LINE
  5
7300
330
725D
100
AcDbEntity
  8
0
100
AcDbLine
 10
101.9499999999996
 20
-245.0
 30
0.0
 11
101.9499999999996
 21
-249.946911919693
 31
0.0
  0
LINE
  5
7301
330
725D
100
AcDbEntity
  8
0
100
AcDbLine
 10
98.20195134105155
 20
-251.578859039728
 30
0.0
 11
96.59804865894841
 21
-255.1680528799646
 31
0.0
  0
ARC
  5
7302
330
725D
100
AcDbEntity
  8
0
100
AcDbCircle
 10
100.2499999999999
 20
-256.8
 30
0.0
 40
4.0
100
AcDbArc
 50
155.9215699388889
 51
24.07843006111111
  0
LINE
  5
7303
330
725D
100
AcDbEntity
  8
0
100
AcDbLine
 10
98.54999999999996
 20
-249.8
 30
0.0
 11
101.9499999999996
 21
-249.8
 31
0.0
  0
LINE
  5
7304
330
725D
100
AcDbEntity
  8
0
100
AcDbLine
 10
102.2980486589484
 20
-251.578859039728
 30
0.0
 11
103.9019513410514
 21
-255.1680528799646
 31
0.0
  0
ARC
  5
7305
330
725D
100
AcDbEntity
  8
0
100
AcDbCircle
 10
94.54999999999996
 20
-249.946911919693
 30
0.0
 40
4.0
100
AcDbArc
 50
335.9215699388887
 51
0.0
  0
CIRCLE
  5
7306
330
725D
100
AcDbEntity
  8
0
100
AcDbCircle
 10
100.2499999999999
 20
-256.8
 30
0.0
 40
2.149999999999999
  0
ARC
  5
7307
330
725D
100
AcDbEntity
  8
0
100
AcDbCircle
 10
105.9499999999996
 20
-249.946911919693
 30
0.0
 40
4.0
100
AcDbArc
 50
180.0
 51
204.0784300611111
  0
LINE
  5
7308
330
725D
100
AcDbEntity
  8
0
100
AcDbLine
 10
98.54999999999996
 20
-245.0
 30
0.0
 11
101.9499999999996
 21
-245.0
 31
0.0
  0
LINE
  5
7309
330
725D
100
AcDbEntity
  8
0
100
AcDbLine
 10
59.25
 20
-130.0
 30
0.0
 11
59.25
 21
-175.0
 31
0.0
  0
LINE
  5
730A
330
725D
100
AcDbEntity
  8
0
100
AcDbLine
 10
61.25
 20
-130.0
 30
0.0
 11
61.25
 21
-175.0
 31
0.0
  0
LINE
  5
730B
330
725D
100
AcDbEntity
  8
0
100
AcDbLine
 10
74.0
 20
-150.0000000000003
 30
0.0
 11
59.0
 21
-130.0000000000003
 31
0.0
  0
ARC
  5
730C
330
725D
100
AcDbEntity
  8
0
100
AcDbCircle
 10
71.25
 20
-175.0
 30
0.0
 40
10.0
100
AcDbArc
 50
180.0
 51
270.0
  0
ARC
  5
730D
330
725D
100
AcDbEntity
  8
0
100
AcDbCircle
 10
71.25
 20
-175.0
 30
0.0
 40
12.0
100
AcDbArc
 50
180.0
 51
270.0
  0
LINE
  5
730E
330
725D
100
AcDbEntity
  8
0
100
AcDbLine
 10
71.25
 20
-185.0
 30
0.0
 11
89.25
 21
-185.0
 31
0.0
  0
LINE
  5
730F
330
725D
100
AcDbEntity
  8
0
100
AcDbLine
 10
71.25
 20
-187.0
 30
0.0
 11
89.25
 21
-187.0
 31
0.0
  0
LINE
  5
7310
330
725D
100
AcDbEntity
  8
0
100
AcDbLine
 10
101.2499999999999
 20
-197.0
 30
0.0
 11
101.2499999999999
 21
-218.0727983283795
 31
0.0
  0
LINE
  5
7311
330
725D
100
AcDbEntity
  8
0
100
AcDbLine
 10
99.25
 20
-197.0
 30
0.0
 11
99.25
 21
-216.6397501985156
 31
0.0
  0
SPLINE
  5
7312
330
725D
100
AcDbEntity
  8
0
100
AcDbSpline
210
0.0
220
0.0
230
1.0
 70
     8
 71
     3
 72
     8
 73
     4
 74
     0
 42
0.0000000001
 43
0.0000000001
 40
0.0
 40
0.0
 40
0.0
 40
0.0
 40
1.0
 40
1.0
 40
1.0
 40
1.0
 10
96.25
 20
-219.0
 30
0.0
 10
98.25000000000001
 20
-215.0
 30
0.0
 10
102.2499999999999
 20
-224.0
 30
0.0
 10
104.2499999999999
 20
-219.0
 30
0.0
  0
SPLINE
  5
7313
330
725D
100
AcDbEntity
  8
0
100
AcDbSpline
210
0.0
220
0.0
230
1.0
 70
     8
 71
     3
 72
     8
 73
     4
 74
     0
 42
0.0000000001
 43
0.0000000001
 40
0.0
 40
0.0
 40
0.0
 40
0.0
 40
1.0
 40
1.0
 40
1.0
 40
1.0
 10
96.25
 20
-217.0
 30
0.0
 10
98.25000000000001
 20
-213.0
 30
0.0
 10
102.2499999999999
 20
-222.0
 30
0.0
 10
104.2499999999999
 20
-217.0
 30
0.0
  0
ARC
  5
7314
330
725D
100
AcDbEntity
  8
0
100
AcDbCircle
 10
89.25
 20
-197.0
 30
0.0
 40
12.0
100
AcDbArc
 50
0.0
 51
90.0
  0
ARC
  5
7315
330
725D
100
AcDbEntity
  8
0
100
AcDbCircle
 10
89.25
 20
-197.0
 30
0.0
 40
10.0
100
AcDbArc
 50
0.0
 51
90.0
  0
LINE
  5
7316
330
725D
100
AcDbEntity
  8
0
100
AcDbLine
 10
60.0
 20
-149.0
 30
0.0
 11
60.0
 21
-171.0
 31
0.0
  0
LINE
  5
7317
330
725D
100
AcDbEntity
  8
0
100
AcDbLine
 10
74.0
 20
-174.5
 30
0.0
 11
74.0
 21
-150.0000000000003
 31
0.0
  0
CIRCLE
  5
7318
330
725D
100
AcDbEntity
  8
0
100
AcDbCircle
 10
-60.0
 20
-160.0
 30
0.0
 40
7.0
210
0.0
220
0.0
230
-1.0
  0
LINE
  5
7319
330
725D
100
AcDbEntity
  8
0
100
AcDbLine
 10
74.0
 20
150.0
 30
0.0
 11
59.0
 21
130.0
 31
0.0
  0
LINE
  5
731A
330
725D
100
AcDbEntity
  8
0
100
AcDbLine
 10
58.0
 20
40.00000000000009
 30
0.0
 11
58.0
 21
-40.0
 31
0.0
  0
ARC
  5
731B
330
725D
100
AcDbEntity
  8
0
100
AcDbCircle
 10
53.0
 20
40.00000000000009
 30
0.0
 40
5.0
100
AcDbArc
 50
0.0
 51
90.0
  0
LINE
  5
731C
330
725D
100
AcDbEntity
  8
0
100
AcDbLine
 10
60.0
 20
171.0
 30
0.0
 11
60.0
 21
149.0
 31
0.0
  0
LINE
  5
731D
330
725D
100
AcDbEntity
  8
0
100
AcDbLine
 10
74.0
 20
174.5000000000002
 30
0.0
 11
74.0
 21
150.0
 31
0.0
  0
CIRCLE
  5
731E
330
725D
100
AcDbEntity
  8
0
100
AcDbCircle
 10
60.0
 20
160.0000000000002
 30
0.0
 40
7.0
  0
ENDBLK
  5
7320
330
725D
100
AcDbEntity
  8
0
100
AcDbBlockEnd
  0
BLOCK
  5
767C
330
7672
100
AcDbEntity
  8
0
100
AcDbBlockBegin
  2
*D4
 70
     1
 10
0.0
 20
0.0
 30
0.0
  3
*D4
  1

  0
LINE
  5
768B
330
7672
100
AcDbEntity
  8
30
  6
CONTINUOUS
 62
     0
100
AcDbLine
 10
-35.04569613739295
 20
-253.0
 30
0.0
 11
-97.59969543092026
 21
-252.9999999999999
 31
0.0
  0
LINE
  5
768C
330
7672
100
AcDbEntity
  8
30
  6
CONTINUOUS
 62
     0
100
AcDbLine
 10
-35.04569613739295
 20
-466.9999999999998
 30
0.0
 11
-97.59969543092028
 21
-466.9999999999998
 31
0.0
  0
LINE
  5
768D
330
7672
100
AcDbEntity
  8
30
  6
CONTINUOUS
 62
     0
100
AcDbLine
 10
-97.09969543092023
 20
-254.9999999999999
 30
0.0
 11
-97.09969543092029
 21
-464.9999999999998
 31
0.0
  0
INSERT
  5
768E
330
7672
100
AcDbEntity
  8
30
  6
CONTINUOUS
 62
     0
100
AcDbBlockReference
  2
_OPEN
 10
-97.09969543092023
 20
-252.9999999999999
 30
0.0
 41
2.0
 42
2.0
 43
2.0
 50
90.0
  0
INSERT
  5
768F
330
7672
100
AcDbEntity
  8
30
  6
CONTINUOUS
 62
     0
100
AcDbBlockReference
  2
_OPEN
 10
-97.09969543092029
 20
-466.9999999999998
 30
0.0
 41
2.0
 42
2.0
 43
2.0
 50
270.0
  0
MTEXT
  5
7690
330
7672
100
AcDbEntity
  8
30
  6
CONTINUOUS
 62
     0
100
AcDbMText
 10
-100.0996954309202
 20
-360.0
 30
0.0
 40
4.0
 41
0.0
 71
     5
 72
     1
  1
\A1;214
 11
0.0000000000000001
 21
1.0
 31
0.0
1001
ACAD
1000
MTEXTBEGIN
1070
    73
1070
     1
1070
    44
1040
1.0
1070
    74
1070
     0
1000
MTEXTEND
1000
MTEXTBEGIN
1070
    73
1070
     1
1070
    44
1040
1.0
1070
    74
1070
     0
1000
MTEXTEND
1000
MTEXTBEGIN
1070
    73
1070
     1
1070
    44
1040
1.0
1070
    74
1070
     0
1000
MTEXTEND
1000
MTEXTBEGIN
1070
    73
1070
     1
1070
    44
1040
1.0
1070
    74
1070
     0
1000
MTEXTEND
1000
MTEXTBEGIN
1070
    73
1070
     1
1070
    44
1040
1.0
1070
    74
1070
     0
1000
MTEXTEND
1000
MTEXTBEGIN
1070
    73
1070
     1
1070
    44
1040
1.0
1070
    74
1070
     0
1000
MTEXTEND
1000
MTEXTBEGIN
1070
    73
1070
     1
1070
    44
1040
1.0
1070
    74
1070
     0
1000
MTEXTEND
1000
MTEXTBEGIN
1070
    73
1070
     1
1070
    44
1040
1.0
1070
    74
1070
     0
1000
MTEXTEND
  0
POINT
  5
7691
330
7672
100
AcDbEntity
  8
DEFPOINTS
  6
CONTINUOUS
 62
     0
100
AcDbPoint
 10
-34.04569613739295
 20
-253.0
 30
0.0
  0
POINT
  5
7692
330
7672
100
AcDbEntity
  8
DEFPOINTS
  6
CONTINUOUS
 62
     0
100
AcDbPoint
 10
-34.04569613739295
 20
-466.9999999999998
 30
0.0
  0
POINT
  5
7693
330
7672
100
AcDbEntity
  8
DEFPOINTS
  6
CONTINUOUS
 62
     0
100
AcDbPoint
 10
-97.09969543092029
 20
-466.9999999999998
 30
0.0
  0
ENDBLK
  5
767D
330
7672
100
AcDbEntity
  8
0
100
AcDbBlockEnd
  0
BLOCK
  5
7689
330
767F
100
AcDbEntity
  8
0
100
AcDbBlockBegin
  2
*D5
 70
     1
 10
0.0
 20
0.0
 30
0.0
  3
*D5
  1

  0
LINE
  5
7680
330
767F
100
AcDbEntity
  8
30
  6
CONTINUOUS
 62
     0
100
AcDbLine
 10
-22.5
 20
-474.9999999999998
 30
0.0
 11
-22.5
 21
-519.2040664304705
 31
0.0
  0
LINE
  5
7681
330
767F
100
AcDbEntity
  8
30
  6
CONTINUOUS
 62
     0
100
AcDbLine
 10
22.5
 20
-474.9999999999998
 30
0.0
 11
22.49999999999999
 21
-519.2040664304705
 31
0.0
  0
LINE
  5
7682
330
767F
100
AcDbEntity
  8
30
  6
CONTINUOUS
 62
     0
100
AcDbLine
 10
-20.5
 20
-518.7040664304706
 30
0.0
 11
20.49999999999998
 21
-518.7040664304706
 31
0.0
  0
INSERT
  5
7683
330
767F
100
AcDbEntity
  8
30
  6
CONTINUOUS
 62
     0
100
AcDbBlockReference
  2
_OPEN
 10
-22.5
 20
-518.7040664304706
 30
0.0
 41
2.0
 42
2.0
 43
2.0
 50
180.0
  0
INSERT
  5
7684
330
767F
100
AcDbEntity
  8
30
  6
CONTINUOUS
 62
     0
100
AcDbBlockReference
  2
_OPEN
 10
22.49999999999999
 20
-518.7040664304706
 30
0.0
 41
2.0
 42
2.0
 43
2.0
  0
MTEXT
  5
7685
330
767F
100
AcDbEntity
  8
30
  6
CONTINUOUS
 62
     0
100
AcDbMText
 10
-0.0000000000000034
 20
-515.7040664304705
 30
0.0
 40
4.0
 41
0.0
 71
     5
 72
     1
  1
\A1;45
1001
ACAD
1000
MTEXTBEGIN
1070
    73
1070
     1
1070
    44
1040
1.0
1070
    74
1070
     0
1000
MTEXTEND
1000
MTEXTBEGIN
1070
    73
1070
     1
1070
    44
1040
1.0
1070
    74
1070
     0
1000
MTEXTEND
1000
MTEXTBEGIN
1070
    73
1070
     1
1070
    44
1040
1.0
1070
    74
1070
     0
1000
MTEXTEND
1000
MTEXTBEGIN
1070
    73
1070
     1
1070
    44
1040
1.0
1070
    74
1070
     0
1000
MTEXTEND
1000
MTEXTBEGIN
1070
    73
1070
     1
1070
    44
1040
1.0
1070
    74
1070
     0
1000
MTEXTEND
1000
MTEXTBEGIN
1070
    73
1070
     1
1070
    44
1040
1.0
1070
    74
1070
     0
1000
MTEXTEND
1000
MTEXTBEGIN
1070
    73
1070
     1
1070
    44
1040
1.0
1070
    74
1070
     0
1000
MTEXTEND
1000
MTEXTBEGIN
1070
    73
1070
     1
1070
    44
1040
1.0
1070
    74
1070
     0
1000
MTEXTEND
  0
POINT
  5
7686
330
767F
100
AcDbEntity
  8
DEFPOINTS
  6
CONTINUOUS
 62
     0
100
AcDbPoint
 10
-22.5
 20
-473.9999999999998
 30
0.0
  0
POINT
  5
7687
330
767F
100
AcDbEntity
  8
DEFPOINTS
  6
CONTINUOUS
 62
     0
100
AcDbPoint
 10
22.5
 20
-473.9999999999998
 30
0.0
  0
POINT
  5
7688
330
767F
100
AcDbEntity
  8
DEFPOINTS
  6
CONTINUOUS
 62
     0
100
AcDbPoint
 10
22.49999999999999
 20
-518.7040664304706
 30
0.0
  0
ENDBLK
  5
768A
330
767F
100
AcDbEntity
  8
0
100
AcDbBlockEnd
  0
BLOCK
  5
769E
330
7695
100
AcDbEntity
  8
0
100
AcDbBlockBegin
  2
*D6
 70
     1
 10
0.0
 20
0.0
 30
0.0
  3
*D6
  1

  0
LINE
  5
80B2
330
7695
100
AcDbEntity
  8
30
  6
CONTINUOUS
 62
     0
100
AcDbLine
 10
361.6597496400636
 20
-306.031299459585
 30
0.0
 11
353.993082973395
 21
-306.0312994595849
 31
0.0
  0
LINE
  5
80B3
330
7695
100
AcDbEntity
  8
30
  6
CONTINUOUS
 62
     0
100
AcDbLine
 10
353.993082973395
 20
-306.0312994595849
 30
0.0
 11
330.2934498468415
 21
-316.7128143752423
 31
0.0
  0
MTEXT
  5
80B4
330
7695
100
AcDbEntity
  8
30
  6
CONTINUOUS
 62
     0
100
AcDbMText
 10
358.3264163067303
 20
-303.0312994595849
 30
0.0
 40
4.0
 41
0.0
 71
     5
 72
     1
  1
\A1;R6
1001
ACAD
1000
MTEXTBEGIN
1070
    73
1070
     1
1070
    44
1040
1.0
1070
    74
1070
     0
1000
MTEXTEND
  0
INSERT
  5
80B5
330
7695
100
AcDbEntity
  8
30
  6
CONTINUOUS
 62
     0
100
AcDbBlockReference
  2
_OPEN
 10
328.4700873851312
 20
-317.5346107814317
 30
0.0
 41
2.0
 42
2.0
 43
2.0
 50
204.2612710120878
  0
LINE
  5
80B6
330
7695
100
AcDbEntity
  8
30
  6
CONTINUOUS
 62
     0
100
AcDbLine
 10
322.91
 20
-320.0000000000001
 30
0.0
 11
323.0899999999999
 21
-320.0000000000001
 31
0.0
  0
LINE
  5
80B7
330
7695
100
AcDbEntity
  8
30
  6
CONTINUOUS
 62
     0
100
AcDbLine
 10
323.0
 20
-320.09
 30
0.0
 11
323.0
 21
-319.9100000000001
 31
0.0
  0
POINT
  5
80B8
330
7695
100
AcDbEntity
  8
DEFPOINTS
  6
CONTINUOUS
 62
     0
100
AcDbPoint
 10
328.4700873851312
 20
-317.5346107814317
 30
0.0
  0
POINT
  5
80B9
330
7695
100
AcDbEntity
  8
DEFPOINTS
  6
CONTINUOUS
 62
     0
100
AcDbPoint
 10
323.0
 20
-320.0000000000001
 30
0.0
  0
ENDBLK
  5
769F
330
7695
100
AcDbEntity
  8
0
100
AcDbBlockEnd
  0
BLOCK
  5
76B3
330
76A9
100
AcDbEntity
  8
0
100
AcDbBlockBegin
  2
*D7
 70
     1
 10
0.0
 20
0.0
 30
0.0
  3
*D7
  1

  0
LINE
  5
80A0
330
76A9
100
AcDbEntity
  8
30
  6
CONTINUOUS
 62
     0
100
AcDbLine
 10
211.0
 20
-401.0
 30
0.0
 11
211.0
 21
-431.4055588177362
 31
0.0
  0
LINE
  5
80A1
330
76A9
100
AcDbEntity
  8
30
  6
CONTINUOUS
 62
     0
100
AcDbLine
 10
329.0
 20
-401.0
 30
0.0
 11
329.0
 21
-431.4055588177362
 31
0.0
  0
LINE
  5
80A2
330
76A9
100
AcDbEntity
  8
30
  6
CONTINUOUS
 62
     0
100
AcDbLine
 10
213.0
 20
-430.9055588177362
 30
0.0
 11
327.0
 21
-430.9055588177362
 31
0.0
  0
INSERT
  5
80A3
330
76A9
100
AcDbEntity
  8
30
  6
CONTINUOUS
 62
     0
100
AcDbBlockReference
  2
_OPEN
 10
211.0
 20
-430.9055588177362
 30
0.0
 41
2.0
 42
2.0
 43
2.0
 50
180.0
  0
INSERT
  5
80A4
330
76A9
100
AcDbEntity
  8
30
  6
CONTINUOUS
 62
     0
100
AcDbBlockReference
  2
_OPEN
 10
329.0
 20
-430.9055588177362
 30
0.0
 41
2.0
 42
2.0
 43
2.0
  0
MTEXT
  5
80A5
330
76A9
100
AcDbEntity
  8
30
  6
CONTINUOUS
 62
     0
100
AcDbMText
 10
270.0
 20
-427.9055588177362
 30
0.0
 40
4.0
 41
0.0
 71
     5
 72
     1
  1
\A1;118
1001
ACAD
1000
MTEXTBEGIN
1070
    73
1070
     1
1070
    44
1040
1.0
1070
    74
1070
     0
1000
MTEXTEND
  0
POINT
  5
80A6
330
76A9
100
AcDbEntity
  8
DEFPOINTS
  6
CONTINUOUS
 62
     0
100
AcDbPoint
 10
211.0
 20
-400.0
 30
0.0
  0
POINT
  5
80A7
330
76A9
100
AcDbEntity
  8
DEFPOINTS
  6
CONTINUOUS
 62
     0
100
AcDbPoint
 10
329.0
 20
-400.0
 30
0.0
  0
POINT
  5
80A8
330
76A9
100
AcDbEntity
  8
DEFPOINTS
  6
CONTINUOUS
 62
     0
100
AcDbPoint
 10
329.0
 20
-430.9055588177362
 30
0.0
  0
ENDBLK
  5
76B4
330
76A9
100
AcDbEntity
  8
0
100
AcDbBlockEnd
  0
BLOCK
  5
76C0
330
76B6
100
AcDbEntity
  8
0
100
AcDbBlockBegin
  2
*D8
 70
     1
 10
0.0
 20
0.0
 30
0.0
  3
*D8
  1

  0
LINE
  5
80A9
330
76B6
100
AcDbEntity
  8
30
  6
CONTINUOUS
 62
     0
100
AcDbLine
 10
324.0
 20
-313.9999999999998
 30
0.0
 11
363.5844752481832
 21
-313.9999999999998
 31
0.0
  0
LINE
  5
80AA
330
76B6
100
AcDbEntity
  8
30
  6
CONTINUOUS
 62
     0
100
AcDbLine
 10
324.0
 20
-406.0
 30
0.0
 11
363.5844752481832
 21
-406.0
 31
0.0
  0
LINE
  5
80AB
330
76B6
100
AcDbEntity
  8
30
  6
CONTINUOUS
 62
     0
100
AcDbLine
 10
363.0844752481832
 20
-315.9999999999998
 30
0.0
 11
363.0844752481832
 21
-404.0
 31
0.0
  0
INSERT
  5
80AC
330
76B6
100
AcDbEntity
  8
30
  6
CONTINUOUS
 62
     0
100
AcDbBlockReference
  2
_OPEN
 10
363.0844752481832
 20
-313.9999999999998
 30
0.0
 41
2.0
 42
2.0
 43
2.0
 50
90.0
  0
INSERT
  5
80AD
330
76B6
100
AcDbEntity
  8
30
  6
CONTINUOUS
 62
     0
100
AcDbBlockReference
  2
_OPEN
 10
363.0844752481832
 20
-406.0
 30
0.0
 41
2.0
 42
2.0
 43
2.0
 50
270.0
  0
MTEXT
  5
80AE
330
76B6
100
AcDbEntity
  8
30
  6
CONTINUOUS
 62
     0
100
AcDbMText
 10
360.0844752481833
 20
-359.9999999999998
 30
0.0
 40
4.0
 41
0.0
 71
     5
 72
     1
  1
\A1;92
 11
0.0000000000000001
 21
1.0
 31
0.0
1001
ACAD
1000
MTEXTBEGIN
1070
    73
1070
     1
1070
    44
1040
1.0
1070
    74
1070
     0
1000
MTEXTEND
  0
POINT
  5
80AF
330
76B6
100
AcDbEntity
  8
DEFPOINTS
  6
CONTINUOUS
 62
     0
100
AcDbPoint
 10
323.0
 20
-313.9999999999998
 30
0.0
  0
POINT
  5
80B0
330
76B6
100
AcDbEntity
  8
DEFPOINTS
  6
CONTINUOUS
 62
     0
100
AcDbPoint
 10
323.0
 20
-406.0
 30
0.0
  0
POINT
  5
80B1
330
76B6
100
AcDbEntity
  8
DEFPOINTS
  6
CONTINUOUS
 62
     0
100
AcDbPoint
 10
363.0844752481832
 20
-406.0
 30
0.0
  0
ENDBLK
  5
76C1
330
76B6
100
AcDbEntity
  8
0
100
AcDbBlockEnd
  0
BLOCK
  5
76CE
330
76C4
100
AcDbEntity
  8
0
100
AcDbBlockBegin
  2
*D9
 70
     1
 10
0.0
 20
0.0
 30
0.0
  3
*D9
  1

  0
LINE
  5
80E5
330
76C4
100
AcDbEntity
  8
30
  6
CONTINUOUS
 62
     0
100
AcDbLine
 10
357.7699465681198
 20
144.262182860446
 30
0.0
 11
357.7699465681198
 21
129.1759028429516
 31
0.0
  0
LINE
  5
80E6
330
76C4
100
AcDbEntity
  8
30
  6
CONTINUOUS
 62
     0
100
AcDbLine
 10
382.7699465681197
 20
144.262182860446
 30
0.0
 11
382.7699465681197
 21
129.1759028429516
 31
0.0
  0
LINE
  5
80E7
330
76C4
100
AcDbEntity
  8
30
  6
CONTINUOUS
 62
     0
100
AcDbLine
 10
359.7699465681198
 20
129.6759028429516
 30
0.0
 11
380.7699465681197
 21
129.6759028429516
 31
0.0
  0
INSERT
  5
80E8
330
76C4
100
AcDbEntity
  8
30
  6
CONTINUOUS
 62
     0
100
AcDbBlockReference
  2
_OPEN
 10
357.7699465681198
 20
129.6759028429516
 30
0.0
 41
2.0
 42
2.0
 43
2.0
 50
180.0
  0
INSERT
  5
80E9
330
76C4
100
AcDbEntity
  8
30
  6
CONTINUOUS
 62
     0
100
AcDbBlockReference
  2
_OPEN
 10
382.7699465681197
 20
129.6759028429516
 30
0.0
 41
2.0
 42
2.0
 43
2.0
  0
MTEXT
  5
80EA
330
76C4
100
AcDbEntity
  8
30
  6
CONTINUOUS
 62
     0
100
AcDbMText
 10
370.2699465681198
 20
132.6759028429516
 30
0.0
 40
4.0
 41
0.0
 71
     5
 72
     1
  1
\A1;25
1001
ACAD
1000
MTEXTBEGIN
1070
    73
1070
     1
1070
    44
1040
1.0
1070
    74
1070
     0
1000
MTEXTEND
  0
POINT
  5
80EB
330
76C4
100
AcDbEntity
  8
DEFPOINTS
  6
CONTINUOUS
 62
     0
100
AcDbPoint
 10
357.7699465681198
 20
145.2621828604461
 30
0.0
  0
POINT
  5
80EC
330
76C4
100
AcDbEntity
  8
DEFPOINTS
  6
CONTINUOUS
 62
     0
100
AcDbPoint
 10
382.7699465681197
 20
145.2621828604461
 30
0.0
  0
POINT
  5
80ED
330
76C4
100
AcDbEntity
  8
DEFPOINTS
  6
CONTINUOUS
 62
     0
100
AcDbPoint
 10
382.7699465681197
 20
129.6759028429516
 30
0.0
  0
ENDBLK
  5
76CF
330
76C4
100
AcDbEntity
  8
0
100
AcDbBlockEnd
  0
BLOCK
  5
76DB
330
76D1
100
AcDbEntity
  8
0
100
AcDbBlockBegin
  2
*D10
 70
     1
 10
0.0
 20
0.0
 30
0.0
  3
*D10
  1

  0
LINE
  5
80DC
330
76D1
100
AcDbEntity
  8
30
  6
CONTINUOUS
 62
     0
100
AcDbLine
 10
383.7699465681197
 20
145.2621828604461
 30
0.0
 11
399.7122762463085
 21
145.2621828604461
 31
0.0
  0
LINE
  5
80DD
330
76D1
100
AcDbEntity
  8
30
  6
CONTINUOUS
 62
     0
100
AcDbLine
 10
378.7699465681196
 20
157.2621828604461
 30
0.0
 11
399.7122762463085
 21
157.2621828604461
 31
0.0
  0
LINE
  5
80DE
330
76D1
100
AcDbEntity
  8
30
  6
CONTINUOUS
 62
     0
100
AcDbLine
 10
399.2122762463086
 20
147.262182860446
 30
0.0
 11
399.2122762463086
 21
155.2621828604461
 31
0.0
  0
INSERT
  5
80DF
330
76D1
100
AcDbEntity
  8
30
  6
CONTINUOUS
 62
     0
100
AcDbBlockReference
  2
_OPEN
 10
399.2122762463086
 20
145.2621828604461
 30
0.0
 41
2.0
 42
2.0
 43
2.0
 50
270.0
  0
INSERT
  5
80E0
330
76D1
100
AcDbEntity
  8
30
  6
CONTINUOUS
 62
     0
100
AcDbBlockReference
  2
_OPEN
 10
399.2122762463086
 20
157.2621828604461
 30
0.0
 41
2.0
 42
2.0
 43
2.0
 50
90.0
  0
MTEXT
  5
80E1
330
76D1
100
AcDbEntity
  8
30
  6
CONTINUOUS
 62
     0
100
AcDbMText
 10
396.2122762463085
 20
151.2621828604461
 30
0.0
 40
4.0
 41
0.0
 71
     5
 72
     1
  1
\A1;12
 11
0.0000000000000001
 21
1.0
 31
0.0
1001
ACAD
1000
MTEXTBEGIN
1070
    73
1070
     1
1070
    44
1040
1.0
1070
    74
1070
     0
1000
MTEXTEND
  0
POINT
  5
80E2
330
76D1
100
AcDbEntity
  8
DEFPOINTS
  6
CONTINUOUS
 62
     0
100
AcDbPoint
 10
382.7699465681197
 20
145.2621828604461
 30
0.0
  0
POINT
  5
80E3
330
76D1
100
AcDbEntity
  8
DEFPOINTS
  6
CONTINUOUS
 62
     0
100
AcDbPoint
 10
377.7699465681196
 20
157.2621828604461
 30
0.0
  0
POINT
  5
80E4
330
76D1
100
AcDbEntity
  8
DEFPOINTS
  6
CONTINUOUS
 62
     0
100
AcDbPoint
 10
399.2122762463086
 20
157.2621828604461
 30
0.0
  0
ENDBLK
  5
76DC
330
76D1
100
AcDbEntity
  8
0
100
AcDbBlockEnd
  0
BLOCK
  5
76E7
330
76DE
100
AcDbEntity
  8
0
100
AcDbBlockBegin
  2
*D11
 70
     1
 10
0.0
 20
0.0
 30
0.0
  3
*D11
  1

  0
LINE
  5
80D4
330
76DE
100
AcDbEntity
  8
30
  6
CONTINUOUS
 62
     0
100
AcDbLine
 10
397.7347867019194
 20
180.2634688469851
 30
0.0
 11
388.7347867019186
 21
180.263468846985
 31
0.0
  0
LINE
  5
80D5
330
76DE
100
AcDbEntity
  8
30
  6
CONTINUOUS
 62
     0
100
AcDbLine
 10
388.7347867019186
 20
180.263468846985
 30
0.0
 11
374.9650463159395
 21
163.1107757132626
 31
0.0
  0
MTEXT
  5
80D6
330
76DE
100
AcDbEntity
  8
30
  6
CONTINUOUS
 62
     0
100
AcDbMText
 10
393.7347867019194
 20
183.2634688469851
 30
0.0
 40
4.0
 41
0.0
 71
     5
 72
     1
  1
\A1;\U+220511
1001
ACAD
1000
MTEXTBEGIN
1070
    73
1070
     1
1070
    44
1040
1.0
1070
    74
1070
     0
1000
MTEXTEND
  0
INSERT
  5
80D7
330
76DE
100
AcDbEntity
  8
30
  6
CONTINUOUS
 62
     0
100
AcDbBlockReference
  2
_OPEN
 10
373.7130197165208
 20
161.5511509525116
 30
0.0
 41
2.0
 42
2.0
 43
2.0
 50
231.2434003354124
  0
LINE
  5
80D8
330
76DE
100
AcDbEntity
  8
30
  6
CONTINUOUS
 62
     0
100
AcDbLine
 10
370.1799465681193
 20
157.2621828604461
 30
0.0
 11
370.3599465681193
 21
157.262182860446
 31
0.0
  0
LINE
  5
80D9
330
76DE
100
AcDbEntity
  8
30
  6
CONTINUOUS
 62
     0
100
AcDbLine
 10
370.2699465681193
 20
157.172182860446
 30
0.0
 11
370.2699465681194
 21
157.352182860446
 31
0.0
  0
POINT
  5
80DA
330
76DE
100
AcDbEntity
  8
DEFPOINTS
  6
CONTINUOUS
 62
     0
100
AcDbPoint
 10
373.7130197165208
 20
161.5511509525116
 30
0.0
  0
POINT
  5
80DB
330
76DE
100
AcDbEntity
  8
DEFPOINTS
  6
CONTINUOUS
 62
     0
100
AcDbPoint
 10
366.8268734197178
 20
152.9732147683805
 30
0.0
  0
ENDBLK
  5
76E8
330
76DE
100
AcDbEntity
  8
0
100
AcDbBlockEnd
  0
BLOCK
  5
7717
330
770D
100
AcDbEntity
  8
0
100
AcDbBlockBegin
  2
*D12
 70
     1
 10
0.0
 20
0.0
 30
0.0
  3
*D12
  1

  0
LINE
  5
7719
330
770D
100
AcDbEntity
  8
30
  6
CONTINUOUS
 62
     0
100
AcDbLine
 10
273.2585283399446
 20
-129.9999999999998
 30
0.0
 11
256.3232766496641
 21
-129.9999999999998
 31
0.0
  0
LINE
  5
771A
330
770D
100
AcDbEntity
  8
30
  6
CONTINUOUS
 62
     0
100
AcDbLine
 10
240.2585283399444
 20
-159.9999999999998
 30
0.0
 11
257.3232766496642
 21
-159.9999999999998
 31
0.0
  0
LINE
  5
771B
330
770D
100
AcDbEntity
  8
30
  6
CONTINUOUS
 62
     0
100
AcDbLine
 10
256.823276649664
 20
-131.9999999999998
 30
0.0
 11
256.823276649664
 21
-157.9999999999999
 31
0.0
  0
INSERT
  5
771C
330
770D
100
AcDbEntity
  8
30
  6
CONTINUOUS
 62
     0
100
AcDbBlockReference
  2
_OPEN
 10
256.823276649664
 20
-129.9999999999998
 30
0.0
 41
2.0
 42
2.0
 43
2.0
 50
90.0
  0
INSERT
  5
771D
330
770D
100
AcDbEntity
  8
30
  6
CONTINUOUS
 62
     0
100
AcDbBlockReference
  2
_OPEN
 10
256.823276649664
 20
-159.9999999999998
 30
0.0
 41
2.0
 42
2.0
 43
2.0
 50
270.0
  0
MTEXT
  5
771E
330
770D
100
AcDbEntity
  8
30
  6
CONTINUOUS
 62
     0
100
AcDbMText
 10
253.823276649664
 20
-144.9999999999995
 30
0.0
 40
4.0
 41
0.0
 71
     5
 72
     1
  1
\A1;30
 11
0.0000000000000001
 21
1.0
 31
0.0
1001
ACAD
1000
MTEXTBEGIN
1070
    73
1070
     1
1070
    44
1040
1.0
1070
    74
1070
     0
1000
MTEXTEND
1000
MTEXTBEGIN
1070
    73
1070
     1
1070
    44
1040
1.0
1070
    74
1070
     0
1000
MTEXTEND
1000
MTEXTBEGIN
1070
    73
1070
     1
1070
    44
1040
1.0
1070
    74
1070
     0
1000
MTEXTEND
1000
MTEXTBEGIN
1070
    73
1070
     1
1070
    44
1040
1.0
1070
    74
1070
     0
1000
MTEXTEND
1000
MTEXTBEGIN
1070
    73
1070
     1
1070
    44
1040
1.0
1070
    74
1070
     0
1000
MTEXTEND
1000
MTEXTBEGIN
1070
    73
1070
     1
1070
    44
1040
1.0
1070
    74
1070
     0
1000
MTEXTEND
1000
MTEXTBEGIN
1070
    73
1070
     1
1070
    44
1040
1.0
1070
    74
1070
     0
1000
MTEXTEND
1000
MTEXTBEGIN
1070
    73
1070
     1
1070
    44
1040
1.0
1070
    74
1070
     0
1000
MTEXTEND
  0
POINT
  5
771F
330
770D
100
AcDbEntity
  8
DEFPOINTS
  6
CONTINUOUS
 62
     0
100
AcDbPoint
 10
274.2585283399446
 20
-129.9999999999998
 30
0.0
  0
POINT
  5
7720
330
770D
100
AcDbEntity
  8
DEFPOINTS
  6
CONTINUOUS
 62
     0
100
AcDbPoint
 10
239.2585283399446
 20
-159.9999999999998
 30
0.0
  0
POINT
  5
7721
330
770D
100
AcDbEntity
  8
DEFPOINTS
  6
CONTINUOUS
 62
     0
100
AcDbPoint
 10
256.823276649664
 20
-159.9999999999998
 30
0.0
  0
ENDBLK
  5
7718
330
770D
100
AcDbEntity
  8
0
100
AcDbBlockEnd
  0
BLOCK
  5
772D
330
7723
100
AcDbEntity
  8
0
100
AcDbBlockBegin
  2
*D13
 70
     1
 10
0.0
 20
0.0
 30
0.0
  3
*D13
  1

  0
LINE
  5
7724
330
7723
100
AcDbEntity
  8
30
  6
CONTINUOUS
 62
     0
100
AcDbLine
 10
240.2585283399444
 20
-159.9999999999998
 30
0.0
 11
257.8232766496642
 21
-159.9999999999998
 31
0.0
  0
LINE
  5
7725
330
7723
100
AcDbEntity
  8
30
  6
CONTINUOUS
 62
     0
100
AcDbLine
 10
240.2585283399444
 20
-174.4999999999999
 30
0.0
 11
257.8232766496642
 21
-174.4999999999999
 31
0.0
  0
LINE
  5
7726
330
7723
100
AcDbEntity
  8
30
  6
CONTINUOUS
 62
     0
100
AcDbLine
 10
257.3232766496642
 20
-161.9999999999999
 30
0.0
 11
257.3232766496642
 21
-172.4999999999998
 31
0.0
  0
INSERT
  5
7727
330
7723
100
AcDbEntity
  8
30
  6
CONTINUOUS
 62
     0
100
AcDbBlockReference
  2
_OPEN
 10
257.3232766496642
 20
-159.9999999999998
 30
0.0
 41
2.0
 42
2.0
 43
2.0
 50
90.0
  0
INSERT
  5
7728
330
7723
100
AcDbEntity
  8
30
  6
CONTINUOUS
 62
     0
100
AcDbBlockReference
  2
_OPEN
 10
257.3232766496642
 20
-174.4999999999999
 30
0.0
 41
2.0
 42
2.0
 43
2.0
 50
270.0
  0
MTEXT
  5
7729
330
7723
100
AcDbEntity
  8
30
  6
CONTINUOUS
 62
     0
100
AcDbMText
 10
254.323276649664
 20
-167.2499999999998
 30
0.0
 40
4.0
 41
0.0
 71
     5
 72
     1
  1
\A1;14.5
 11
0.0000000000000001
 21
1.0
 31
0.0
1001
ACAD
1000
MTEXTBEGIN
1070
    73
1070
     1
1070
    44
1040
1.0
1070
    74
1070
     0
1000
MTEXTEND
1000
MTEXTBEGIN
1070
    73
1070
     1
1070
    44
1040
1.0
1070
    74
1070
     0
1000
MTEXTEND
1000
MTEXTBEGIN
1070
    73
1070
     1
1070
    44
1040
1.0
1070
    74
1070
     0
1000
MTEXTEND
1000
MTEXTBEGIN
1070
    73
1070
     1
1070
    44
1040
1.0
1070
    74
1070
     0
1000
MTEXTEND
1000
MTEXTBEGIN
1070
    73
1070
     1
1070
    44
1040
1.0
1070
    74
1070
     0
1000
MTEXTEND
1000
MTEXTBEGIN
1070
    73
1070
     1
1070
    44
1040
1.0
1070
    74
1070
     0
1000
MTEXTEND
1000
MTEXTBEGIN
1070
    73
1070
     1
1070
    44
1040
1.0
1070
    74
1070
     0
1000
MTEXTEND
1000
MTEXTBEGIN
1070
    73
1070
     1
1070
    44
1040
1.0
1070
    74
1070
     0
1000
MTEXTEND
  0
POINT
  5
772A
330
7723
100
AcDbEntity
  8
DEFPOINTS
  6
CONTINUOUS
 62
     0
100
AcDbPoint
 10
239.2585283399446
 20
-159.9999999999998
 30
0.0
  0
POINT
  5
772B
330
7723
100
AcDbEntity
  8
DEFPOINTS
  6
CONTINUOUS
 62
     0
100
AcDbPoint
 10
239.2585283399446
 20
-174.4999999999999
 30
0.0
  0
POINT
  5
772C
330
7723
100
AcDbEntity
  8
DEFPOINTS
  6
CONTINUOUS
 62
     0
100
AcDbPoint
 10
257.3232766496642
 20
-174.4999999999999
 30
0.0
  0
ENDBLK
  5
772E
330
7723
100
AcDbEntity
  8
0
100
AcDbBlockEnd
  0
BLOCK
  5
773A
330
7730
100
AcDbEntity
  8
0
100
AcDbBlockBegin
  2
*D14
 70
     1
 10
0.0
 20
0.0
 30
0.0
  3
*D14
  1

  0
LINE
  5
7731
330
7730
100
AcDbEntity
  8
30
  6
CONTINUOUS
 62
     0
100
AcDbLine
 10
-54.0
 20
45.0000000000001
 30
0.0
 11
-91.89860450474336
 21
45.0000000000001
 31
0.0
  0
LINE
  5
7732
330
7730
100
AcDbEntity
  8
30
  6
CONTINUOUS
 62
     0
100
AcDbLine
 10
-54.0
 20
-45.0
 30
0.0
 11
-91.89860450474339
 21
-44.99999999999999
 31
0.0
  0
LINE
  5
7733
330
7730
100
AcDbEntity
  8
30
  6
CONTINUOUS
 62
     0
100
AcDbLine
 10
-91.39860450474335
 20
43.0000000000001
 30
0.0
 11
-91.39860450474341
 21
-42.99999999999999
 31
0.0
  0
INSERT
  5
7734
330
7730
100
AcDbEntity
  8
30
  6
CONTINUOUS
 62
     0
100
AcDbBlockReference
  2
_OPEN
 10
-91.39860450474335
 20
45.0000000000001
 30
0.0
 41
2.0
 42
2.0
 43
2.0
 50
90.0
  0
INSERT
  5
7735
330
7730
100
AcDbEntity
  8
30
  6
CONTINUOUS
 62
     0
100
AcDbBlockReference
  2
_OPEN
 10
-91.39860450474341
 20
-44.99999999999999
 30
0.0
 41
2.0
 42
2.0
 43
2.0
 50
270.0
  0
MTEXT
  5
7736
330
7730
100
AcDbEntity
  8
30
  6
CONTINUOUS
 62
     0
100
AcDbMText
 10
-94.39860450474336
 20
0.0000000000000486
 30
0.0
 40
4.0
 41
0.0
 71
     5
 72
     1
  1
\A1;90
 11
0.0000000000000001
 21
1.0
 31
0.0
1001
ACAD
1000
MTEXTBEGIN
1070
    73
1070
     1
1070
    44
1040
1.0
1070
    74
1070
     0
1000
MTEXTEND
1000
MTEXTBEGIN
1070
    73
1070
     1
1070
    44
1040
1.0
1070
    74
1070
     0
1000
MTEXTEND
1000
MTEXTBEGIN
1070
    73
1070
     1
1070
    44
1040
1.0
1070
    74
1070
     0
1000
MTEXTEND
1000
MTEXTBEGIN
1070
    73
1070
     1
1070
    44
1040
1.0
1070
    74
1070
     0
1000
MTEXTEND
1000
MTEXTBEGIN
1070
    73
1070
     1
1070
    44
1040
1.0
1070
    74
1070
     0
1000
MTEXTEND
1000
MTEXTBEGIN
1070
    73
1070
     1
1070
    44
1040
1.0
1070
    74
1070
     0
1000
MTEXTEND
1000
MTEXTBEGIN
1070
    73
1070
     1
1070
    44
1040
1.0
1070
    74
1070
     0
1000
MTEXTEND
1000
MTEXTBEGIN
1070
    73
1070
     1
1070
    44
1040
1.0
1070
    74
1070
     0
1000
MTEXTEND
  0
POINT
  5
7737
330
7730
100
AcDbEntity
  8
DEFPOINTS
  6
CONTINUOUS
 62
     0
100
AcDbPoint
 10
-53.0
 20
45.0000000000001
 30
0.0
  0
POINT
  5
7738
330
7730
100
AcDbEntity
  8
DEFPOINTS
  6
CONTINUOUS
 62
     0
100
AcDbPoint
 10
-53.0
 20
-45.0
 30
0.0
  0
POINT
  5
7739
330
7730
100
AcDbEntity
  8
DEFPOINTS
  6
CONTINUOUS
 62
     0
100
AcDbPoint
 10
-91.39860450474341
 20
-44.99999999999999
 30
0.0
  0
ENDBLK
  5
773B
330
7730
100
AcDbEntity
  8
0
100
AcDbBlockEnd
  0
BLOCK
  5
7747
330
773D
100
AcDbEntity
  8
0
100
AcDbBlockBegin
  2
*D15
 70
     1
 10
0.0
 20
0.0
 30
0.0
  3
*D15
  1

  0
LINE
  5
773E
330
773D
100
AcDbEntity
  8
30
  6
CONTINUOUS
 62
     0
100
AcDbLine
 10
-71.00000000000004
 20
50.99999999999909
 30
0.0
 11
-104.3479123954377
 21
50.99999999999909
 31
0.0
  0
LINE
  5
773F
330
773D
100
AcDbEntity
  8
30
  6
CONTINUOUS
 62
     0
100
AcDbLine
 10
-71.00000000000004
 20
-51.0
 30
0.0
 11
-104.3479123954377
 21
-50.99999999999999
 31
0.0
  0
LINE
  5
7740
330
773D
100
AcDbEntity
  8
30
  6
CONTINUOUS
 62
     0
100
AcDbLine
 10
-103.8479123954377
 20
48.99999999999909
 30
0.0
 11
-103.8479123954377
 21
-48.99999999999999
 31
0.0
  0
INSERT
  5
7741
330
773D
100
AcDbEntity
  8
30
  6
CONTINUOUS
 62
     0
100
AcDbBlockReference
  2
_OPEN
 10
-103.8479123954377
 20
50.99999999999909
 30
0.0
 41
2.0
 42
2.0
 43
2.0
 50
90.0
  0
INSERT
  5
7742
330
773D
100
AcDbEntity
  8
30
  6
CONTINUOUS
 62
     0
100
AcDbBlockReference
  2
_OPEN
 10
-103.8479123954377
 20
-50.99999999999999
 30
0.0
 41
2.0
 42
2.0
 43
2.0
 50
270.0
  0
MTEXT
  5
7743
330
773D
100
AcDbEntity
  8
30
  6
CONTINUOUS
 62
     0
100
AcDbMText
 10
-106.8479123954377
 20
-0.0000000000004622
 30
0.0
 40
4.0
 41
0.0
 71
     5
 72
     1
  1
\A1;102
 11
0.0000000000000001
 21
1.0
 31
0.0
1001
ACAD
1000
MTEXTBEGIN
1070
    73
1070
     1
1070
    44
1040
1.0
1070
    74
1070
     0
1000
MTEXTEND
1000
MTEXTBEGIN
1070
    73
1070
     1
1070
    44
1040
1.0
1070
    74
1070
     0
1000
MTEXTEND
1000
MTEXTBEGIN
1070
    73
1070
     1
1070
    44
1040
1.0
1070
    74
1070
     0
1000
MTEXTEND
1000
MTEXTBEGIN
1070
    73
1070
     1
1070
    44
1040
1.0
1070
    74
1070
     0
1000
MTEXTEND
1000
MTEXTBEGIN
1070
    73
1070
     1
1070
    44
1040
1.0
1070
    74
1070
     0
1000
MTEXTEND
1000
MTEXTBEGIN
1070
    73
1070
     1
1070
    44
1040
1.0
1070
    74
1070
     0
1000
MTEXTEND
1000
MTEXTBEGIN
1070
    73
1070
     1
1070
    44
1040
1.0
1070
    74
1070
     0
1000
MTEXTEND
1000
MTEXTBEGIN
1070
    73
1070
     1
1070
    44
1040
1.0
1070
    74
1070
     0
1000
MTEXTEND
  0
POINT
  5
7744
330
773D
100
AcDbEntity
  8
DEFPOINTS
  6
CONTINUOUS
 62
     0
100
AcDbPoint
 10
-70.00000000000007
 20
50.99999999999909
 30
0.0
  0
POINT
  5
7745
330
773D
100
AcDbEntity
  8
DEFPOINTS
  6
CONTINUOUS
 62
     0
100
AcDbPoint
 10
-70.00000000000007
 20
-51.0
 30
0.0
  0
POINT
  5
7746
330
773D
100
AcDbEntity
  8
DEFPOINTS
  6
CONTINUOUS
 62
     0
100
AcDbPoint
 10
-103.8479123954377
 20
-50.99999999999999
 30
0.0
  0
ENDBLK
  5
7748
330
773D
100
AcDbEntity
  8
0
100
AcDbBlockEnd
  0
BLOCK
  5
7754
330
774A
100
AcDbEntity
  8
0
100
AcDbBlockBegin
  2
*D16
 70
     1
 10
0.0
 20
0.0
 30
0.0
  3
*D16
  1

  0
LINE
  5
774B
330
774A
100
AcDbEntity
  8
30
  6
CONTINUOUS
 62
     0
100
AcDbLine
 10
-71.00000000000004
 20
130.0
 30
0.0
 11
-116.0191388944171
 21
130.0
 31
0.0
  0
LINE
  5
774C
330
774A
100
AcDbEntity
  8
30
  6
CONTINUOUS
 62
     0
100
AcDbLine
 10
-71.00000000000004
 20
-130.0
 30
0.0
 11
-116.0191388944172
 21
-130.0
 31
0.0
  0
LINE
  5
774D
330
774A
100
AcDbEntity
  8
30
  6
CONTINUOUS
 62
     0
100
AcDbLine
 10
-115.519138894417
 20
128.0
 30
0.0
 11
-115.5191388944172
 21
-128.0
 31
0.0
  0
INSERT
  5
774E
330
774A
100
AcDbEntity
  8
30
  6
CONTINUOUS
 62
     0
100
AcDbBlockReference
  2
_OPEN
 10
-115.519138894417
 20
130.0
 30
0.0
 41
2.0
 42
2.0
 43
2.0
 50
90.0
  0
INSERT
  5
774F
330
774A
100
AcDbEntity
  8
30
  6
CONTINUOUS
 62
     0
100
AcDbBlockReference
  2
_OPEN
 10
-115.5191388944172
 20
-130.0
 30
0.0
 41
2.0
 42
2.0
 43
2.0
 50
270.0
  0
MTEXT
  5
7750
330
774A
100
AcDbEntity
  8
30
  6
CONTINUOUS
 62
     0
100
AcDbMText
 10
-118.519138894417
 20
0.0000000000000359
 30
0.0
 40
4.0
 41
0.0
 71
     5
 72
     1
  1
\A1;260
 11
0.0000000000000001
 21
1.0
 31
0.0
1001
ACAD
1000
MTEXTBEGIN
1070
    73
1070
     1
1070
    44
1040
1.0
1070
    74
1070
     0
1000
MTEXTEND
1000
MTEXTBEGIN
1070
    73
1070
     1
1070
    44
1040
1.0
1070
    74
1070
     0
1000
MTEXTEND
1000
MTEXTBEGIN
1070
    73
1070
     1
1070
    44
1040
1.0
1070
    74
1070
     0
1000
MTEXTEND
1000
MTEXTBEGIN
1070
    73
1070
     1
1070
    44
1040
1.0
1070
    74
1070
     0
1000
MTEXTEND
1000
MTEXTBEGIN
1070
    73
1070
     1
1070
    44
1040
1.0
1070
    74
1070
     0
1000
MTEXTEND
1000
MTEXTBEGIN
1070
    73
1070
     1
1070
    44
1040
1.0
1070
    74
1070
     0
1000
MTEXTEND
1000
MTEXTBEGIN
1070
    73
1070
     1
1070
    44
1040
1.0
1070
    74
1070
     0
1000
MTEXTEND
1000
MTEXTBEGIN
1070
    73
1070
     1
1070
    44
1040
1.0
1070
    74
1070
     0
1000
MTEXTEND
  0
POINT
  5
7751
330
774A
100
AcDbEntity
  8
DEFPOINTS
  6
CONTINUOUS
 62
     0
100
AcDbPoint
 10
-70.00000000000007
 20
130.0
 30
0.0
  0
POINT
  5
7752
330
774A
100
AcDbEntity
  8
DEFPOINTS
  6
CONTINUOUS
 62
     0
100
AcDbPoint
 10
-70.00000000000007
 20
-130.0
 30
0.0
  0
POINT
  5
7753
330
774A
100
AcDbEntity
  8
DEFPOINTS
  6
CONTINUOUS
 62
     0
100
AcDbPoint
 10
-115.5191388944172
 20
-130.0
 30
0.0
  0
ENDBLK
  5
7755
330
774A
100
AcDbEntity
  8
0
100
AcDbBlockEnd
  0
BLOCK
  5
7762
330
7758
100
AcDbEntity
  8
0
100
AcDbBlockBegin
  2
*D17
 70
     1
 10
0.0
 20
0.0
 30
0.0
  3
*D17
  1

  0
LINE
  5
7759
330
7758
100
AcDbEntity
  8
30
  6
CONTINUOUS
 62
     0
100
AcDbLine
 10
-60.0
 20
-172.0
 30
0.0
 11
-60.0
 21
-187.9375309206458
 31
0.0
  0
LINE
  5
775A
330
7758
100
AcDbEntity
  8
30
  6
CONTINUOUS
 62
     0
100
AcDbLine
 10
-0.0000000000000001
 20
-172.0
 30
0.0
 11
-0.000000000000001
 21
-187.9375309206458
 31
0.0
  0
LINE
  5
775B
330
7758
100
AcDbEntity
  8
30
  6
CONTINUOUS
 62
     0
100
AcDbLine
 10
-58.0
 20
-187.4375309206458
 30
0.0
 11
-2.0
 21
-187.4375309206458
 31
0.0
  0
INSERT
  5
775C
330
7758
100
AcDbEntity
  8
30
  6
CONTINUOUS
 62
     0
100
AcDbBlockReference
  2
_OPEN
 10
-60.0
 20
-187.4375309206458
 30
0.0
 41
2.0
 42
2.0
 43
2.0
 50
180.0
  0
INSERT
  5
775D
330
7758
100
AcDbEntity
  8
30
  6
CONTINUOUS
 62
     0
100
AcDbBlockReference
  2
_OPEN
 10
-0.000000000000001
 20
-187.4375309206458
 30
0.0
 41
2.0
 42
2.0
 43
2.0
  0
MTEXT
  5
775E
330
7758
100
AcDbEntity
  8
30
  6
CONTINUOUS
 62
     0
100
AcDbMText
 10
-30.0
 20
-184.4375309206458
 30
0.0
 40
4.0
 41
0.0
 71
     5
 72
     1
  1
\A1;60
1001
ACAD
1000
MTEXTBEGIN
1070
    73
1070
     1
1070
    44
1040
1.0
1070
    74
1070
     0
1000
MTEXTEND
1000
MTEXTBEGIN
1070
    73
1070
     1
1070
    44
1040
1.0
1070
    74
1070
     0
1000
MTEXTEND
1000
MTEXTBEGIN
1070
    73
1070
     1
1070
    44
1040
1.0
1070
    74
1070
     0
1000
MTEXTEND
1000
MTEXTBEGIN
1070
    73
1070
     1
1070
    44
1040
1.0
1070
    74
1070
     0
1000
MTEXTEND
1000
MTEXTBEGIN
1070
    73
1070
     1
1070
    44
1040
1.0
1070
    74
1070
     0
1000
MTEXTEND
1000
MTEXTBEGIN
1070
    73
1070
     1
1070
    44
1040
1.0
1070
    74
1070
     0
1000
MTEXTEND
1000
MTEXTBEGIN
1070
    73
1070
     1
1070
    44
1040
1.0
1070
    74
1070
     0
1000
MTEXTEND
1000
MTEXTBEGIN
1070
    73
1070
     1
1070
    44
1040
1.0
1070
    74
1070
     0
1000
MTEXTEND
  0
POINT
  5
775F
330
7758
100
AcDbEntity
  8
DEFPOINTS
  6
CONTINUOUS
 62
     0
100
AcDbPoint
 10
-60.0
 20
-171.0
 30
0.0
  0
POINT
  5
7760
330
7758
100
AcDbEntity
  8
DEFPOINTS
  6
CONTINUOUS
 62
     0
100
AcDbPoint
 10
0.0
 20
-171.0
 30
0.0
  0
POINT
  5
7761
330
7758
100
AcDbEntity
  8
DEFPOINTS
  6
CONTINUOUS
 62
     0
100
AcDbPoint
 10
-0.000000000000001
 20
-187.4375309206458
 30
0.0
  0
ENDBLK
  5
7763
330
7758
100
AcDbEntity
  8
0
100
AcDbBlockEnd
  0
BLOCK
  5
776F
330
7765
100
AcDbEntity
  8
0
100
AcDbBlockBegin
  2
*D18
 70
     1
 10
0.0
 20
0.0
 30
0.0
  3
*D18
  1

  0
LINE
  5
7766
330
7765
100
AcDbEntity
  8
30
  6
CONTINUOUS
 62
     0
100
AcDbLine
 10
-0.0000000000000001
 20
-172.0
 30
0.0
 11
-0.000000000000001
 21
-187.9375309206458
 31
0.0
  0
LINE
  5
7767
330
7765
100
AcDbEntity
  8
30
  6
CONTINUOUS
 62
     0
100
AcDbLine
 10
60.0
 20
-172.0
 30
0.0
 11
60.0
 21
-187.9375309206458
 31
0.0
  0
LINE
  5
7768
330
7765
100
AcDbEntity
  8
30
  6
CONTINUOUS
 62
     0
100
AcDbLine
 10
1.999999999999998
 20
-187.4375309206458
 30
0.0
 11
58.0
 21
-187.4375309206458
 31
0.0
  0
INSERT
  5
7769
330
7765
100
AcDbEntity
  8
30
  6
CONTINUOUS
 62
     0
100
AcDbBlockReference
  2
_OPEN
 10
-0.000000000000001
 20
-187.4375309206458
 30
0.0
 41
2.0
 42
2.0
 43
2.0
 50
180.0
  0
INSERT
  5
776A
330
7765
100
AcDbEntity
  8
30
  6
CONTINUOUS
 62
     0
100
AcDbBlockReference
  2
_OPEN
 10
60.0
 20
-187.4375309206458
 30
0.0
 41
2.0
 42
2.0
 43
2.0
  0
MTEXT
  5
776B
330
7765
100
AcDbEntity
  8
30
  6
CONTINUOUS
 62
     0
100
AcDbMText
 10
30.0
 20
-184.4375309206458
 30
0.0
 40
4.0
 41
0.0
 71
     5
 72
     1
  1
\A1;60
1001
ACAD
1000
MTEXTBEGIN
1070
    73
1070
     1
1070
    44
1040
1.0
1070
    74
1070
     0
1000
MTEXTEND
1000
MTEXTBEGIN
1070
    73
1070
     1
1070
    44
1040
1.0
1070
    74
1070
     0
1000
MTEXTEND
1000
MTEXTBEGIN
1070
    73
1070
     1
1070
    44
1040
1.0
1070
    74
1070
     0
1000
MTEXTEND
1000
MTEXTBEGIN
1070
    73
1070
     1
1070
    44
1040
1.0
1070
    74
1070
     0
1000
MTEXTEND
1000
MTEXTBEGIN
1070
    73
1070
     1
1070
    44
1040
1.0
1070
    74
1070
     0
1000
MTEXTEND
1000
MTEXTBEGIN
1070
    73
1070
     1
1070
    44
1040
1.0
1070
    74
1070
     0
1000
MTEXTEND
1000
MTEXTBEGIN
1070
    73
1070
     1
1070
    44
1040
1.0
1070
    74
1070
     0
1000
MTEXTEND
1000
MTEXTBEGIN
1070
    73
1070
     1
1070
    44
1040
1.0
1070
    74
1070
     0
1000
MTEXTEND
  0
POINT
  5
776C
330
7765
100
AcDbEntity
  8
DEFPOINTS
  6
CONTINUOUS
 62
     0
100
AcDbPoint
 10
0.0
 20
-171.0
 30
0.0
  0
POINT
  5
776D
330
7765
100
AcDbEntity
  8
DEFPOINTS
  6
CONTINUOUS
 62
     0
100
AcDbPoint
 10
60.0
 20
-171.0
 30
0.0
  0
POINT
  5
776E
330
7765
100
AcDbEntity
  8
DEFPOINTS
  6
CONTINUOUS
 62
     0
100
AcDbPoint
 10
60.0
 20
-187.4375309206458
 30
0.0
  0
ENDBLK
  5
7770
330
7765
100
AcDbEntity
  8
0
100
AcDbBlockEnd
  0
BLOCK
  5
777C
330
7772
100
AcDbEntity
  8
0
100
AcDbBlockBegin
  2
*D19
 70
     1
 10
0.0
 20
0.0
 30
0.0
  3
*D19
  1

  0
LINE
  5
7BA4
330
7772
100
AcDbEntity
  8
30
  6
CONTINUOUS
 62
     0
100
AcDbLine
 10
-70.00000000000007
 20
-131.0
 30
0.0
 11
-70.00000000000007
 21
-154.2989500761054
 31
0.0
  0
LINE
  5
7BA5
330
7772
100
AcDbEntity
  8
30
  6
CONTINUOUS
 62
     0
100
AcDbLine
 10
70.0
 20
-131.0
 30
0.0
 11
70.0
 21
-154.2989500761054
 31
0.0
  0
LINE
  5
7BA6
330
7772
100
AcDbEntity
  8
30
  6
CONTINUOUS
 62
     0
100
AcDbLine
 10
-68.00000000000007
 20
-153.7989500761054
 30
0.0
 11
68.0
 21
-153.7989500761054
 31
0.0
  0
INSERT
  5
7BA7
330
7772
100
AcDbEntity
  8
30
  6
CONTINUOUS
 62
     0
100
AcDbBlockReference
  2
_OPEN
 10
-70.00000000000007
 20
-153.7989500761054
 30
0.0
 41
2.0
 42
2.0
 43
2.0
 50
180.0
  0
INSERT
  5
7BA8
330
7772
100
AcDbEntity
  8
30
  6
CONTINUOUS
 62
     0
100
AcDbBlockReference
  2
_OPEN
 10
70.0
 20
-153.7989500761054
 30
0.0
 41
2.0
 42
2.0
 43
2.0
  0
MTEXT
  5
7BA9
330
7772
100
AcDbEntity
  8
30
  6
CONTINUOUS
 62
     0
100
AcDbMText
 10
-0.0000000000000282
 20
-150.7989500761054
 30
0.0
 40
4.0
 41
0.0
 71
     5
 72
     1
  1
\A1;140
1001
ACAD
1000
MTEXTBEGIN
1070
    73
1070
     1
1070
    44
1040
1.0
1070
    74
1070
     0
1000
MTEXTEND
1000
MTEXTBEGIN
1070
    73
1070
     1
1070
    44
1040
1.0
1070
    74
1070
     0
1000
MTEXTEND
1000
MTEXTBEGIN
1070
    73
1070
     1
1070
    44
1040
1.0
1070
    74
1070
     0
1000
MTEXTEND
1000
MTEXTBEGIN
1070
    73
1070
     1
1070
    44
1040
1.0
1070
    74
1070
     0
1000
MTEXTEND
1000
MTEXTBEGIN
1070
    73
1070
     1
1070
    44
1040
1.0
1070
    74
1070
     0
1000
MTEXTEND
1000
MTEXTBEGIN
1070
    73
1070
     1
1070
    44
1040
1.0
1070
    74
1070
     0
1000
MTEXTEND
1000
MTEXTBEGIN
1070
    73
1070
     1
1070
    44
1040
1.0
1070
    74
1070
     0
1000
MTEXTEND
1000
MTEXTBEGIN
1070
    73
1070
     1
1070
    44
1040
1.0
1070
    74
1070
     0
1000
MTEXTEND
  0
POINT
  5
7BAA
330
7772
100
AcDbEntity
  8
DEFPOINTS
  6
CONTINUOUS
 62
     0
100
AcDbPoint
 10
-70.00000000000007
 20
-130.0
 30
0.0
  0
POINT
  5
7BAB
330
7772
100
AcDbEntity
  8
DEFPOINTS
  6
CONTINUOUS
 62
     0
100
AcDbPoint
 10
70.0
 20
-130.0
 30
0.0
  0
POINT
  5
7BAC
330
7772
100
AcDbEntity
  8
DEFPOINTS
  6
CONTINUOUS
 62
     0
100
AcDbPoint
 10
70.0
 20
-153.7989500761054
 30
0.0
  0
ENDBLK
  5
777D
330
7772
100
AcDbEntity
  8
0
100
AcDbBlockEnd
  0
BLOCK
  5
77E0
330
77D6
100
AcDbEntity
  8
0
100
AcDbBlockBegin
  2
*D20
 70
     1
 10
0.0
 20
0.0
 30
0.0
  3
*D20
  1

  0
LINE
  5
77F8
330
77D6
100
AcDbEntity
  8
30
  6
CONTINUOUS
 62
     0
100
AcDbLine
 10
238.2585283399446
 20
175.5
 30
0.0
 11
238.2585283399446
 21
184.7587842897579
 31
0.0
  0
LINE
  5
77F9
330
77D6
100
AcDbEntity
  8
30
  6
CONTINUOUS
 62
     0
100
AcDbLine
 10
274.2585283399446
 20
131.0000000000002
 30
0.0
 11
274.2585283399446
 21
184.7587842897579
 31
0.0
  0
LINE
  5
77FA
330
77D6
100
AcDbEntity
  8
30
  6
CONTINUOUS
 62
     0
100
AcDbLine
 10
240.2585283399444
 20
184.2587842897581
 30
0.0
 11
272.2585283399446
 21
184.2587842897581
 31
0.0
  0
INSERT
  5
77FB
330
77D6
100
AcDbEntity
  8
30
  6
CONTINUOUS
 62
     0
100
AcDbBlockReference
  2
_OPEN
 10
238.2585283399446
 20
184.2587842897581
 30
0.0
 41
2.0
 42
2.0
 43
2.0
 50
180.0
  0
INSERT
  5
77FC
330
77D6
100
AcDbEntity
  8
30
  6
CONTINUOUS
 62
     0
100
AcDbBlockReference
  2
_OPEN
 10
274.2585283399446
 20
184.2587842897581
 30
0.0
 41
2.0
 42
2.0
 43
2.0
  0
MTEXT
  5
77FD
330
77D6
100
AcDbEntity
  8
30
  6
CONTINUOUS
 62
     0
100
AcDbMText
 10
256.2585283399446
 20
187.2587842897583
 30
0.0
 40
4.0
 41
0.0
 71
     5
 72
     1
  1
\A1;36
1001
ACAD
1000
MTEXTBEGIN
1070
    73
1070
     1
1070
    44
1040
1.0
1070
    74
1070
     0
1000
MTEXTEND
1000
MTEXTBEGIN
1070
    73
1070
     1
1070
    44
1040
1.0
1070
    74
1070
     0
1000
MTEXTEND
1000
MTEXTBEGIN
1070
    73
1070
     1
1070
    44
1040
1.0
1070
    74
1070
     0
1000
MTEXTEND
1000
MTEXTBEGIN
1070
    73
1070
     1
1070
    44
1040
1.0
1070
    74
1070
     0
1000
MTEXTEND
1000
MTEXTBEGIN
1070
    73
1070
     1
1070
    44
1040
1.0
1070
    74
1070
     0
1000
MTEXTEND
1000
MTEXTBEGIN
1070
    73
1070
     1
1070
    44
1040
1.0
1070
    74
1070
     0
1000
MTEXTEND
1000
MTEXTBEGIN
1070
    73
1070
     1
1070
    44
1040
1.0
1070
    74
1070
     0
1000
MTEXTEND
1000
MTEXTBEGIN
1070
    73
1070
     1
1070
    44
1040
1.0
1070
    74
1070
     0
1000
MTEXTEND
  0
POINT
  5
77FE
330
77D6
100
AcDbEntity
  8
DEFPOINTS
  6
CONTINUOUS
 62
     0
100
AcDbPoint
 10
238.2585283399446
 20
174.5
 30
0.0
  0
POINT
  5
77FF
330
77D6
100
AcDbEntity
  8
DEFPOINTS
  6
CONTINUOUS
 62
     0
100
AcDbPoint
 10
274.2585283399446
 20
130.0000000000002
 30
0.0
  0
POINT
  5
7800
330
77D6
100
AcDbEntity
  8
DEFPOINTS
  6
CONTINUOUS
 62
     0
100
AcDbPoint
 10
274.2585283399446
 20
184.2587842897581
 30
0.0
  0
ENDBLK
  5
77E1
330
77D6
100
AcDbEntity
  8
0
100
AcDbBlockEnd
  0
BLOCK
  5
77F6
330
77EC
100
AcDbEntity
  8
0
100
AcDbBlockBegin
  2
*D21
 70
     1
 10
0.0
 20
0.0
 30
0.0
  3
*D21
  1

  0
LINE
  5
7801
330
77EC
100
AcDbEntity
  8
30
  6
CONTINUOUS
 62
     0
100
AcDbLine
 10
238.2585283399446
 20
175.5
 30
0.0
 11
238.2585283399446
 21
184.7587842897579
 31
0.0
  0
LINE
  5
7802
330
77EC
100
AcDbEntity
  8
30
  6
CONTINUOUS
 62
     0
100
AcDbLine
 10
230.2585283399446
 20
175.5
 30
0.0
 11
230.2585283399446
 21
184.7587842897579
 31
0.0
  0
LINE
  5
7803
330
77EC
100
AcDbEntity
  8
30
  6
CONTINUOUS
 62
     0
100
AcDbLine
 10
236.2585283399446
 20
184.2587842897581
 30
0.0
 11
232.2585283399446
 21
184.2587842897581
 31
0.0
  0
INSERT
  5
7804
330
77EC
100
AcDbEntity
  8
30
  6
CONTINUOUS
 62
     0
100
AcDbBlockReference
  2
_OPEN
 10
238.2585283399446
 20
184.2587842897581
 30
0.0
 41
2.0
 42
2.0
 43
2.0
  0
INSERT
  5
7805
330
77EC
100
AcDbEntity
  8
30
  6
CONTINUOUS
 62
     0
100
AcDbBlockReference
  2
_OPEN
 10
230.2585283399446
 20
184.2587842897581
 30
0.0
 41
2.0
 42
2.0
 43
2.0
 50
180.0
  0
MTEXT
  5
7806
330
77EC
100
AcDbEntity
  8
30
  6
CONTINUOUS
 62
     0
100
AcDbMText
 10
234.2585283399446
 20
187.2587842897583
 30
0.0
 40
4.0
 41
0.0
 71
     5
 72
     1
  1
\A1;8
1001
ACAD
1000
MTEXTBEGIN
1070
    73
1070
     1
1070
    44
1040
1.0
1070
    74
1070
     0
1000
MTEXTEND
1000
MTEXTBEGIN
1070
    73
1070
     1
1070
    44
1040
1.0
1070
    74
1070
     0
1000
MTEXTEND
1000
MTEXTBEGIN
1070
    73
1070
     1
1070
    44
1040
1.0
1070
    74
1070
     0
1000
MTEXTEND
1000
MTEXTBEGIN
1070
    73
1070
     1
1070
    44
1040
1.0
1070
    74
1070
     0
1000
MTEXTEND
1000
MTEXTBEGIN
1070
    73
1070
     1
1070
    44
1040
1.0
1070
    74
1070
     0
1000
MTEXTEND
1000
MTEXTBEGIN
1070
    73
1070
     1
1070
    44
1040
1.0
1070
    74
1070
     0
1000
MTEXTEND
1000
MTEXTBEGIN
1070
    73
1070
     1
1070
    44
1040
1.0
1070
    74
1070
     0
1000
MTEXTEND
1000
MTEXTBEGIN
1070
    73
1070
     1
1070
    44
1040
1.0
1070
    74
1070
     0
1000
MTEXTEND
  0
POINT
  5
7807
330
77EC
100
AcDbEntity
  8
DEFPOINTS
  6
CONTINUOUS
 62
     0
100
AcDbPoint
 10
238.2585283399446
 20
174.5
 30
0.0
  0
POINT
  5
7808
330
77EC
100
AcDbEntity
  8
DEFPOINTS
  6
CONTINUOUS
 62
     0
100
AcDbPoint
 10
230.2585283399446
 20
174.5
 30
0.0
  0
POINT
  5
7809
330
77EC
100
AcDbEntity
  8
DEFPOINTS
  6
CONTINUOUS
 62
     0
100
AcDbPoint
 10
230.2585283399446
 20
184.2587842897581
 30
0.0
  0
ENDBLK
  5
77F7
330
77EC
100
AcDbEntity
  8
0
100
AcDbBlockEnd
  0
BLOCK
  5
7815
330
780B
100
AcDbEntity
  8
0
100
AcDbBlockBegin
  2
*D22
 70
     1
 10
0.0
 20
0.0
 30
0.0
  3
*D22
  1

  0
LINE
  5
780C
330
780B
100
AcDbEntity
  8
30
  6
CONTINUOUS
 62
     0
100
AcDbLine
 10
274.2585283399446
 20
-130.9999999999998
 30
0.0
 11
274.2585283399446
 21
-187.4743266923104
 31
0.0
  0
LINE
  5
780D
330
780B
100
AcDbEntity
  8
30
  6
CONTINUOUS
 62
     0
100
AcDbLine
 10
239.2585283399446
 20
-175.4999999999999
 30
0.0
 11
239.2585283399446
 21
-187.4743266923104
 31
0.0
  0
LINE
  5
780E
330
780B
100
AcDbEntity
  8
30
  6
CONTINUOUS
 62
     0
100
AcDbLine
 10
272.2585283399446
 20
-186.9743266923101
 30
0.0
 11
241.2585283399446
 21
-186.9743266923101
 31
0.0
  0
INSERT
  5
780F
330
780B
100
AcDbEntity
  8
30
  6
CONTINUOUS
 62
     0
100
AcDbBlockReference
  2
_OPEN
 10
274.2585283399446
 20
-186.9743266923101
 30
0.0
 41
2.0
 42
2.0
 43
2.0
  0
INSERT
  5
7810
330
780B
100
AcDbEntity
  8
30
  6
CONTINUOUS
 62
     0
100
AcDbBlockReference
  2
_OPEN
 10
239.2585283399446
 20
-186.9743266923101
 30
0.0
 41
2.0
 42
2.0
 43
2.0
 50
180.0
  0
MTEXT
  5
7811
330
780B
100
AcDbEntity
  8
30
  6
CONTINUOUS
 62
     0
100
AcDbMText
 10
256.7585283399446
 20
-183.9743266923104
 30
0.0
 40
4.0
 41
0.0
 71
     5
 72
     1
  1
\A1;35
1001
ACAD
1000
MTEXTBEGIN
1070
    73
1070
     1
1070
    44
1040
1.0
1070
    74
1070
     0
1000
MTEXTEND
1000
MTEXTBEGIN
1070
    73
1070
     1
1070
    44
1040
1.0
1070
    74
1070
     0
1000
MTEXTEND
1000
MTEXTBEGIN
1070
    73
1070
     1
1070
    44
1040
1.0
1070
    74
1070
     0
1000
MTEXTEND
1000
MTEXTBEGIN
1070
    73
1070
     1
1070
    44
1040
1.0
1070
    74
1070
     0
1000
MTEXTEND
1000
MTEXTBEGIN
1070
    73
1070
     1
1070
    44
1040
1.0
1070
    74
1070
     0
1000
MTEXTEND
1000
MTEXTBEGIN
1070
    73
1070
     1
1070
    44
1040
1.0
1070
    74
1070
     0
1000
MTEXTEND
1000
MTEXTBEGIN
1070
    73
1070
     1
1070
    44
1040
1.0
1070
    74
1070
     0
1000
MTEXTEND
1000
MTEXTBEGIN
1070
    73
1070
     1
1070
    44
1040
1.0
1070
    74
1070
     0
1000
MTEXTEND
  0
POINT
  5
7812
330
780B
100
AcDbEntity
  8
DEFPOINTS
  6
CONTINUOUS
 62
     0
100
AcDbPoint
 10
274.2585283399446
 20
-129.9999999999998
 30
0.0
  0
POINT
  5
7813
330
780B
100
AcDbEntity
  8
DEFPOINTS
  6
CONTINUOUS
 62
     0
100
AcDbPoint
 10
239.2585283399446
 20
-174.4999999999999
 30
0.0
  0
POINT
  5
7814
330
780B
100
AcDbEntity
  8
DEFPOINTS
  6
CONTINUOUS
 62
     0
100
AcDbPoint
 10
239.2585283399446
 20
-186.9743266923101
 30
0.0
  0
ENDBLK
  5
7816
330
780B
100
AcDbEntity
  8
0
100
AcDbBlockEnd
  0
BLOCK
  5
7822
330
7818
100
AcDbEntity
  8
0
100
AcDbBlockBegin
  2
*D23
 70
     1
 10
0.0
 20
0.0
 30
0.0
  3
*D23
  1

  0
LINE
  5
7819
330
7818
100
AcDbEntity
  8
30
  6
CONTINUOUS
 62
     0
100
AcDbLine
 10
239.2585283399446
 20
-175.4999999999999
 30
0.0
 11
239.2585283399446
 21
-187.4743266923104
 31
0.0
  0
LINE
  5
781A
330
7818
100
AcDbEntity
  8
30
  6
CONTINUOUS
 62
     0
100
AcDbLine
 10
231.2585283399446
 20
-175.4999999999999
 30
0.0
 11
231.2585283399446
 21
-187.4743266923104
 31
0.0
  0
LINE
  5
781B
330
7818
100
AcDbEntity
  8
30
  6
CONTINUOUS
 62
     0
100
AcDbLine
 10
237.2585283399446
 20
-186.9743266923101
 30
0.0
 11
233.2585283399446
 21
-186.9743266923101
 31
0.0
  0
INSERT
  5
781C
330
7818
100
AcDbEntity
  8
30
  6
CONTINUOUS
 62
     0
100
AcDbBlockReference
  2
_OPEN
 10
239.2585283399446
 20
-186.9743266923101
 30
0.0
 41
2.0
 42
2.0
 43
2.0
  0
INSERT
  5
781D
330
7818
100
AcDbEntity
  8
30
  6
CONTINUOUS
 62
     0
100
AcDbBlockReference
  2
_OPEN
 10
231.2585283399446
 20
-186.9743266923101
 30
0.0
 41
2.0
 42
2.0
 43
2.0
 50
180.0
  0
MTEXT
  5
781E
330
7818
100
AcDbEntity
  8
30
  6
CONTINUOUS
 62
     0
100
AcDbMText
 10
235.2585283399446
 20
-183.9743266923104
 30
0.0
 40
4.0
 41
0.0
 71
     5
 72
     1
  1
\A1;8
1001
ACAD
1000
MTEXTBEGIN
1070
    73
1070
     1
1070
    44
1040
1.0
1070
    74
1070
     0
1000
MTEXTEND
1000
MTEXTBEGIN
1070
    73
1070
     1
1070
    44
1040
1.0
1070
    74
1070
     0
1000
MTEXTEND
1000
MTEXTBEGIN
1070
    73
1070
     1
1070
    44
1040
1.0
1070
    74
1070
     0
1000
MTEXTEND
1000
MTEXTBEGIN
1070
    73
1070
     1
1070
    44
1040
1.0
1070
    74
1070
     0
1000
MTEXTEND
1000
MTEXTBEGIN
1070
    73
1070
     1
1070
    44
1040
1.0
1070
    74
1070
     0
1000
MTEXTEND
1000
MTEXTBEGIN
1070
    73
1070
     1
1070
    44
1040
1.0
1070
    74
1070
     0
1000
MTEXTEND
1000
MTEXTBEGIN
1070
    73
1070
     1
1070
    44
1040
1.0
1070
    74
1070
     0
1000
MTEXTEND
1000
MTEXTBEGIN
1070
    73
1070
     1
1070
    44
1040
1.0
1070
    74
1070
     0
1000
MTEXTEND
  0
POINT
  5
781F
330
7818
100
AcDbEntity
  8
DEFPOINTS
  6
CONTINUOUS
 62
     0
100
AcDbPoint
 10
239.2585283399446
 20
-174.4999999999999
 30
0.0
  0
POINT
  5
7820
330
7818
100
AcDbEntity
  8
DEFPOINTS
  6
CONTINUOUS
 62
     0
100
AcDbPoint
 10
231.2585283399446
 20
-174.4999999999999
 30
0.0
  0
POINT
  5
7821
330
7818
100
AcDbEntity
  8
DEFPOINTS
  6
CONTINUOUS
 62
     0
100
AcDbPoint
 10
231.2585283399446
 20
-186.9743266923101
 30
0.0
  0
ENDBLK
  5
7823
330
7818
100
AcDbEntity
  8
0
100
AcDbBlockEnd
  0
BLOCK
  5
78A0
330
7896
100
AcDbEntity
  8
0
100
AcDbBlockBegin
  2
*D24
 70
     1
 10
0.0
 20
0.0
 30
0.0
  3
*D24
  1

  0
LINE
  5
80BA
330
7896
100
AcDbEntity
  8
30
  6
CONTINUOUS
 62
     0
100
AcDbLine
 10
324.2585283399446
 20
-131.9999999999998
 30
0.0
 11
324.2585283399446
 21
-149.8060655566289
 31
0.0
  0
LINE
  5
80BB
330
7896
100
AcDbEntity
  8
30
  6
CONTINUOUS
 62
     0
100
AcDbLine
 10
223.2585283399445
 20
-149.3060655566289
 30
0.0
 11
322.2585283399446
 21
-149.3060655566289
 31
0.0
  0
INSERT
  5
80BC
330
7896
100
AcDbEntity
  8
30
  6
CONTINUOUS
 62
     0
100
AcDbBlockReference
  2
_OPEN
 10
221.2585283399445
 20
-149.3060655566289
 30
0.0
 41
2.0
 42
2.0
 43
2.0
 50
180.0
  0
INSERT
  5
80BD
330
7896
100
AcDbEntity
  8
30
  6
CONTINUOUS
 62
     0
100
AcDbBlockReference
  2
_OPEN
 10
324.2585283399446
 20
-149.3060655566289
 30
0.0
 41
2.0
 42
2.0
 43
2.0
  0
MTEXT
  5
80BE
330
7896
100
AcDbEntity
  8
30
  6
CONTINUOUS
 62
     0
100
AcDbMText
 10
272.7585283399446
 20
-146.3060655566289
 30
0.0
 40
4.0
 41
0.0
 71
     5
 72
     1
  1
\A1;103
1001
ACAD
1000
MTEXTBEGIN
1070
    73
1070
     1
1070
    44
1040
1.0
1070
    74
1070
     0
1000
MTEXTEND
  0
POINT
  5
80BF
330
7896
100
AcDbEntity
  8
DEFPOINTS
  6
CONTINUOUS
 62
     0
100
AcDbPoint
 10
221.2585283399445
 20
-149.8060655566289
 30
0.0
  0
POINT
  5
80C0
330
7896
100
AcDbEntity
  8
DEFPOINTS
  6
CONTINUOUS
 62
     0
100
AcDbPoint
 10
324.2585283399446
 20
-130.9999999999998
 30
0.0
  0
POINT
  5
80C1
330
7896
100
AcDbEntity
  8
DEFPOINTS
  6
CONTINUOUS
 62
     0
100
AcDbPoint
 10
324.2585283399446
 20
-149.3060655566289
 30
0.0
  0
ENDBLK
  5
78A1
330
7896
100
AcDbEntity
  8
0
100
AcDbBlockEnd
  0
BLOCK
  5
78BB
330
78B1
100
AcDbEntity
  8
0
100
AcDbBlockBegin
  2
*D25
 70
     1
 10
0.0
 20
0.0
 30
0.0
  3
*D25
  1

  0
LINE
  5
8097
330
78B1
100
AcDbEntity
  8
30
  6
CONTINUOUS
 62
     0
100
AcDbLine
 10
213.2585283399445
 20
-45.99999999999988
 30
0.0
 11
213.2585283399445
 21
-150.3060655566289
 31
0.0
  0
LINE
  5
8098
330
78B1
100
AcDbEntity
  8
30
  6
CONTINUOUS
 62
     0
100
AcDbLine
 10
221.2585283399445
 20
-45.99999999999988
 30
0.0
 11
221.2585283399445
 21
-150.3060655566289
 31
0.0
  0
LINE
  5
8099
330
78B1
100
AcDbEntity
  8
30
  6
CONTINUOUS
 62
     0
100
AcDbLine
 10
215.2585283399445
 20
-149.8060655566289
 30
0.0
 11
219.2585283399445
 21
-149.8060655566289
 31
0.0
  0
INSERT
  5
809A
330
78B1
100
AcDbEntity
  8
30
  6
CONTINUOUS
 62
     0
100
AcDbBlockReference
  2
_OPEN
 10
213.2585283399445
 20
-149.8060655566289
 30
0.0
 41
2.0
 42
2.0
 43
2.0
 50
180.0
  0
INSERT
  5
809B
330
78B1
100
AcDbEntity
  8
30
  6
CONTINUOUS
 62
     0
100
AcDbBlockReference
  2
_OPEN
 10
221.2585283399445
 20
-149.8060655566289
 30
0.0
 41
2.0
 42
2.0
 43
2.0
  0
MTEXT
  5
809C
330
78B1
100
AcDbEntity
  8
30
  6
CONTINUOUS
 62
     0
100
AcDbMText
 10
217.2585283399445
 20
-146.8060655566289
 30
0.0
 40
4.0
 41
0.0
 71
     5
 72
     1
  1
\A1;8
1001
ACAD
1000
MTEXTBEGIN
1070
    73
1070
     1
1070
    44
1040
1.0
1070
    74
1070
     0
1000
MTEXTEND
  0
POINT
  5
809D
330
78B1
100
AcDbEntity
  8
DEFPOINTS
  6
CONTINUOUS
 62
     0
100
AcDbPoint
 10
213.2585283399445
 20
-44.99999999999988
 30
0.0
  0
POINT
  5
809E
330
78B1
100
AcDbEntity
  8
DEFPOINTS
  6
CONTINUOUS
 62
     0
100
AcDbPoint
 10
221.2585283399445
 20
-44.99999999999988
 30
0.0
  0
POINT
  5
809F
330
78B1
100
AcDbEntity
  8
DEFPOINTS
  6
CONTINUOUS
 62
     0
100
AcDbPoint
 10
221.2585283399445
 20
-149.8060655566289
 30
0.0
  0
ENDBLK
  5
78BC
330
78B1
100
AcDbEntity
  8
0
100
AcDbBlockEnd
  0
BLOCK
  5
78D0
330
78C6
100
AcDbEntity
  8
0
100
AcDbBlockBegin
  2
*D26
 70
     1
 10
0.0
 20
0.0
 30
0.0
  3
*D26
  1

  0
LINE
  5
808E
330
78C6
100
AcDbEntity
  8
30
  6
CONTINUOUS
 62
     0
100
AcDbLine
 10
179.3075402374921
 20
-0.9999999999998863
 30
0.0
 11
179.3075402374921
 21
-164.9538407233291
 31
0.0
  0
LINE
  5
808F
330
78C6
100
AcDbEntity
  8
30
  6
CONTINUOUS
 62
     0
100
AcDbLine
 10
324.2585283399446
 20
-150.8060655566289
 30
0.0
 11
324.2585283399446
 21
-164.9538407233291
 31
0.0
  0
LINE
  5
8090
330
78C6
100
AcDbEntity
  8
30
  6
CONTINUOUS
 62
     0
100
AcDbLine
 10
181.3075402374922
 20
-164.4538407233292
 30
0.0
 11
322.2585283399446
 21
-164.4538407233292
 31
0.0
  0
INSERT
  5
8091
330
78C6
100
AcDbEntity
  8
30
  6
CONTINUOUS
 62
     0
100
AcDbBlockReference
  2
_OPEN
 10
179.3075402374921
 20
-164.4538407233292
 30
0.0
 41
2.0
 42
2.0
 43
2.0
 50
180.0
  0
INSERT
  5
8092
330
78C6
100
AcDbEntity
  8
30
  6
CONTINUOUS
 62
     0
100
AcDbBlockReference
  2
_OPEN
 10
324.2585283399446
 20
-164.4538407233292
 30
0.0
 41
2.0
 42
2.0
 43
2.0
  0
MTEXT
  5
8093
330
78C6
100
AcDbEntity
  8
30
  6
CONTINUOUS
 62
     0
100
AcDbMText
 10
251.7830342887183
 20
-161.4538407233292
 30
0.0
 40
4.0
 41
0.0
 71
     5
 72
     1
  1
\A1;145
1001
ACAD
1000
MTEXTBEGIN
1070
    73
1070
     1
1070
    44
1040
1.0
1070
    74
1070
     0
1000
MTEXTEND
  0
POINT
  5
8094
330
78C6
100
AcDbEntity
  8
DEFPOINTS
  6
CONTINUOUS
 62
     0
100
AcDbPoint
 10
179.3075402374921
 20
0.0000000000001137
 30
0.0
  0
POINT
  5
8095
330
78C6
100
AcDbEntity
  8
DEFPOINTS
  6
CONTINUOUS
 62
     0
100
AcDbPoint
 10
324.2585283399446
 20
-149.8060655566289
 30
0.0
  0
POINT
  5
8096
330
78C6
100
AcDbEntity
  8
DEFPOINTS
  6
CONTINUOUS
 62
     0
100
AcDbPoint
 10
324.2585283399446
 20
-164.4538407233292
 30
0.0
  0
ENDBLK
  5
78D1
330
78C6
100
AcDbEntity
  8
0
100
AcDbBlockEnd
  0
BLOCK
  5
7AFC
330
7AF2
100
AcDbEntity
  8
0
100
AcDbBlockBegin
  2
*D27
 70
     1
 10
0.0
 20
0.0
 30
0.0
  3
*D27
  1

  0
LINE
  5
7B50
330
7AF2
100
AcDbEntity
  8
30
  6
CONTINUOUS
 62
     0
100
AcDbLine
 10
70.99993896483986
 20
390.4369478956378
 30
0.0
 11
94.07756810706727
 21
390.4369478956378
 31
0.0
  0
LINE
  5
7B51
330
7AF2
100
AcDbEntity
  8
30
  6
CONTINUOUS
 62
     0
100
AcDbLine
 10
53.86574955133993
 20
357.4369478956378
 30
0.0
 11
94.07756810706727
 21
357.4369478956378
 31
0.0
  0
LINE
  5
7B52
330
7AF2
100
AcDbEntity
  8
30
  6
CONTINUOUS
 62
     0
100
AcDbLine
 10
93.5775681070673
 20
388.4369478956378
 30
0.0
 11
93.5775681070673
 21
359.4369478956378
 31
0.0
  0
MTEXT
  5
7B53
330
7AF2
100
AcDbEntity
  8
30
  6
CONTINUOUS
 62
     0
100
AcDbMText
 10
115.0397314126009
 20
371.7474129077193
 30
0.0
 40
4.0
 41
0.0
 71
     5
 72
     1
  1
\A1;ON SIDE 31\POFF SIDE 30
1001
ACAD
1000
MTEXTBEGIN
1070
    73
1070
     1
1070
    44
1040
1.0
1070
    74
1070
     0
1000
MTEXTEND
1000
MTEXTBEGIN
1070
    73
1070
     1
1070
    44
1040
1.0
1070
    74
1070
     0
1000
MTEXTEND
1000
MTEXTBEGIN
1070
    73
1070
     1
1070
    44
1040
1.0
1070
    74
1070
     0
1000
MTEXTEND
1000
MTEXTBEGIN
1070
    73
1070
     1
1070
    44
1040
1.0
1070
    74
1070
     0
1000
MTEXTEND
1000
MTEXTBEGIN
1070
    73
1070
     1
1070
    44
1040
1.0
1070
    74
1070
     0
1000
MTEXTEND
1000
MTEXTBEGIN
1070
    73
1070
     1
1070
    44
1040
1.0
1070
    74
1070
     0
1000
MTEXTEND
1000
MTEXTBEGIN
1070
    73
1070
     1
1070
    44
1040
1.0
1070
    74
1070
     0
1000
MTEXTEND
1000
MTEXTBEGIN
1070
    73
1070
     1
1070
    44
1040
1.0
1070
    74
1070
     0
1000
MTEXTEND
  0
INSERT
  5
7B54
330
7AF2
100
AcDbEntity
  8
30
  6
CONTINUOUS
 62
     0
100
AcDbBlockReference
  2
_OPEN
 10
93.5775681070673
 20
390.4369478956378
 30
0.0
 41
2.0
 42
2.0
 43
2.0
 50
90.0
  0
INSERT
  5
7B55
330
7AF2
100
AcDbEntity
  8
30
  6
CONTINUOUS
 62
     0
100
AcDbBlockReference
  2
_OPEN
 10
93.5775681070673
 20
357.4369478956378
 30
0.0
 41
2.0
 42
2.0
 43
2.0
 50
270.0
  0
POINT
  5
7B56
330
7AF2
100
AcDbEntity
  8
DEFPOINTS
  6
CONTINUOUS
 62
     0
100
AcDbPoint
 10
69.99993896483985
 20
390.4369478956378
 30
0.0
  0
POINT
  5
7B57
330
7AF2
100
AcDbEntity
  8
DEFPOINTS
  6
CONTINUOUS
 62
     0
100
AcDbPoint
 10
52.86574955133993
 20
357.4369478956378
 30
0.0
  0
POINT
  5
7B58
330
7AF2
100
AcDbEntity
  8
DEFPOINTS
  6
CONTINUOUS
 62
     0
100
AcDbPoint
 10
93.5775681070673
 20
357.4369478956378
 30
0.0
  0
ENDBLK
  5
7AFD
330
7AF2
100
AcDbEntity
  8
0
100
AcDbBlockEnd
  0
BLOCK
  5
7B69
330
7B60
100
AcDbEntity
  8
0
100
AcDbBlockBegin
  2
*D28
 70
     1
 10
0.0
 20
0.0
 30
0.0
  3
*D28
  1

  0
LINE
  5
7B61
330
7B60
100
AcDbEntity
  8
30
  6
CONTINUOUS
 62
     0
100
AcDbLine
 10
-46.36963796348358
 20
184.4805147390161
 30
0.0
 11
-56.7029712968169
 21
184.4805147390161
 31
0.0
  0
LINE
  5
7B62
330
7B60
100
AcDbEntity
  8
30
  6
CONTINUOUS
 62
     0
100
AcDbLine
 10
-56.7029712968169
 20
184.4805147390161
 30
0.0
 11
-58.79872832906379
 21
168.9194700724093
 31
0.0
  0
MTEXT
  5
7B63
330
7B60
100
AcDbEntity
  8
30
  6
CONTINUOUS
 62
     0
100
AcDbMText
 10
-51.03630463015026
 20
187.480514739016
 30
0.0
 40
4.0
 41
0.0
 71
     5
 72
     1
  1
\A1;\U+220514
1001
ACAD
1000
MTEXTBEGIN
1070
    73
1070
     1
1070
    44
1040
1.0
1070
    74
1070
     0
1000
MTEXTEND
1000
MTEXTBEGIN
1070
    73
1070
     1
1070
    44
1040
1.0
1070
    74
1070
     0
1000
MTEXTEND
1000
MTEXTBEGIN
1070
    73
1070
     1
1070
    44
1040
1.0
1070
    74
1070
     0
1000
MTEXTEND
1000
MTEXTBEGIN
1070
    73
1070
     1
1070
    44
1040
1.0
1070
    74
1070
     0
1000
MTEXTEND
1000
MTEXTBEGIN
1070
    73
1070
     1
1070
    44
1040
1.0
1070
    74
1070
     0
1000
MTEXTEND
1000
MTEXTBEGIN
1070
    73
1070
     1
1070
    44
1040
1.0
1070
    74
1070
     0
1000
MTEXTEND
1000
MTEXTBEGIN
1070
    73
1070
     1
1070
    44
1040
1.0
1070
    74
1070
     0
1000
MTEXTEND
1000
MTEXTBEGIN
1070
    73
1070
     1
1070
    44
1040
1.0
1070
    74
1070
     0
1000
MTEXTEND
  0
INSERT
  5
7B64
330
7B60
100
AcDbEntity
  8
30
  6
CONTINUOUS
 62
     0
100
AcDbBlockReference
  2
_OPEN
 10
-59.06567758927183
 20
166.9373656118739
 30
0.0
 41
2.0
 42
2.0
 43
2.0
 50
262.3295756164606
  0
LINE
  5
7B65
330
7B60
100
AcDbEntity
  8
30
  6
CONTINUOUS
 62
     0
100
AcDbLine
 10
-60.09
 20
160.0
 30
0.0
 11
-59.90999999999998
 21
160.0
 31
0.0
  0
LINE
  5
7B66
330
7B60
100
AcDbEntity
  8
30
  6
CONTINUOUS
 62
     0
100
AcDbLine
 10
-59.99999999999997
 20
159.9099999999999
 30
0.0
 11
-60.0
 21
160.09
 31
0.0
  0
POINT
  5
7B67
330
7B60
100
AcDbEntity
  8
DEFPOINTS
  6
CONTINUOUS
 62
     0
100
AcDbPoint
 10
-59.06567758927183
 20
166.9373656118739
 30
0.0
  0
POINT
  5
7B68
330
7B60
100
AcDbEntity
  8
DEFPOINTS
  6
CONTINUOUS
 62
     0
100
AcDbPoint
 10
-60.93432241072815
 20
153.0626343881259
 30
0.0
  0
ENDBLK
  5
7B6A
330
7B60
100
AcDbEntity
  8
0
100
AcDbBlockEnd
  0
BLOCK
  5
7B74
330
7B6B
100
AcDbEntity
  8
0
100
AcDbBlockBegin
  2
*D29
 70
     1
 10
0.0
 20
0.0
 30
0.0
  3
*D29
  1

  0
LINE
  5
7B6C
330
7B6B
100
AcDbEntity
  8
30
  6
CONTINUOUS
 62
     0
100
AcDbLine
 10
-67.15911487308381
 20
-220.6800347238195
 30
0.0
 11
-46.82578153975049
 21
-220.6800347238195
 31
0.0
  0
LINE
  5
7B6D
330
7B6B
100
AcDbEntity
  8
30
  6
CONTINUOUS
 62
     0
100
AcDbLine
 10
-46.82578153975049
 20
-220.6800347238195
 30
0.0
 11
-25.5067836676054
 21
-249.0050967500799
 31
0.0
  0
MTEXT
  5
7B6E
330
7B6B
100
AcDbEntity
  8
30
  6
CONTINUOUS
 62
     0
100
AcDbMText
 10
-57.49244820641718
 20
-217.6800347238195
 30
0.0
 40
4.0
 41
0.0
 71
     5
 72
     1
  1
\A1;M6x0.7
1001
ACAD
1000
MTEXTBEGIN
1070
    73
1070
     1
1070
    44
1040
1.0
1070
    74
1070
     0
1000
MTEXTEND
1000
MTEXTBEGIN
1070
    73
1070
     1
1070
    44
1040
1.0
1070
    74
1070
     0
1000
MTEXTEND
1000
MTEXTBEGIN
1070
    73
1070
     1
1070
    44
1040
1.0
1070
    74
1070
     0
1000
MTEXTEND
1000
MTEXTBEGIN
1070
    73
1070
     1
1070
    44
1040
1.0
1070
    74
1070
     0
1000
MTEXTEND
1000
MTEXTBEGIN
1070
    73
1070
     1
1070
    44
1040
1.0
1070
    74
1070
     0
1000
MTEXTEND
1000
MTEXTBEGIN
1070
    73
1070
     1
1070
    44
1040
1.0
1070
    74
1070
     0
1000
MTEXTEND
1000
MTEXTBEGIN
1070
    73
1070
     1
1070
    44
1040
1.0
1070
    74
1070
     0
1000
MTEXTEND
1000
MTEXTBEGIN
1070
    73
1070
     1
1070
    44
1040
1.0
1070
    74
1070
     0
1000
MTEXTEND
  0
INSERT
  5
7B6F
330
7B6B
100
AcDbEntity
  8
30
  6
CONTINUOUS
 62
     0
100
AcDbBlockReference
  2
_OPEN
 10
-24.30407020056323
 20
-250.6030580500479
 30
0.0
 41
2.0
 42
2.0
 43
2.0
 50
306.9671284485152
  0
LINE
  5
7B70
330
7B6B
100
AcDbEntity
  8
30
  6
CONTINUOUS
 62
     0
100
AcDbLine
 10
-22.59000000000001
 20
-252.9999999999999
 30
0.0
 11
-22.41
 21
-252.9999999999999
 31
0.0
  0
LINE
  5
7B71
330
7B6B
100
AcDbEntity
  8
30
  6
CONTINUOUS
 62
     0
100
AcDbLine
 10
-22.50000000000003
 20
-253.0899999999999
 30
0.0
 11
-22.50000000000001
 21
-252.9099999999999
 31
0.0
  0
POINT
  5
7B72
330
7B6B
100
AcDbEntity
  8
DEFPOINTS
  6
CONTINUOUS
 62
     0
100
AcDbPoint
 10
-24.30407020056323
 20
-250.6030580500479
 30
0.0
  0
POINT
  5
7B73
330
7B6B
100
AcDbEntity
  8
DEFPOINTS
  6
CONTINUOUS
 62
     0
100
AcDbPoint
 10
-20.69592979943675
 20
-255.3969419499519
 30
0.0
  0
ENDBLK
  5
7B75
330
7B6B
100
AcDbEntity
  8
0
100
AcDbBlockEnd
  0
BLOCK
  5
7B87
330
7B7E
100
AcDbEntity
  8
0
100
AcDbBlockBegin
  2
*D30
 70
     1
 10
0.0
 20
0.0
 30
0.0
  3
*D30
  1

  0
LINE
  5
7E30
330
7B7E
100
AcDbEntity
  8
30
  6
CONTINUOUS
 62
     0
100
AcDbLine
 10
-60.82578153975052
 20
-220.6800347238195
 30
0.0
 11
-46.82578153975025
 21
-220.6800347238195
 31
0.0
  0
LINE
  5
7E31
330
7B7E
100
AcDbEntity
  8
30
  6
CONTINUOUS
 62
     0
100
AcDbLine
 10
-46.82578153975025
 20
-220.6800347238195
 30
0.0
 11
-25.50678366760537
 21
-249.0050967500799
 31
0.0
  0
MTEXT
  5
7E32
330
7B7E
100
AcDbEntity
  8
30
  6
CONTINUOUS
 62
     0
100
AcDbMText
 10
-57.4924482064172
 20
-217.6800347238195
 30
0.0
 40
4.0
 41
0.0
 71
     5
 72
     1
  1
\A1;M6
1001
ACAD
1000
MTEXTBEGIN
1070
    73
1070
     1
1070
    44
1040
1.0
1070
    74
1070
     0
1000
MTEXTEND
1000
MTEXTBEGIN
1070
    73
1070
     1
1070
    44
1040
1.0
1070
    74
1070
     0
1000
MTEXTEND
1000
MTEXTBEGIN
1070
    73
1070
     1
1070
    44
1040
1.0
1070
    74
1070
     0
1000
MTEXTEND
1000
MTEXTBEGIN
1070
    73
1070
     1
1070
    44
1040
1.0
1070
    74
1070
     0
1000
MTEXTEND
1000
MTEXTBEGIN
1070
    73
1070
     1
1070
    44
1040
1.0
1070
    74
1070
     0
1000
MTEXTEND
1000
MTEXTBEGIN
1070
    73
1070
     1
1070
    44
1040
1.0
1070
    74
1070
     0
1000
MTEXTEND
1000
MTEXTBEGIN
1070
    73
1070
     1
1070
    44
1040
1.0
1070
    74
1070
     0
1000
MTEXTEND
  0
INSERT
  5
7E33
330
7B7E
100
AcDbEntity
  8
30
  6
CONTINUOUS
 62
     0
100
AcDbBlockReference
  2
_OPEN
 10
-24.30407020056323
 20
-250.6030580500479
 30
0.0
 41
2.0
 42
2.0
 43
2.0
 50
306.9671284485148
  0
LINE
  5
7E34
330
7B7E
100
AcDbEntity
  8
30
  6
CONTINUOUS
 62
     0
100
AcDbLine
 10
-22.59000000000003
 20
-252.9999999999998
 30
0.0
 11
-22.41000000000004
 21
-252.9999999999998
 31
0.0
  0
LINE
  5
7E35
330
7B7E
100
AcDbEntity
  8
30
  6
CONTINUOUS
 62
     0
100
AcDbLine
 10
-22.50000000000003
 20
-253.0899999999999
 30
0.0
 11
-22.50000000000003
 21
-252.9099999999997
 31
0.0
  0
POINT
  5
7E36
330
7B7E
100
AcDbEntity
  8
DEFPOINTS
  6
CONTINUOUS
 62
     0
100
AcDbPoint
 10
-24.30407020056323
 20
-250.6030580500479
 30
0.0
  0
POINT
  5
7E37
330
7B7E
100
AcDbEntity
  8
DEFPOINTS
  6
CONTINUOUS
 62
     0
100
AcDbPoint
 10
-20.69592979943676
 20
-255.3969419499519
 30
0.0
  0
ENDBLK
  5
7B88
330
7B7E
100
AcDbEntity
  8
0
100
AcDbBlockEnd
  0
BLOCK
  5
7B92
330
7B89
100
AcDbEntity
  8
0
100
AcDbBlockBegin
  2
*D31
 70
     1
 10
0.0
 20
0.0
 30
0.0
  3
*D31
  1

  0
LINE
  5
7B9C
330
7B89
100
AcDbEntity
  8
30
  6
CONTINUOUS
 62
     0
100
AcDbLine
 10
-46.36963796348349
 20
184.4805147390161
 30
0.0
 11
-56.70297129681681
 21
184.4805147390161
 31
0.0
  0
LINE
  5
7B9D
330
7B89
100
AcDbEntity
  8
30
  6
CONTINUOUS
 62
     0
100
AcDbLine
 10
-56.70297129681681
 20
184.4805147390161
 30
0.0
 11
-58.79872832906375
 21
168.9194700724091
 31
0.0
  0
MTEXT
  5
7B9E
330
7B89
100
AcDbEntity
  8
30
  6
CONTINUOUS
 62
     0
100
AcDbMText
 10
-51.03630463015019
 20
187.480514739016
 30
0.0
 40
4.0
 41
0.0
 71
     5
 72
     1
  1
\A1;\U+220514
1001
ACAD
1000
MTEXTBEGIN
1070
    73
1070
     1
1070
    44
1040
1.0
1070
    74
1070
     0
1000
MTEXTEND
1000
MTEXTBEGIN
1070
    73
1070
     1
1070
    44
1040
1.0
1070
    74
1070
     0
1000
MTEXTEND
1000
MTEXTBEGIN
1070
    73
1070
     1
1070
    44
1040
1.0
1070
    74
1070
     0
1000
MTEXTEND
1000
MTEXTBEGIN
1070
    73
1070
     1
1070
    44
1040
1.0
1070
    74
1070
     0
1000
MTEXTEND
1000
MTEXTBEGIN
1070
    73
1070
     1
1070
    44
1040
1.0
1070
    74
1070
     0
1000
MTEXTEND
1000
MTEXTBEGIN
1070
    73
1070
     1
1070
    44
1040
1.0
1070
    74
1070
     0
1000
MTEXTEND
1000
MTEXTBEGIN
1070
    73
1070
     1
1070
    44
1040
1.0
1070
    74
1070
     0
1000
MTEXTEND
1000
MTEXTBEGIN
1070
    73
1070
     1
1070
    44
1040
1.0
1070
    74
1070
     0
1000
MTEXTEND
  0
INSERT
  5
7B9F
330
7B89
100
AcDbEntity
  8
30
  6
CONTINUOUS
 62
     0
100
AcDbBlockReference
  2
_OPEN
 10
-59.06567758927179
 20
166.9373656118738
 30
0.0
 41
2.0
 42
2.0
 43
2.0
 50
262.3295756164606
  0
LINE
  5
7BA0
330
7B89
100
AcDbEntity
  8
30
  6
CONTINUOUS
 62
     0
100
AcDbLine
 10
-60.08999999999996
 20
159.9999999999998
 30
0.0
 11
-59.90999999999996
 21
159.9999999999998
 31
0.0
  0
LINE
  5
7BA1
330
7B89
100
AcDbEntity
  8
30
  6
CONTINUOUS
 62
     0
100
AcDbLine
 10
-59.99999999999996
 20
159.9099999999998
 30
0.0
 11
-59.99999999999996
 21
160.0899999999993
 31
0.0
  0
POINT
  5
7BA2
330
7B89
100
AcDbEntity
  8
DEFPOINTS
  6
CONTINUOUS
 62
     0
100
AcDbPoint
 10
-59.06567758927179
 20
166.9373656118738
 30
0.0
  0
POINT
  5
7BA3
330
7B89
100
AcDbEntity
  8
DEFPOINTS
  6
CONTINUOUS
 62
     0
100
AcDbPoint
 10
-60.93432241072811
 20
153.0626343881259
 30
0.0
  0
ENDBLK
  5
7B93
330
7B89
100
AcDbEntity
  8
0
100
AcDbBlockEnd
  0
BLOCK
  5
7BED
330
7BE3
100
AcDbEntity
  8
0
100
AcDbBlockBegin
  2
*D32
 70
     1
 10
0.0
 20
0.0
 30
0.0
  3
*D32
  1

  0
LINE
  5
80CB
330
7BE3
100
AcDbEntity
  8
30
  6
CONTINUOUS
 62
     0
100
AcDbLine
 10
324.2585283399446
 20
131.0000000000002
 30
0.0
 11
324.2585283399446
 21
148.563506906613
 31
0.0
  0
LINE
  5
80CC
330
7BE3
100
AcDbEntity
  8
30
  6
CONTINUOUS
 62
     0
100
AcDbLine
 10
288.2585283399446
 20
131.0000000000002
 30
0.0
 11
288.2585283399446
 21
148.563506906613
 31
0.0
  0
LINE
  5
80CD
330
7BE3
100
AcDbEntity
  8
30
  6
CONTINUOUS
 62
     0
100
AcDbLine
 10
322.2585283399446
 20
148.063506906613
 30
0.0
 11
290.2585283399446
 21
148.063506906613
 31
0.0
  0
INSERT
  5
80CE
330
7BE3
100
AcDbEntity
  8
30
  6
CONTINUOUS
 62
     0
100
AcDbBlockReference
  2
_OPEN
 10
324.2585283399446
 20
148.063506906613
 30
0.0
 41
2.0
 42
2.0
 43
2.0
  0
INSERT
  5
80CF
330
7BE3
100
AcDbEntity
  8
30
  6
CONTINUOUS
 62
     0
100
AcDbBlockReference
  2
_OPEN
 10
288.2585283399446
 20
148.063506906613
 30
0.0
 41
2.0
 42
2.0
 43
2.0
 50
180.0
  0
MTEXT
  5
80D0
330
7BE3
100
AcDbEntity
  8
30
  6
CONTINUOUS
 62
     0
100
AcDbMText
 10
306.2585283399446
 20
151.063506906613
 30
0.0
 40
4.0
 41
0.0
 71
     5
 72
     1
  1
\A1;36
1001
ACAD
1000
MTEXTBEGIN
1070
    73
1070
     1
1070
    44
1040
1.0
1070
    74
1070
     0
1000
MTEXTEND
  0
POINT
  5
80D1
330
7BE3
100
AcDbEntity
  8
DEFPOINTS
  6
CONTINUOUS
 62
     0
100
AcDbPoint
 10
324.2585283399446
 20
130.0000000000002
 30
0.0
  0
POINT
  5
80D2
330
7BE3
100
AcDbEntity
  8
DEFPOINTS
  6
CONTINUOUS
 62
     0
100
AcDbPoint
 10
288.2585283399446
 20
130.0000000000002
 30
0.0
  0
POINT
  5
80D3
330
7BE3
100
AcDbEntity
  8
DEFPOINTS
  6
CONTINUOUS
 62
     0
100
AcDbPoint
 10
288.2585283399446
 20
148.063506906613
 30
0.0
  0
ENDBLK
  5
7BEE
330
7BE3
100
AcDbEntity
  8
0
100
AcDbBlockEnd
  0
BLOCK
  5
7BF9
330
7BEF
100
AcDbEntity
  8
0
100
AcDbBlockBegin
  2
*D33
 70
     1
 10
0.0
 20
0.0
 30
0.0
  3
*D33
  1

  0
LINE
  5
7BF0
330
7BEF
100
AcDbEntity
  8
30
  6
CONTINUOUS
 62
     0
100
AcDbLine
 10
70.99993896483986
 20
390.4369478956378
 30
0.0
 11
94.07756810706727
 21
390.4369478956378
 31
0.0
  0
LINE
  5
7BF1
330
7BEF
100
AcDbEntity
  8
30
  6
CONTINUOUS
 62
     0
100
AcDbLine
 10
59.86574955133993
 20
354.4369478956378
 30
0.0
 11
94.07756810706727
 21
354.4369478956378
 31
0.0
  0
LINE
  5
7BF2
330
7BEF
100
AcDbEntity
  8
30
  6
CONTINUOUS
 62
     0
100
AcDbLine
 10
93.5775681070673
 20
388.4369478956378
 30
0.0
 11
93.5775681070673
 21
356.4369478956378
 31
0.0
  0
MTEXT
  5
7BF3
330
7BEF
100
AcDbEntity
  8
30
  6
CONTINUOUS
 62
     0
100
AcDbMText
 10
115.0397314126009
 20
371.7474129077193
 30
0.0
 40
4.0
 41
0.0
 71
     5
 72
     1
  1
\A1;ON SIDE 36\POFF SIDE 35
1001
ACAD
1000
MTEXTBEGIN
1070
    73
1070
     1
1070
    44
1040
1.0
1070
    74
1070
     0
1000
MTEXTEND
1000
MTEXTBEGIN
1070
    73
1070
     1
1070
    44
1040
1.0
1070
    74
1070
     0
1000
MTEXTEND
1000
MTEXTBEGIN
1070
    73
1070
     1
1070
    44
1040
1.0
1070
    74
1070
     0
1000
MTEXTEND
1000
MTEXTBEGIN
1070
    73
1070
     1
1070
    44
1040
1.0
1070
    74
1070
     0
1000
MTEXTEND
1000
MTEXTBEGIN
1070
    73
1070
     1
1070
    44
1040
1.0
1070
    74
1070
     0
1000
MTEXTEND
1000
MTEXTBEGIN
1070
    73
1070
     1
1070
    44
1040
1.0
1070
    74
1070
     0
1000
MTEXTEND
1000
MTEXTBEGIN
1070
    73
1070
     1
1070
    44
1040
1.0
1070
    74
1070
     0
1000
MTEXTEND
1000
MTEXTBEGIN
1070
    73
1070
     1
1070
    44
1040
1.0
1070
    74
1070
     0
1000
MTEXTEND
  0
INSERT
  5
7BF4
330
7BEF
100
AcDbEntity
  8
30
  6
CONTINUOUS
 62
     0
100
AcDbBlockReference
  2
_OPEN
 10
93.5775681070673
 20
390.4369478956378
 30
0.0
 41
2.0
 42
2.0
 43
2.0
 50
90.0
  0
INSERT
  5
7BF5
330
7BEF
100
AcDbEntity
  8
30
  6
CONTINUOUS
 62
     0
100
AcDbBlockReference
  2
_OPEN
 10
93.5775681070673
 20
354.4369478956378
 30
0.0
 41
2.0
 42
2.0
 43
2.0
 50
270.0
  0
POINT
  5
7BF6
330
7BEF
100
AcDbEntity
  8
DEFPOINTS
  6
CONTINUOUS
 62
     0
100
AcDbPoint
 10
69.99993896483985
 20
390.4369478956378
 30
0.0
  0
POINT
  5
7BF7
330
7BEF
100
AcDbEntity
  8
DEFPOINTS
  6
CONTINUOUS
 62
     0
100
AcDbPoint
 10
58.86574955133993
 20
354.4369478956378
 30
0.0
  0
POINT
  5
7BF8
330
7BEF
100
AcDbEntity
  8
DEFPOINTS
  6
CONTINUOUS
 62
     0
100
AcDbPoint
 10
93.5775681070673
 20
354.4369478956378
 30
0.0
  0
ENDBLK
  5
7BFA
330
7BEF
100
AcDbEntity
  8
0
100
AcDbBlockEnd
  0
BLOCK
  5
7C6F
330
7C65
100
AcDbEntity
  8
0
100
AcDbBlockBegin
  2
*D34
 70
     1
 10
0.0
 20
0.0
 30
0.0
  3
*D34
  1

  0
LINE
  5
7D31
330
7C65
100
AcDbEntity
  8
30
  6
CONTINUOUS
 62
     0
100
AcDbLine
 10
70.99993896483986
 20
390.4369478956378
 30
0.0
 11
94.07756810706727
 21
390.4369478956378
 31
0.0
  0
LINE
  5
7D32
330
7C65
100
AcDbEntity
  8
30
  6
CONTINUOUS
 62
     0
100
AcDbLine
 10
59.86574955133993
 20
354.4369478956378
 30
0.0
 11
94.07756810706727
 21
354.4369478956378
 31
0.0
  0
LINE
  5
7D33
330
7C65
100
AcDbEntity
  8
30
  6
CONTINUOUS
 62
     0
100
AcDbLine
 10
93.5775681070673
 20
388.4369478956378
 30
0.0
 11
93.5775681070673
 21
356.4369478956378
 31
0.0
  0
MTEXT
  5
7D34
330
7C65
100
AcDbEntity
  8
30
  6
CONTINUOUS
 62
     0
100
AcDbMText
 10
99.89775010564336
 20
371.7474129077193
 30
0.0
 40
4.0
 41
0.0
 71
     5
 72
     1
  1
\A1;36
1001
ACAD
1000
MTEXTBEGIN
1070
    73
1070
     1
1070
    44
1040
1.0
1070
    74
1070
     0
1000
MTEXTEND
1000
MTEXTBEGIN
1070
    73
1070
     1
1070
    44
1040
1.0
1070
    74
1070
     0
1000
MTEXTEND
1000
MTEXTBEGIN
1070
    73
1070
     1
1070
    44
1040
1.0
1070
    74
1070
     0
1000
MTEXTEND
1000
MTEXTBEGIN
1070
    73
1070
     1
1070
    44
1040
1.0
1070
    74
1070
     0
1000
MTEXTEND
1000
MTEXTBEGIN
1070
    73
1070
     1
1070
    44
1040
1.0
1070
    74
1070
     0
1000
MTEXTEND
1000
MTEXTBEGIN
1070
    73
1070
     1
1070
    44
1040
1.0
1070
    74
1070
     0
1000
MTEXTEND
1000
MTEXTBEGIN
1070
    73
1070
     1
1070
    44
1040
1.0
1070
    74
1070
     0
1000
MTEXTEND
  0
INSERT
  5
7D35
330
7C65
100
AcDbEntity
  8
30
  6
CONTINUOUS
 62
     0
100
AcDbBlockReference
  2
_OPEN
 10
93.5775681070673
 20
390.4369478956378
 30
0.0
 41
2.0
 42
2.0
 43
2.0
 50
90.0
  0
INSERT
  5
7D36
330
7C65
100
AcDbEntity
  8
30
  6
CONTINUOUS
 62
     0
100
AcDbBlockReference
  2
_OPEN
 10
93.5775681070673
 20
354.4369478956378
 30
0.0
 41
2.0
 42
2.0
 43
2.0
 50
270.0
  0
POINT
  5
7D37
330
7C65
100
AcDbEntity
  8
DEFPOINTS
  6
CONTINUOUS
 62
     0
100
AcDbPoint
 10
69.99993896483985
 20
390.4369478956378
 30
0.0
  0
POINT
  5
7D38
330
7C65
100
AcDbEntity
  8
DEFPOINTS
  6
CONTINUOUS
 62
     0
100
AcDbPoint
 10
58.86574955133993
 20
354.4369478956378
 30
0.0
  0
POINT
  5
7D39
330
7C65
100
AcDbEntity
  8
DEFPOINTS
  6
CONTINUOUS
 62
     0
100
AcDbPoint
 10
93.5775681070673
 20
354.4369478956378
 30
0.0
  0
ENDBLK
  5
7C70
330
7C65
100
AcDbEntity
  8
0
100
AcDbBlockEnd
  0
BLOCK
  5
7CB8
330
7CAE
100
AcDbEntity
  8
0
100
AcDbBlockBegin
  2
*D35
 70
     1
 10
0.0
 20
0.0
 30
0.0
  3
*D35
  1

  0
LINE
  5
7CAF
330
7CAE
100
AcDbEntity
  8
30
  6
CONTINUOUS
 62
     0
100
AcDbLine
 10
-70.00000623862297
 20
391.4369478956378
 30
0.0
 11
-70.00000623862297
 21
405.751144283447
 31
0.0
  0
LINE
  5
7CB0
330
7CAE
100
AcDbEntity
  8
30
  6
CONTINUOUS
 62
     0
100
AcDbLine
 10
-45.00000000000002
 20
361.5189316457163
 30
0.0
 11
-45.00000000000002
 21
405.751144283447
 31
0.0
  0
LINE
  5
7CB1
330
7CAE
100
AcDbEntity
  8
30
  6
CONTINUOUS
 62
     0
100
AcDbLine
 10
-68.00000623862297
 20
405.251144283447
 30
0.0
 11
-47.00000000000001
 21
405.251144283447
 31
0.0
  0
INSERT
  5
7CB2
330
7CAE
100
AcDbEntity
  8
30
  6
CONTINUOUS
 62
     0
100
AcDbBlockReference
  2
_OPEN
 10
-70.00000623862297
 20
405.251144283447
 30
0.0
 41
2.0
 42
2.0
 43
2.0
 50
180.0
  0
INSERT
  5
7CB3
330
7CAE
100
AcDbEntity
  8
30
  6
CONTINUOUS
 62
     0
100
AcDbBlockReference
  2
_OPEN
 10
-45.00000000000002
 20
405.251144283447
 30
0.0
 41
2.0
 42
2.0
 43
2.0
  0
MTEXT
  5
7CB4
330
7CAE
100
AcDbEntity
  8
30
  6
CONTINUOUS
 62
     0
100
AcDbMText
 10
-57.50000311931151
 20
408.251144283447
 30
0.0
 40
4.0
 41
0.0
 71
     5
 72
     1
  1
\A1;25
1001
ACAD
1000
MTEXTBEGIN
1070
    73
1070
     1
1070
    44
1040
1.0
1070
    74
1070
     0
1000
MTEXTEND
1000
MTEXTBEGIN
1070
    73
1070
     1
1070
    44
1040
1.0
1070
    74
1070
     0
1000
MTEXTEND
1000
MTEXTBEGIN
1070
    73
1070
     1
1070
    44
1040
1.0
1070
    74
1070
     0
1000
MTEXTEND
1000
MTEXTBEGIN
1070
    73
1070
     1
1070
    44
1040
1.0
1070
    74
1070
     0
1000
MTEXTEND
1000
MTEXTBEGIN
1070
    73
1070
     1
1070
    44
1040
1.0
1070
    74
1070
     0
1000
MTEXTEND
1000
MTEXTBEGIN
1070
    73
1070
     1
1070
    44
1040
1.0
1070
    74
1070
     0
1000
MTEXTEND
1000
MTEXTBEGIN
1070
    73
1070
     1
1070
    44
1040
1.0
1070
    74
1070
     0
1000
MTEXTEND
1000
MTEXTBEGIN
1070
    73
1070
     1
1070
    44
1040
1.0
1070
    74
1070
     0
1000
MTEXTEND
  0
POINT
  5
7CB5
330
7CAE
100
AcDbEntity
  8
DEFPOINTS
  6
CONTINUOUS
 62
     0
100
AcDbPoint
 10
-70.00000623862297
 20
390.4369478956378
 30
0.0
  0
POINT
  5
7CB6
330
7CAE
100
AcDbEntity
  8
DEFPOINTS
  6
CONTINUOUS
 62
     0
100
AcDbPoint
 10
-45.00000000000002
 20
360.5189316457162
 30
0.0
  0
POINT
  5
7CB7
330
7CAE
100
AcDbEntity
  8
DEFPOINTS
  6
CONTINUOUS
 62
     0
100
AcDbPoint
 10
-45.00000000000002
 20
405.251144283447
 30
0.0
  0
ENDBLK
  5
7CB9
330
7CAE
100
AcDbEntity
  8
0
100
AcDbBlockEnd
  0
BLOCK
  5
7CC5
330
7CBB
100
AcDbEntity
  8
0
100
AcDbBlockBegin
  2
*D36
 70
     1
 10
0.0
 20
0.0
 30
0.0
  3
*D36
  1

  0
LINE
  5
816A
330
7CBB
100
AcDbEntity
  8
30
  6
CONTINUOUS
 62
     0
100
AcDbLine
 10
-45.00000000000002
 20
361.5189316457161
 30
0.0
 11
-45.00000000000002
 21
405.751144283447
 31
0.0
  0
LINE
  5
816B
330
7CBB
100
AcDbEntity
  8
30
  6
CONTINUOUS
 62
     0
100
AcDbLine
 10
-0.0000206044744376
 20
361.5189316457161
 30
0.0
 11
-0.0000206044744349
 21
405.751144283447
 31
0.0
  0
LINE
  5
816C
330
7CBB
100
AcDbEntity
  8
30
  6
CONTINUOUS
 62
     0
100
AcDbLine
 10
-43.00000000000002
 20
405.251144283447
 30
0.0
 11
-2.000020604474435
 21
405.251144283447
 31
0.0
  0
INSERT
  5
816D
330
7CBB
100
AcDbEntity
  8
30
  6
CONTINUOUS
 62
     0
100
AcDbBlockReference
  2
_OPEN
 10
-45.00000000000002
 20
405.251144283447
 30
0.0
 41
2.0
 42
2.0
 43
2.0
 50
180.0
  0
INSERT
  5
816E
330
7CBB
100
AcDbEntity
  8
30
  6
CONTINUOUS
 62
     0
100
AcDbBlockReference
  2
_OPEN
 10
-0.000020604474435
 20
405.251144283447
 30
0.0
 41
2.0
 42
2.0
 43
2.0
  0
MTEXT
  5
816F
330
7CBB
100
AcDbEntity
  8
30
  6
CONTINUOUS
 62
     0
100
AcDbMText
 10
-22.50001030223722
 20
408.251144283447
 30
0.0
 40
4.0
 41
0.0
 71
     5
 72
     1
  1
\A1;45
  0
POINT
  5
8170
330
7CBB
100
AcDbEntity
  8
DEFPOINTS
  6
CONTINUOUS
 62
     0
100
AcDbPoint
 10
-45.00000000000002
 20
360.5189316457162
 30
0.0
  0
POINT
  5
8171
330
7CBB
100
AcDbEntity
  8
DEFPOINTS
  6
CONTINUOUS
 62
     0
100
AcDbPoint
 10
-0.0000206044744377
 20
360.5189316457162
 30
0.0
  0
POINT
  5
8172
330
7CBB
100
AcDbEntity
  8
DEFPOINTS
  6
CONTINUOUS
 62
     0
100
AcDbPoint
 10
-0.000020604474435
 20
405.251144283447
 30
0.0
  0
ENDBLK
  5
7CC6
330
7CBB
100
AcDbEntity
  8
0
100
AcDbBlockEnd
  0
BLOCK
  5
7CD2
330
7CC8
100
AcDbEntity
  8
0
100
AcDbBlockBegin
  2
*D37
 70
     1
 10
0.0
 20
0.0
 30
0.0
  3
*D37
  1

  0
LINE
  5
8173
330
7CC8
100
AcDbEntity
  8
30
  6
CONTINUOUS
 62
     0
100
AcDbLine
 10
-0.0000206044744376
 20
361.5189316457161
 30
0.0
 11
-0.0000206044744349
 21
405.751144283447
 31
0.0
  0
LINE
  5
8174
330
7CC8
100
AcDbEntity
  8
30
  6
CONTINUOUS
 62
     0
100
AcDbLine
 10
45.0
 20
355.4369478956378
 30
0.0
 11
45.0
 21
405.751144283447
 31
0.0
  0
LINE
  5
8175
330
7CC8
100
AcDbEntity
  8
30
  6
CONTINUOUS
 62
     0
100
AcDbLine
 10
1.999979395525565
 20
405.251144283447
 30
0.0
 11
43.0
 21
405.251144283447
 31
0.0
  0
INSERT
  5
8176
330
7CC8
100
AcDbEntity
  8
30
  6
CONTINUOUS
 62
     0
100
AcDbBlockReference
  2
_OPEN
 10
-0.000020604474435
 20
405.251144283447
 30
0.0
 41
2.0
 42
2.0
 43
2.0
 50
180.0
  0
INSERT
  5
8177
330
7CC8
100
AcDbEntity
  8
30
  6
CONTINUOUS
 62
     0
100
AcDbBlockReference
  2
_OPEN
 10
45.0
 20
405.251144283447
 30
0.0
 41
2.0
 42
2.0
 43
2.0
  0
MTEXT
  5
8178
330
7CC8
100
AcDbEntity
  8
30
  6
CONTINUOUS
 62
     0
100
AcDbMText
 10
22.49998969776278
 20
408.251144283447
 30
0.0
 40
4.0
 41
0.0
 71
     5
 72
     1
  1
\A1;45
  0
POINT
  5
8179
330
7CC8
100
AcDbEntity
  8
DEFPOINTS
  6
CONTINUOUS
 62
     0
100
AcDbPoint
 10
-0.0000206044744377
 20
360.5189316457162
 30
0.0
  0
POINT
  5
817A
330
7CC8
100
AcDbEntity
  8
DEFPOINTS
  6
CONTINUOUS
 62
     0
100
AcDbPoint
 10
45.0
 20
354.4369478956378
 30
0.0
  0
POINT
  5
817B
330
7CC8
100
AcDbEntity
  8
DEFPOINTS
  6
CONTINUOUS
 62
     0
100
AcDbPoint
 10
45.0
 20
405.251144283447
 30
0.0
  0
ENDBLK
  5
7CD3
330
7CC8
100
AcDbEntity
  8
0
100
AcDbBlockEnd
  0
BLOCK
  5
7CDF
330
7CD5
100
AcDbEntity
  8
0
100
AcDbBlockBegin
  2
*D38
 70
     1
 10
0.0
 20
0.0
 30
0.0
  3
*D38
  1

  0
LINE
  5
817C
330
7CD5
100
AcDbEntity
  8
30
  6
CONTINUOUS
 62
     0
100
AcDbLine
 10
45.0
 20
355.4369478956378
 30
0.0
 11
45.0
 21
405.751144283447
 31
0.0
  0
LINE
  5
817D
330
7CD5
100
AcDbEntity
  8
30
  6
CONTINUOUS
 62
     0
100
AcDbLine
 10
69.999993761377
 20
391.4369478956378
 30
0.0
 11
69.999993761377
 21
405.751144283447
 31
0.0
  0
LINE
  5
817E
330
7CD5
100
AcDbEntity
  8
30
  6
CONTINUOUS
 62
     0
100
AcDbLine
 10
47.0
 20
405.251144283447
 30
0.0
 11
67.999993761377
 21
405.251144283447
 31
0.0
  0
INSERT
  5
817F
330
7CD5
100
AcDbEntity
  8
30
  6
CONTINUOUS
 62
     0
100
AcDbBlockReference
  2
_OPEN
 10
45.0
 20
405.251144283447
 30
0.0
 41
2.0
 42
2.0
 43
2.0
 50
180.0
  0
INSERT
  5
8180
330
7CD5
100
AcDbEntity
  8
30
  6
CONTINUOUS
 62
     0
100
AcDbBlockReference
  2
_OPEN
 10
69.999993761377
 20
405.251144283447
 30
0.0
 41
2.0
 42
2.0
 43
2.0
  0
MTEXT
  5
8181
330
7CD5
100
AcDbEntity
  8
30
  6
CONTINUOUS
 62
     0
100
AcDbMText
 10
57.4999968806885
 20
408.251144283447
 30
0.0
 40
4.0
 41
0.0
 71
     5
 72
     1
  1
\A1;25
  0
POINT
  5
8182
330
7CD5
100
AcDbEntity
  8
DEFPOINTS
  6
CONTINUOUS
 62
     0
100
AcDbPoint
 10
45.0
 20
354.4369478956378
 30
0.0
  0
POINT
  5
8183
330
7CD5
100
AcDbEntity
  8
DEFPOINTS
  6
CONTINUOUS
 62
     0
100
AcDbPoint
 10
69.999993761377
 20
390.4369478956378
 30
0.0
  0
POINT
  5
8184
330
7CD5
100
AcDbEntity
  8
DEFPOINTS
  6
CONTINUOUS
 62
     0
100
AcDbPoint
 10
69.999993761377
 20
405.251144283447
 30
0.0
  0
ENDBLK
  5
7CE0
330
7CD5
100
AcDbEntity
  8
0
100
AcDbBlockEnd
  0
BLOCK
  5
7CED
330
7CE3
100
AcDbEntity
  8
0
100
AcDbBlockBegin
  2
*D39
 70
     1
 10
0.0
 20
0.0
 30
0.0
  3
*D39
  1

  0
LINE
  5
7CEF
330
7CE3
100
AcDbEntity
  8
30
  6
CONTINUOUS
 62
     0
100
AcDbLine
 10
-71.00000623862297
 20
390.4369478956378
 30
0.0
 11
-90.29310157090455
 21
390.4369478956378
 31
0.0
  0
LINE
  5
7CF0
330
7CE3
100
AcDbEntity
  8
30
  6
CONTINUOUS
 62
     0
100
AcDbLine
 10
-71.000006238623
 20
293.4369478956378
 30
0.0
 11
-90.29310157090458
 21
293.4369478956378
 31
0.0
  0
LINE
  5
7CF1
330
7CE3
100
AcDbEntity
  8
30
  6
CONTINUOUS
 62
     0
100
AcDbLine
 10
-89.79310157090456
 20
388.4369478956378
 30
0.0
 11
-89.79310157090456
 21
295.4369478956378
 31
0.0
  0
INSERT
  5
7CF2
330
7CE3
100
AcDbEntity
  8
30
  6
CONTINUOUS
 62
     0
100
AcDbBlockReference
  2
_OPEN
 10
-89.79310157090456
 20
390.4369478956378
 30
0.0
 41
2.0
 42
2.0
 43
2.0
 50
90.0
  0
INSERT
  5
7CF3
330
7CE3
100
AcDbEntity
  8
30
  6
CONTINUOUS
 62
     0
100
AcDbBlockReference
  2
_OPEN
 10
-89.79310157090456
 20
293.4369478956378
 30
0.0
 41
2.0
 42
2.0
 43
2.0
 50
270.0
  0
MTEXT
  5
7CF4
330
7CE3
100
AcDbEntity
  8
30
  6
CONTINUOUS
 62
     0
100
AcDbMText
 10
-92.79310157090463
 20
341.9369478956378
 30
0.0
 40
4.0
 41
0.0
 71
     5
 72
     1
  1
\A1;97
 11
0.0000000000000001
 21
1.0
 31
0.0
1001
ACAD
1000
MTEXTBEGIN
1070
    73
1070
     1
1070
    44
1040
1.0
1070
    74
1070
     0
1000
MTEXTEND
1000
MTEXTBEGIN
1070
    73
1070
     1
1070
    44
1040
1.0
1070
    74
1070
     0
1000
MTEXTEND
1000
MTEXTBEGIN
1070
    73
1070
     1
1070
    44
1040
1.0
1070
    74
1070
     0
1000
MTEXTEND
1000
MTEXTBEGIN
1070
    73
1070
     1
1070
    44
1040
1.0
1070
    74
1070
     0
1000
MTEXTEND
1000
MTEXTBEGIN
1070
    73
1070
     1
1070
    44
1040
1.0
1070
    74
1070
     0
1000
MTEXTEND
1000
MTEXTBEGIN
1070
    73
1070
     1
1070
    44
1040
1.0
1070
    74
1070
     0
1000
MTEXTEND
1000
MTEXTBEGIN
1070
    73
1070
     1
1070
    44
1040
1.0
1070
    74
1070
     0
1000
MTEXTEND
1000
MTEXTBEGIN
1070
    73
1070
     1
1070
    44
1040
1.0
1070
    74
1070
     0
1000
MTEXTEND
  0
POINT
  5
7CF5
330
7CE3
100
AcDbEntity
  8
DEFPOINTS
  6
CONTINUOUS
 62
     0
100
AcDbPoint
 10
-70.00000623862297
 20
390.4369478956378
 30
0.0
  0
POINT
  5
7CF6
330
7CE3
100
AcDbEntity
  8
DEFPOINTS
  6
CONTINUOUS
 62
     0
100
AcDbPoint
 10
-70.000006238623
 20
293.4369478956378
 30
0.0
  0
POINT
  5
7CF7
330
7CE3
100
AcDbEntity
  8
DEFPOINTS
  6
CONTINUOUS
 62
     0
100
AcDbPoint
 10
-89.79310157090456
 20
293.4369478956378
 30
0.0
  0
ENDBLK
  5
7CEE
330
7CE3
100
AcDbEntity
  8
0
100
AcDbBlockEnd
  0
BLOCK
  5
7D6B
330
7D61
100
AcDbEntity
  8
0
100
AcDbBlockBegin
  2
*D40
 70
     1
 10
0.0
 20
0.0
 30
0.0
  3
*D40
  1

  0
LINE
  5
7D62
330
7D61
100
AcDbEntity
  8
30
  6
CONTINUOUS
 62
     0
100
AcDbLine
 10
70.99993896483986
 20
390.4369478956378
 30
0.0
 11
94.07756810706727
 21
390.4369478956378
 31
0.0
  0
LINE
  5
7D63
330
7D61
100
AcDbEntity
  8
30
  6
CONTINUOUS
 62
     0
100
AcDbLine
 10
59.86574955133993
 20
354.4369478956378
 30
0.0
 11
94.07756810706727
 21
354.4369478956378
 31
0.0
  0
LINE
  5
7D64
330
7D61
100
AcDbEntity
  8
30
  6
CONTINUOUS
 62
     0
100
AcDbLine
 10
93.5775681070673
 20
388.4369478956378
 30
0.0
 11
93.5775681070673
 21
356.4369478956378
 31
0.0
  0
MTEXT
  5
7D65
330
7D61
100
AcDbEntity
  8
30
  6
CONTINUOUS
 62
     0
100
AcDbMText
 10
115.0397314126009
 20
371.7474129077193
 30
0.0
 40
4.0
 41
0.0
 71
     5
 72
     1
  1
\A1;ON SIDE 36\POFF SIDE 35
1001
ACAD
1000
MTEXTBEGIN
1070
    73
1070
     1
1070
    44
1040
1.0
1070
    74
1070
     0
1000
MTEXTEND
1000
MTEXTBEGIN
1070
    73
1070
     1
1070
    44
1040
1.0
1070
    74
1070
     0
1000
MTEXTEND
1000
MTEXTBEGIN
1070
    73
1070
     1
1070
    44
1040
1.0
1070
    74
1070
     0
1000
MTEXTEND
1000
MTEXTBEGIN
1070
    73
1070
     1
1070
    44
1040
1.0
1070
    74
1070
     0
1000
MTEXTEND
1000
MTEXTBEGIN
1070
    73
1070
     1
1070
    44
1040
1.0
1070
    74
1070
     0
1000
MTEXTEND
1000
MTEXTBEGIN
1070
    73
1070
     1
1070
    44
1040
1.0
1070
    74
1070
     0
1000
MTEXTEND
1000
MTEXTBEGIN
1070
    73
1070
     1
1070
    44
1040
1.0
1070
    74
1070
     0
1000
MTEXTEND
  0
INSERT
  5
7D66
330
7D61
100
AcDbEntity
  8
30
  6
CONTINUOUS
 62
     0
100
AcDbBlockReference
  2
_OPEN
 10
93.5775681070673
 20
390.4369478956378
 30
0.0
 41
2.0
 42
2.0
 43
2.0
 50
90.0
  0
INSERT
  5
7D67
330
7D61
100
AcDbEntity
  8
30
  6
CONTINUOUS
 62
     0
100
AcDbBlockReference
  2
_OPEN
 10
93.5775681070673
 20
354.4369478956378
 30
0.0
 41
2.0
 42
2.0
 43
2.0
 50
270.0
  0
POINT
  5
7D68
330
7D61
100
AcDbEntity
  8
DEFPOINTS
  6
CONTINUOUS
 62
     0
100
AcDbPoint
 10
69.99993896483985
 20
390.4369478956378
 30
0.0
  0
POINT
  5
7D69
330
7D61
100
AcDbEntity
  8
DEFPOINTS
  6
CONTINUOUS
 62
     0
100
AcDbPoint
 10
58.86574955133993
 20
354.4369478956378
 30
0.0
  0
POINT
  5
7D6A
330
7D61
100
AcDbEntity
  8
DEFPOINTS
  6
CONTINUOUS
 62
     0
100
AcDbPoint
 10
93.5775681070673
 20
354.4369478956378
 30
0.0
  0
ENDBLK
  5
7D6C
330
7D61
100
AcDbEntity
  8
0
100
AcDbBlockEnd
  0
BLOCK
  5
7DB9
330
7DAF
100
AcDbEntity
  8
0
100
AcDbBlockBegin
  2
*D41
 70
     1
 10
0.0
 20
0.0
 30
0.0
  3
*D41
  1

  0
LINE
  5
8185
330
7DAF
100
AcDbEntity
  8
30
  6
CONTINUOUS
 62
     0
100
AcDbLine
 10
70.99993896483986
 20
390.4369478956378
 30
0.0
 11
94.07756810706729
 21
390.4369478956378
 31
0.0
  0
LINE
  5
8186
330
7DAF
100
AcDbEntity
  8
30
  6
CONTINUOUS
 62
     0
100
AcDbLine
 10
59.86574955133993
 20
354.4369478956378
 30
0.0
 11
94.07756810706729
 21
354.4369478956378
 31
0.0
  0
LINE
  5
8187
330
7DAF
100
AcDbEntity
  8
30
  6
CONTINUOUS
 62
     0
100
AcDbLine
 10
93.5775681070673
 20
388.4369478956378
 30
0.0
 11
93.5775681070673
 21
356.4369478956378
 31
0.0
  0
MTEXT
  5
8188
330
7DAF
100
AcDbEntity
  8
30
  6
CONTINUOUS
 62
     0
100
AcDbMText
 10
115.0397314126009
 20
371.7474129077193
 30
0.0
 40
4.0
 41
0.0
 71
     5
 72
     1
  1
\A1;ON SIDE 36\POFF SIDE 35
  0
INSERT
  5
8189
330
7DAF
100
AcDbEntity
  8
30
  6
CONTINUOUS
 62
     0
100
AcDbBlockReference
  2
_OPEN
 10
93.5775681070673
 20
390.4369478956378
 30
0.0
 41
2.0
 42
2.0
 43
2.0
 50
90.0
  0
INSERT
  5
818A
330
7DAF
100
AcDbEntity
  8
30
  6
CONTINUOUS
 62
     0
100
AcDbBlockReference
  2
_OPEN
 10
93.5775681070673
 20
354.4369478956378
 30
0.0
 41
2.0
 42
2.0
 43
2.0
 50
270.0
  0
POINT
  5
818B
330
7DAF
100
AcDbEntity
  8
DEFPOINTS
  6
CONTINUOUS
 62
     0
100
AcDbPoint
 10
69.99993896483985
 20
390.4369478956378
 30
0.0
  0
POINT
  5
818C
330
7DAF
100
AcDbEntity
  8
DEFPOINTS
  6
CONTINUOUS
 62
     0
100
AcDbPoint
 10
58.86574955133993
 20
354.4369478956378
 30
0.0
  0
POINT
  5
818D
330
7DAF
100
AcDbEntity
  8
DEFPOINTS
  6
CONTINUOUS
 62
     0
100
AcDbPoint
 10
93.5775681070673
 20
354.4369478956378
 30
0.0
  0
ENDBLK
  5
7DBA
330
7DAF
100
AcDbEntity
  8
0
100
AcDbBlockEnd
  0
BLOCK
  5
7E2E
330
7E24
100
AcDbEntity
  8
0
100
AcDbBlockBegin
  2
*D42
 70
     1
 10
0.0
 20
0.0
 30
0.0
  3
*D42
  1

  0
LINE
  5
80C2
330
7E24
100
AcDbEntity
  8
30
  6
CONTINUOUS
 62
     0
100
AcDbLine
 10
324.2585283399446
 20
-130.9999999999998
 30
0.0
 11
324.2585283399446
 21
-140.1885260678299
 31
0.0
  0
LINE
  5
80C3
330
7E24
100
AcDbEntity
  8
30
  6
CONTINUOUS
 62
     0
100
AcDbLine
 10
289.2585283399446
 20
-130.9999999999998
 30
0.0
 11
289.2585283399446
 21
-140.1885260678299
 31
0.0
  0
LINE
  5
80C4
330
7E24
100
AcDbEntity
  8
30
  6
CONTINUOUS
 62
     0
100
AcDbLine
 10
322.2585283399446
 20
-139.6885260678299
 30
0.0
 11
291.2585283399446
 21
-139.6885260678299
 31
0.0
  0
INSERT
  5
80C5
330
7E24
100
AcDbEntity
  8
30
  6
CONTINUOUS
 62
     0
100
AcDbBlockReference
  2
_OPEN
 10
324.2585283399446
 20
-139.6885260678299
 30
0.0
 41
2.0
 42
2.0
 43
2.0
  0
INSERT
  5
80C6
330
7E24
100
AcDbEntity
  8
30
  6
CONTINUOUS
 62
     0
100
AcDbBlockReference
  2
_OPEN
 10
289.2585283399446
 20
-139.6885260678299
 30
0.0
 41
2.0
 42
2.0
 43
2.0
 50
180.0
  0
MTEXT
  5
80C7
330
7E24
100
AcDbEntity
  8
30
  6
CONTINUOUS
 62
     0
100
AcDbMText
 10
306.7585283399446
 20
-136.6885260678299
 30
0.0
 40
4.0
 41
0.0
 71
     5
 72
     1
  1
\A1;35
1001
ACAD
1000
MTEXTBEGIN
1070
    73
1070
     1
1070
    44
1040
1.0
1070
    74
1070
     0
1000
MTEXTEND
  0
POINT
  5
80C8
330
7E24
100
AcDbEntity
  8
DEFPOINTS
  6
CONTINUOUS
 62
     0
100
AcDbPoint
 10
324.2585283399446
 20
-129.9999999999998
 30
0.0
  0
POINT
  5
80C9
330
7E24
100
AcDbEntity
  8
DEFPOINTS
  6
CONTINUOUS
 62
     0
100
AcDbPoint
 10
289.2585283399446
 20
-129.9999999999998
 30
0.0
  0
POINT
  5
80CA
330
7E24
100
AcDbEntity
  8
DEFPOINTS
  6
CONTINUOUS
 62
     0
100
AcDbPoint
 10
289.2585283399446
 20
-139.6885260678299
 30
0.0
  0
ENDBLK
  5
7E2F
330
7E24
100
AcDbEntity
  8
0
100
AcDbBlockEnd
  0
ENDSEC
  0
SECTION
  2
ENTITIES
  0
LINE
  5
B4
330
1E
100
AcDbEntity
  8
16
100
AcDbLine
 10
0.0
 20
-101.8246001220914
 30
0.0
 11
0.0
 21
105.6073578546832
 31
0.0
  0
LINE
  5
B5
330
1E
100
AcDbEntity
  8
16
100
AcDbLine
 10
71.77465564206305
 20
-0.0000000000000027
 30
0.0
 11
-83.90588178115756
 21
-0.0000000000000027
 31
0.0
  0
MTEXT
  5
BF3
330
1E
100
AcDbEntity
  8
24
  6
CONTINUOUS
100
AcDbMText
 10
140.9820964648283
 20
176.3476821548369
 30
0.0
 40
3.0
 41
0.0
 71
     1
 72
     1
  1
\A1;
1001
ACAD
1000
MTEXTBEGIN
1070
    73
1070
     1
1070
    44
1040
1.0
1070
    74
1070
     0
1000
MTEXTEND
1000
MTEXTBEGIN
1070
    73
1070
     1
1070
    44
1040
1.0
1070
    74
1070
     0
1000
MTEXTEND
1000
MTEXTBEGIN
1070
    73
1070
     1
1070
    44
1040
1.0
1070
    74
1070
     0
1000
MTEXTEND
1000
MTEXTBEGIN
1070
    73
1070
     1
1070
    44
1040
1.0
1070
    74
1070
     0
1000
MTEXTEND
1000
MTEXTBEGIN
1070
    73
1070
     1
1070
    44
1040
1.0
1070
    74
1070
     0
1000
MTEXTEND
1000
MTEXTBEGIN
1070
    73
1070
     1
1070
    44
1040
1.0
1070
    74
1070
     0
1000
MTEXTEND
1000
MTEXTBEGIN
1070
    73
1070
     1
1070
    44
1040
1.0
1070
    74
1070
     0
1000
MTEXTEND
1000
MTEXTBEGIN
1070
    73
1070
     1
1070
    44
1040
1.0
1070
    74
1070
     0
1000
MTEXTEND
  0
LINE
  5
1C9B
330
1E
100
AcDbEntity
  8
16
100
AcDbLine
 10
352.2681462467815
 20
0.0000000000001137
 30
0.0
 11
168.4871519556748
 21
0.0000000000001137
 31
0.0
  0
MTEXT
  5
5C78
330
1E
100
AcDbEntity
  8
30
  6
CONTINUOUS
100
AcDbMText
 10
162.3297648581359
 20
88.99793930010117
 30
0.0
 40
4.0
 41
0.0
 71
     9
 72
     1
  1

1001
ACAD
1000
MTEXTBEGIN
1070
    73
1070
     1
1070
    44
1040
1.0
1070
    74
1070
     0
1000
MTEXTEND
1000
MTEXTBEGIN
1070
    73
1070
     1
1070
    44
1040
1.0
1070
    74
1070
     0
1000
MTEXTEND
1000
MTEXTBEGIN
1070
    73
1070
     1
1070
    44
1040
1.0
1070
    74
1070
     0
1000
MTEXTEND
1000
MTEXTBEGIN
1070
    73
1070
     1
1070
    44
1040
1.0
1070
    74
1070
     0
1000
MTEXTEND
1000
MTEXTBEGIN
1070
    73
1070
     1
1070
    44
1040
1.0
1070
    74
1070
     0
1000
MTEXTEND
1000
MTEXTBEGIN
1070
    73
1070
     1
1070
    44
1040
1.0
1070
    74
1070
     0
1000
MTEXTEND
1000
MTEXTBEGIN
1070
    73
1070
     1
1070
    44
1040
1.0
1070
    74
1070
     0
1000
MTEXTEND
1000
MTEXTBEGIN
1070
    73
1070
     1
1070
    44
1040
1.0
1070
    74
1070
     0
1000
MTEXTEND
  0
MTEXT
  5
6200
330
1E
100
AcDbEntity
  8
30
  6
CONTINUOUS
100
AcDbMText
 10
160.6290066227675
 20
91.2377397662035
 30
0.0
 40
4.0
 41
0.0
 71
     9
 72
     1
  1

1001
ACAD
1000
MTEXTBEGIN
1070
    73
1070
     1
1070
    44
1040
1.0
1070
    74
1070
     0
1000
MTEXTEND
1000
MTEXTBEGIN
1070
    73
1070
     1
1070
    44
1040
1.0
1070
    74
1070
     0
1000
MTEXTEND
1000
MTEXTBEGIN
1070
    73
1070
     1
1070
    44
1040
1.0
1070
    74
1070
     0
1000
MTEXTEND
1000
MTEXTBEGIN
1070
    73
1070
     1
1070
    44
1040
1.0
1070
    74
1070
     0
1000
MTEXTEND
1000
MTEXTBEGIN
1070
    73
1070
     1
1070
    44
1040
1.0
1070
    74
1070
     0
1000
MTEXTEND
1000
MTEXTBEGIN
1070
    73
1070
     1
1070
    44
1040
1.0
1070
    74
1070
     0
1000
MTEXTEND
1000
MTEXTBEGIN
1070
    73
1070
     1
1070
    44
1040
1.0
1070
    74
1070
     0
1000
MTEXTEND
1000
MTEXTBEGIN
1070
    73
1070
     1
1070
    44
1040
1.0
1070
    74
1070
     0
1000
MTEXTEND
  0
LINE
  5
67DB
330
1E
100
AcDbEntity
  8
16
100
AcDbLine
 10
370.0
 20
-360.0
 30
0.0
 11
150.0
 21
-360.0
 31
0.0
  0
LINE
  5
67E2
330
1E
100
AcDbEntity
  8
16
100
AcDbLine
 10
0.0
 20
-506.6279096442683
 30
0.0
 11
0.0
 21
-207.9249011857708
 31
0.0
  0
LINE
  5
67E5
330
1E
100
AcDbEntity
  8
16
100
AcDbLine
 10
87.06681156507483
 20
-360.0
 30
0.0
 11
-118.1067106947925
 21
-360.0
 31
0.0
  0
LINE
  5
67F8
330
1E
100
AcDbEntity
  8
16
100
AcDbLine
 10
270.0
 20
-507.899000675821
 30
0.0
 11
270.0
 21
-210.5283865792193
 31
0.0
  0
LINE
  5
74B5
330
1E
100
AcDbEntity
  8
10
  6
CONTINOUS
100
AcDbLine
 10
-70.00000000000007
 20
50.99999999999909
 30
0.0
 11
70.0
 21
50.99999999999909
 31
0.0
  0
LINE
  5
74B6
330
1E
100
AcDbEntity
  8
10
  6
CONTINOUS
100
AcDbLine
 10
-53.0
 20
45.0000000000001
 30
0.0
 11
53.0
 21
45.0000000000001
 31
0.0
  0
LINE
  5
74B7
330
1E
100
AcDbEntity
  8
10
  6
CONTINOUS
100
AcDbLine
 10
70.0
 20
130.0
 30
0.0
 11
-70.00000000000007
 21
130.0
 31
0.0
  0
LINE
  5
74B8
330
1E
100
AcDbEntity
  8
10
  6
CONTINOUS
100
AcDbLine
 10
-53.0
 20
-45.0
 30
0.0
 11
53.0
 21
-45.0
 31
0.0
  0
LINE
  5
74BA
330
1E
100
AcDbEntity
  8
10
  6
CONTINOUS
100
AcDbLine
 10
36.0
 20
-114.0
 30
0.0
 11
54.0
 21
-114.0
 31
0.0
  0
LINE
  5
74BB
330
1E
100
AcDbEntity
  8
10
  6
CONTINOUS
100
AcDbLine
 10
36.0
 20
114.0000000000001
 30
0.0
 11
54.0
 21
114.0000000000001
 31
0.0
  0
LINE
  5
74BC
330
1E
100
AcDbEntity
  8
10
  6
CONTINOUS
100
AcDbLine
 10
-70.00000000000007
 20
-130.0
 30
0.0
 11
70.0
 21
-130.0
 31
0.0
  0
LINE
  5
74BD
330
1E
100
AcDbEntity
  8
10
  6
CONTINOUS
100
AcDbLine
 10
-70.00000000000007
 20
-51.0
 30
0.0
 11
70.0
 21
-51.0
 31
0.0
  0
LINE
  5
74BF
330
1E
100
AcDbEntity
  8
10
  6
CONTINOUS
100
AcDbLine
 10
-25.49999999999977
 20
-45.0
 30
0.0
 11
-25.5
 21
45.0000000000001
 31
0.0
  0
LINE
  5
74C0
330
1E
100
AcDbEntity
  8
10
  6
CONTINOUS
100
AcDbLine
 10
25.49999999999977
 20
-45.0
 30
0.0
 11
25.49999999999977
 21
45.0000000000001
 31
0.0
  0
LINE
  5
74C1
330
1E
100
AcDbEntity
  8
10
  6
CONTINOUS
100
AcDbLine
 10
-70.00000000000007
 20
130.0
 30
0.0
 11
-70.00000000000007
 21
-130.0
 31
0.0
  0
ARC
  5
74C2
330
1E
100
AcDbEntity
  8
10
  6
CONTINOUS
100
AcDbCircle
 10
-53.0
 20
-40.0
 30
0.0
 40
5.0
100
AcDbArc
 50
180.0
 51
270.0
  0
LINE
  5
74D2
330
1E
100
AcDbEntity
  8
10
  6
CONTINOUS
100
AcDbLine
 10
-9.0
 20
-114.0
 30
0.0
 11
9.0
 21
-114.0
 31
0.0
  0
LINE
  5
74D3
330
1E
100
AcDbEntity
  8
10
  6
CONTINOUS
100
AcDbLine
 10
-45.0000000000001
 20
-109.3811978464831
 30
0.0
 11
-41.0
 21
-111.6905989232416
 31
0.0
  0
LINE
  5
74D4
330
1E
100
AcDbEntity
  8
10
  6
CONTINOUS
100
AcDbLine
 10
-49.0
 20
-111.6905989232416
 30
0.0
 11
-45.0000000000001
 21
-109.3811978464831
 31
0.0
  0
LINE
  5
74D5
330
1E
100
AcDbEntity
  8
10
  6
CONTINOUS
100
AcDbLine
 10
-45.0
 20
-123.0
 30
0.0
 11
-45.0
 21
-105.0
 31
0.0
  0
ARC
  5
74D6
330
1E
100
AcDbEntity
  8
10
  6
CONTINOUS
100
AcDbCircle
 10
45.0
 20
-114.0
 30
0.0
 40
5.5
210
0.0
220
0.0
230
-1.0
100
AcDbArc
 50
0.0
 51
180.0
  0
LINE
  5
74D7
330
1E
100
AcDbEntity
  8
10
  6
CONTINOUS
100
AcDbLine
 10
-54.0
 20
-114.0
 30
0.0
 11
-36.0
 21
-114.0
 31
0.0
  0
LINE
  5
74D8
330
1E
100
AcDbEntity
  8
10
  6
CONTINOUS
100
AcDbLine
 10
-41.0
 20
-111.6905989232416
 30
0.0
 11
-41.0
 21
-116.3094010767586
 31
0.0
  0
LINE
  5
74D9
330
1E
100
AcDbEntity
  8
10
  6
CONTINOUS
100
AcDbLine
 10
-49.0
 20
-116.3094010767586
 30
0.0
 11
-49.0
 21
-111.6905989232416
 31
0.0
  0
LINE
  5
74DA
330
1E
100
AcDbEntity
  8
10
  6
CONTINOUS
100
AcDbLine
 10
-45.0
 20
-118.6188021535169
 30
0.0
 11
-49.0
 21
-116.3094010767586
 31
0.0
  0
LINE
  5
74DB
330
1E
100
AcDbEntity
  8
10
  6
CONTINOUS
100
AcDbLine
 10
-41.0
 20
-116.3094010767586
 30
0.0
 11
-45.0
 21
-118.6188021535169
 31
0.0
  0
LINE
  5
74DC
330
1E
100
AcDbEntity
  8
10
  6
CONTINOUS
100
AcDbLine
 10
-50.5
 20
-114.0
 30
0.0
 11
-50.5
 21
-130.0
 31
0.0
  0
LINE
  5
74DD
330
1E
100
AcDbEntity
  8
10
  6
CONTINOUS
100
AcDbLine
 10
-39.5
 20
-114.0
 30
0.0
 11
-39.5
 21
-130.0
 31
0.0
  0
ARC
  5
74DE
330
1E
100
AcDbEntity
  8
10
  6
CONTINOUS
100
AcDbCircle
 10
45.0
 20
-114.0
 30
0.0
 40
8.0
210
0.0
220
0.0
230
-1.0
100
AcDbArc
 50
226.5674634422111
 51
313.4325365577887
  0
LINE
  5
74DF
330
1E
100
AcDbEntity
  8
12
  6
DASHED
100
AcDbLine
 10
-22.5
 20
-99.0
 30
0.0
 11
-22.5
 21
-115.0
 31
0.0
  0
CIRCLE
  5
74E0
330
1E
100
AcDbEntity
  8
12
  6
DASHED
100
AcDbCircle
 10
-22.5
 20
-107.0
 30
0.0
 40
4.0
  0
LINE
  5
74E1
330
1E
100
AcDbEntity
  8
12
  6
DASHED
100
AcDbLine
 10
-14.5
 20
-107.0
 30
0.0
 11
-30.5
 21
-107.0
 31
0.0
  0
LINE
  5
74E2
330
1E
100
AcDbEntity
  8
12
  6
DASHED
100
AcDbLine
 10
30.5
 20
-107.0
 30
0.0
 11
14.5
 21
-107.0
 31
0.0
  0
CIRCLE
  5
74E3
330
1E
100
AcDbEntity
  8
12
  6
DASHED
100
AcDbCircle
 10
22.5
 20
-107.0
 30
0.0
 40
4.0
  0
LINE
  5
74E4
330
1E
100
AcDbEntity
  8
10
  6
CONTINOUS
100
AcDbLine
 10
-0.0000000000001137
 20
-109.3811978464831
 30
0.0
 11
4.0
 21
-111.6905989232416
 31
0.0
  0
LINE
  5
74E5
330
1E
100
AcDbEntity
  8
10
  6
CONTINOUS
100
AcDbLine
 10
-4.0
 20
-111.6905989232416
 30
0.0
 11
-0.0000000000001137
 21
-109.3811978464831
 31
0.0
  0
LINE
  5
74E6
330
1E
100
AcDbEntity
  8
12
  6
DASHED
100
AcDbLine
 10
22.5
 20
-99.0
 30
0.0
 11
22.5
 21
-115.0
 31
0.0
  0
LINE
  5
74E7
330
1E
100
AcDbEntity
  8
10
  6
CONTINOUS
100
AcDbLine
 10
0.0
 20
-123.0
 30
0.0
 11
0.0
 21
-105.0
 31
0.0
  0
ARC
  5
74E8
330
1E
100
AcDbEntity
  8
10
  6
CONTINOUS
100
AcDbCircle
 10
0.0
 20
-114.0
 30
0.0
 40
5.5
210
0.0
220
0.0
230
-1.0
100
AcDbArc
 50
0.0
 51
180.0
  0
LINE
  5
74E9
330
1E
100
AcDbEntity
  8
10
  6
CONTINOUS
100
AcDbLine
 10
4.0
 20
-111.6905989232416
 30
0.0
 11
4.0
 21
-116.3094010767586
 31
0.0
  0
LINE
  5
74EA
330
1E
100
AcDbEntity
  8
10
  6
CONTINOUS
100
AcDbLine
 10
-4.0
 20
-116.3094010767586
 30
0.0
 11
-4.0
 21
-111.6905989232416
 31
0.0
  0
LINE
  5
74EB
330
1E
100
AcDbEntity
  8
10
  6
CONTINOUS
100
AcDbLine
 10
0.0
 20
-118.6188021535169
 30
0.0
 11
-4.0
 21
-116.3094010767586
 31
0.0
  0
LINE
  5
74EC
330
1E
100
AcDbEntity
  8
10
  6
CONTINOUS
100
AcDbLine
 10
4.0
 20
-116.3094010767586
 30
0.0
 11
0.0
 21
-118.6188021535169
 31
0.0
  0
LINE
  5
74ED
330
1E
100
AcDbEntity
  8
10
  6
CONTINOUS
100
AcDbLine
 10
-5.5
 20
-114.0
 30
0.0
 11
-5.5
 21
-130.0
 31
0.0
  0
LINE
  5
74EE
330
1E
100
AcDbEntity
  8
10
  6
CONTINOUS
100
AcDbLine
 10
5.5
 20
-114.0
 30
0.0
 11
5.5
 21
-130.0
 31
0.0
  0
ARC
  5
74EF
330
1E
100
AcDbEntity
  8
10
  6
CONTINOUS
100
AcDbCircle
 10
0.0
 20
-114.0
 30
0.0
 40
8.0
210
0.0
220
0.0
230
-1.0
100
AcDbArc
 50
226.5674634422111
 51
313.4325365577887
  0
LINE
  5
74F0
330
1E
100
AcDbEntity
  8
10
  6
CONTINOUS
100
AcDbLine
 10
44.99999999999988
 20
-109.3811978464831
 30
0.0
 11
49.0
 21
-111.6905989232416
 31
0.0
  0
LINE
  5
74F1
330
1E
100
AcDbEntity
  8
10
  6
CONTINOUS
100
AcDbLine
 10
41.0
 20
-111.6905989232416
 30
0.0
 11
44.99999999999988
 21
-109.3811978464831
 31
0.0
  0
LINE
  5
74F2
330
1E
100
AcDbEntity
  8
10
  6
CONTINOUS
100
AcDbLine
 10
45.0
 20
-123.0
 30
0.0
 11
45.0
 21
-105.0
 31
0.0
  0
ARC
  5
74F3
330
1E
100
AcDbEntity
  8
10
  6
CONTINOUS
100
AcDbCircle
 10
-45.0
 20
-114.0
 30
0.0
 40
5.5
210
0.0
220
0.0
230
-1.0
100
AcDbArc
 50
0.0
 51
180.0
  0
LINE
  5
74F4
330
1E
100
AcDbEntity
  8
10
  6
CONTINOUS
100
AcDbLine
 10
49.0
 20
-111.6905989232416
 30
0.0
 11
49.0
 21
-116.3094010767586
 31
0.0
  0
LINE
  5
74F5
330
1E
100
AcDbEntity
  8
10
  6
CONTINOUS
100
AcDbLine
 10
41.0
 20
-116.3094010767586
 30
0.0
 11
41.0
 21
-111.6905989232416
 31
0.0
  0
LINE
  5
74F6
330
1E
100
AcDbEntity
  8
10
  6
CONTINOUS
100
AcDbLine
 10
45.0
 20
-118.6188021535169
 30
0.0
 11
41.0
 21
-116.3094010767586
 31
0.0
  0
LINE
  5
74F7
330
1E
100
AcDbEntity
  8
10
  6
CONTINOUS
100
AcDbLine
 10
49.0
 20
-116.3094010767586
 30
0.0
 11
45.0
 21
-118.6188021535169
 31
0.0
  0
LINE
  5
74F8
330
1E
100
AcDbEntity
  8
10
  6
CONTINOUS
100
AcDbLine
 10
39.5
 20
-114.0
 30
0.0
 11
39.5
 21
-130.0
 31
0.0
  0
LINE
  5
74F9
330
1E
100
AcDbEntity
  8
10
  6
CONTINOUS
100
AcDbLine
 10
50.5
 20
-114.0
 30
0.0
 11
50.5
 21
-130.0
 31
0.0
  0
ARC
  5
74FA
330
1E
100
AcDbEntity
  8
10
  6
CONTINOUS
100
AcDbCircle
 10
-45.0
 20
-114.0
 30
0.0
 40
8.0
210
0.0
220
0.0
230
-1.0
100
AcDbArc
 50
226.5674634422111
 51
313.4325365577887
  0
LINE
  5
7500
330
1E
100
AcDbEntity
  8
10
  6
CONTINOUS
100
AcDbLine
 10
17.99999999999988
 20
-31.0
 30
0.0
 11
-18.0
 21
-31.0
 31
0.0
  0
LINE
  5
7501
330
1E
100
AcDbEntity
  8
10
  6
CONTINOUS
100
AcDbLine
 10
17.0
 20
17.0337027253521
 30
0.0
 11
-17.0
 21
17.0337027253521
 31
0.0
  0
LINE
  5
7502
330
1E
100
AcDbEntity
  8
10
  6
CONTINOUS
100
AcDbLine
 10
17.0
 20
28.03853193396571
 30
0.0
 11
-17.00000000000011
 21
28.03853193396571
 31
0.0
  0
LINE
  5
7503
330
1E
100
AcDbEntity
  8
10
  6
CONTINOUS
100
AcDbLine
 10
17.0
 20
39.33264411704204
 30
0.0
 11
-17.00000000000011
 21
39.33264411704204
 31
0.0
  0
LINE
  5
7504
330
1E
100
AcDbEntity
  8
10
  6
CONTINOUS
100
AcDbLine
 10
-18.0
 20
-31.0
 30
0.0
 11
-18.00000000000011
 21
31.00000000000011
 31
0.0
  0
LINE
  5
7505
330
1E
100
AcDbEntity
  8
10
  6
CONTINOUS
100
AcDbLine
 10
-58.0
 20
40.00000000000009
 30
0.0
 11
-58.0
 21
-40.0
 31
0.0
  0
ARC
  5
7506
330
1E
100
AcDbEntity
  8
10
  6
CONTINOUS
100
AcDbCircle
 10
-53.0
 20
40.00000000000009
 30
0.0
 40
5.0
100
AcDbArc
 50
90.0
 51
180.0
  0
LINE
  5
7507
330
1E
100
AcDbEntity
  8
10
  6
CONTINOUS
100
AcDbLine
 10
-17.00000000000011
 20
17.0337027253521
 30
0.0
 11
-17.00000000000011
 21
39.33264411704204
 31
0.0
  0
LINE
  5
7508
330
1E
100
AcDbEntity
  8
10
  6
CONTINOUS
100
AcDbLine
 10
-17.00000000000011
 20
31.00000000000011
 30
0.0
 11
-18.00000000000011
 21
31.00000000000011
 31
0.0
  0
LINE
  5
7509
330
1E
100
AcDbEntity
  8
10
  6
CONTINOUS
100
AcDbLine
 10
17.99999999999988
 20
-31.0
 30
0.0
 11
18.0
 21
31.00000000000011
 31
0.0
  0
LINE
  5
750C
330
1E
100
AcDbEntity
  8
10
  6
CONTINOUS
100
AcDbLine
 10
19.0
 20
-40.45000000000015
 30
0.0
 11
24.29999999999994
 21
-40.45000000000015
 31
0.0
  0
LINE
  5
750D
330
1E
100
AcDbEntity
  8
10
  6
CONTINOUS
100
AcDbLine
 10
19.0
 20
-33.85000000000013
 30
0.0
 11
24.29999999999994
 21
-33.85000000000013
 31
0.0
  0
LINE
  5
750E
330
1E
100
AcDbEntity
  8
10
  6
CONTINOUS
100
AcDbLine
 10
19.0
 20
-33.85000000000013
 30
0.0
 11
19.0
 21
-40.45000000000015
 31
0.0
  0
LINE
  5
7515
330
1E
100
AcDbEntity
  8
10
  6
CONTINOUS
100
AcDbLine
 10
24.29999999999994
 20
-33.85000000000013
 30
0.0
 11
24.29999999999994
 21
-40.45000000000015
 31
0.0
  0
LINE
  5
7519
330
1E
100
AcDbEntity
  8
10
  6
CONTINOUS
100
AcDbLine
 10
17.0
 20
17.0337027253521
 30
0.0
 11
17.0
 21
39.33264411704204
 31
0.0
  0
LINE
  5
751A
330
1E
100
AcDbEntity
  8
10
  6
CONTINOUS
100
AcDbLine
 10
18.0
 20
31.00000000000011
 30
0.0
 11
17.0
 21
31.00000000000011
 31
0.0
  0
LINE
  5
751B
330
1E
100
AcDbEntity
  8
10
  6
CONTINOUS
100
AcDbLine
 10
-9.0
 20
114.0000000000001
 30
0.0
 11
9.0
 21
114.0000000000001
 31
0.0
  0
LINE
  5
751C
330
1E
100
AcDbEntity
  8
10
  6
CONTINOUS
100
AcDbLine
 10
-50.5
 20
114.0000000000001
 30
0.0
 11
-50.5
 21
130.0
 31
0.0
  0
LINE
  5
751D
330
1E
100
AcDbEntity
  8
10
  6
CONTINOUS
100
AcDbLine
 10
-39.5
 20
114.0000000000001
 30
0.0
 11
-39.5
 21
130.0
 31
0.0
  0
LINE
  5
751E
330
1E
100
AcDbEntity
  8
10
  6
CONTINOUS
100
AcDbLine
 10
-45.0
 20
105.0
 30
0.0
 11
-45.0
 21
123.0000000000001
 31
0.0
  0
ARC
  5
751F
330
1E
100
AcDbEntity
  8
10
  6
CONTINOUS
100
AcDbCircle
 10
-45.0
 20
114.0000000000001
 30
0.0
 40
5.5
100
AcDbArc
 50
180.0
 51
0.0
  0
LINE
  5
7520
330
1E
100
AcDbEntity
  8
10
  6
CONTINOUS
100
AcDbLine
 10
-54.0
 20
114.0000000000001
 30
0.0
 11
-36.0
 21
114.0000000000001
 31
0.0
  0
LINE
  5
7521
330
1E
100
AcDbEntity
  8
10
  6
CONTINOUS
100
AcDbLine
 10
-41.0
 20
111.6905989232412
 30
0.0
 11
-41.0
 21
116.3094010767582
 31
0.0
  0
LINE
  5
7522
330
1E
100
AcDbEntity
  8
10
  6
CONTINOUS
100
AcDbLine
 10
-45.0000000000001
 20
109.3811978464827
 30
0.0
 11
-41.0
 21
111.6905989232412
 31
0.0
  0
LINE
  5
7523
330
1E
100
AcDbEntity
  8
10
  6
CONTINOUS
100
AcDbLine
 10
-49.0
 20
111.6905989232412
 30
0.0
 11
-45.0000000000001
 21
109.3811978464827
 31
0.0
  0
LINE
  5
7524
330
1E
100
AcDbEntity
  8
10
  6
CONTINOUS
100
AcDbLine
 10
-49.0
 20
116.3094010767582
 30
0.0
 11
-49.0
 21
111.6905989232412
 31
0.0
  0
LINE
  5
7525
330
1E
100
AcDbEntity
  8
10
  6
CONTINOUS
100
AcDbLine
 10
-45.0
 20
118.6188021535167
 30
0.0
 11
-49.0
 21
116.3094010767582
 31
0.0
  0
LINE
  5
7526
330
1E
100
AcDbEntity
  8
10
  6
CONTINOUS
100
AcDbLine
 10
-41.0
 20
116.3094010767582
 30
0.0
 11
-45.0
 21
118.6188021535167
 31
0.0
  0
ARC
  5
7527
330
1E
100
AcDbEntity
  8
10
  6
CONTINOUS
100
AcDbCircle
 10
-45.0
 20
114.0000000000001
 30
0.0
 40
8.0
100
AcDbArc
 50
46.5674634422112
 51
133.4325365577887
  0
CIRCLE
  5
7528
330
1E
100
AcDbEntity
  8
12
  6
DASHED
100
AcDbCircle
 10
22.50000000000011
 20
107.0
 30
0.0
 40
4.0
210
0.0
220
0.0
230
-1.0
  0
LINE
  5
7529
330
1E
100
AcDbEntity
  8
12
  6
DASHED
100
AcDbLine
 10
-14.5
 20
107.0
 30
0.0
 11
-30.5
 21
107.0
 31
0.0
  0
LINE
  5
752A
330
1E
100
AcDbEntity
  8
12
  6
DASHED
100
AcDbLine
 10
-22.5
 20
115.0000000000001
 30
0.0
 11
-22.5
 21
99.00000000000012
 31
0.0
  0
LINE
  5
752B
330
1E
100
AcDbEntity
  8
12
  6
DASHED
100
AcDbLine
 10
30.5
 20
107.0
 30
0.0
 11
14.5
 21
107.0
 31
0.0
  0
CIRCLE
  5
752C
330
1E
100
AcDbEntity
  8
12
  6
DASHED
100
AcDbCircle
 10
-22.49999999999988
 20
107.0
 30
0.0
 40
4.0
210
0.0
220
0.0
230
-1.0
  0
LINE
  5
752D
330
1E
100
AcDbEntity
  8
10
  6
CONTINOUS
100
AcDbLine
 10
-5.5
 20
114.0000000000001
 30
0.0
 11
-5.5
 21
130.0
 31
0.0
  0
LINE
  5
752E
330
1E
100
AcDbEntity
  8
10
  6
CONTINOUS
100
AcDbLine
 10
5.5
 20
114.0000000000001
 30
0.0
 11
5.5
 21
130.0
 31
0.0
  0
LINE
  5
752F
330
1E
100
AcDbEntity
  8
10
  6
CONTINOUS
100
AcDbLine
 10
0.0
 20
105.0
 30
0.0
 11
0.0
 21
123.0000000000001
 31
0.0
  0
ARC
  5
7530
330
1E
100
AcDbEntity
  8
10
  6
CONTINOUS
100
AcDbCircle
 10
0.0
 20
114.0000000000001
 30
0.0
 40
5.5
100
AcDbArc
 50
180.0
 51
0.0
  0
LINE
  5
7531
330
1E
100
AcDbEntity
  8
10
  6
CONTINOUS
100
AcDbLine
 10
4.0
 20
111.6905989232412
 30
0.0
 11
4.0
 21
116.3094010767582
 31
0.0
  0
LINE
  5
7532
330
1E
100
AcDbEntity
  8
10
  6
CONTINOUS
100
AcDbLine
 10
-0.0000000000001137
 20
109.3811978464827
 30
0.0
 11
4.0
 21
111.6905989232412
 31
0.0
  0
LINE
  5
7533
330
1E
100
AcDbEntity
  8
10
  6
CONTINOUS
100
AcDbLine
 10
-4.0
 20
111.6905989232412
 30
0.0
 11
-0.0000000000001137
 21
109.3811978464827
 31
0.0
  0
LINE
  5
7534
330
1E
100
AcDbEntity
  8
10
  6
CONTINOUS
100
AcDbLine
 10
-4.0
 20
116.3094010767582
 30
0.0
 11
-4.0
 21
111.6905989232412
 31
0.0
  0
LINE
  5
7535
330
1E
100
AcDbEntity
  8
10
  6
CONTINOUS
100
AcDbLine
 10
0.0
 20
118.6188021535167
 30
0.0
 11
-4.0
 21
116.3094010767582
 31
0.0
  0
LINE
  5
7536
330
1E
100
AcDbEntity
  8
10
  6
CONTINOUS
100
AcDbLine
 10
4.0
 20
116.3094010767582
 30
0.0
 11
0.0
 21
118.6188021535167
 31
0.0
  0
LINE
  5
7537
330
1E
100
AcDbEntity
  8
12
  6
DASHED
100
AcDbLine
 10
22.5
 20
115.0000000000001
 30
0.0
 11
22.5
 21
99.00000000000012
 31
0.0
  0
ARC
  5
7538
330
1E
100
AcDbEntity
  8
10
  6
CONTINOUS
100
AcDbCircle
 10
0.0
 20
114.0000000000001
 30
0.0
 40
8.0
100
AcDbArc
 50
46.5674634422112
 51
133.4325365577887
  0
LINE
  5
7539
330
1E
100
AcDbEntity
  8
10
  6
CONTINOUS
100
AcDbLine
 10
39.5
 20
114.0000000000001
 30
0.0
 11
39.5
 21
130.0
 31
0.0
  0
LINE
  5
753A
330
1E
100
AcDbEntity
  8
10
  6
CONTINOUS
100
AcDbLine
 10
50.5
 20
114.0000000000001
 30
0.0
 11
50.5
 21
130.0
 31
0.0
  0
LINE
  5
753B
330
1E
100
AcDbEntity
  8
10
  6
CONTINOUS
100
AcDbLine
 10
45.0
 20
105.0
 30
0.0
 11
45.0
 21
123.0000000000001
 31
0.0
  0
ARC
  5
753C
330
1E
100
AcDbEntity
  8
10
  6
CONTINOUS
100
AcDbCircle
 10
45.0
 20
114.0000000000001
 30
0.0
 40
5.5
100
AcDbArc
 50
180.0
 51
0.0
  0
LINE
  5
753D
330
1E
100
AcDbEntity
  8
10
  6
CONTINOUS
100
AcDbLine
 10
49.0
 20
111.6905989232412
 30
0.0
 11
49.0
 21
116.3094010767582
 31
0.0
  0
LINE
  5
753E
330
1E
100
AcDbEntity
  8
10
  6
CONTINOUS
100
AcDbLine
 10
44.99999999999988
 20
109.3811978464827
 30
0.0
 11
49.0
 21
111.6905989232412
 31
0.0
  0
LINE
  5
753F
330
1E
100
AcDbEntity
  8
10
  6
CONTINOUS
100
AcDbLine
 10
41.0
 20
111.6905989232412
 30
0.0
 11
44.99999999999988
 21
109.3811978464827
 31
0.0
  0
LINE
  5
7540
330
1E
100
AcDbEntity
  8
10
  6
CONTINOUS
100
AcDbLine
 10
41.0
 20
116.3094010767582
 30
0.0
 11
41.0
 21
111.6905989232412
 31
0.0
  0
LINE
  5
7541
330
1E
100
AcDbEntity
  8
10
  6
CONTINOUS
100
AcDbLine
 10
45.0
 20
118.6188021535167
 30
0.0
 11
41.0
 21
116.3094010767582
 31
0.0
  0
LINE
  5
7542
330
1E
100
AcDbEntity
  8
10
  6
CONTINOUS
100
AcDbLine
 10
49.0
 20
116.3094010767582
 30
0.0
 11
45.0
 21
118.6188021535167
 31
0.0
  0
ARC
  5
7543
330
1E
100
AcDbEntity
  8
10
  6
CONTINOUS
100
AcDbCircle
 10
45.0
 20
114.0000000000001
 30
0.0
 40
8.0
100
AcDbArc
 50
46.5674634422112
 51
133.4325365577887
  0
ARC
  5
754E
330
1E
100
AcDbEntity
  8
10
  6
CONTINOUS
100
AcDbCircle
 10
53.0
 20
-40.0
 30
0.0
 40
5.0
100
AcDbArc
 50
270.0
 51
0.0
  0
LINE
  5
754F
330
1E
100
AcDbEntity
  8
10
  6
CONTINOUS
100
AcDbLine
 10
70.0
 20
130.0
 30
0.0
 11
70.0
 21
-130.0
 31
0.0
  0
LINE
  5
756D
330
1E
100
AcDbEntity
  8
10
  6
CONTINOUS
100
AcDbLine
 10
58.0
 20
40.00000000000009
 30
0.0
 11
58.0
 21
-40.0
 31
0.0
  0
ARC
  5
756E
330
1E
100
AcDbEntity
  8
10
  6
CONTINOUS
100
AcDbCircle
 10
53.0
 20
40.00000000000009
 30
0.0
 40
5.0
100
AcDbArc
 50
0.0
 51
90.0
  0
LINE
  5
7598
330
1E
100
AcDbEntity
  8
10
  6
CONTINOUS
100
AcDbLine
 10
213.2585283399445
 20
1.500000000000109
 30
0.0
 11
213.2585283399445
 21
-44.99999999999988
 31
0.0
  0
LINE
  5
7599
330
1E
100
AcDbEntity
  8
10
  6
CONTINOUS
100
AcDbLine
 10
324.2585283399446
 20
130.0000000000002
 30
0.0
 11
324.2585283399446
 21
-129.9999999999998
 31
0.0
  0
LINE
  5
759A
330
1E
100
AcDbEntity
  8
10
  6
CONTINOUS
100
AcDbLine
 10
217.2585283399445
 20
45.00000000000023
 30
0.0
 11
217.2585283399445
 21
-44.99999999999988
 31
0.0
  0
LINE
  5
759B
330
1E
100
AcDbEntity
  8
10
  6
CONTINOUS
100
AcDbLine
 10
221.2585283399445
 20
51.00000000000022
 30
0.0
 11
221.2585283399445
 21
-50.99999999999988
 31
0.0
  0
LINE
  5
759E
330
1E
100
AcDbEntity
  8
10
  6
CONTINOUS
100
AcDbLine
 10
227.2585283399444
 20
-129.9999999999998
 30
0.0
 11
324.2585283399446
 21
-129.9999999999998
 31
0.0
  0
LINE
  5
75A0
330
1E
100
AcDbEntity
  8
10
  6
CONTINOUS
100
AcDbLine
 10
221.2585283399445
 20
-50.99999999999988
 30
0.0
 11
227.2585283399444
 21
-50.99999999999988
 31
0.0
  0
LINE
  5
75A1
330
1E
100
AcDbEntity
  8
10
  6
CONTINOUS
100
AcDbLine
 10
213.2585283399445
 20
-44.99999999999988
 30
0.0
 11
221.2585283399445
 21
-44.99999999999988
 31
0.0
  0
LINE
  5
75A2
330
1E
100
AcDbEntity
  8
10
  6
CONTINOUS
100
AcDbLine
 10
227.2585283399444
 20
-50.99999999999988
 30
0.0
 11
227.2585283399444
 21
-129.9999999999998
 31
0.0
  0
LINE
  5
75A7
330
1E
100
AcDbEntity
  8
10
  6
CONTINOUS
100
AcDbLine
 10
324.2585283399446
 20
130.0000000000002
 30
0.0
 11
227.2585283399444
 21
130.0000000000002
 31
0.0
  0
LINE
  5
75AC
330
1E
100
AcDbEntity
  8
10
  6
CONTINOUS
100
AcDbLine
 10
213.2585283399445
 20
17.03370272535221
 30
0.0
 11
182.6075402374925
 21
28.03853193396617
 31
0.0
  0
LINE
  5
75AD
330
1E
100
AcDbEntity
  8
10
  6
CONTINOUS
100
AcDbLine
 10
213.2585283399445
 20
29.78370889367932
 30
0.0
 11
186.662540853532
 21
39.33264411704215
 31
0.0
  0
LINE
  5
75AE
330
1E
100
AcDbEntity
  8
10
  6
CONTINOUS
100
AcDbLine
 10
186.662540853532
 20
39.33264411704215
 30
0.0
 11
182.607540237492
 21
28.03853193396582
 31
0.0
  0
LINE
  5
75AF
330
1E
100
AcDbEntity
  8
10
  6
CONTINOUS
100
AcDbLine
 10
202.457287684512
 20
31.53674952147162
 30
0.0
 11
199.7539539404851
 21
24.0073413994205
 31
0.0
  0
LINE
  5
75B0
330
1E
100
AcDbEntity
  8
10
  6
CONTINOUS
100
AcDbLine
 10
213.2585283399445
 20
45.00000000000023
 30
0.0
 11
213.2585283399445
 21
0.0000000000001137
 31
0.0
  0
LINE
  5
75B1
330
1E
100
AcDbEntity
  8
10
  6
CONTINOUS
100
AcDbLine
 10
213.2585283399445
 20
19.15870375340692
 30
0.0
 11
199.7539539404851
 21
24.00734139942028
 31
0.0
  0
LINE
  5
75B4
330
1E
100
AcDbEntity
  8
10
  6
CONTINOUS
100
AcDbLine
 10
213.2585283399445
 20
27.65870786562482
 30
0.0
 11
202.457287684512
 21
31.53674952147105
 31
0.0
  0
LINE
  5
75B5
330
1E
100
AcDbEntity
  8
10
  6
CONTINOUS
100
AcDbLine
 10
213.2585283399445
 20
45.00000000000023
 30
0.0
 11
221.2585283399445
 21
45.00000000000023
 31
0.0
  0
LINE
  5
75B6
330
1E
100
AcDbEntity
  8
10
  6
CONTINOUS
100
AcDbLine
 10
221.2585283399445
 20
51.00000000000022
 30
0.0
 11
227.2585283399444
 21
51.00000000000022
 31
0.0
  0
LINE
  5
75B7
330
1E
100
AcDbEntity
  8
10
  6
CONTINOUS
100
AcDbLine
 10
227.2585283399444
 20
130.0000000000002
 30
0.0
 11
227.2585283399444
 21
51.00000000000022
 31
0.0
  0
LINE
  5
75D4
330
1E
100
AcDbEntity
  8
18
100
AcDbLine
 10
24.5
 20
130.0
 30
0.0
 11
24.5
 21
240.0000000000002
 31
0.0
  0
LINE
  5
75D5
330
1E
100
AcDbEntity
  8
18
100
AcDbLine
 10
20.5
 20
130.0
 30
0.0
 11
20.5
 21
240.0000000000002
 31
0.0
  0
LINE
  5
75D6
330
1E
100
AcDbEntity
  8
18
100
AcDbLine
 10
20.5
 20
240.0000000000002
 30
0.0
 11
24.5
 21
240.0000000000002
 31
0.0
  0
LINE
  5
75D7
330
1E
100
AcDbEntity
  8
18
100
AcDbLine
 10
-22.5
 20
130.0
 30
0.0
 11
-22.5
 21
240.0000000000002
 31
0.0
  0
LINE
  5
75D8
330
1E
100
AcDbEntity
  8
18
100
AcDbLine
 10
-26.5
 20
130.0
 30
0.0
 11
-26.5
 21
240.0000000000002
 31
0.0
  0
LINE
  5
75D9
330
1E
100
AcDbEntity
  8
18
100
AcDbLine
 10
-26.5
 20
240.0000000000002
 30
0.0
 11
-22.5
 21
240.0000000000002
 31
0.0
  0
LINE
  5
75EA
330
1E
100
AcDbEntity
  8
12
  6
DASHED
100
AcDbLine
 10
238.958528339944
 20
-109.2499999999997
 30
0.0
 11
324.2585283399446
 21
-109.2499999999997
 31
0.0
  0
LINE
  5
75EB
330
1E
100
AcDbEntity
  8
12
  6
DASHED
100
AcDbLine
 10
238.958528339944
 20
-104.7499999999996
 30
0.0
 11
324.2585283399446
 21
-104.7499999999996
 31
0.0
  0
LINE
  5
75EC
330
1E
100
AcDbEntity
  8
12
  6
DASHED
100
AcDbLine
 10
223.2585283399445
 20
-106.9999999999996
 30
0.0
 11
348.2585283399446
 21
-106.9999999999996
 31
0.0
  0
LINE
  5
75ED
330
1E
100
AcDbEntity
  8
12
  6
DASHED
100
AcDbLine
 10
227.2585283399444
 20
-111.2499999999996
 30
0.0
 11
238.958528339944
 21
-111.2499999999996
 31
0.0
  0
LINE
  5
75EE
330
1E
100
AcDbEntity
  8
12
  6
DASHED
100
AcDbLine
 10
227.2585283399444
 20
-102.7499999999996
 30
0.0
 11
238.958528339944
 21
-102.7499999999996
 31
0.0
  0
LINE
  5
75EF
330
1E
100
AcDbEntity
  8
12
  6
DASHED
100
AcDbLine
 10
232.9585283399441
 20
-102.7499999999996
 30
0.0
 11
232.9585283399441
 21
-111.2499999999996
 31
0.0
  0
LINE
  5
75F0
330
1E
100
AcDbEntity
  8
12
  6
DASHED
100
AcDbLine
 10
238.958528339944
 20
-102.7499999999996
 30
0.0
 11
238.958528339944
 21
-111.2499999999996
 31
0.0
  0
LINE
  5
75F1
330
1E
100
AcDbEntity
  8
12
  6
DASHED
100
AcDbLine
 10
238.958528339944
 20
-109.2499999999997
 30
0.0
 11
238.958528339944
 21
-111.2499999999996
 31
0.0
  0
LINE
  5
75F2
330
1E
100
AcDbEntity
  8
12
  6
DASHED
100
AcDbLine
 10
238.958528339944
 20
-102.7499999999996
 30
0.0
 11
238.958528339944
 21
-104.7499999999996
 31
0.0
  0
LINE
  5
75F3
330
1E
100
AcDbEntity
  8
12
  6
DASHED
100
AcDbLine
 10
324.2585283399446
 20
-109.2499999999997
 30
0.0
 11
338.9585283399446
 21
-109.2499999999997
 31
0.0
  0
LINE
  5
75F4
330
1E
100
AcDbEntity
  8
12
  6
DASHED
100
AcDbLine
 10
324.2585283399446
 20
-104.7499999999996
 30
0.0
 11
338.9585283399446
 21
-104.7499999999996
 31
0.0
  0
LINE
  5
75F5
330
1E
100
AcDbEntity
  8
12
  6
DASHED
100
AcDbLine
 10
338.9585283399446
 20
-104.7499999999996
 30
0.0
 11
338.9585283399446
 21
-109.2499999999997
 31
0.0
  0
LINE
  5
7604
330
1E
100
AcDbEntity
  8
24
  6
CONTINOUS
100
AcDbLine
 10
370.2699465681196
 20
164.7621828604461
 30
0.0
 11
370.2699465681198
 21
149.7621828604461
 31
0.0
  0
LINE
  5
7605
330
1E
100
AcDbEntity
  8
24
  6
CONTINOUS
100
AcDbLine
 10
382.7699465681197
 20
172.9120863596155
 30
0.0
 11
382.7699465681197
 21
145.2621828604461
 31
0.0
  0
LINE
  5
7606
330
1E
100
AcDbEntity
  8
24
  6
CONTINOUS
100
AcDbLine
 10
357.7699465681198
 20
174.403465051346
 30
0.0
 11
357.7699465681198
 21
145.2621828604461
 31
0.0
  0
LINE
  5
7607
330
1E
100
AcDbEntity
  8
24
  6
CONTINOUS
100
AcDbLine
 10
357.7699465681198
 20
145.2621828604461
 30
0.0
 11
382.7699465681197
 21
145.2621828604461
 31
0.0
  0
LINE
  5
7608
330
1E
100
AcDbEntity
  8
24
  6
CONTINOUS
100
AcDbLine
 10
362.7699465681196
 20
157.2621828604461
 30
0.0
 11
377.7699465681196
 21
157.2621828604461
 31
0.0
  0
CIRCLE
  5
7609
330
1E
100
AcDbEntity
  8
24
  6
CONTINOUS
100
AcDbCircle
 10
370.2699465681196
 20
157.2621828604461
 30
0.0
 40
5.5
  0
ARC
  5
760A
330
1E
100
AcDbEntity
  8
24
  6
CONTINOUS
100
AcDbCircle
 10
375.2575283890661
 20
177.7581008892939
 30
0.0
 40
7.5
100
AcDbArc
 50
251.3586110284597
 51
294.2039969225343
  0
LINE
  5
760B
330
1E
100
AcDbEntity
  8
24
  6
CONTINOUS
100
AcDbLine
 10
361.4520975210171
 20
173.487969964126
 30
0.0
 11
372.8601993707253
 21
170.6515677276307
 31
0.0
  0
ARC
  5
760C
330
1E
100
AcDbEntity
  8
24
  6
CONTINOUS
100
AcDbCircle
 10
358.8949465681196
 20
165.9076679250184
 30
0.0
 40
8.0
100
AcDbArc
 50
71.35861102845979
 51
97.5431319679577
  0
LINE
  5
760D
330
1E
100
AcDbEntity
  8
24
  6
CONTINOUS
100
AcDbLine
 10
378.3324283529356
 20
170.9174145047126
 30
0.0
 11
382.7699465681197
 21
172.9120863596155
 31
0.0
  0
CIRCLE
  5
7624
330
1E
100
AcDbEntity
  8
12
  6
CONTINUOUS
 62
     3
100
AcDbCircle
 10
-22.5
 20
-253.0
 30
0.0
 40
3.0
210
0.0
220
0.0
230
-1.0
  0
CIRCLE
  5
7625
330
1E
100
AcDbEntity
  8
12
  6
CONTINUOUS
 62
     3
100
AcDbCircle
 10
-22.5
 20
-253.0
 30
0.0
 40
3.0
  0
LINE
  5
7627
330
1E
100
AcDbEntity
  8
18
  6
DIVIDE
100
AcDbLine
 10
-70.0
 20
-230.0
 30
0.0
 11
-70.0
 21
-489.9999999999998
 31
0.0
  0
LINE
  5
7628
330
1E
100
AcDbEntity
  8
18
  6
DIVIDE
100
AcDbLine
 10
70.0
 20
-489.9999999999998
 30
0.0
 11
70.0
 21
-230.0
 31
0.0
  0
LINE
  5
7629
330
1E
100
AcDbEntity
  8
12
  6
CONTINUOUS
 62
     3
100
AcDbLine
 10
22.5
 20
-246.0
 30
0.0
 11
22.5
 21
-260.0
 31
0.0
  0
LINE
  5
762A
330
1E
100
AcDbEntity
  8
12
  6
CONTINUOUS
 62
     3
100
AcDbLine
 10
-22.5
 20
-246.0
 30
0.0
 11
-22.5
 21
-260.0
 31
0.0
  0
LINE
  5
762C
330
1E
100
AcDbEntity
  8
18
  6
DIVIDE
100
AcDbLine
 10
-70.0
 20
-489.9999999999998
 30
0.0
 11
70.0
 21
-489.9999999999998
 31
0.0
  0
LINE
  5
762D
330
1E
100
AcDbEntity
  8
12
  6
CONTINUOUS
 62
     3
100
AcDbLine
 10
-29.5
 20
-466.9999999999998
 30
0.0
 11
-15.5
 21
-466.9999999999998
 31
0.0
  0
CIRCLE
  5
762E
330
1E
100
AcDbEntity
  8
12
  6
CONTINUOUS
 62
     3
100
AcDbCircle
 10
22.5
 20
-466.9999999999998
 30
0.0
 40
3.0
210
0.0
220
0.0
230
-1.0
  0
LINE
  5
762F
330
1E
100
AcDbEntity
  8
12
  6
CONTINUOUS
 62
     3
100
AcDbLine
 10
-22.5
 20
-459.9999999999998
 30
0.0
 11
-22.5
 21
-473.9999999999998
 31
0.0
  0
LINE
  5
7630
330
1E
100
AcDbEntity
  8
12
  6
CONTINUOUS
 62
     3
100
AcDbLine
 10
15.5
 20
-466.9999999999998
 30
0.0
 11
29.5
 21
-466.9999999999998
 31
0.0
  0
CIRCLE
  5
7631
330
1E
100
AcDbEntity
  8
12
  6
CONTINUOUS
 62
     3
100
AcDbCircle
 10
22.5
 20
-466.9999999999998
 30
0.0
 40
3.0
  0
LINE
  5
7632
330
1E
100
AcDbEntity
  8
12
  6
CONTINUOUS
 62
     3
100
AcDbLine
 10
22.5
 20
-459.9999999999998
 30
0.0
 11
22.5
 21
-473.9999999999998
 31
0.0
  0
LINE
  5
7633
330
1E
100
AcDbEntity
  8
18
  6
DIVIDE
100
AcDbLine
 10
70.0
 20
-230.0
 30
0.0
 11
-70.0
 21
-230.0
 31
0.0
  0
LINE
  5
7634
330
1E
100
AcDbEntity
  8
12
  6
CONTINUOUS
 62
     3
100
AcDbLine
 10
-29.5
 20
-253.0
 30
0.0
 11
-15.5
 21
-253.0
 31
0.0
  0
LINE
  5
7635
330
1E
100
AcDbEntity
  8
12
  6
CONTINUOUS
 62
     3
100
AcDbLine
 10
15.5
 20
-253.0
 30
0.0
 11
29.5
 21
-253.0
 31
0.0
  0
ARC
  5
7648
330
1E
100
AcDbEntity
  8
11
 48
2.0
100
AcDbCircle
 10
323.0
 20
-400.0
 30
0.0
 40
6.0
100
AcDbArc
 50
270.0
 51
0.0
  0
ARC
  5
7649
330
1E
100
AcDbEntity
  8
11
 48
2.0
100
AcDbCircle
 10
217.0
 20
-400.0
 30
0.0
 40
6.0
100
AcDbArc
 50
180.0
 51
270.0
  0
LINE
  5
764B
330
1E
100
AcDbEntity
  8
18
  6
DIVIDE
100
AcDbLine
 10
200.0
 20
-229.9999999999998
 30
0.0
 11
200.0
 21
-490.0
 31
0.0
  0
LINE
  5
764C
330
1E
100
AcDbEntity
  8
18
  6
DIVIDE
100
AcDbLine
 10
340.0
 20
-490.0
 30
0.0
 11
340.0
 21
-229.9999999999998
 31
0.0
  0
LINE
  5
764D
330
1E
100
AcDbEntity
  8
11
 48
2.0
100
AcDbLine
 10
217.0
 20
-406.0
 30
0.0
 11
323.0
 21
-406.0
 31
0.0
  0
LINE
  5
764E
330
1E
100
AcDbEntity
  8
18
  6
DIVIDE
100
AcDbLine
 10
200.0
 20
-490.0
 30
0.0
 11
340.0
 21
-490.0
 31
0.0
  0
LINE
  5
764F
330
1E
100
AcDbEntity
  8
11
 48
2.0
100
AcDbLine
 10
217.0
 20
-313.9999999999998
 30
0.0
 11
323.0
 21
-313.9999999999998
 31
0.0
  0
LINE
  5
7651
330
1E
100
AcDbEntity
  8
18
  6
DIVIDE
100
AcDbLine
 10
340.0
 20
-229.9999999999998
 30
0.0
 11
200.0
 21
-229.9999999999998
 31
0.0
  0
LINE
  5
7652
330
1E
100
AcDbEntity
  8
11
 48
2.0
100
AcDbLine
 10
211.0
 20
-319.9999999999998
 30
0.0
 11
211.0
 21
-400.0
 31
0.0
  0
ARC
  5
7653
330
1E
100
AcDbEntity
  8
11
 48
2.0
100
AcDbCircle
 10
217.0
 20
-319.9999999999998
 30
0.0
 40
6.0
100
AcDbArc
 50
90.0
 51
180.0
  0
LINE
  5
7654
330
1E
100
AcDbEntity
  8
11
 48
2.0
100
AcDbLine
 10
329.0
 20
-319.9999999999998
 30
0.0
 11
329.0
 21
-400.0
 31
0.0
  0
ARC
  5
7655
330
1E
100
AcDbEntity
  8
11
 48
2.0
100
AcDbCircle
 10
323.0
 20
-319.9999999999998
 30
0.0
 40
6.0
100
AcDbArc
 50
0.0
 51
90.0
  0
DIMENSION
  5
7671
330
1E
100
AcDbEntity
  8
30
  6
CONTINUOUS
100
AcDbDimension
  2
*D4
 10
-97.09969543092029
 20
-466.9999999999998
 30
0.0
 11
-100.0996954309202
 21
-360.0
 31
0.0
 70
    32
  3
STANDARD
100
AcDbAlignedDimension
 13
-34.04569613739295
 23
-253.0
 33
0.0
 14
-34.04569613739295
 24
-466.9999999999998
 34
0.0
 50
90.0
100
AcDbRotatedDimension
1001
ACAD
1000
DSTYLE
1002
{
1070
    79
1070
     3
1002
}
  0
DIMENSION
  5
767E
330
1E
100
AcDbEntity
  8
30
  6
CONTINUOUS
100
AcDbDimension
  2
*D5
 10
22.49999999999999
 20
-518.7040664304706
 30
0.0
 11
-0.0000000000000034
 21
-515.7040664304705
 31
0.0
 70
    32
  3
STANDARD
100
AcDbAlignedDimension
 13
-22.5
 23
-473.9999999999998
 33
0.0
 14
22.5
 24
-473.9999999999998
 34
0.0
100
AcDbRotatedDimension
1001
ACAD
1000
DSTYLE
1002
{
1070
    79
1070
     3
1002
}
  0
DIMENSION
  5
7694
330
1E
100
AcDbEntity
  8
30
  6
CONTINUOUS
100
AcDbDimension
  2
*D6
 10
323.0
 20
-320.0000000000001
 30
0.0
 11
358.3264163067303
 21
-306.0312994595849
 31
0.0
 70
   164
  3
STANDARD
100
AcDbRadialDimension
 15
328.4700873851312
 25
-317.5346107814317
 35
0.0
 40
0.0
1001
ACAD
1000
DSTYLE
1002
{
1070
    79
1070
     3
1070
   288
1070
     1
1002
}
  0
DIMENSION
  5
76A8
330
1E
100
AcDbEntity
  8
30
  6
CONTINUOUS
100
AcDbDimension
  2
*D7
 10
329.0
 20
-430.9055588177362
 30
0.0
 11
270.0
 21
-427.9055588177362
 31
0.0
 70
    32
  3
STANDARD
100
AcDbAlignedDimension
 13
211.0
 23
-400.0
 33
0.0
 14
329.0
 24
-400.0
 34
0.0
100
AcDbRotatedDimension
1001
ACAD
1000
DSTYLE
1002
{
1070
    79
1070
     3
1002
}
  0
DIMENSION
  5
76B5
330
1E
100
AcDbEntity
  8
30
  6
CONTINUOUS
100
AcDbDimension
  2
*D8
 10
363.0844752481832
 20
-406.0
 30
0.0
 11
360.0844752481833
 21
-359.9999999999998
 31
0.0
 70
    32
  3
STANDARD
100
AcDbAlignedDimension
 13
323.0
 23
-313.9999999999998
 33
0.0
 14
323.0
 24
-406.0
 34
0.0
 50
90.0
100
AcDbRotatedDimension
1001
ACAD
1000
DSTYLE
1002
{
1070
    79
1070
     3
1002
}
  0
DIMENSION
  5
76C3
330
1E
100
AcDbEntity
  8
30
  6
CONTINUOUS
100
AcDbDimension
  2
*D9
 10
382.7699465681197
 20
129.6759028429516
 30
0.0
 11
370.2699465681198
 21
132.6759028429516
 31
0.0
 70
    32
  3
STANDARD
100
AcDbAlignedDimension
 13
357.7699465681198
 23
145.2621828604461
 33
0.0
 14
382.7699465681197
 24
145.2621828604461
 34
0.0
100
AcDbRotatedDimension
1001
ACAD
1000
DSTYLE
1002
{
1070
    79
1070
     3
1002
}
  0
DIMENSION
  5
76D0
330
1E
100
AcDbEntity
  8
30
  6
CONTINUOUS
100
AcDbDimension
  2
*D10
 10
399.2122762463086
 20
157.2621828604461
 30
0.0
 11
396.2122762463085
 21
151.2621828604461
 31
0.0
 70
    32
  3
STANDARD
100
AcDbAlignedDimension
 13
382.7699465681197
 23
145.2621828604461
 33
0.0
 14
377.7699465681196
 24
157.2621828604461
 34
0.0
 50
90.0
100
AcDbRotatedDimension
1001
ACAD
1000
DSTYLE
1002
{
1070
    79
1070
     3
1002
}
  0
DIMENSION
  5
76DD
330
1E
100
AcDbEntity
  8
30
  6
CONTINUOUS
100
AcDbDimension
  2
*D11
 10
366.8268734197178
 20
152.9732147683805
 30
0.0
 11
393.7347867019194
 21
180.2634688469851
 31
0.0
 70
   163
  3
STANDARD
100
AcDbDiametricDimension
 15
373.7130197165208
 25
161.5511509525116
 35
0.0
 40
0.0
1001
ACAD
1000
DSTYLE
1002
{
1070
    79
1070
     3
1070
   288
1070
     1
1002
}
  0
DIMENSION
  5
772F
330
1E
100
AcDbEntity
  8
30
  6
CONTINUOUS
100
AcDbDimension
  2
*D14
 10
-91.39860450474341
 20
-44.99999999999999
 30
0.0
 11
-94.39860450474336
 21
0.0000000000000486
 31
0.0
 70
    32
  3
STANDARD
100
AcDbAlignedDimension
 13
-53.0
 23
45.0000000000001
 33
0.0
 14
-53.0
 24
-45.0
 34
0.0
 50
90.0
100
AcDbRotatedDimension
1001
ACAD
1000
DSTYLE
1002
{
1070
    79
1070
     3
1002
}
  0
DIMENSION
  5
773C
330
1E
100
AcDbEntity
  8
30
  6
CONTINUOUS
100
AcDbDimension
  2
*D15
 10
-103.8479123954377
 20
-50.99999999999999
 30
0.0
 11
-106.8479123954377
 21
-0.0000000000004622
 31
0.0
 70
    32
  3
STANDARD
100
AcDbAlignedDimension
 13
-70.00000000000007
 23
50.99999999999909
 33
0.0
 14
-70.00000000000007
 24
-51.0
 34
0.0
 50
90.0
100
AcDbRotatedDimension
1001
ACAD
1000
DSTYLE
1002
{
1070
    79
1070
     3
1002
}
  0
DIMENSION
  5
7749
330
1E
100
AcDbEntity
  8
30
  6
CONTINUOUS
100
AcDbDimension
  2
*D16
 10
-115.5191388944172
 20
-130.0
 30
0.0
 11
-118.519138894417
 21
0.0000000000000359
 31
0.0
 70
    32
  3
STANDARD
100
AcDbAlignedDimension
 13
-70.00000000000007
 23
130.0
 33
0.0
 14
-70.00000000000007
 24
-130.0
 34
0.0
 50
90.0
100
AcDbRotatedDimension
1001
ACAD
1000
DSTYLE
1002
{
1070
    79
1070
     3
1002
}
  0
DIMENSION
  5
7771
330
1E
100
AcDbEntity
  8
30
  6
CONTINUOUS
100
AcDbDimension
  2
*D19
 10
70.0
 20
-153.7989500761054
 30
0.0
 11
-0.0000000000000282
 21
-150.7989500761054
 31
0.0
 70
    32
  3
STANDARD
100
AcDbAlignedDimension
 13
-70.00000000000007
 23
-130.0
 33
0.0
 14
70.0
 24
-130.0
 34
0.0
100
AcDbRotatedDimension
1001
ACAD
1000
DSTYLE
1002
{
1070
    79
1070
     3
1002
}
  0
LINE
  5
7868
330
1E
100
AcDbEntity
  8
16
100
AcDbLine
 10
-0.0000610351601154
 20
249.5036347984199
 30
0.0
 11
0.0
 21
407.913551891159
 31
0.0
  0
DIMENSION
  5
7895
330
1E
100
AcDbEntity
  8
30
  6
CONTINUOUS
100
AcDbDimension
  2
*D24
 10
324.2585283399446
 20
-149.3060655566289
 30
0.0
 11
272.7585283399446
 21
-146.3060655566289
 31
0.0
 70
    32
  3
STANDARD
100
AcDbAlignedDimension
 13
221.2585283399445
 23
-149.8060655566289
 33
0.0
 14
324.2585283399446
 24
-130.9999999999998
 34
0.0
100
AcDbRotatedDimension
1001
ACAD
1000
DSTYLE
1002
{
1070
    79
1070
     3
1002
}
  0
DIMENSION
  5
78B0
330
1E
100
AcDbEntity
  8
30
  6
CONTINUOUS
100
AcDbDimension
  2
*D25
 10
221.2585283399445
 20
-149.8060655566289
 30
0.0
 11
217.2585283399445
 21
-146.8060655566289
 31
0.0
 70
    32
  3
STANDARD
100
AcDbAlignedDimension
 13
213.2585283399445
 23
-44.99999999999988
 33
0.0
 14
221.2585283399445
 24
-44.99999999999988
 34
0.0
100
AcDbRotatedDimension
1001
ACAD
1000
DSTYLE
1002
{
1070
    79
1070
     3
1002
}
  0
DIMENSION
  5
78C5
330
1E
100
AcDbEntity
  8
30
  6
CONTINUOUS
100
AcDbDimension
  2
*D26
 10
324.2585283399446
 20
-164.4538407233292
 30
0.0
 11
251.7830342887183
 21
-161.4538407233292
 31
0.0
 70
    32
  3
STANDARD
100
AcDbAlignedDimension
 13
179.3075402374921
 23
0.0000000000001137
 33
0.0
 14
324.2585283399446
 24
-149.8060655566289
 34
0.0
100
AcDbRotatedDimension
1001
ACAD
1000
DSTYLE
1002
{
1070
    79
1070
     3
1002
}
  0
ARC
  5
78ED
330
1E
100
AcDbEntity
  8
30
  6
CONTINUOUS
100
AcDbCircle
 10
-659.6671500101116
 20
112.9567383121967
 30
0.0
 40
846.5445975293876
100
AcDbArc
 50
352.3319992403131
 51
354.242888427767
  0
DIMENSION
  5
7B7C
330
1E
100
AcDbEntity
  8
30
  6
CONTINUOUS
100
AcDbDimension
  2
*D30
 10
-20.69592979943676
 20
-255.3969419499519
 30
0.0
 11
-57.4924482064172
 21
-220.6800347238195
 31
0.0
 70
   163
  1
M6
  3
STANDARD
100
AcDbDiametricDimension
 15
-24.30407020056323
 25
-250.6030580500479
 35
0.0
 40
0.0
1001
ACAD
1000
DSTYLE
1002
{
1070
    79
1070
     3
1070
   288
1070
     1
1002
}
  0
LINE
  5
7BD8
330
1E
100
AcDbEntity
  8
24
  6
CONTINOUS
100
AcDbLine
 10
288.2585283399446
 20
130.0000000000002
 30
0.0
 11
288.2585283399446
 21
98.00000000000023
 31
0.0
  0
LINE
  5
7BD9
330
1E
100
AcDbEntity
  8
24
  6
CONTINOUS
100
AcDbLine
 10
292.2585283399445
 20
130.0000000000002
 30
0.0
 11
292.2585283399445
 21
98.00000000000023
 31
0.0
  0
LINE
  5
7BDA
330
1E
100
AcDbEntity
  8
24
  6
CONTINOUS
100
AcDbLine
 10
288.2585283399446
 20
98.00000000000023
 30
0.0
 11
292.2585283399445
 21
98.00000000000023
 31
0.0
  0
LINE
  5
7BDB
330
1E
100
AcDbEntity
  8
24
  6
CONTINOUS
100
AcDbLine
 10
279.3585283399445
 20
105.1000000000003
 30
0.0
 11
285.7585283399444
 21
105.1000000000003
 31
0.0
  0
LINE
  5
7BDC
330
1E
100
AcDbEntity
  8
24
  6
CONTINOUS
100
AcDbLine
 10
279.3585283399445
 20
122.9000000000002
 30
0.0
 11
285.7585283399444
 21
122.9000000000002
 31
0.0
  0
LINE
  5
7BDD
330
1E
100
AcDbEntity
  8
24
  6
CONTINOUS
100
AcDbLine
 10
274.3585283399446
 20
114.0000000000002
 30
0.0
 11
297.2585283399446
 21
114.0000000000002
 31
0.0
  0
LINE
  5
7BDE
330
1E
100
AcDbEntity
  8
24
  6
CONTINOUS
100
AcDbLine
 10
279.3585283399445
 20
122.9000000000002
 30
0.0
 11
279.3585283399445
 21
105.1000000000003
 31
0.0
  0
LINE
  5
7BDF
330
1E
100
AcDbEntity
  8
24
  6
CONTINOUS
100
AcDbLine
 10
285.7585283399444
 20
123.2000000000002
 30
0.0
 11
285.7585283399444
 21
104.8000000000002
 31
0.0
  0
LINE
  5
7BE0
330
1E
100
AcDbEntity
  8
24
  6
CONTINOUS
100
AcDbLine
 10
285.7585283399444
 20
104.8000000000002
 30
0.0
 11
288.2585283399446
 21
104.8000000000002
 31
0.0
  0
LINE
  5
7BE1
330
1E
100
AcDbEntity
  8
24
  6
CONTINOUS
100
AcDbLine
 10
285.7585283399444
 20
123.2000000000002
 30
0.0
 11
288.2585283399446
 21
123.2000000000002
 31
0.0
  0
DIMENSION
  5
7BE2
330
1E
100
AcDbEntity
  8
30
  6
CONTINUOUS
100
AcDbDimension
  2
*D32
 10
288.2585283399446
 20
148.063506906613
 30
0.0
 11
306.2585283399446
 21
151.063506906613
 31
0.0
 70
    32
  3
STANDARD
100
AcDbAlignedDimension
 13
324.2585283399446
 23
130.0000000000002
 33
0.0
 14
288.2585283399446
 24
130.0000000000002
 34
0.0
100
AcDbRotatedDimension
1001
ACAD
1000
DSTYLE
1002
{
1070
    79
1070
     3
1002
}
  0
LINE
  5
7C32
330
1E
100
AcDbEntity
  8
10
  6
CONTINOUS
100
AcDbLine
 10
69.99999376137697
 20
293.4369478956378
 30
0.0
 11
-70.000006238623
 21
293.4369478956378
 31
0.0
  0
LINE
  5
7C33
330
1E
100
AcDbEntity
  8
10
  6
CONTINOUS
100
AcDbLine
 10
69.99999376137697
 20
287.4369478956378
 30
0.0
 11
-70.000006238623
 21
287.4369478956378
 31
0.0
  0
LINE
  5
7C34
330
1E
100
AcDbEntity
  8
10
  6
CONTINOUS
100
AcDbLine
 10
57.99999376137697
 20
283.4369478956378
 30
0.0
 11
-58.000006238623
 21
283.4369478956378
 31
0.0
  0
LINE
  5
7C35
330
1E
100
AcDbEntity
  8
10
  6
CONTINOUS
100
AcDbLine
 10
69.999993761377
 20
390.4369478956378
 30
0.0
 11
-70.00000623862297
 21
390.4369478956378
 31
0.0
  0
LINE
  5
7C36
330
1E
100
AcDbEntity
  8
10
  6
CONTINOUS
100
AcDbLine
 10
-70.000006238623
 20
287.4369478956378
 30
0.0
 11
-70.00000623862297
 21
390.4369478956378
 31
0.0
  0
LINE
  5
7C3D
330
1E
100
AcDbEntity
  8
10
  6
CONTINOUS
100
AcDbLine
 10
-58.000006238623
 20
283.4369478956378
 30
0.0
 11
-58.000006238623
 21
287.4369478956378
 31
0.0
  0
LINE
  5
7C42
330
1E
100
AcDbEntity
  8
10
  6
CONTINOUS
100
AcDbLine
 10
16.99999376137705
 20
250.9369478956378
 30
0.0
 11
-17.0000062386231
 21
250.9369478956378
 31
0.0
  0
LINE
  5
7C43
330
1E
100
AcDbEntity
  8
10
  6
CONTINOUS
100
AcDbLine
 10
17.999993761377
 20
279.4369478956378
 30
0.0
 11
-18.00000623862294
 21
279.4369478956378
 31
0.0
  0
LINE
  5
7C44
330
1E
100
AcDbEntity
  8
10
  6
CONTINOUS
100
AcDbLine
 10
-17.0000062386231
 20
250.9369478956378
 30
0.0
 11
-17.0000062386231
 21
279.4369478956378
 31
0.0
  0
LINE
  5
7C45
330
1E
100
AcDbEntity
  8
10
  6
CONTINOUS
100
AcDbLine
 10
-18.00000623862294
 20
279.4369478956378
 30
0.0
 11
-18.00000623862294
 21
283.4369478956378
 31
0.0
  0
LINE
  5
7C46
330
1E
100
AcDbEntity
  8
10
  6
CONTINOUS
100
AcDbLine
 10
16.99999376137705
 20
250.9369478956378
 30
0.0
 11
16.99999376137705
 21
279.4369478956378
 31
0.0
  0
LINE
  5
7C47
330
1E
100
AcDbEntity
  8
10
  6
CONTINOUS
100
AcDbLine
 10
17.999993761377
 20
279.4369478956378
 30
0.0
 11
17.999993761377
 21
283.4369478956378
 31
0.0
  0
LINE
  5
7C57
330
1E
100
AcDbEntity
  8
10
  6
CONTINOUS
100
AcDbLine
 10
69.99999376137697
 20
287.4369478956378
 30
0.0
 11
69.999993761377
 21
390.4369478956378
 31
0.0
  0
LINE
  5
7C5A
330
1E
100
AcDbEntity
  8
10
  6
CONTINOUS
100
AcDbLine
 10
57.99999376137697
 20
283.4369478956378
 30
0.0
 11
57.99999376137697
 21
287.4369478956378
 31
0.0
  0
LINE
  5
7C87
330
1E
100
AcDbEntity
  8
24
  6
CONTINOUS
100
AcDbLine
 10
53.76574955133985
 20
345.5369478956378
 30
0.0
 11
53.76574955133985
 21
351.9369478956378
 31
0.0
  0
LINE
  5
7C88
330
1E
100
AcDbEntity
  8
24
  6
CONTINOUS
100
AcDbLine
 10
35.96574955133995
 20
345.5369478956378
 30
0.0
 11
53.76574955133985
 21
345.5369478956378
 31
0.0
  0
LINE
  5
7C8B
330
1E
100
AcDbEntity
  8
24
  6
CONTINOUS
100
AcDbLine
 10
35.66574955133992
 20
351.9369478956378
 30
0.0
 11
54.06574955133987
 21
351.9369478956378
 31
0.0
  0
LINE
  5
7C8C
330
1E
100
AcDbEntity
  8
24
  6
CONTINOUS
100
AcDbLine
 10
54.06574955133987
 20
351.9369478956378
 30
0.0
 11
54.06574955133987
 21
354.4369478956378
 31
0.0
  0
LINE
  5
7C8F
330
1E
100
AcDbEntity
  8
24
  6
CONTINOUS
100
AcDbLine
 10
35.96574955133995
 20
345.5369478956378
 30
0.0
 11
35.96574955133995
 21
351.9369478956378
 31
0.0
  0
LINE
  5
7C90
330
1E
100
AcDbEntity
  8
24
  6
CONTINOUS
100
AcDbLine
 10
35.66574955133992
 20
351.9369478956378
 30
0.0
 11
35.66574955133992
 21
354.4369478956378
 31
0.0
  0
MTEXT
  5
7CA7
330
1E
100
AcDbEntity
  8
30
  6
CONTINUOUS
100
AcDbMText
 10
210.8686476596813
 20
139.5216160708496
 30
0.0
 40
4.0
 41
0.0
 71
     9
 72
     1
  1
\A1;
1001
ACAD
1000
MTEXTBEGIN
1070
    73
1070
     1
1070
    44
1040
1.0
1070
    74
1070
     0
1000
MTEXTEND
1000
MTEXTBEGIN
1070
    73
1070
     1
1070
    44
1040
1.0
1070
    74
1070
     0
1000
MTEXTEND
1000
MTEXTBEGIN
1070
    73
1070
     1
1070
    44
1040
1.0
1070
    74
1070
     0
1000
MTEXTEND
1000
MTEXTBEGIN
1070
    73
1070
     1
1070
    44
1040
1.0
1070
    74
1070
     0
1000
MTEXTEND
1000
MTEXTBEGIN
1070
    73
1070
     1
1070
    44
1040
1.0
1070
    74
1070
     0
1000
MTEXTEND
1000
MTEXTBEGIN
1070
    73
1070
     1
1070
    44
1040
1.0
1070
    74
1070
     0
1000
MTEXTEND
1000
MTEXTBEGIN
1070
    73
1070
     1
1070
    44
1040
1.0
1070
    74
1070
     0
1000
MTEXTEND
1000
MTEXTBEGIN
1070
    73
1070
     1
1070
    44
1040
1.0
1070
    74
1070
     0
1000
MTEXTEND
  0
LEADER
  5
7CA8
330
1E
100
AcDbEntity
  8
30
  6
CONTINUOUS
100
AcDbLeader
  3
STANDARD
 73
     0
 40
4.0
 76
     3
 10
284.7617875096129
 20
123.1879450447894
 30
0.0
 10
280.6594638813866
 20
138.8087179895959
 30
0.0
 10
263.7373764866568
 20
138.8087179895959
 30
0.0
340
7CA9
213
-4.87151052266654
223
2.0
233
0.0
1001
ACAD
1000
DSTYLE
1002
{
1070
     5
1000
OPEN
1070
    77
1070
     0
1070
    79
1070
     3
1070
   147
1040
1.0
1070
   342
1005
3B2
1002
}
  0
MTEXT
  5
7CA9
102
{ACAD_REACTORS
330
7CA8
102
}
330
1E
100
AcDbEntity
  8
30
  6
CONTINUOUS
100
AcDbMText
 10
217.6088870093234
 20
136.808717989596
 30
0.0
 40
4.0
 41
0.0
 71
     9
 72
     1
  1
\A1;
1001
ACAD
1000
MTEXTBEGIN
1070
    73
1070
     1
1070
    44
1040
1.0
1070
    74
1070
     0
1000
MTEXTEND
1000
MTEXTBEGIN
1070
    73
1070
     1
1070
    44
1040
1.0
1070
    74
1070
     0
1000
MTEXTEND
1000
MTEXTBEGIN
1070
    73
1070
     1
1070
    44
1040
1.0
1070
    74
1070
     0
1000
MTEXTEND
1000
MTEXTBEGIN
1070
    73
1070
     1
1070
    44
1040
1.0
1070
    74
1070
     0
1000
MTEXTEND
1000
MTEXTBEGIN
1070
    73
1070
     1
1070
    44
1040
1.0
1070
    74
1070
     0
1000
MTEXTEND
1000
MTEXTBEGIN
1070
    73
1070
     1
1070
    44
1040
1.0
1070
    74
1070
     0
1000
MTEXTEND
1000
MTEXTBEGIN
1070
    73
1070
     1
1070
    44
1040
1.0
1070
    74
1070
     0
1000
MTEXTEND
1000
MTEXTBEGIN
1070
    73
1070
     1
1070
    44
1040
1.0
1070
    74
1070
     0
1000
MTEXTEND
  0
TEXT
  5
7CAA
330
1E
100
AcDbEntity
  8
30
  6
CONTINUOUS
100
AcDbText
 10
265.0193514063301
 20
139.8330327260242
 30
0.0
 40
5.0
  1
M10
  7
STANDARD1
100
AcDbText
  0
DIMENSION
  5
7CAD
330
1E
100
AcDbEntity
  8
30
  6
CONTINUOUS
100
AcDbDimension
  2
*D35
 10
-45.00000000000002
 20
405.251144283447
 30
0.0
 11
-57.50000311931151
 21
408.251144283447
 31
0.0
 70
    32
  3
STANDARD
100
AcDbAlignedDimension
 13
-70.00000623862297
 23
390.4369478956378
 33
0.0
 14
-45.00000000000002
 24
360.5189316457162
 34
0.0
100
AcDbRotatedDimension
1001
ACAD
1000
DSTYLE
1002
{
1070
    79
1070
     3
1002
}
  0
DIMENSION
  5
7CBA
330
1E
100
AcDbEntity
  8
30
  6
CONTINUOUS
100
AcDbDimension
  2
*D36
 10
-0.000020604474435
 20
405.251144283447
 30
0.0
 11
-22.50001030223722
 21
408.251144283447
 31
0.0
 70
    32
  3
STANDARD
100
AcDbAlignedDimension
 13
-45.00000000000002
 23
360.5189316457162
 33
0.0
 14
-0.0000206044744377
 24
360.5189316457162
 34
0.0
100
AcDbRotatedDimension
1001
ACAD
1000
DSTYLE
1002
{
1070
   287
1070
     4
1070
   287
1070
     4
1070
   287
1070
     4
1070
   287
1070
     4
1070
   287
1070
     4
1070
   287
1070
     4
1070
   287
1070
     4
1070
   287
1070
     4
1070
   279
1070
     1
1070
    79
1070
     3
1002
}
  0
DIMENSION
  5
7CC7
330
1E
100
AcDbEntity
  8
30
  6
CONTINUOUS
100
AcDbDimension
  2
*D37
 10
45.0
 20
405.251144283447
 30
0.0
 11
22.49998969776278
 21
408.251144283447
 31
0.0
 70
    32
  3
STANDARD
100
AcDbAlignedDimension
 13
-0.0000206044744377
 23
360.5189316457162
 33
0.0
 14
45.0
 24
354.4369478956378
 34
0.0
100
AcDbRotatedDimension
1001
ACAD
1000
DSTYLE
1002
{
1070
   287
1070
     4
1070
   287
1070
     4
1070
   287
1070
     4
1070
   287
1070
     4
1070
   287
1070
     4
1070
   287
1070
     4
1070
   287
1070
     4
1070
   287
1070
     4
1070
   279
1070
     1
1070
    79
1070
     3
1002
}
  0
DIMENSION
  5
7CD4
330
1E
100
AcDbEntity
  8
30
  6
CONTINUOUS
100
AcDbDimension
  2
*D38
 10
69.999993761377
 20
405.251144283447
 30
0.0
 11
57.4999968806885
 21
408.251144283447
 31
0.0
 70
    32
  3
STANDARD
100
AcDbAlignedDimension
 13
45.0
 23
354.4369478956378
 33
0.0
 14
69.999993761377
 24
390.4369478956378
 34
0.0
100
AcDbRotatedDimension
1001
ACAD
1000
DSTYLE
1002
{
1070
   287
1070
     4
1070
   287
1070
     4
1070
   287
1070
     4
1070
   287
1070
     4
1070
   287
1070
     4
1070
   287
1070
     4
1070
   287
1070
     4
1070
   287
1070
     4
1070
   279
1070
     1
1070
    79
1070
     3
1002
}
  0
LWPOLYLINE
  5
7D90
330
1E
100
AcDbEntity
  8
10
  6
CONTINOUS
100
AcDbPolyline
 90
        4
 70
     0
 43
0.0
 10
30.86574955133993
 20
355.5035127281199
 10
30.86574955133992
 20
299.4369478956378
 10
58.8657495513399
 20
299.4369478956378
 10
58.86574955133993
 20
355.5035127281199
  0
LWPOLYLINE
  5
7D91
330
1E
100
AcDbEntity
  8
10
  6
CONTINOUS
100
AcDbPolyline
 90
        4
 70
     0
 43
0.0
 10
-14.13425044866007
 20
355.5035127281199
 10
-14.13425044866008
 20
299.4369478956378
 10
13.8657495513399
 20
299.4369478956378
 10
13.8657495513399
 20
355.5035127281199
  0
LWPOLYLINE
  5
7D92
330
1E
100
AcDbEntity
  8
10
  6
CONTINOUS
100
AcDbPolyline
 90
        4
 70
     0
 43
0.0
 10
-59.13425044866006
 20
355.5035127281199
 10
-59.13425044866007
 20
299.4369478956378
 10
-31.13425044866008
 20
299.4369478956378
 10
-31.13425044866007
 20
355.5035127281199
  0
LWPOLYLINE
  5
7D93
330
1E
100
AcDbEntity
  8
24
  6
CONTINOUS
100
AcDbPolyline
 90
        2
 70
     0
 43
0.001
 10
-59.13425044866006
 20
354.4369478956378
 10
-31.13425044866007
 20
354.4369478956378
  0
LINE
  5
7D94
330
1E
100
AcDbEntity
  8
24
  6
CONTINOUS
100
AcDbLine
 10
-59.13425044866006
 20
357.5035127281199
 30
0.0
 11
-31.13425044866005
 21
357.5035127281199
 31
0.0
  0
LINE
  5
7D95
330
1E
100
AcDbEntity
  8
17
  6
DASHDOT
100
AcDbLine
 10
-32.33420162056006
 20
357.5035127281199
 30
0.0
 11
-57.33420162056006
 21
357.5035127281199
 31
0.0
  0
LINE
  5
7D96
330
1E
100
AcDbEntity
  8
17
  6
DASHDOT
100
AcDbLine
 10
-32.640625
 20
357.5035127281199
 30
0.0
 11
-57.359375
 21
357.5035127281199
 31
0.0
  0
LWPOLYLINE
  5
7D97
330
1E
100
AcDbEntity
  8
24
  6
CONTINOUS
100
AcDbPolyline
 90
        2
 70
     0
 43
0.001
 10
-59.13425044866006
 20
357.5035127281199
 10
-59.13425044866006
 20
354.4369478956378
  0
LINE
  5
7D98
330
1E
100
AcDbEntity
  8
24
  6
CONTINOUS
100
AcDbLine
 10
-35.09795162056002
 20
357.5035127281199
 30
0.0
 11
-48.5704516205601
 21
357.5035127281199
 31
0.0
  0
LINE
  5
7D99
330
1E
100
AcDbEntity
  8
24
  6
CONTINOUS
100
AcDbLine
 10
-50.81726057798277
 20
357.5035127281199
 30
0.0
 11
-50.81726057798277
 21
354.4369478956378
 31
0.0
  0
LINE
  5
7D9A
330
1E
100
AcDbEntity
  8
24
  6
CONTINOUS
100
AcDbLine
 10
-39.18273942201721
 20
357.5035127281199
 30
0.0
 11
-39.18273942201721
 21
354.4369478956378
 31
0.0
  0
LWPOLYLINE
  5
7D9B
330
1E
100
AcDbEntity
  8
24
  6
CONTINOUS
100
AcDbPolyline
 90
        2
 70
     0
 43
0.001
 10
-31.13425044866007
 20
357.5035127281199
 10
-31.13425044866007
 20
354.4369478956378
  0
LINE
  5
7D9C
330
1E
100
AcDbEntity
  8
24
  6
CONTINOUS
100
AcDbLine
 10
3.902048379439975
 20
357.5035127281199
 30
0.0
 11
-9.570451620560106
 21
357.5035127281199
 31
0.0
  0
LWPOLYLINE
  5
7D9D
330
1E
100
AcDbEntity
  8
24
  6
CONTINOUS
100
AcDbPolyline
 90
        2
 70
     0
 43
0.001
 10
-14.13425044866007
 20
354.4369478956378
 10
13.8657495513399
 20
354.4369478956378
  0
LINE
  5
7D9E
330
1E
100
AcDbEntity
  8
24
  6
CONTINOUS
100
AcDbLine
 10
-14.13425044866005
 20
357.5035127281199
 30
0.0
 11
13.8657495513399
 21
357.5035127281199
 31
0.0
  0
LINE
  5
7D9F
330
1E
100
AcDbEntity
  8
17
  6
DASHDOT
100
AcDbLine
 10
6.665798379439932
 20
357.5035127281199
 30
0.0
 11
-12.33420162056006
 21
357.5035127281199
 31
0.0
  0
LINE
  5
7DA0
330
1E
100
AcDbEntity
  8
17
  6
DASHDOT
100
AcDbLine
 10
6.359375
 20
357.5035127281199
 30
0.0
 11
-12.359375
 21
357.5035127281199
 31
0.0
  0
LWPOLYLINE
  5
7DA1
330
1E
100
AcDbEntity
  8
24
  6
CONTINOUS
100
AcDbPolyline
 90
        2
 70
     0
 43
0.001
 10
-14.13425044866007
 20
357.5035127281199
 10
-14.13425044866007
 20
354.4369478956378
  0
LINE
  5
7DA2
330
1E
100
AcDbEntity
  8
24
  6
CONTINOUS
100
AcDbLine
 10
-5.817260577982777
 20
357.5035127281199
 30
0.0
 11
-5.817260577982777
 21
354.4369478956378
 31
0.0
  0
LINE
  5
7DA3
330
1E
100
AcDbEntity
  8
24
  6
CONTINOUS
100
AcDbLine
 10
5.817260577982777
 20
357.5035127281199
 30
0.0
 11
5.817260577982777
 21
354.4369478956378
 31
0.0
  0
LWPOLYLINE
  5
7DA4
330
1E
100
AcDbEntity
  8
24
  6
CONTINOUS
100
AcDbPolyline
 90
        2
 70
     0
 43
0.001
 10
13.8657495513399
 20
357.5035127281199
 10
13.8657495513399
 20
354.4369478956378
  0
LINE
  5
7DA5
330
1E
100
AcDbEntity
  8
17
  6
DASHDOT
100
AcDbLine
 10
57.66579837943993
 20
357.5035127281199
 30
0.0
 11
32.66579837943993
 21
357.5035127281199
 31
0.0
  0
LINE
  5
7DA6
330
1E
100
AcDbEntity
  8
17
  6
DASHDOT
100
AcDbLine
 10
57.359375
 20
357.5035127281199
 30
0.0
 11
32.640625
 21
357.5035127281199
 31
0.0
  0
LWPOLYLINE
  5
7DA7
330
1E
100
AcDbEntity
  8
24
  6
CONTINOUS
100
AcDbPolyline
 90
        2
 70
     0
 43
0.001
 10
30.86574955133993
 20
354.4369478956378
 10
58.86574955133993
 20
354.4369478956378
  0
LINE
  5
7DA8
330
1E
100
AcDbEntity
  8
24
  6
CONTINOUS
100
AcDbLine
 10
30.86574955133994
 20
357.5035127281199
 30
0.0
 11
58.86574955133994
 21
357.5035127281199
 31
0.0
  0
LWPOLYLINE
  5
7DA9
330
1E
100
AcDbEntity
  8
24
  6
CONTINOUS
100
AcDbPolyline
 90
        2
 70
     0
 43
0.001
 10
30.86574955133993
 20
357.5035127281199
 10
30.86574955133993
 20
354.4369478956378
  0
LINE
  5
7DAA
330
1E
100
AcDbEntity
  8
24
  6
CONTINOUS
100
AcDbLine
 10
48.90204837943996
 20
357.5035127281199
 30
0.0
 11
41.42954837943989
 21
357.5035127281199
 31
0.0
  0
LINE
  5
7DAB
330
1E
100
AcDbEntity
  8
24
  6
CONTINOUS
100
AcDbLine
 10
39.1827394220172
 20
357.5035127281199
 30
0.0
 11
39.1827394220172
 21
354.4369478956378
 31
0.0
  0
LINE
  5
7DAC
330
1E
100
AcDbEntity
  8
24
  6
CONTINOUS
100
AcDbLine
 10
50.81726057798277
 20
357.5035127281199
 30
0.0
 11
50.81726057798277
 21
354.4369478956378
 31
0.0
  0
LWPOLYLINE
  5
7DAD
330
1E
100
AcDbEntity
  8
24
  6
CONTINOUS
100
AcDbPolyline
 90
        2
 70
     0
 43
0.001
 10
58.86574955133993
 20
357.5035127281199
 10
58.86574955133993
 20
354.4369478956378
  0
DIMENSION
  5
7DAE
330
1E
100
AcDbEntity
  8
30
  6
CONTINUOUS
100
AcDbDimension
  2
*D41
 10
93.5775681070673
 20
354.4369478956378
 30
0.0
 11
115.0397314126009
 21
371.7474129077193
 31
0.0
 70
   160
  1
ON SIDE 36\POFF SIDE 35
  3
STANDARD
100
AcDbAlignedDimension
 13
69.99993896483985
 23
390.4369478956378
 33
0.0
 14
58.86574955133993
 24
354.4369478956378
 34
0.0
 50
90.0
100
AcDbRotatedDimension
1001
ACAD
1000
DSTYLE
1002
{
1070
   287
1070
     5
1070
   287
1070
     5
1070
   287
1070
     5
1070
   287
1070
     5
1070
   287
1070
     5
1070
   287
1070
     5
1070
   287
1070
     5
1070
   287
1070
     5
1070
   279
1070
     2
1070
    79
1070
     3
1002
}
  0
LINE
  5
7DC4
330
1E
100
AcDbEntity
  8
24
  6
CONTINOUS
100
AcDbLine
 10
-9.33425044866005
 20
351.9369478956378
 30
0.0
 11
9.06574955133987
 21
351.9369478956378
 31
0.0
  0
LINE
  5
7DC5
330
1E
100
AcDbEntity
  8
24
  6
CONTINOUS
100
AcDbLine
 10
-9.034250448660039
 20
345.5369478956378
 30
0.0
 11
8.765749551339856
 21
345.5369478956378
 31
0.0
  0
LINE
  5
7DC6
330
1E
100
AcDbEntity
  8
24
  6
CONTINOUS
100
AcDbLine
 10
-9.33425044866005
 20
351.9369478956378
 30
0.0
 11
-9.33425044866005
 21
354.4369478956378
 31
0.0
  0
LINE
  5
7DC7
330
1E
100
AcDbEntity
  8
24
  6
CONTINOUS
100
AcDbLine
 10
-9.034250448660039
 20
345.5369478956378
 30
0.0
 11
-9.034250448660039
 21
351.9369478956378
 31
0.0
  0
LINE
  5
7DC8
330
1E
100
AcDbEntity
  8
24
  6
CONTINOUS
100
AcDbLine
 10
9.06574955133987
 20
351.9369478956378
 30
0.0
 11
9.06574955133987
 21
354.4369478956378
 31
0.0
  0
LINE
  5
7DC9
330
1E
100
AcDbEntity
  8
24
  6
CONTINOUS
100
AcDbLine
 10
8.765749551339856
 20
345.5369478956378
 30
0.0
 11
8.765749551339856
 21
351.9369478956378
 31
0.0
  0
LINE
  5
7DCA
330
1E
100
AcDbEntity
  8
24
  6
CONTINOUS
100
AcDbLine
 10
-54.33425044866004
 20
351.9369478956378
 30
0.0
 11
-35.93425044866011
 21
351.9369478956378
 31
0.0
  0
LINE
  5
7DCB
330
1E
100
AcDbEntity
  8
24
  6
CONTINOUS
100
AcDbLine
 10
-54.03425044866003
 20
345.5369478956378
 30
0.0
 11
-36.23425044866011
 21
345.5369478956378
 31
0.0
  0
LINE
  5
7DCC
330
1E
100
AcDbEntity
  8
24
  6
CONTINOUS
100
AcDbLine
 10
-54.33425044866004
 20
351.9369478956378
 30
0.0
 11
-54.33425044866004
 21
354.4369478956378
 31
0.0
  0
LINE
  5
7DCD
330
1E
100
AcDbEntity
  8
24
  6
CONTINOUS
100
AcDbLine
 10
-54.03425044866003
 20
345.5369478956378
 30
0.0
 11
-54.03425044866003
 21
351.9369478956378
 31
0.0
  0
LINE
  5
7DCE
330
1E
100
AcDbEntity
  8
24
  6
CONTINOUS
100
AcDbLine
 10
-35.93425044866011
 20
351.9369478956378
 30
0.0
 11
-35.93425044866011
 21
354.4369478956378
 31
0.0
  0
LINE
  5
7DCF
330
1E
100
AcDbEntity
  8
24
  6
CONTINOUS
100
AcDbLine
 10
-36.23425044866011
 20
345.5369478956378
 30
0.0
 11
-36.23425044866011
 21
351.9369478956378
 31
0.0
  0
LINE
  5
7DD2
330
1E
100
AcDbEntity
  8
24
  6
CONTINOUS
100
AcDbLine
 10
275.3585283399444
 20
-113.9999999999997
 30
0.0
 11
298.2585283399444
 21
-113.9999999999997
 31
0.0
  0
LINE
  5
7DD3
330
1E
100
AcDbEntity
  8
24
  6
CONTINOUS
100
AcDbLine
 10
280.3585283399446
 20
-105.0999999999999
 30
0.0
 11
286.7585283399446
 21
-105.0999999999999
 31
0.0
  0
LINE
  5
7DD4
330
1E
100
AcDbEntity
  8
24
  6
CONTINOUS
100
AcDbLine
 10
280.3585283399446
 20
-122.8999999999995
 30
0.0
 11
280.3585283399446
 21
-105.0999999999999
 31
0.0
  0
LINE
  5
7DD5
330
1E
100
AcDbEntity
  8
24
  6
CONTINOUS
100
AcDbLine
 10
293.2585283399446
 20
-129.9999999999998
 30
0.0
 11
293.2585283399446
 21
-97.9999999999999
 31
0.0
  0
LINE
  5
7DD6
330
1E
100
AcDbEntity
  8
24
  6
CONTINOUS
100
AcDbLine
 10
289.2585283399446
 20
-129.9999999999998
 30
0.0
 11
289.2585283399446
 21
-97.9999999999999
 31
0.0
  0
LINE
  5
7DD7
330
1E
100
AcDbEntity
  8
24
  6
CONTINOUS
100
AcDbLine
 10
286.7585283399446
 20
-123.1999999999995
 30
0.0
 11
286.7585283399446
 21
-104.7999999999996
 31
0.0
  0
LINE
  5
7DD8
330
1E
100
AcDbEntity
  8
24
  6
CONTINOUS
100
AcDbLine
 10
286.7585283399446
 20
-104.7999999999996
 30
0.0
 11
289.2585283399446
 21
-104.7999999999996
 31
0.0
  0
LINE
  5
7DD9
330
1E
100
AcDbEntity
  8
24
  6
CONTINOUS
100
AcDbLine
 10
289.2585283399446
 20
-97.9999999999999
 30
0.0
 11
293.2585283399446
 21
-97.9999999999999
 31
0.0
  0
LINE
  5
7DDA
330
1E
100
AcDbEntity
  8
24
  6
CONTINOUS
100
AcDbLine
 10
280.3585283399446
 20
-122.8999999999995
 30
0.0
 11
286.7585283399446
 21
-122.8999999999995
 31
0.0
  0
LINE
  5
7DDB
330
1E
100
AcDbEntity
  8
24
  6
CONTINOUS
100
AcDbLine
 10
286.7585283399446
 20
-123.1999999999995
 30
0.0
 11
289.2585283399446
 21
-123.1999999999995
 31
0.0
  0
DIMENSION
  5
7E23
330
1E
100
AcDbEntity
  8
30
  6
CONTINUOUS
100
AcDbDimension
  2
*D42
 10
289.2585283399446
 20
-139.6885260678299
 30
0.0
 11
306.7585283399446
 21
-136.6885260678299
 31
0.0
 70
    32
  3
STANDARD
100
AcDbAlignedDimension
 13
324.2585283399446
 23
-129.9999999999998
 33
0.0
 14
289.2585283399446
 24
-129.9999999999998
 34
0.0
100
AcDbRotatedDimension
1001
ACAD
1000
DSTYLE
1002
{
1070
    79
1070
     3
1002
}
  0
MTEXT
  5
7E8C
330
1E
100
AcDbEntity
  8
19
  6
CONTINUOUS
100
AcDbMText
 10
209.7485176807431
 20
357.3502274517981
 30
0.0
 40
5.0
 41
94.44412700986868
 71
     1
 72
     5
  1
ZAE400-NF 3P FC\PZAS400-NF 3P FC\PZAS400-GF 3P FC
  7
STANDARD1
1001
ACAD
1000
MTEXTBEGIN
1070
    73
1070
     1
1070
    44
1040
1.0
1070
    74
1070
     0
1000
MTEXTEND
1000
MTEXTBEGIN
1070
    73
1070
     1
1070
    44
1040
1.0
1070
    74
1070
     0
1000
MTEXTEND
1000
MTEXTBEGIN
1070
    73
1070
     1
1070
    44
1040
1.0
1070
    74
1070
     0
1000
MTEXTEND
1000
MTEXTBEGIN
1070
    73
1070
     1
1070
    44
1040
1.0
1070
    74
1070
     0
1000
MTEXTEND
1000
MTEXTBEGIN
1070
    73
1070
     1
1070
    44
1040
1.0
1070
    74
1070
     0
1000
MTEXTEND
1000
MTEXTBEGIN
1070
    73
1070
     1
1070
    44
1040
1.0
1070
    74
1070
     0
1000
MTEXTEND
  0
LINE
  5
811C
330
1E
100
AcDbEntity
  8
10
  6
CONTINUOUS
100
AcDbLine
 10
36.5
 20
-24.0
 30
0.0
 11
44.5
 21
-24.0
 31
0.0
  0
LINE
  5
811D
330
1E
100
AcDbEntity
  8
10
  6
CONTINUOUS
100
AcDbLine
 10
36.5
 20
-29.0
 30
0.0
 11
44.5
 21
-29.0
 31
0.0
  0
LINE
  5
811E
330
1E
100
AcDbEntity
  8
10
  6
CONTINUOUS
100
AcDbLine
 10
36.5
 20
-26.0
 30
0.0
 11
44.5
 21
-26.0
 31
0.0
  0
LINE
  5
811F
330
1E
100
AcDbEntity
  8
10
  6
CONTINUOUS
100
AcDbLine
 10
36.5
 20
-21.0
 30
0.0
 11
44.5
 21
-21.0
 31
0.0
  0
LINE
  5
8120
330
1E
100
AcDbEntity
  8
10
  6
CONTINUOUS
100
AcDbLine
 10
36.5
 20
-21.0
 30
0.0
 11
36.5
 21
-24.0
 31
0.0
  0
LINE
  5
8121
330
1E
100
AcDbEntity
  8
10
  6
CONTINUOUS
100
AcDbLine
 10
36.5
 20
-26.0
 30
0.0
 11
36.5
 21
-29.0
 31
0.0
  0
LINE
  5
8122
330
1E
100
AcDbEntity
  8
10
  6
CONTINUOUS
100
AcDbLine
 10
44.5
 20
-21.0
 30
0.0
 11
44.5
 21
-24.0
 31
0.0
  0
LINE
  5
8123
330
1E
100
AcDbEntity
  8
10
  6
CONTINUOUS
100
AcDbLine
 10
44.5
 20
-26.0
 30
0.0
 11
44.5
 21
-29.0
 31
0.0
  0
CIRCLE
  5
8124
330
1E
100
AcDbEntity
  8
10
  6
CONTINUOUS
100
AcDbCircle
 10
40.49999999999999
 20
8.0
 30
0.0
 40
5.0
  0
CIRCLE
  5
8125
330
1E
100
AcDbEntity
  8
10
  6
CONTINUOUS
100
AcDbCircle
 10
40.49999999999999
 20
8.0
 30
0.0
 40
3.5
  0
CIRCLE
  5
8126
330
1E
100
AcDbEntity
  8
10
  6
CONTINUOUS
100
AcDbCircle
 10
40.49999999999999
 20
-7.0
 30
0.0
 40
3.5
  0
CIRCLE
  5
8127
330
1E
100
AcDbEntity
  8
10
  6
CONTINUOUS
100
AcDbCircle
 10
40.94999999999993
 20
20.0
 30
0.0
 40
1.5
  0
LINE
  5
8128
330
1E
100
AcDbEntity
  8
18
100
AcDbLine
 10
69.99999999999997
 20
-33.5
 30
0.0
 11
130.0
 21
-33.5
 31
0.0
  0
LINE
  5
8129
330
1E
100
AcDbEntity
  8
18
100
AcDbLine
 10
69.99999999999997
 20
-17.5
 30
0.0
 11
130.0
 21
-17.5
 31
0.0
  0
LINE
  5
812A
330
1E
100
AcDbEntity
  8
18
100
AcDbLine
 10
69.99999999999997
 20
-12.5
 30
0.0
 11
130.0
 21
-12.5
 31
0.0
  0
LINE
  5
812B
330
1E
100
AcDbEntity
  8
18
100
AcDbLine
 10
69.99999999999997
 20
-20.5
 30
0.0
 11
130.0
 21
-20.5
 31
0.0
  0
LINE
  5
812C
330
1E
100
AcDbEntity
  8
18
100
AcDbLine
 10
69.99999999999997
 20
-28.5
 30
0.0
 11
130.0
 21
-28.5
 31
0.0
  0
LINE
  5
812D
330
1E
100
AcDbEntity
  8
18
100
AcDbLine
 10
69.99999999999997
 20
-25.5
 30
0.0
 11
130.0
 21
-25.5
 31
0.0
  0
LINE
  5
812E
330
1E
100
AcDbEntity
  8
18
100
AcDbLine
 10
150.0
 20
-12.5
 30
0.0
 11
160.0
 21
-12.5
 31
0.0
  0
LINE
  5
812F
330
1E
100
AcDbEntity
  8
18
100
AcDbLine
 10
150.0
 20
-20.5
 30
0.0
 11
160.0
 21
-20.5
 31
0.0
  0
LINE
  5
8130
330
1E
100
AcDbEntity
  8
18
100
AcDbLine
 10
150.0
 20
-25.5
 30
0.0
 11
160.0
 21
-25.5
 31
0.0
  0
LINE
  5
8131
330
1E
100
AcDbEntity
  8
18
100
AcDbLine
 10
150.0
 20
-17.5
 30
0.0
 11
160.0
 21
-17.5
 31
0.0
  0
LINE
  5
8132
330
1E
100
AcDbEntity
  8
18
100
AcDbLine
 10
150.0
 20
-33.5
 30
0.0
 11
160.0
 21
-33.5
 31
0.0
  0
LINE
  5
8133
330
1E
100
AcDbEntity
  8
18
100
AcDbLine
 10
150.0
 20
-28.5
 30
0.0
 11
160.0
 21
-28.5
 31
0.0
  0
LINE
  5
8134
330
1E
100
AcDbEntity
  8
18
100
AcDbLine
 10
150.0
 20
-35.0
 30
0.0
 11
150.0
 21
-11.0
 31
0.0
  0
LINE
  5
8135
330
1E
100
AcDbEntity
  8
18
100
AcDbLine
 10
130.0
 20
-35.0
 30
0.0
 11
130.0
 21
-11.0
 31
0.0
  0
LINE
  5
8136
330
1E
100
AcDbEntity
  8
18
100
AcDbLine
 10
130.0
 20
-35.0
 30
0.0
 11
150.0
 21
-35.0
 31
0.0
  0
LINE
  5
8137
330
1E
100
AcDbEntity
  8
18
100
AcDbLine
 10
130.0
 20
-27.0
 30
0.0
 11
150.0
 21
-27.0
 31
0.0
  0
LINE
  5
8138
330
1E
100
AcDbEntity
  8
18
100
AcDbLine
 10
130.0
 20
-19.0
 30
0.0
 11
150.0
 21
-19.0
 31
0.0
  0
LINE
  5
8139
330
1E
100
AcDbEntity
  8
18
100
AcDbLine
 10
130.0
 20
-11.0
 30
0.0
 11
150.0
 21
-11.0
 31
0.0
  0
LINE
  5
813A
330
1E
100
AcDbEntity
  8
18
100
AcDbLine
 10
160.0
 20
-32.5
 30
0.0
 11
170.0
 21
-32.5
 31
0.0
  0
LINE
  5
813B
330
1E
100
AcDbEntity
  8
18
100
AcDbLine
 10
160.0
 20
-21.49999999999999
 30
0.0
 11
170.0
 21
-21.49999999999999
 31
0.0
  0
LINE
  5
813C
330
1E
100
AcDbEntity
  8
18
100
AcDbLine
 10
160.0
 20
-29.5
 30
0.0
 11
170.0
 21
-29.5
 31
0.0
  0
LINE
  5
813D
330
1E
100
AcDbEntity
  8
18
100
AcDbLine
 10
160.0
 20
-24.5
 30
0.0
 11
170.0
 21
-24.5
 31
0.0
  0
LINE
  5
813E
330
1E
100
AcDbEntity
  8
18
100
AcDbLine
 10
160.0
 20
-25.5
 30
0.0
 11
160.0
 21
-20.5
 31
0.0
  0
LINE
  5
813F
330
1E
100
AcDbEntity
  8
18
100
AcDbLine
 10
160.0
 20
-33.5
 30
0.0
 11
160.0
 21
-28.5
 31
0.0
  0
LINE
  5
8140
330
1E
100
AcDbEntity
  8
18
100
AcDbLine
 10
170.0
 20
-24.5
 30
0.0
 11
170.0
 21
-21.49999999999999
 31
0.0
  0
LINE
  5
8141
330
1E
100
AcDbEntity
  8
18
100
AcDbLine
 10
170.0
 20
-32.5
 30
0.0
 11
170.0
 21
-29.5
 31
0.0
  0
LINE
  5
8142
330
1E
100
AcDbEntity
  8
18
100
AcDbLine
 10
160.0
 20
-13.5
 30
0.0
 11
170.0
 21
-13.5
 31
0.0
  0
LINE
  5
8143
330
1E
100
AcDbEntity
  8
18
100
AcDbLine
 10
160.0
 20
-16.5
 30
0.0
 11
170.0
 21
-16.5
 31
0.0
  0
LINE
  5
8144
330
1E
100
AcDbEntity
  8
18
100
AcDbLine
 10
160.0
 20
-17.5
 30
0.0
 11
160.0
 21
-12.5
 31
0.0
  0
LINE
  5
8145
330
1E
100
AcDbEntity
  8
18
100
AcDbLine
 10
170.0
 20
-16.5
 30
0.0
 11
170.0
 21
-13.5
 31
0.0
  0
VIEWPORT
  5
9AC
330
1A
100
AcDbEntity
 67
     1
  8
0
  6
CONTINUOUS
100
AcDbViewport
 10
171.999535
 20
144.1384739999999
 30
0.0
 40
488.867686
 41
292.351491
 68
    -1
 69
     1
1001
ACAD
1000
MVIEW
1002
{
1070
    16
1010
0.0
1020
0.0
1030
0.0
1010
0.0
1020
0.0
1030
1.0
1040
0.0
1040
292.351491
1040
171.999535
1040
144.1384739999999
1040
50.0
1040
0.0
1040
0.0
1070
     0
1070
   100
1070
     1
1070
     1
1070
     0
1070
     0
1070
     0
1070
     0
1040
0.0
1040
0.0
1040
0.0
1040
10.0
1040
10.0
1040
10.0
1040
10.0
1070
     0
1002
{
1002
}
1002
}
  0
ENDSEC
  0
SECTION
  2
OBJECTS
  0
DICTIONARY
  5
C
330
0
100
AcDbDictionary
  3
ACAD_GROUP
350
D
  3
ACAD_LAYOUT
350
19
  3
ACAD_MLINESTYLE
350
16
  3
ACAD_PLOTSETTINGS
350
18
  3
ACAD_PLOTSTYLENAME
350
E
  3
ACADDIM
350
6D5E
  3
ACDBHEADERROUNDTRIPXREC
350
8147
  3
ACDBVARIABLEDICTIONARY
350
5697
  0
DICTIONARY
  5
178
330
1E
100
AcDbDictionary
280
     1
  3
ACAD_LAYOUTSELFREF
360
8169
  0
DICTIONARY
  5
17A
330
1A
100
AcDbDictionary
280
     1
  3
ACAD_LAYOUTSELFREF
360
8168
  0
DICTIONARY
  5
D
102
{ACAD_REACTORS
330
C
102
}
330
C
100
AcDbDictionary
  0
DICTIONARY
  5
19
102
{ACAD_REACTORS
330
C
102
}
330
C
100
AcDbDictionary
  0
DICTIONARY
  5
16
102
{ACAD_REACTORS
330
C
102
}
330
C
100
AcDbDictionary
  3
STANDARD
350
17
  0
DICTIONARY
  5
18
102
{ACAD_REACTORS
330
C
102
}
330
C
100
AcDbDictionary
  0
ACDBDICTIONARYWDFLT
  5
E
102
{ACAD_REACTORS
330
C
102
}
330
C
100
AcDbDictionary
281
     1
  3
Normal
350
F
100
AcDbDictionaryWithDefault
340
F
  0
XRECORD
  5
6D5E
102
{ACAD_REACTORS
330
C
102
}
330
C
100
AcDbXrecord
 90
   990106
  3

 60
     0
 61
     0
 62
     1
 63
     3
 64
     0
 65
     0
 66
     0
 67
     3
 68
     1
 69
     0
 70
     0
 71
     0
 72
     0
 40
0.0
170
     0
340
7CA9
  0
DICTIONARY
  5
8147
102
{ACAD_REACTORS
330
C
102
}
330
C
100
AcDbDictionary
  3
CEPSNTYPE
350
8151
  3
DIMSTYLEDATA
350
8155
  3
FINGERPRINTGUID
350
8152
  3
HYPERLINKBASE
350
814A
  3
INSUNITS
350
8150
  3
LAYOUTDICT
350
814C
  3
LWETCUNION
350
814F
  3
PLOTSETDICT
350
814D
  3
PLOTSTYLNAMDICT
350
814E
  3
PSVPSCALE
350
8154
  3
PUCSBASE
350
8158
  3
PUCSORGBACK
350
815E
  3
PUCSORGBOTTOM
350
815A
  3
PUCSORGFRONT
350
815D
  3
PUCSORGLEFT
350
815B
  3
PUCSORGRIGHT
350
815C
  3
PUCSORGTOP
350
8159
  3
PUCSORTHOREF
350
8156
  3
PUCSORTHOVIEW
350
8157
  3
STYLESHEET
350
814B
  3
TSTACKALIGN
350
8148
  3
TSTACKSIZE
350
8149
  3
UCSBASE
350
8161
  3
UCSORGBACK
350
8167
  3
UCSORGBOTTOM
350
8163
  3
UCSORGFRONT
350
8166
  3
UCSORGLEFT
350
8164
  3
UCSORGRIGHT
350
8165
  3
UCSORGTOP
350
8162
  3
UCSORTHOREF
350
815F
  3
UCSORTHOVIEW
350
8160
  3
VERSIONGUID
350
8153
  0
DICTIONARY
  5
5697
102
{ACAD_REACTORS
330
C
102
}
330
C
100
AcDbDictionary
  3
DIMASSOC
350
5698
  0
XRECORD
  5
8169
102
{ACAD_REACTORS
330
178
102
}
330
178
100
AcDbXrecord
340
1E
  0
XRECORD
  5
8168
102
{ACAD_REACTORS
330
17A
102
}
330
17A
100
AcDbXrecord
340
1A
  0
MLINESTYLE
  5
17
102
{ACAD_REACTORS
330
16
102
}
330
16
100
AcDbMlineStyle
  2
STANDARD
 70
     0
  3

 62
   256
 51
90.0
 52
90.0
 71
     2
 49
0.5
 62
   256
  6
BYLAYER
 49
-0.5
 62
   256
  6
BYLAYER
  0
ACDBPLACEHOLDER
  5
F
102
{ACAD_REACTORS
330
E
102
}
330
E
100
AcDbPlaceHolder
280
     0
  0
XRECORD
  5
8151
102
{ACAD_REACTORS
330
8147
102
}
330
8147
100
AcDbXrecord
 90
        0
  0
XRECORD
  5
8155
102
{ACAD_REACTORS
330
8147
102
}
330
8147
100
AcDbXrecord
1000
DSTYLE
1002
{
1070
    79
 70
     3
1070
   341
340
3B2
1070
   342
340
3B2
1002
}
  0
XRECORD
  5
8152
102
{ACAD_REACTORS
330
8147
102
}
330
8147
100
AcDbXrecord
  1

  0
XRECORD
  5
814A
102
{ACAD_REACTORS
330
8147
102
}
330
8147
100
AcDbXrecord
  1

  0
XRECORD
  5
8150
102
{ACAD_REACTORS
330
8147
102
}
330
8147
100
AcDbXrecord
 90
        0
  0
XRECORD
  5
814C
102
{ACAD_REACTORS
330
8147
102
}
330
8147
100
AcDbXrecord
340
19
  0
XRECORD
  5
814F
102
{ACAD_REACTORS
330
8147
102
}
330
8147
100
AcDbXrecord
 90
    10781
  0
XRECORD
  5
814D
102
{ACAD_REACTORS
330
8147
102
}
330
8147
100
AcDbXrecord
340
18
  0
XRECORD
  5
814E
102
{ACAD_REACTORS
330
8147
102
}
330
8147
100
AcDbXrecord
340
E
  0
XRECORD
  5
8154
102
{ACAD_REACTORS
330
8147
102
}
330
8147
100
AcDbXrecord
 40
0.0
  0
XRECORD
  5
8158
102
{ACAD_REACTORS
330
8147
102
}
330
8147
100
AcDbXrecord
340
0
  0
XRECORD
  5
815E
102
{ACAD_REACTORS
330
8147
102
}
330
8147
100
AcDbXrecord
 10
0.0
 20
0.0
 30
0.0
  0
XRECORD
  5
815A
102
{ACAD_REACTORS
330
8147
102
}
330
8147
100
AcDbXrecord
 10
0.0
 20
0.0
 30
0.0
  0
XRECORD
  5
815D
102
{ACAD_REACTORS
330
8147
102
}
330
8147
100
AcDbXrecord
 10
0.0
 20
0.0
 30
0.0
  0
XRECORD
  5
815B
102
{ACAD_REACTORS
330
8147
102
}
330
8147
100
AcDbXrecord
 10
0.0
 20
0.0
 30
0.0
  0
XRECORD
  5
815C
102
{ACAD_REACTORS
330
8147
102
}
330
8147
100
AcDbXrecord
 10
0.0
 20
0.0
 30
0.0
  0
XRECORD
  5
8159
102
{ACAD_REACTORS
330
8147
102
}
330
8147
100
AcDbXrecord
 10
0.0
 20
0.0
 30
0.0
  0
XRECORD
  5
8156
102
{ACAD_REACTORS
330
8147
102
}
330
8147
100
AcDbXrecord
340
0
  0
XRECORD
  5
8157
102
{ACAD_REACTORS
330
8147
102
}
330
8147
100
AcDbXrecord
 70
     0
  0
XRECORD
  5
814B
102
{ACAD_REACTORS
330
8147
102
}
330
8147
100
AcDbXrecord
  1
kiki.ctb
  0
XRECORD
  5
8148
102
{ACAD_REACTORS
330
8147
102
}
330
8147
100
AcDbXrecord
 90
        1
  0
XRECORD
  5
8149
102
{ACAD_REACTORS
330
8147
102
}
330
8147
100
AcDbXrecord
 90
       70
  0
XRECORD
  5
8161
102
{ACAD_REACTORS
330
8147
102
}
330
8147
100
AcDbXrecord
340
0
  0
XRECORD
  5
8167
102
{ACAD_REACTORS
330
8147
102
}
330
8147
100
AcDbXrecord
 10
0.0
 20
0.0
 30
0.0
  0
XRECORD
  5
8163
102
{ACAD_REACTORS
330
8147
102
}
330
8147
100
AcDbXrecord
 10
0.0
 20
0.0
 30
0.0
  0
XRECORD
  5
8166
102
{ACAD_REACTORS
330
8147
102
}
330
8147
100
AcDbXrecord
 10
0.0
 20
0.0
 30
0.0
  0
XRECORD
  5
8164
102
{ACAD_REACTORS
330
8147
102
}
330
8147
100
AcDbXrecord
 10
0.0
 20
0.0
 30
0.0
  0
XRECORD
  5
8165
102
{ACAD_REACTORS
330
8147
102
}
330
8147
100
AcDbXrecord
 10
0.0
 20
0.0
 30
0.0
  0
XRECORD
  5
8162
102
{ACAD_REACTORS
330
8147
102
}
330
8147
100
AcDbXrecord
 10
0.0
 20
0.0
 30
0.0
  0
XRECORD
  5
815F
102
{ACAD_REACTORS
330
8147
102
}
330
8147
100
AcDbXrecord
340
0
  0
XRECORD
  5
8160
102
{ACAD_REACTORS
330
8147
102
}
330
8147
100
AcDbXrecord
 70
     0
  0
XRECORD
  5
8153
102
{ACAD_REACTORS
330
8147
102
}
330
8147
100
AcDbXrecord
  1
{6779C12E-770B-4F49-9E23-762A9DC41B3A}
  0
DICTIONARYVAR
  5
5698
102
{ACAD_REACTORS
330
5697
102
}
330
5697
100
DictionaryVariables
280
     0
  1
1
  0
ENDSEC
  0
EOF
