  0
SECTION
  2
HEADER
  9
$ACADVER
  1
AC1015
  9
$ACADMAINTVER
 70
    10
  9
$DWGCODEPAGE
  3
ANSI_932
  9
$INSBASE
 10
0.0
 20
0.0
 30
0.0
  9
$EXTMIN
 10
-140.1065049170443
 20
-648.5
 30
0.0
  9
$EXTMAX
 10
487.4423296781887
 20
414.0000000000001
 30
0.0
  9
$LIMMIN
 10
-302.0
 20
-689.0
  9
$LIMMAX
 10
615.0
 20
462.0
  9
$ORTHOMODE
 70
     1
  9
$REGENMODE
 70
     1
  9
$FILLMODE
 70
     1
  9
$QTEXTMODE
 70
     0
  9
$MIRRTEXT
 70
     1
  9
$LTSCALE
 40
10.0
  9
$ATTMODE
 70
     1
  9
$TEXTSIZE
 40
5.0
  9
$TRACEWID
 40
0.05
  9
$TEXTSTYLE
  7
STANDARD1
  9
$CLAYER
  8
30
  9
$CELTYPE
  6
CONTINUOUS
  9
$CECOLOR
 62
   256
  9
$CELTSCALE
 40
1.0
  9
$DISPSILH
 70
     0
  9
$DIMSCALE
 40
1.0
  9
$DIMASZ
 40
2.0
  9
$DIMEXO
 40
1.0
  9
$DIMDLI
 40
0.5
  9
$DIMRND
 40
0.0
  9
$DIMDLE
 40
0.0
  9
$DIMEXE
 40
0.5
  9
$DIMTP
 40
0.0
  9
$DIMTM
 40
0.0
  9
$DIMTXT
 40
5.0
  9
$DIMCEN
 40
0.09
  9
$DIMTSZ
 40
0.0
  9
$DIMTOL
 70
     0
  9
$DIMLIM
 70
     0
  9
$DIMTIH
 70
     0
  9
$DIMTOH
 70
     1
  9
$DIMSE1
 70
     0
  9
$DIMSE2
 70
     0
  9
$DIMTAD
 70
     3
  9
$DIMZIN
 70
    12
  9
$DIMBLK
  1
OPEN
  9
$DIMASO
 70
     1
  9
$DIMSHO
 70
     1
  9
$DIMPOST
  1

  9
$DIMAPOST
  1

  9
$DIMALT
 70
     0
  9
$DIMALTD
 70
     2
  9
$DIMALTF
 40
25.4
  9
$DIMLFAC
 40
1.0
  9
$DIMTOFL
 70
     0
  9
$DIMTVP
 40
0.0
  9
$DIMTIX
 70
     0
  9
$DIMSOXD
 70
     0
  9
$DIMSAH
 70
     0
  9
$DIMBLK1
  1

  9
$DIMBLK2
  1

  9
$DIMSTYLE
  2
STANDARD
  9
$DIMCLRD
 70
     0
  9
$DIMCLRE
 70
     0
  9
$DIMCLRT
 70
     0
  9
$DIMTFAC
 40
1.0
  9
$DIMGAP
 40
1.0
  9
$DIMJUST
 70
     0
  9
$DIMSD1
 70
     0
  9
$DIMSD2
 70
     0
  9
$DIMTOLJ
 70
     1
  9
$DIMTZIN
 70
     0
  9
$DIMALTZ
 70
     0
  9
$DIMALTTZ
 70
     0
  9
$DIMUPT
 70
     0
  9
$DIMDEC
 70
     1
  9
$DIMTDEC
 70
     1
  9
$DIMALTU
 70
     2
  9
$DIMALTTD
 70
     2
  9
$DIMTXSTY
  7
STANDARD
  9
$DIMAUNIT
 70
     0
  9
$DIMADEC
 70
     0
  9
$DIMALTRND
 40
0.0
  9
$DIMAZIN
 70
     3
  9
$DIMDSEP
 70
    46
  9
$DIMATFIT
 70
     3
  9
$DIMFRAC
 70
     0
  9
$DIMLDRBLK
  1
OPEN
  9
$DIMLUNIT
 70
     2
  9
$DIMLWD
 70
    -2
  9
$DIMLWE
 70
    -2
  9
$DIMTMOVE
 70
     0
  9
$LUNITS
 70
     2
  9
$LUPREC
 70
     4
  9
$SKETCHINC
 40
0.1
  9
$FILLETRAD
 40
0.0
  9
$AUNITS
 70
     0
  9
$AUPREC
 70
     0
  9
$MENU
  1
.
  9
$ELEVATION
 40
0.0
  9
$PELEVATION
 40
0.0
  9
$THICKNESS
 40
0.0
  9
$LIMCHECK
 70
     0
  9
$CHAMFERA
 40
0.0
  9
$CHAMFERB
 40
0.0
  9
$CHAMFERC
 40
0.0
  9
$CHAMFERD
 40
0.0
  9
$SKPOLY
 70
     0
  9
$TDCREATE
 40
2452286.555658657
  9
$TDUCREATE
 40
2452286.180658657
  9
$TDUPDATE
 40
2454909.376638090
  9
$TDUUPDATE
 40
2454909.001638090
  9
$TDINDWG
 40
1.3671467708
  9
$TDUSRTIMER
 40
1.3671464120
  9
$USRTIMER
 70
     1
  9
$ANGBASE
 50
0.0
  9
$ANGDIR
 70
     0
  9
$PDMODE
 70
     0
  9
$PDSIZE
 40
0.0
  9
$PLINEWID
 40
0.0
  9
$SPLFRAME
 70
     0
  9
$SPLINETYPE
 70
     6
  9
$SPLINESEGS
 70
     8
  9
$HANDSEED
  5
8566
  9
$SURFTAB1
 70
     6
  9
$SURFTAB2
 70
     6
  9
$SURFTYPE
 70
     6
  9
$SURFU
 70
     6
  9
$SURFV
 70
     6
  9
$UCSBASE
  2

  9
$UCSNAME
  2

  9
$UCSORG
 10
0.0
 20
0.0
 30
0.0
  9
$UCSXDIR
 10
1.0
 20
0.0
 30
0.0
  9
$UCSYDIR
 10
0.0
 20
1.0
 30
0.0
  9
$UCSORTHOREF
  2

  9
$UCSORTHOVIEW
 70
     0
  9
$UCSORGTOP
 10
0.0
 20
0.0
 30
0.0
  9
$UCSORGBOTTOM
 10
0.0
 20
0.0
 30
0.0
  9
$UCSORGLEFT
 10
0.0
 20
0.0
 30
0.0
  9
$UCSORGRIGHT
 10
0.0
 20
0.0
 30
0.0
  9
$UCSORGFRONT
 10
0.0
 20
0.0
 30
0.0
  9
$UCSORGBACK
 10
0.0
 20
0.0
 30
0.0
  9
$PUCSBASE
  2

  9
$PUCSNAME
  2

  9
$PUCSORG
 10
0.0
 20
0.0
 30
0.0
  9
$PUCSXDIR
 10
1.0
 20
0.0
 30
0.0
  9
$PUCSYDIR
 10
0.0
 20
1.0
 30
0.0
  9
$PUCSORTHOREF
  2

  9
$PUCSORTHOVIEW
 70
     0
  9
$PUCSORGTOP
 10
0.0
 20
0.0
 30
0.0
  9
$PUCSORGBOTTOM
 10
0.0
 20
0.0
 30
0.0
  9
$PUCSORGLEFT
 10
0.0
 20
0.0
 30
0.0
  9
$PUCSORGRIGHT
 10
0.0
 20
0.0
 30
0.0
  9
$PUCSORGFRONT
 10
0.0
 20
0.0
 30
0.0
  9
$PUCSORGBACK
 10
0.0
 20
0.0
 30
0.0
  9
$USERI1
 70
     0
  9
$USERI2
 70
     0
  9
$USERI3
 70
     0
  9
$USERI4
 70
     0
  9
$USERI5
 70
     0
  9
$USERR1
 40
0.0
  9
$USERR2
 40
0.0
  9
$USERR3
 40
0.0
  9
$USERR4
 40
0.0
  9
$USERR5
 40
0.0
  9
$WORLDVIEW
 70
     1
  9
$SHADEDGE
 70
     3
  9
$SHADEDIF
 70
    70
  9
$TILEMODE
 70
     1
  9
$MAXACTVP
 70
    48
  9
$PINSBASE
 10
0.0
 20
0.0
 30
0.0
  9
$PLIMCHECK
 70
     0
  9
$PEXTMIN
 10
4.273573370203961
 20
5.205246163471485
 30
0.0
  9
$PEXTMAX
 10
194.6100952986349
 20
283.0697008572913
 30
0.0
  9
$PLIMMIN
 10
-5.873748779296875
 20
-5.873749732971191
  9
$PLIMMAX
 10
204.0995788574218
 20
291.1369009017943
  9
$UNITMODE
 70
     0
  9
$VISRETAIN
 70
     1
  9
$PLINEGEN
 70
     0
  9
$PSLTSCALE
 70
     1
  9
$TREEDEPTH
 70
  3020
  9
$CMLSTYLE
  2
STANDARD
  9
$CMLJUST
 70
     0
  9
$CMLSCALE
 40
1.0
  9
$PROXYGRAPHICS
 70
     1
  9
$MEASUREMENT
 70
     0
  9
$CELWEIGHT
370
    -1
  9
$ENDCAPS
280
     0
  9
$JOINSTYLE
280
     0
  9
$LWDISPLAY
290
     0
  9
$INSUNITS
 70
     0
  9
$HYPERLINKBASE
  1

  9
$STYLESHEET
  1
acad.ctb
  9
$XEDIT
290
     1
  9
$CEPSNTYPE
380
     0
  9
$PSTYLEMODE
290
     1
  9
$FINGERPRINTGUID
  2

  9
$VERSIONGUID
  2
{FF68C0A9-3E09-4DCD-BBC5-B1B3AA61BDA2}
  9
$EXTNAMES
290
     1
  9
$PSVPSCALE
 40
0.0
  9
$OLESTARTUP
290
     0
  0
ENDSEC
  0
SECTION
  2
CLASSES
  0
CLASS
  1
ACDBDICTIONARYWDFLT
  2
AcDbDictionaryWithDefault
  3
AutoCAD 2000
 90
        0
280
     0
281
     0
  0
CLASS
  1
ACDBPLACEHOLDER
  2
AcDbPlaceHolder
  3
AutoCAD 2000
 90
        0
280
     0
281
     0
  0
CLASS
  1
LAYOUT
  2
AcDbLayout
  3
AutoCAD 2000
 90
        0
280
     0
281
     0
  0
CLASS
  1
LONG_TRANSACTION
  2
AcDbLongTransaction
  3
AutoCAD 2000
 90
    32768
280
     0
281
     0
  0
CLASS
  1
LWPOLYLINE
  2
AcDbPolyline
  3
AutoCAD 2000
 90
    32768
280
     0
281
     1
  0
CLASS
  1
HATCH
  2
AcDbHatch
  3
AutoCAD 2000
 90
    32768
280
     0
281
     1
  0
CLASS
  1
XRECORD
  2
AcDbXrecord
  3
AutoCAD 2000
 90
    32768
280
     0
281
     0
  0
CLASS
  1
LONG_TRANSACTION
  2
AcDbLongTransaction
  3
AutoCAD 2000
 90
    32768
280
     0
281
     0
  0
CLASS
  1
LWPOLYLINE
  2
AcDbPolyline
  3
AutoCAD 2000
 90
    32768
280
     0
281
     1
  0
CLASS
  1
HATCH
  2
AcDbHatch
  3
AutoCAD 2000
 90
    32768
280
     0
281
     1
  0
CLASS
  1
XRECORD
  2
AcDbXrecord
  3
AutoCAD 2000
 90
    32768
280
     0
281
     0
  0
CLASS
  1
LONG_TRANSACTION
  2
AcDbLongTransaction
  3
AutoCAD 2000
 90
    32768
280
     0
281
     0
  0
CLASS
  1
LWPOLYLINE
  2
AcDbPolyline
  3
AutoCAD 2000
 90
    32768
280
     0
281
     1
  0
CLASS
  1
HATCH
  2
AcDbHatch
  3
AutoCAD 2000
 90
    32768
280
     0
281
     1
  0
CLASS
  1
XRECORD
  2
AcDbXrecord
  3
AutoCAD 2000
 90
    32768
280
     0
281
     0
  0
CLASS
  1
LONG_TRANSACTION
  2
AcDbLongTransaction
  3
AutoCAD 2000
 90
    32768
280
     0
281
     0
  0
CLASS
  1
LWPOLYLINE
  2
AcDbPolyline
  3
AutoCAD 2000
 90
    32768
280
     0
281
     1
  0
CLASS
  1
HATCH
  2
AcDbHatch
  3
AutoCAD 2000
 90
    32768
280
     0
281
     1
  0
CLASS
  1
XRECORD
  2
AcDbXrecord
  3
AutoCAD 2000
 90
    32768
280
     0
281
     0
  0
CLASS
  1
LONG_TRANSACTION
  2
AcDbLongTransaction
  3
AutoCAD 2000
 90
    32768
280
     0
281
     0
  0
CLASS
  1
LWPOLYLINE
  2
AcDbPolyline
  3
AutoCAD 2000
 90
    32768
280
     0
281
     1
  0
CLASS
  1
HATCH
  2
AcDbHatch
  3
AutoCAD 2000
 90
    32768
280
     0
281
     1
  0
CLASS
  1
XRECORD
  2
AcDbXrecord
  3
AutoCAD 2000
 90
    32768
280
     0
281
     0
  0
CLASS
  1
LONG_TRANSACTION
  2
AcDbLongTransaction
  3
AutoCAD 2000
 90
    32768
280
     0
281
     0
  0
CLASS
  1
LWPOLYLINE
  2
AcDbPolyline
  3
AutoCAD 2000
 90
    32768
280
     0
281
     1
  0
CLASS
  1
HATCH
  2
AcDbHatch
  3
AutoCAD 2000
 90
    32768
280
     0
281
     1
  0
CLASS
  1
XRECORD
  2
AcDbXrecord
  3
AutoCAD 2000
 90
    32768
280
     0
281
     0
  0
CLASS
  1
LONG_TRANSACTION
  2
AcDbLongTransaction
  3
AutoCAD 2000
 90
    32768
280
     0
281
     0
  0
CLASS
  1
LWPOLYLINE
  2
AcDbPolyline
  3
AutoCAD 2000
 90
    32768
280
     0
281
     1
  0
CLASS
  1
HATCH
  2
AcDbHatch
  3
AutoCAD 2000
 90
    32768
280
     0
281
     1
  0
CLASS
  1
XRECORD
  2
AcDbXrecord
  3
AutoCAD 2000
 90
    32768
280
     0
281
     0
  0
CLASS
  1
LONG_TRANSACTION
  2
AcDbLongTransaction
  3
AutoCAD 2000
 90
    32768
280
     0
281
     0
  0
CLASS
  1
LWPOLYLINE
  2
AcDbPolyline
  3
AutoCAD 2000
 90
    32768
280
     0
281
     1
  0
CLASS
  1
HATCH
  2
AcDbHatch
  3
AutoCAD 2000
 90
    32768
280
     0
281
     1
  0
CLASS
  1
XRECORD
  2
AcDbXrecord
  3
AutoCAD 2000
 90
    32768
280
     0
281
     0
  0
CLASS
  1
LONG_TRANSACTION
  2
AcDbLongTransaction
  3
AutoCAD 2000
 90
    32768
280
     0
281
     0
  0
CLASS
  1
LWPOLYLINE
  2
AcDbPolyline
  3
AutoCAD 2000
 90
    32768
280
     0
281
     1
  0
CLASS
  1
HATCH
  2
AcDbHatch
  3
AutoCAD 2000
 90
    32768
280
     0
281
     1
  0
CLASS
  1
XRECORD
  2
AcDbXrecord
  3
AutoCAD 2000
 90
    32768
280
     0
281
     0
  0
CLASS
  1
LONG_TRANSACTION
  2
AcDbLongTransaction
  3
AutoCAD 2000
 90
    32768
280
     0
281
     0
  0
CLASS
  1
LWPOLYLINE
  2
AcDbPolyline
  3
AutoCAD 2000
 90
    32768
280
     0
281
     1
  0
CLASS
  1
HATCH
  2
AcDbHatch
  3
AutoCAD 2000
 90
    32768
280
     0
281
     1
  0
CLASS
  1
XRECORD
  2
AcDbXrecord
  3
AutoCAD 2000
 90
    32768
280
     0
281
     0
  0
CLASS
  1
LONG_TRANSACTION
  2
AcDbLongTransaction
  3
AutoCAD 2000
 90
    32768
280
     0
281
     0
  0
CLASS
  1
LWPOLYLINE
  2
AcDbPolyline
  3
AutoCAD 2000
 90
    32768
280
     0
281
     1
  0
CLASS
  1
HATCH
  2
AcDbHatch
  3
AutoCAD 2000
 90
    32768
280
     0
281
     1
  0
CLASS
  1
XRECORD
  2
AcDbXrecord
  3
AutoCAD 2000
 90
    32768
280
     0
281
     0
  0
CLASS
  1
LONG_TRANSACTION
  2
AcDbLongTransaction
  3
AutoCAD 2000
 90
    32768
280
     0
281
     0
  0
CLASS
  1
LWPOLYLINE
  2
AcDbPolyline
  3
AutoCAD 2000
 90
    32768
280
     0
281
     1
  0
CLASS
  1
HATCH
  2
AcDbHatch
  3
AutoCAD 2000
 90
    32768
280
     0
281
     1
  0
CLASS
  1
XRECORD
  2
AcDbXrecord
  3
AutoCAD 2000
 90
    32768
280
     0
281
     0
  0
CLASS
  1
LONG_TRANSACTION
  2
AcDbLongTransaction
  3
AutoCAD 2000
 90
    32768
280
     0
281
     0
  0
CLASS
  1
LWPOLYLINE
  2
AcDbPolyline
  3
AutoCAD 2000
 90
    32768
280
     0
281
     1
  0
CLASS
  1
HATCH
  2
AcDbHatch
  3
AutoCAD 2000
 90
    32768
280
     0
281
     1
  0
CLASS
  1
XRECORD
  2
AcDbXrecord
  3
AutoCAD 2000
 90
    32768
280
     0
281
     0
  0
CLASS
  1
LONG_TRANSACTION
  2
AcDbLongTransaction
  3
AutoCAD 2000
 90
    32768
280
     0
281
     0
  0
CLASS
  1
LWPOLYLINE
  2
AcDbPolyline
  3
AutoCAD 2000
 90
    32768
280
     0
281
     1
  0
CLASS
  1
HATCH
  2
AcDbHatch
  3
AutoCAD 2000
 90
    32768
280
     0
281
     1
  0
CLASS
  1
XRECORD
  2
AcDbXrecord
  3
AutoCAD 2000
 90
    32768
280
     0
281
     0
  0
CLASS
  1
LONG_TRANSACTION
  2
AcDbLongTransaction
  3
AutoCAD 2000
 90
    32768
280
     0
281
     0
  0
CLASS
  1
LWPOLYLINE
  2
AcDbPolyline
  3
AutoCAD 2000
 90
    32768
280
     0
281
     1
  0
CLASS
  1
HATCH
  2
AcDbHatch
  3
AutoCAD 2000
 90
    32768
280
     0
281
     1
  0
CLASS
  1
XRECORD
  2
AcDbXrecord
  3
AutoCAD 2000
 90
    32768
280
     0
281
     0
  0
CLASS
  1
LONG_TRANSACTION
  2
AcDbLongTransaction
  3
AutoCAD 2000
 90
    32768
280
     0
281
     0
  0
CLASS
  1
LWPOLYLINE
  2
AcDbPolyline
  3
AutoCAD 2000
 90
    32768
280
     0
281
     1
  0
CLASS
  1
HATCH
  2
AcDbHatch
  3
AutoCAD 2000
 90
    32768
280
     0
281
     1
  0
CLASS
  1
XRECORD
  2
AcDbXrecord
  3
AutoCAD 2000
 90
    32768
280
     0
281
     0
  0
CLASS
  1
LONG_TRANSACTION
  2
AcDbLongTransaction
  3
AutoCAD 2000
 90
    32768
280
     0
281
     0
  0
CLASS
  1
LWPOLYLINE
  2
AcDbPolyline
  3
AutoCAD 2000
 90
    32768
280
     0
281
     1
  0
CLASS
  1
HATCH
  2
AcDbHatch
  3
AutoCAD 2000
 90
    32768
280
     0
281
     1
  0
CLASS
  1
XRECORD
  2
AcDbXrecord
  3
AutoCAD 2000
 90
    32768
280
     0
281
     0
  0
CLASS
  1
LONG_TRANSACTION
  2
AcDbLongTransaction
  3
AutoCAD 2000
 90
    32768
280
     0
281
     0
  0
CLASS
  1
LWPOLYLINE
  2
AcDbPolyline
  3
AutoCAD 2000
 90
    32768
280
     0
281
     1
  0
CLASS
  1
HATCH
  2
AcDbHatch
  3
AutoCAD 2000
 90
    32768
280
     0
281
     1
  0
CLASS
  1
XRECORD
  2
AcDbXrecord
  3
AutoCAD 2000
 90
    32768
280
     0
281
     0
  0
CLASS
  1
LONG_TRANSACTION
  2
AcDbLongTransaction
  3
AutoCAD 2000
 90
    32768
280
     0
281
     0
  0
CLASS
  1
LWPOLYLINE
  2
AcDbPolyline
  3
AutoCAD 2000
 90
    32768
280
     0
281
     1
  0
CLASS
  1
HATCH
  2
AcDbHatch
  3
AutoCAD 2000
 90
    32768
280
     0
281
     1
  0
CLASS
  1
XRECORD
  2
AcDbXrecord
  3
AutoCAD 2000
 90
    32768
280
     0
281
     0
  0
CLASS
  1
LONG_TRANSACTION
  2
AcDbLongTransaction
  3
AutoCAD 2000
 90
    32768
280
     0
281
     0
  0
CLASS
  1
LWPOLYLINE
  2
AcDbPolyline
  3
AutoCAD 2000
 90
    32768
280
     0
281
     1
  0
CLASS
  1
HATCH
  2
AcDbHatch
  3
AutoCAD 2000
 90
    32768
280
     0
281
     1
  0
CLASS
  1
XRECORD
  2
AcDbXrecord
  3
AutoCAD 2000
 90
    32768
280
     0
281
     0
  0
CLASS
  1
LONG_TRANSACTION
  2
AcDbLongTransaction
  3
AutoCAD 2000
 90
    32768
280
     0
281
     0
  0
CLASS
  1
LWPOLYLINE
  2
AcDbPolyline
  3
AutoCAD 2000
 90
    32768
280
     0
281
     1
  0
CLASS
  1
HATCH
  2
AcDbHatch
  3
AutoCAD 2000
 90
    32768
280
     0
281
     1
  0
CLASS
  1
XRECORD
  2
AcDbXrecord
  3
AutoCAD 2000
 90
    32768
280
     0
281
     0
  0
CLASS
  1
LONG_TRANSACTION
  2
AcDbLongTransaction
  3
AutoCAD 2000
 90
    32768
280
     0
281
     0
  0
CLASS
  1
LWPOLYLINE
  2
AcDbPolyline
  3
AutoCAD 2000
 90
    32768
280
     0
281
     1
  0
CLASS
  1
HATCH
  2
AcDbHatch
  3
AutoCAD 2000
 90
    32768
280
     0
281
     1
  0
CLASS
  1
XRECORD
  2
AcDbXrecord
  3
AutoCAD 2000
 90
    32768
280
     0
281
     0
  0
CLASS
  1
LONG_TRANSACTION
  2
AcDbLongTransaction
  3
AutoCAD 2000
 90
    32768
280
     0
281
     0
  0
CLASS
  1
LWPOLYLINE
  2
AcDbPolyline
  3
AutoCAD 2000
 90
    32768
280
     0
281
     1
  0
CLASS
  1
HATCH
  2
AcDbHatch
  3
AutoCAD 2000
 90
    32768
280
     0
281
     1
  0
CLASS
  1
XRECORD
  2
AcDbXrecord
  3
AutoCAD 2000
 90
    32768
280
     0
281
     0
  0
CLASS
  1
LONG_TRANSACTION
  2
AcDbLongTransaction
  3
AutoCAD 2000
 90
    32768
280
     0
281
     0
  0
CLASS
  1
LWPOLYLINE
  2
AcDbPolyline
  3
AutoCAD 2000
 90
    32768
280
     0
281
     1
  0
CLASS
  1
HATCH
  2
AcDbHatch
  3
AutoCAD 2000
 90
    32768
280
     0
281
     1
  0
CLASS
  1
XRECORD
  2
AcDbXrecord
  3
AutoCAD 2000
 90
    32768
280
     0
281
     0
  0
CLASS
  1
LONG_TRANSACTION
  2
AcDbLongTransaction
  3
AutoCAD 2000
 90
    32768
280
     0
281
     0
  0
CLASS
  1
LWPOLYLINE
  2
AcDbPolyline
  3
AutoCAD 2000
 90
    32768
280
     0
281
     1
  0
CLASS
  1
HATCH
  2
AcDbHatch
  3
AutoCAD 2000
 90
    32768
280
     0
281
     1
  0
CLASS
  1
XRECORD
  2
AcDbXrecord
  3
AutoCAD 2000
 90
    32768
280
     0
281
     0
  0
CLASS
  1
LONG_TRANSACTION
  2
AcDbLongTransaction
  3
AutoCAD 2000
 90
    32768
280
     0
281
     0
  0
CLASS
  1
LWPOLYLINE
  2
AcDbPolyline
  3
AutoCAD 2000
 90
    32768
280
     0
281
     1
  0
CLASS
  1
HATCH
  2
AcDbHatch
  3
AutoCAD 2000
 90
    32768
280
     0
281
     1
  0
CLASS
  1
XRECORD
  2
AcDbXrecord
  3
AutoCAD 2000
 90
    32768
280
     0
281
     0
  0
CLASS
  1
LONG_TRANSACTION
  2
AcDbLongTransaction
  3
AutoCAD 2000
 90
    32768
280
     0
281
     0
  0
CLASS
  1
LWPOLYLINE
  2
AcDbPolyline
  3
AutoCAD 2000
 90
    32768
280
     0
281
     1
  0
CLASS
  1
HATCH
  2
AcDbHatch
  3
AutoCAD 2000
 90
    32768
280
     0
281
     1
  0
CLASS
  1
XRECORD
  2
AcDbXrecord
  3
AutoCAD 2000
 90
    32768
280
     0
281
     0
  0
CLASS
  1
LONG_TRANSACTION
  2
AcDbLongTransaction
  3
AutoCAD 2000
 90
    32768
280
     0
281
     0
  0
CLASS
  1
LWPOLYLINE
  2
AcDbPolyline
  3
AutoCAD 2000
 90
    32768
280
     0
281
     1
  0
CLASS
  1
HATCH
  2
AcDbHatch
  3
AutoCAD 2000
 90
    32768
280
     0
281
     1
  0
CLASS
  1
XRECORD
  2
AcDbXrecord
  3
AutoCAD 2000
 90
    32768
280
     0
281
     0
  0
CLASS
  1
LONG_TRANSACTION
  2
AcDbLongTransaction
  3
AutoCAD 2000
 90
    32768
280
     0
281
     0
  0
CLASS
  1
LWPOLYLINE
  2
AcDbPolyline
  3
AutoCAD 2000
 90
    32768
280
     0
281
     1
  0
CLASS
  1
HATCH
  2
AcDbHatch
  3
AutoCAD 2000
 90
    32768
280
     0
281
     1
  0
CLASS
  1
XRECORD
  2
AcDbXrecord
  3
AutoCAD 2000
 90
    32768
280
     0
281
     0
  0
CLASS
  1
LONG_TRANSACTION
  2
AcDbLongTransaction
  3
AutoCAD 2000
 90
    32768
280
     0
281
     0
  0
CLASS
  1
LWPOLYLINE
  2
AcDbPolyline
  3
AutoCAD 2000
 90
    32768
280
     0
281
     1
  0
CLASS
  1
HATCH
  2
AcDbHatch
  3
AutoCAD 2000
 90
    32768
280
     0
281
     1
  0
CLASS
  1
XRECORD
  2
AcDbXrecord
  3
AutoCAD 2000
 90
    32768
280
     0
281
     0
  0
CLASS
  1
LONG_TRANSACTION
  2
AcDbLongTransaction
  3
AutoCAD 2000
 90
    32768
280
     0
281
     0
  0
CLASS
  1
LWPOLYLINE
  2
AcDbPolyline
  3
AutoCAD 2000
 90
    32768
280
     0
281
     1
  0
CLASS
  1
HATCH
  2
AcDbHatch
  3
AutoCAD 2000
 90
    32768
280
     0
281
     1
  0
CLASS
  1
XRECORD
  2
AcDbXrecord
  3
AutoCAD 2000
 90
    32768
280
     0
281
     0
  0
CLASS
  1
LONG_TRANSACTION
  2
AcDbLongTransaction
  3
AutoCAD 2000
 90
    32768
280
     0
281
     0
  0
CLASS
  1
LWPOLYLINE
  2
AcDbPolyline
  3
AutoCAD 2000
 90
    32768
280
     0
281
     1
  0
CLASS
  1
HATCH
  2
AcDbHatch
  3
AutoCAD 2000
 90
    32768
280
     0
281
     1
  0
CLASS
  1
XRECORD
  2
AcDbXrecord
  3
AutoCAD 2000
 90
    32768
280
     0
281
     0
  0
CLASS
  1
LONG_TRANSACTION
  2
AcDbLongTransaction
  3
AutoCAD 2000
 90
    32768
280
     0
281
     0
  0
CLASS
  1
LWPOLYLINE
  2
AcDbPolyline
  3
AutoCAD 2000
 90
    32768
280
     0
281
     1
  0
CLASS
  1
HATCH
  2
AcDbHatch
  3
AutoCAD 2000
 90
    32768
280
     0
281
     1
  0
CLASS
  1
XRECORD
  2
AcDbXrecord
  3
AutoCAD 2000
 90
    32768
280
     0
281
     0
  0
CLASS
  1
DICTIONARYVAR
  2
AcDbDictionaryVar
  3
AutoCAD 2000
 90
        0
280
     0
281
     0
  0
CLASS
  1
LONG_TRANSACTION
  2
AcDbLongTransaction
  3
AutoCAD 2000
 90
    32768
280
     0
281
     0
  0
CLASS
  1
LWPOLYLINE
  2
AcDbPolyline
  3
AutoCAD 2000
 90
    32768
280
     0
281
     1
  0
CLASS
  1
HATCH
  2
AcDbHatch
  3
AutoCAD 2000
 90
    32768
280
     0
281
     1
  0
CLASS
  1
XRECORD
  2
AcDbXrecord
  3
AutoCAD 2000
 90
    32768
280
     0
281
     0
  0
CLASS
  1
LONG_TRANSACTION
  2
AcDbLongTransaction
  3
AutoCAD 2000
 90
    32768
280
     0
281
     0
  0
CLASS
  1
LWPOLYLINE
  2
AcDbPolyline
  3
AutoCAD 2000
 90
    32768
280
     0
281
     1
  0
CLASS
  1
HATCH
  2
AcDbHatch
  3
AutoCAD 2000
 90
    32768
280
     0
281
     1
  0
CLASS
  1
XRECORD
  2
AcDbXrecord
  3
AutoCAD 2000
 90
    32768
280
     0
281
     0
  0
CLASS
  1
LONG_TRANSACTION
  2
AcDbLongTransaction
  3
AutoCAD 2000
 90
    32768
280
     0
281
     0
  0
CLASS
  1
LWPOLYLINE
  2
AcDbPolyline
  3
AutoCAD 2000
 90
    32768
280
     0
281
     1
  0
CLASS
  1
HATCH
  2
AcDbHatch
  3
AutoCAD 2000
 90
    32768
280
     0
281
     1
  0
CLASS
  1
XRECORD
  2
AcDbXrecord
  3
AutoCAD 2000
 90
    32768
280
     0
281
     0
  0
ENDSEC
  0
SECTION
  2
TABLES
  0
TABLE
  2
VPORT
  5
8
330
0
100
AcDbSymbolTable
 70
     2
  0
VPORT
  5
8565
330
8
100
AcDbSymbolTableRecord
100
AcDbViewportTableRecord
  2
*Active
 70
     0
 10
0.0
 20
0.0
 11
1.0
 21
1.0
 12
399.6709186200029
 22
345.9606698421684
 13
0.0
 23
0.0
 14
1.0
 24
1.0
 15
10.0
 25
10.0
 16
0.0
 26
0.0
 36
1.0
 17
0.0
 27
0.0
 37
0.0
 40
150.9541591350316
 41
1.700716845878136
 42
50.0
 43
0.0
 44
0.0
 50
0.0
 51
0.0
 71
     0
 72
   100
 73
     1
 74
     1
 75
     1
 76
     0
 77
     0
 78
     0
281
     0
 65
     1
110
0.0
120
0.0
130
0.0
111
1.0
121
0.0
131
0.0
112
0.0
122
1.0
132
0.0
 79
     0
146
0.0
  0
ENDTAB
  0
TABLE
  2
LTYPE
  5
5
330
0
100
AcDbSymbolTable
 70
     4
  0
LTYPE
  5
13
330
5
100
AcDbSymbolTableRecord
100
AcDbLinetypeTableRecord
  2
BYBLOCK
 70
     0
  3

 72
    65
 73
     0
 40
0.0
  0
LTYPE
  5
14
330
5
100
AcDbSymbolTableRecord
100
AcDbLinetypeTableRecord
  2
BYLAYER
 70
     0
  3

 72
    65
 73
     0
 40
0.0
  0
LTYPE
  5
15
330
5
100
AcDbSymbolTableRecord
100
AcDbLinetypeTableRecord
  2
CONTINUOUS
 70
     0
  3
Solid line
 72
    65
 73
     0
 40
0.0
  0
LTYPE
  5
22
330
5
100
AcDbSymbolTableRecord
100
AcDbLinetypeTableRecord
  2
CONTINOUS
 70
     0
  3
Solid line
 72
    65
 73
     0
 40
0.0
  0
LTYPE
  5
24
330
5
100
AcDbSymbolTableRecord
100
AcDbLinetypeTableRecord
  2
DASHDOT
 70
     0
  3
__ . __ . __ . __ . __ . __ . __ . __ . __ . __
 72
    65
 73
     4
 40
1.0
 49
0.5
 74
     0
 49
-0.25
 74
     0
 49
0.0
 74
     0
 49
-0.25
 74
     0
  0
LTYPE
  5
4C47
330
5
100
AcDbSymbolTableRecord
100
AcDbLinetypeTableRecord
  2
DIVIDE
 70
     0
  3
Divide ____ . . ____ . . ____ . . ____ . . ____
 72
    65
 73
     6
 40
1.25
 49
0.5
 74
     0
 49
-0.25
 74
     0
 49
0.0
 74
     0
 49
-0.25
 74
     0
 49
0.0
 74
     0
 49
-0.25
 74
     0
  0
ENDTAB
  0
TABLE
  2
LAYER
  5
2
330
0
100
AcDbSymbolTable
 70
    14
  0
LAYER
  5
10
330
2
100
AcDbSymbolTableRecord
100
AcDbLayerTableRecord
  2
0
 70
     0
 62
     7
  6
CONTINOUS
370
    -3
390
F
  0
LAYER
  5
2F
330
2
100
AcDbSymbolTableRecord
100
AcDbLayerTableRecord
  2
10
 70
     0
 62
     4
  6
CONTINOUS
370
    -3
390
F
  0
LAYER
  5
31
330
2
100
AcDbSymbolTableRecord
100
AcDbLayerTableRecord
  2
12
 70
     0
 62
     3
  6
CONTINOUS
370
    -3
390
F
  0
LAYER
  5
35
330
2
100
AcDbSymbolTableRecord
100
AcDbLayerTableRecord
  2
16
 70
     0
 62
     6
  6
DASHDOT
370
    -3
390
F
  0
LAYER
  5
38
330
2
100
AcDbSymbolTableRecord
100
AcDbLayerTableRecord
  2
19
 70
     0
 62
     7
  6
CONTINOUS
370
    -3
390
F
  0
LAYER
  5
3C
330
2
100
AcDbSymbolTableRecord
100
AcDbLayerTableRecord
  2
11
 70
     0
 62
     1
  6
CONTINOUS
370
    -3
390
F
  0
LAYER
  5
3D
330
2
100
AcDbSymbolTableRecord
100
AcDbLayerTableRecord
  2
24
 70
     0
 62
     2
  6
CONTINOUS
370
    -3
390
F
  0
LAYER
  5
3A2
330
2
100
AcDbSymbolTableRecord
100
AcDbLayerTableRecord
  2
30
 70
     0
 62
     9
  6
CONTINUOUS
370
    -3
390
F
  0
LAYER
  5
3A4
330
2
100
AcDbSymbolTableRecord
100
AcDbLayerTableRecord
  2
DEFPOINTS
 70
     0
 62
     7
  6
CONTINUOUS
290
     0
370
    -3
390
F
  0
LAYER
  5
3BBA
330
2
100
AcDbSymbolTableRecord
100
AcDbLayerTableRecord
  2
18
 70
     0
 62
     5
  6
DIVIDE
370
    -3
390
F
  0
LAYER
  5
5797
330
2
100
AcDbSymbolTableRecord
100
AcDbLayerTableRecord
  2
L210_
 70
     0
 62
     7
  6
CONTINUOUS
370
    -3
390
F
  0
LAYER
  5
5D4D
330
2
100
AcDbSymbolTableRecord
100
AcDbLayerTableRecord
  2
17
 70
     0
 62
     2
  6
DASHDOT
370
    -3
390
F
  0
LAYER
  5
7355
330
2
100
AcDbSymbolTableRecord
100
AcDbLayerTableRecord
  2
1
 70
     0
 62
     7
  6
CONTINUOUS
370
    -3
390
F
  0
LAYER
  5
76A9
330
2
100
AcDbSymbolTableRecord
100
AcDbLayerTableRecord
  2
TOP
 70
     0
 62
     7
  6
CONTINUOUS
370
    -3
390
F
  0
ENDTAB
  0
TABLE
  2
STYLE
  5
3
330
0
100
AcDbSymbolTable
 70
     4
  0
STYLE
  5
11
330
3
100
AcDbSymbolTableRecord
100
AcDbTextStyleTableRecord
  2
STANDARD
 70
     0
 40
0.0
 41
1.0
 50
0.0
 71
     0
 42
2.0
  3
txt.shx
  4
bigfont.shx
  0
STYLE
  5
42
330
3
100
AcDbSymbolTableRecord
100
AcDbTextStyleTableRecord
  2
STANDARD1
 70
     0
 40
0.0
 41
1.0
 50
0.0
 71
     0
 42
5.0
  3
MONOTXT
  4
BIGFONT
  0
STYLE
  5
4F59
330
3
100
AcDbSymbolTableRecord
100
AcDbTextStyleTableRecord
  2
SYMBOL3
 70
     0
 40
0.0
 41
1.0
 50
0.0
 71
     0
 42
0.2
  3
iges1003
  4

  0
STYLE
  5
7356
330
3
100
AcDbSymbolTableRecord
100
AcDbTextStyleTableRecord
  2
UGMTXT
 70
     0
 40
0.0
 41
1.0
 50
0.0
 71
     0
 42
0.2
  3
ugmtxt
  4
bigfont
  0
ENDTAB
  0
TABLE
  2
VIEW
  5
6
330
0
100
AcDbSymbolTable
 70
     3
  0
VIEW
  5
230C
330
6
100
AcDbSymbolTableRecord
100
AcDbViewTableRecord
  2
OLE1
 70
     0
 40
148.9124878027714
 10
429.4976280407222
 20
2.560626997828478
 41
103.1458057716444
 11
0.0
 21
0.0
 31
1.0
 12
0.0
 22
0.0
 32
0.0
 42
50.0
 43
0.0
 44
0.0
 50
0.0
 71
     0
281
     0
 72
     0
  0
VIEW
  5
230E
330
6
100
AcDbSymbolTableRecord
100
AcDbViewTableRecord
  2
OLE2
 70
     0
 40
170.7786920545775
 10
322.664969958371
 20
-5.978304054290276
 41
102.4672152327465
 11
0.0
 21
0.0
 31
1.0
 12
0.0
 22
0.0
 32
0.0
 42
50.0
 43
0.0
 44
0.0
 50
0.0
 71
     0
281
     0
 72
     0
  0
VIEW
  5
23AA
330
6
100
AcDbSymbolTableRecord
100
AcDbViewTableRecord
  2
OLE3
 70
     0
 40
591.7897393182231
 10
84.79698158148218
 20
-46.09336010803995
 41
388.7920961799953
 11
0.0
 21
0.0
 31
1.0
 12
0.0
 22
0.0
 32
0.0
 42
50.0
 43
0.0
 44
0.0
 50
0.0
 71
     0
281
     0
 72
     0
  0
ENDTAB
  0
TABLE
  2
UCS
  5
7
330
0
100
AcDbSymbolTable
 70
     0
  0
ENDTAB
  0
TABLE
  2
APPID
  5
9
330
0
100
AcDbSymbolTable
 70
     2
  0
APPID
  5
12
330
9
100
AcDbSymbolTableRecord
100
AcDbRegAppTableRecord
  2
ACAD
 70
     0
  0
APPID
  5
ECD
330
9
100
AcDbSymbolTableRecord
100
AcDbRegAppTableRecord
  2
CONTENTBLOCKICON
 70
     0
  0
ENDTAB
  0
TABLE
  2
DIMSTYLE
  5
A
330
0
100
AcDbSymbolTable
 70
     1
100
AcDbDimStyleTable
 71
     0
  0
DIMSTYLE
105
175
102
{ACAD_REACTORS
330
7A81
330
7A82
330
7A83
330
7ACD
330
7AE5
330
7AF2
330
7AFF
330
7B0E
330
7B1D
330
7DCD
330
7DDA
330
7DE7
330
7E0F
330
827B
330
8288
330
8295
330
82A3
330
82B0
330
8323
330
834A
102
}
330
A
100
AcDbSymbolTableRecord
100
AcDbDimStyleTableRecord
  2
STANDARD
 70
     0
 41
2.0
 42
1.0
 43
0.5
 44
0.5
 73
     0
 77
     3
 78
    12
140
5.0
147
1.0
271
     1
272
     1
340
11
341
3B2
342
3B2
  0
ENDTAB
  0
TABLE
  2
BLOCK_RECORD
  5
1
330
0
100
AcDbSymbolTable
 70
    24
  0
BLOCK_RECORD
  5
1E
102
{ACAD_XDICTIONARY
360
178
102
}
330
1
100
AcDbSymbolTableRecord
100
AcDbBlockTableRecord
  2
*MODEL_SPACE
340
8560
  0
BLOCK_RECORD
  5
1A
102
{ACAD_XDICTIONARY
360
17A
102
}
330
1
100
AcDbSymbolTableRecord
100
AcDbBlockTableRecord
  2
*PAPER_SPACE
340
8561
  0
BLOCK_RECORD
  5
3B2
330
1
100
AcDbSymbolTableRecord
100
AcDbBlockTableRecord
  2
_OPEN
340
0
102
{BLKREFS
331
84A1
331
84A9
331
84AA
331
84B2
331
84B3
331
83C0
331
83C1
331
83B6
331
83B7
331
83D2
331
83D3
331
83C9
331
83CA
331
83DB
331
83DC
331
84BB
331
84BC
331
7E09
331
7E0A
331
7E00
331
7E01
331
7DF7
331
7DF8
331
8407
331
8408
331
8432
331
8433
331
843B
331
843C
331
8445
331
8446
331
8429
331
842A
331
844E
331
844F
331
8328
331
8329
331
8335
331
8336
331
8411
331
8412
331
841A
331
841B
102
}
  0
BLOCK_RECORD
  5
7A8E
330
1
100
AcDbSymbolTableRecord
100
AcDbBlockTableRecord
  2
*D1
340
0
  0
BLOCK_RECORD
  5
7A99
330
1
100
AcDbSymbolTableRecord
100
AcDbBlockTableRecord
  2
*D2
340
0
  0
BLOCK_RECORD
  5
7AA5
330
1
100
AcDbSymbolTableRecord
100
AcDbBlockTableRecord
  2
*D3
340
0
  0
BLOCK_RECORD
  5
7ACE
330
1
100
AcDbSymbolTableRecord
100
AcDbBlockTableRecord
  2
*D4
340
0
  0
BLOCK_RECORD
  5
7AE6
330
1
100
AcDbSymbolTableRecord
100
AcDbBlockTableRecord
  2
*D5
340
0
  0
BLOCK_RECORD
  5
7AF3
330
1
100
AcDbSymbolTableRecord
100
AcDbBlockTableRecord
  2
*D6
340
0
  0
BLOCK_RECORD
  5
7B00
330
1
100
AcDbSymbolTableRecord
100
AcDbBlockTableRecord
  2
*D7
340
0
  0
BLOCK_RECORD
  5
7B0F
330
1
100
AcDbSymbolTableRecord
100
AcDbBlockTableRecord
  2
*D8
340
0
  0
BLOCK_RECORD
  5
7B1E
330
1
100
AcDbSymbolTableRecord
100
AcDbBlockTableRecord
  2
*D9
340
0
  0
BLOCK_RECORD
  5
7DCE
330
1
100
AcDbSymbolTableRecord
100
AcDbBlockTableRecord
  2
*D10
340
0
  0
BLOCK_RECORD
  5
7DDB
330
1
100
AcDbSymbolTableRecord
100
AcDbBlockTableRecord
  2
*D11
340
0
  0
BLOCK_RECORD
  5
7DE8
330
1
100
AcDbSymbolTableRecord
100
AcDbBlockTableRecord
  2
*D12
340
0
  0
BLOCK_RECORD
  5
7E10
330
1
100
AcDbSymbolTableRecord
100
AcDbBlockTableRecord
  2
*D13
340
0
  0
BLOCK_RECORD
  5
827C
330
1
100
AcDbSymbolTableRecord
100
AcDbBlockTableRecord
  2
*D14
340
0
  0
BLOCK_RECORD
  5
8289
330
1
100
AcDbSymbolTableRecord
100
AcDbBlockTableRecord
  2
*D15
340
0
  0
BLOCK_RECORD
  5
8296
330
1
100
AcDbSymbolTableRecord
100
AcDbBlockTableRecord
  2
*D16
340
0
  0
BLOCK_RECORD
  5
82A4
330
1
100
AcDbSymbolTableRecord
100
AcDbBlockTableRecord
  2
*D17
340
0
  0
BLOCK_RECORD
  5
82B1
330
1
100
AcDbSymbolTableRecord
100
AcDbBlockTableRecord
  2
*D18
340
0
  0
BLOCK_RECORD
  5
8324
330
1
100
AcDbSymbolTableRecord
100
AcDbBlockTableRecord
  2
*D19
340
0
  0
BLOCK_RECORD
  5
8331
330
1
100
AcDbSymbolTableRecord
100
AcDbBlockTableRecord
  2
*D20
340
0
  0
BLOCK_RECORD
  5
833E
330
1
100
AcDbSymbolTableRecord
100
AcDbBlockTableRecord
  2
*D21
340
0
  0
BLOCK_RECORD
  5
834B
330
1
100
AcDbSymbolTableRecord
100
AcDbBlockTableRecord
  2
*D22
340
0
  0
BLOCK_RECORD
  5
839C
330
1
100
AcDbSymbolTableRecord
100
AcDbBlockTableRecord
  2
*U23
340
0
102
{BLKREFS
331
83A9
102
}
  0
ENDTAB
  0
ENDSEC
  0
SECTION
  2
BLOCKS
  0
BLOCK
  5
1F
330
1E
100
AcDbEntity
  8
0
100
AcDbBlockBegin
  2
*MODEL_SPACE
 70
     0
 10
0.0
 20
0.0
 30
0.0
  3
*MODEL_SPACE
  1

  0
ENDBLK
  5
20
330
1E
100
AcDbEntity
  8
0
100
AcDbBlockEnd
  0
BLOCK
  5
1B
330
1A
100
AcDbEntity
 67
     1
  8
0
100
AcDbBlockBegin
  2
*PAPER_SPACE
 70
     0
 10
0.0
 20
0.0
 30
0.0
  3
*PAPER_SPACE
  1

  0
ENDBLK
  5
1C
330
1A
100
AcDbEntity
 67
     1
  8
0
100
AcDbBlockEnd
  0
BLOCK
  5
3B6
330
3B2
100
AcDbEntity
  8
0
100
AcDbBlockBegin
  2
_OPEN
 70
     0
 10
0.0
 20
0.0
 30
0.0
  3
_OPEN
  1

  0
LINE
  5
3B3
330
3B2
100
AcDbEntity
  8
30
  6
Continuous
 62
     0
100
AcDbLine
 10
-1.0
 20
0.1666666666666666
 30
0.0
 11
0.0
 21
0.0
 31
0.0
  0
LINE
  5
3B4
330
3B2
100
AcDbEntity
  8
30
  6
Continuous
 62
     0
100
AcDbLine
 10
-1.0
 20
-0.1666666666666666
 30
0.0
 11
0.0
 21
0.0
 31
0.0
  0
LINE
  5
3B5
330
3B2
100
AcDbEntity
  8
30
  6
Continuous
 62
     0
100
AcDbLine
 10
0.0
 20
0.0
 30
0.0
 11
-1.0
 21
0.0
 31
0.0
  0
ENDBLK
  5
3B7
330
3B2
100
AcDbEntity
  8
0
100
AcDbBlockEnd
  0
BLOCK
  5
7A97
330
7A8E
100
AcDbEntity
  8
0
100
AcDbBlockBegin
  2
*D1
 70
     1
 10
0.0
 20
0.0
 30
0.0
  3
*D1
  1

  0
LINE
  5
849E
330
7A8E
100
AcDbEntity
  8
30
  6
Continuous
 62
     0
100
AcDbLine
 10
484.9648401337987
 20
334.001285986539
 30
0.0
 11
473.9648401337978
 21
334.0012859865389
 31
0.0
  0
LINE
  5
849F
330
7A8E
100
AcDbEntity
  8
30
  6
Continuous
 62
     0
100
AcDbLine
 10
473.9648401337978
 20
334.0012859865389
 30
0.0
 11
460.1950997478195
 21
316.8485928528166
 31
0.0
  0
MTEXT
  5
84A0
330
7A8E
100
AcDbEntity
  8
30
  6
Continuous
 62
     0
100
AcDbMText
 10
479.9648401337988
 20
337.501285986539
 30
0.0
 40
5.0
 41
0.0
 71
     5
 72
     1
  1
\A1;\U+220511
 73
     1
 44
1.0
1001
ACAD
1000
MTEXTBEGIN
1070
    73
1070
     1
1070
    44
1040
1.0
1070
    74
1070
     0
1000
MTEXTEND
1000
MTEXTBEGIN
1070
    73
1070
     1
1070
    44
1040
1.0
1070
    74
1070
     0
1000
MTEXTEND
  0
INSERT
  5
84A1
330
7A8E
100
AcDbEntity
  8
30
  6
Continuous
 62
     0
100
AcDbBlockReference
  2
_OPEN
 10
458.9430731484006
 20
315.2889680920655
 30
0.0
 41
2.0
 42
2.0
 43
2.0
 50
231.243400335414
  0
LINE
  5
84A2
330
7A8E
100
AcDbEntity
  8
30
  6
Continuous
 62
     0
100
AcDbLine
 10
455.4099999999993
 20
310.9999999999997
 30
0.0
 11
455.5899999999993
 21
310.9999999999997
 31
0.0
  0
LINE
  5
84A3
330
7A8E
100
AcDbEntity
  8
30
  6
Continuous
 62
     0
100
AcDbLine
 10
455.4999999999995
 20
310.9099999999999
 30
0.0
 11
455.4999999999995
 21
311.0899999999998
 31
0.0
  0
POINT
  5
84A4
330
7A8E
100
AcDbEntity
  8
DEFPOINTS
  6
Continuous
 62
     0
100
AcDbPoint
 10
458.9430731484006
 20
315.2889680920655
 30
0.0
  0
POINT
  5
84A5
330
7A8E
100
AcDbEntity
  8
DEFPOINTS
  6
Continuous
 62
     0
100
AcDbPoint
 10
452.0569268515981
 20
306.7110319079341
 30
0.0
  0
ENDBLK
  5
7A98
330
7A8E
100
AcDbEntity
  8
0
100
AcDbBlockEnd
  0
BLOCK
  5
7AA3
330
7A99
100
AcDbEntity
  8
0
100
AcDbBlockBegin
  2
*D2
 70
     1
 10
0.0
 20
0.0
 30
0.0
  3
*D2
  1

  0
LINE
  5
84A6
330
7A99
100
AcDbEntity
  8
30
  6
Continuous
 62
     0
100
AcDbLine
 10
471.4999999999998
 20
291.0
 30
0.0
 11
487.4423296781887
 21
291.0
 31
0.0
  0
LINE
  5
84A7
330
7A99
100
AcDbEntity
  8
30
  6
Continuous
 62
     0
100
AcDbLine
 10
463.9999999999998
 20
311.0
 30
0.0
 11
487.4423296781887
 21
311.0
 31
0.0
  0
LINE
  5
84A8
330
7A99
100
AcDbEntity
  8
30
  6
Continuous
 62
     0
100
AcDbLine
 10
486.9423296781887
 20
293.0
 30
0.0
 11
486.9423296781887
 21
309.0
 31
0.0
  0
INSERT
  5
84A9
330
7A99
100
AcDbEntity
  8
30
  6
Continuous
 62
     0
100
AcDbBlockReference
  2
_OPEN
 10
486.9423296781887
 20
291.0
 30
0.0
 41
2.0
 42
2.0
 43
2.0
 50
270.0
  0
INSERT
  5
84AA
330
7A99
100
AcDbEntity
  8
30
  6
Continuous
 62
     0
100
AcDbBlockReference
  2
_OPEN
 10
486.9423296781887
 20
311.0
 30
0.0
 41
2.0
 42
2.0
 43
2.0
 50
90.0
  0
MTEXT
  5
84AB
330
7A99
100
AcDbEntity
  8
30
  6
Continuous
 62
     0
100
AcDbMText
 10
483.4423296781886
 20
301.0
 30
0.0
 40
5.0
 41
0.0
 71
     5
 72
     1
  1
\A1;20
 11
0.0000000000000001
 21
1.0
 31
0.0
 73
     1
 44
1.0
1001
ACAD
1000
MTEXTBEGIN
1070
    73
1070
     1
1070
    44
1040
1.0
1070
    74
1070
     0
1000
MTEXTEND
1000
MTEXTBEGIN
1070
    73
1070
     1
1070
    44
1040
1.0
1070
    74
1070
     0
1000
MTEXTEND
  0
POINT
  5
84AC
330
7A99
100
AcDbEntity
  8
DEFPOINTS
  6
Continuous
 62
     0
100
AcDbPoint
 10
470.5
 20
291.0
 30
0.0
  0
POINT
  5
84AD
330
7A99
100
AcDbEntity
  8
DEFPOINTS
  6
Continuous
 62
     0
100
AcDbPoint
 10
462.9999999999998
 20
311.0
 30
0.0
  0
POINT
  5
84AE
330
7A99
100
AcDbEntity
  8
DEFPOINTS
  6
Continuous
 62
     0
100
AcDbPoint
 10
486.9423296781887
 20
311.0
 30
0.0
  0
ENDBLK
  5
7AA4
330
7A99
100
AcDbEntity
  8
0
100
AcDbBlockEnd
  0
BLOCK
  5
7AAF
330
7AA5
100
AcDbEntity
  8
0
100
AcDbBlockBegin
  2
*D3
 70
     1
 10
0.0
 20
0.0
 30
0.0
  3
*D3
  1

  0
LINE
  5
84AF
330
7AA5
100
AcDbEntity
  8
30
  6
Continuous
 62
     0
100
AcDbLine
 10
440.5
 20
290.0
 30
0.0
 11
440.5
 21
274.9137199825054
 31
0.0
  0
LINE
  5
84B0
330
7AA5
100
AcDbEntity
  8
30
  6
Continuous
 62
     0
100
AcDbLine
 10
470.5
 20
290.0
 30
0.0
 11
470.5
 21
274.9137199825054
 31
0.0
  0
LINE
  5
84B1
330
7AA5
100
AcDbEntity
  8
30
  6
Continuous
 62
     0
100
AcDbLine
 10
442.4999999999998
 20
275.4137199825054
 30
0.0
 11
468.5
 21
275.4137199825054
 31
0.0
  0
INSERT
  5
84B2
330
7AA5
100
AcDbEntity
  8
30
  6
Continuous
 62
     0
100
AcDbBlockReference
  2
_OPEN
 10
440.5
 20
275.4137199825054
 30
0.0
 41
2.0
 42
2.0
 43
2.0
 50
180.0
  0
INSERT
  5
84B3
330
7AA5
100
AcDbEntity
  8
30
  6
Continuous
 62
     0
100
AcDbBlockReference
  2
_OPEN
 10
470.5
 20
275.4137199825054
 30
0.0
 41
2.0
 42
2.0
 43
2.0
  0
MTEXT
  5
84B4
330
7AA5
100
AcDbEntity
  8
30
  6
Continuous
 62
     0
100
AcDbMText
 10
455.4999999999998
 20
278.9137199825054
 30
0.0
 40
5.0
 41
0.0
 71
     5
 72
     1
  1
\A1;30
 73
     1
 44
1.0
1001
ACAD
1000
MTEXTBEGIN
1070
    73
1070
     1
1070
    44
1040
1.0
1070
    74
1070
     0
1000
MTEXTEND
1000
MTEXTBEGIN
1070
    73
1070
     1
1070
    44
1040
1.0
1070
    74
1070
     0
1000
MTEXTEND
  0
POINT
  5
84B5
330
7AA5
100
AcDbEntity
  8
DEFPOINTS
  6
Continuous
 62
     0
100
AcDbPoint
 10
440.5
 20
291.0
 30
0.0
  0
POINT
  5
84B6
330
7AA5
100
AcDbEntity
  8
DEFPOINTS
  6
Continuous
 62
     0
100
AcDbPoint
 10
470.5
 20
291.0
 30
0.0
  0
POINT
  5
84B7
330
7AA5
100
AcDbEntity
  8
DEFPOINTS
  6
Continuous
 62
     0
100
AcDbPoint
 10
470.5
 20
275.4137199825054
 30
0.0
  0
ENDBLK
  5
7AB0
330
7AA5
100
AcDbEntity
  8
0
100
AcDbBlockEnd
  0
BLOCK
  5
7AD9
330
7ACE
100
AcDbEntity
  8
0
100
AcDbBlockBegin
  2
*D4
 70
     1
 10
0.0
 20
0.0
 30
0.0
  3
*D4
  1

  0
LINE
  5
83BC
330
7ACE
100
AcDbEntity
  8
30
  6
Continuous
 62
     0
100
AcDbLine
 10
168.0000000000003
 20
272.5
 30
0.0
 11
168.0000000000003
 21
226.5
 31
0.0
  0
LINE
  5
83BD
330
7ACE
100
AcDbEntity
  8
30
  6
Continuous
 62
     0
100
AcDbLine
 10
173.0000000000003
 20
264.5
 30
0.0
 11
173.0000000000003
 21
226.5
 31
0.0
  0
LINE
  5
83BE
330
7ACE
100
AcDbEntity
  8
30
  6
Continuous
 62
     0
100
AcDbLine
 10
175.0000000000003
 20
227.0
 30
0.0
 11
177.0000000000003
 21
227.0
 31
0.0
  0
LINE
  5
83BF
330
7ACE
100
AcDbEntity
  8
30
  6
Continuous
 62
     0
100
AcDbLine
 10
166.0000000000003
 20
227.0
 30
0.0
 11
158.666666666667
 21
227.0
 31
0.0
  0
INSERT
  5
83C0
330
7ACE
100
AcDbEntity
  8
30
  6
Continuous
 62
     0
100
AcDbBlockReference
  2
_OPEN
 10
173.0000000000003
 20
227.0
 30
0.0
 41
2.0
 42
2.0
 43
2.0
 50
180.0
  0
INSERT
  5
83C1
330
7ACE
100
AcDbEntity
  8
30
  6
Continuous
 62
     0
100
AcDbBlockReference
  2
_OPEN
 10
168.0000000000003
 20
227.0
 30
0.0
 41
2.0
 42
2.0
 43
2.0
  0
MTEXT
  5
83C2
330
7ACE
100
AcDbEntity
  8
30
  6
Continuous
 62
     0
100
AcDbMText
 10
161.3333333333333
 20
230.5
 30
0.0
 40
5.0
 41
0.0
 71
     5
 72
     1
  1
\A1;5
 73
     1
 44
1.0
1001
ACAD
1000
MTEXTBEGIN
1070
    73
1070
     1
1070
    44
1040
1.0
1070
    74
1070
     0
1000
MTEXTEND
1000
MTEXTBEGIN
1070
    73
1070
     1
1070
    44
1040
1.0
1070
    74
1070
     0
1000
MTEXTEND
1000
MTEXTBEGIN
1070
    73
1070
     1
1070
    44
1040
1.0
1070
    74
1070
     0
1000
MTEXTEND
  0
POINT
  5
83C3
330
7ACE
100
AcDbEntity
  8
DEFPOINTS
  6
Continuous
 62
     0
100
AcDbPoint
 10
168.0000000000003
 20
273.4999999999999
 30
0.0
  0
POINT
  5
83C4
330
7ACE
100
AcDbEntity
  8
DEFPOINTS
  6
Continuous
 62
     0
100
AcDbPoint
 10
173.0000000000003
 20
265.5
 30
0.0
  0
POINT
  5
83C5
330
7ACE
100
AcDbEntity
  8
DEFPOINTS
  6
Continuous
 62
     0
100
AcDbPoint
 10
173.0000000000003
 20
227.0
 30
0.0
  0
ENDBLK
  5
7ADA
330
7ACE
100
AcDbEntity
  8
0
100
AcDbBlockEnd
  0
BLOCK
  5
7AF0
330
7AE6
100
AcDbEntity
  8
0
100
AcDbBlockBegin
  2
*D5
 70
     1
 10
0.0
 20
0.0
 30
0.0
  3
*D5
  1

  0
LINE
  5
83B3
330
7AE6
100
AcDbEntity
  8
30
  6
Continuous
 62
     0
100
AcDbLine
 10
173.0000000000003
 20
259.5
 30
0.0
 11
173.0000000000003
 21
226.8333333333333
 31
0.0
  0
LINE
  5
83B4
330
7AE6
100
AcDbEntity
  8
30
  6
Continuous
 62
     0
100
AcDbLine
 10
216.0000000000003
 20
264.5
 30
0.0
 11
216.0000000000003
 21
226.8333333333333
 31
0.0
  0
LINE
  5
83B5
330
7AE6
100
AcDbEntity
  8
30
  6
Continuous
 62
     0
100
AcDbLine
 10
175.0000000000003
 20
227.3333333333332
 30
0.0
 11
214.0000000000003
 21
227.3333333333332
 31
0.0
  0
INSERT
  5
83B6
330
7AE6
100
AcDbEntity
  8
30
  6
Continuous
 62
     0
100
AcDbBlockReference
  2
_OPEN
 10
173.0000000000003
 20
227.3333333333332
 30
0.0
 41
2.0
 42
2.0
 43
2.0
 50
180.0
  0
INSERT
  5
83B7
330
7AE6
100
AcDbEntity
  8
30
  6
Continuous
 62
     0
100
AcDbBlockReference
  2
_OPEN
 10
216.0000000000003
 20
227.3333333333332
 30
0.0
 41
2.0
 42
2.0
 43
2.0
  0
MTEXT
  5
83B8
330
7AE6
100
AcDbEntity
  8
30
  6
Continuous
 62
     0
100
AcDbMText
 10
194.5000000000003
 20
230.8333333333333
 30
0.0
 40
5.0
 41
0.0
 71
     5
 72
     1
  1
\A1;43
 73
     1
 44
1.0
1001
ACAD
1000
MTEXTBEGIN
1070
    73
1070
     1
1070
    44
1040
1.0
1070
    74
1070
     0
1000
MTEXTEND
1000
MTEXTBEGIN
1070
    73
1070
     1
1070
    44
1040
1.0
1070
    74
1070
     0
1000
MTEXTEND
1000
MTEXTBEGIN
1070
    73
1070
     1
1070
    44
1040
1.0
1070
    74
1070
     0
1000
MTEXTEND
  0
POINT
  5
83B9
330
7AE6
100
AcDbEntity
  8
DEFPOINTS
  6
Continuous
 62
     0
100
AcDbPoint
 10
173.0000000000003
 20
260.4999999999999
 30
0.0
  0
POINT
  5
83BA
330
7AE6
100
AcDbEntity
  8
DEFPOINTS
  6
Continuous
 62
     0
100
AcDbPoint
 10
216.0000000000003
 20
265.5
 30
0.0
  0
POINT
  5
83BB
330
7AE6
100
AcDbEntity
  8
DEFPOINTS
  6
Continuous
 62
     0
100
AcDbPoint
 10
216.0000000000003
 20
227.3333333333332
 30
0.0
  0
ENDBLK
  5
7AF1
330
7AE6
100
AcDbEntity
  8
0
100
AcDbBlockEnd
  0
BLOCK
  5
7AFD
330
7AF3
100
AcDbEntity
  8
0
100
AcDbBlockBegin
  2
*D6
 70
     1
 10
0.0
 20
0.0
 30
0.0
  3
*D6
  1

  0
LINE
  5
83CF
330
7AF3
100
AcDbEntity
  8
30
  6
Continuous
 62
     0
100
AcDbLine
 10
216.0000000000003
 20
245.0
 30
0.0
 11
216.0000000000003
 21
226.8333333333333
 31
0.0
  0
LINE
  5
83D0
330
7AF3
100
AcDbEntity
  8
30
  6
Continuous
 62
     0
100
AcDbLine
 10
236.0000000000002
 20
276.5000000000006
 30
0.0
 11
236.0000000000002
 21
226.8333333333333
 31
0.0
  0
LINE
  5
83D1
330
7AF3
100
AcDbEntity
  8
30
  6
Continuous
 62
     0
100
AcDbLine
 10
218.0000000000003
 20
227.3333333333332
 30
0.0
 11
234.0000000000002
 21
227.3333333333332
 31
0.0
  0
INSERT
  5
83D2
330
7AF3
100
AcDbEntity
  8
30
  6
Continuous
 62
     0
100
AcDbBlockReference
  2
_OPEN
 10
216.0000000000003
 20
227.3333333333332
 30
0.0
 41
2.0
 42
2.0
 43
2.0
 50
180.0
  0
INSERT
  5
83D3
330
7AF3
100
AcDbEntity
  8
30
  6
Continuous
 62
     0
100
AcDbBlockReference
  2
_OPEN
 10
236.0000000000002
 20
227.3333333333332
 30
0.0
 41
2.0
 42
2.0
 43
2.0
  0
MTEXT
  5
83D4
330
7AF3
100
AcDbEntity
  8
30
  6
Continuous
 62
     0
100
AcDbMText
 10
226.0000000000003
 20
230.8333333333333
 30
0.0
 40
5.0
 41
0.0
 71
     5
 72
     1
  1
\A1;20
 73
     1
 44
1.0
1001
ACAD
1000
MTEXTBEGIN
1070
    73
1070
     1
1070
    44
1040
1.0
1070
    74
1070
     0
1000
MTEXTEND
1000
MTEXTBEGIN
1070
    73
1070
     1
1070
    44
1040
1.0
1070
    74
1070
     0
1000
MTEXTEND
1000
MTEXTBEGIN
1070
    73
1070
     1
1070
    44
1040
1.0
1070
    74
1070
     0
1000
MTEXTEND
  0
POINT
  5
83D5
330
7AF3
100
AcDbEntity
  8
DEFPOINTS
  6
Continuous
 62
     0
100
AcDbPoint
 10
216.0000000000003
 20
246.0
 30
0.0
  0
POINT
  5
83D6
330
7AF3
100
AcDbEntity
  8
DEFPOINTS
  6
Continuous
 62
     0
100
AcDbPoint
 10
236.0000000000002
 20
277.5000000000007
 30
0.0
  0
POINT
  5
83D7
330
7AF3
100
AcDbEntity
  8
DEFPOINTS
  6
Continuous
 62
     0
100
AcDbPoint
 10
236.0000000000002
 20
227.3333333333332
 30
0.0
  0
ENDBLK
  5
7AFE
330
7AF3
100
AcDbEntity
  8
0
100
AcDbBlockEnd
  0
BLOCK
  5
7B0A
330
7B00
100
AcDbEntity
  8
0
100
AcDbBlockBegin
  2
*D7
 70
     1
 10
0.0
 20
0.0
 30
0.0
  3
*D7
  1

  0
LINE
  5
83C6
330
7B00
100
AcDbEntity
  8
30
  6
Continuous
 62
     0
100
AcDbLine
 10
236.0000000000002
 20
264.5
 30
0.0
 11
236.0000000000002
 21
226.3333333333333
 31
0.0
  0
LINE
  5
83C7
330
7B00
100
AcDbEntity
  8
30
  6
Continuous
 62
     0
100
AcDbLine
 10
272.0
 20
283.5000000000007
 30
0.0
 11
272.0
 21
226.3333333333333
 31
0.0
  0
LINE
  5
83C8
330
7B00
100
AcDbEntity
  8
30
  6
Continuous
 62
     0
100
AcDbLine
 10
238.0000000000003
 20
226.8333333333333
 30
0.0
 11
270.0
 21
226.8333333333333
 31
0.0
  0
INSERT
  5
83C9
330
7B00
100
AcDbEntity
  8
30
  6
Continuous
 62
     0
100
AcDbBlockReference
  2
_OPEN
 10
236.0000000000002
 20
226.8333333333333
 30
0.0
 41
2.0
 42
2.0
 43
2.0
 50
180.0
  0
INSERT
  5
83CA
330
7B00
100
AcDbEntity
  8
30
  6
Continuous
 62
     0
100
AcDbBlockReference
  2
_OPEN
 10
272.0
 20
226.8333333333333
 30
0.0
 41
2.0
 42
2.0
 43
2.0
  0
MTEXT
  5
83CB
330
7B00
100
AcDbEntity
  8
30
  6
Continuous
 62
     0
100
AcDbMText
 10
254.0000000000003
 20
230.3333333333333
 30
0.0
 40
5.0
 41
0.0
 71
     5
 72
     1
  1
\A1;36
 73
     1
 44
1.0
1001
ACAD
1000
MTEXTBEGIN
1070
    73
1070
     1
1070
    44
1040
1.0
1070
    74
1070
     0
1000
MTEXTEND
1000
MTEXTBEGIN
1070
    73
1070
     1
1070
    44
1040
1.0
1070
    74
1070
     0
1000
MTEXTEND
1000
MTEXTBEGIN
1070
    73
1070
     1
1070
    44
1040
1.0
1070
    74
1070
     0
1000
MTEXTEND
  0
POINT
  5
83CC
330
7B00
100
AcDbEntity
  8
DEFPOINTS
  6
Continuous
 62
     0
100
AcDbPoint
 10
236.0000000000002
 20
265.5
 30
0.0
  0
POINT
  5
83CD
330
7B00
100
AcDbEntity
  8
DEFPOINTS
  6
Continuous
 62
     0
100
AcDbPoint
 10
272.0
 20
284.5000000000006
 30
0.0
  0
POINT
  5
83CE
330
7B00
100
AcDbEntity
  8
DEFPOINTS
  6
Continuous
 62
     0
100
AcDbPoint
 10
272.0
 20
226.8333333333333
 30
0.0
  0
ENDBLK
  5
7B0B
330
7B00
100
AcDbEntity
  8
0
100
AcDbBlockEnd
  0
BLOCK
  5
7B19
330
7B0F
100
AcDbEntity
  8
0
100
AcDbBlockBegin
  2
*D8
 70
     1
 10
0.0
 20
0.0
 30
0.0
  3
*D8
  1

  0
LINE
  5
83D8
330
7B0F
100
AcDbEntity
  8
30
  6
Continuous
 62
     0
100
AcDbLine
 10
216.0000000000003
 20
359.5
 30
0.0
 11
216.0000000000003
 21
379.4999999999998
 31
0.0
  0
LINE
  5
83D9
330
7B0F
100
AcDbEntity
  8
30
  6
Continuous
 62
     0
100
AcDbLine
 10
232.0000000000004
 20
337.0
 30
0.0
 11
232.0000000000004
 21
379.4999999999998
 31
0.0
  0
LINE
  5
83DA
330
7B0F
100
AcDbEntity
  8
30
  6
Continuous
 62
     0
100
AcDbLine
 10
218.0000000000003
 20
379.0
 30
0.0
 11
230.0000000000004
 21
379.0
 31
0.0
  0
INSERT
  5
83DB
330
7B0F
100
AcDbEntity
  8
30
  6
Continuous
 62
     0
100
AcDbBlockReference
  2
_OPEN
 10
216.0000000000003
 20
379.0
 30
0.0
 41
2.0
 42
2.0
 43
2.0
 50
180.0
  0
INSERT
  5
83DC
330
7B0F
100
AcDbEntity
  8
30
  6
Continuous
 62
     0
100
AcDbBlockReference
  2
_OPEN
 10
232.0000000000004
 20
379.0
 30
0.0
 41
2.0
 42
2.0
 43
2.0
  0
MTEXT
  5
83DD
330
7B0F
100
AcDbEntity
  8
30
  6
Continuous
 62
     0
100
AcDbMText
 10
224.0000000000004
 20
382.5
 30
0.0
 40
5.0
 41
0.0
 71
     5
 72
     1
  1
\A1;16
 73
     1
 44
1.0
1001
ACAD
1000
MTEXTBEGIN
1070
    73
1070
     1
1070
    44
1040
1.0
1070
    74
1070
     0
1000
MTEXTEND
1000
MTEXTBEGIN
1070
    73
1070
     1
1070
    44
1040
1.0
1070
    74
1070
     0
1000
MTEXTEND
1000
MTEXTBEGIN
1070
    73
1070
     1
1070
    44
1040
1.0
1070
    74
1070
     0
1000
MTEXTEND
  0
POINT
  5
83DE
330
7B0F
100
AcDbEntity
  8
DEFPOINTS
  6
Continuous
 62
     0
100
AcDbPoint
 10
216.0000000000003
 20
358.4999999999998
 30
0.0
  0
POINT
  5
83DF
330
7B0F
100
AcDbEntity
  8
DEFPOINTS
  6
Continuous
 62
     0
100
AcDbPoint
 10
232.0000000000004
 20
336.0
 30
0.0
  0
POINT
  5
83E0
330
7B0F
100
AcDbEntity
  8
DEFPOINTS
  6
Continuous
 62
     0
100
AcDbPoint
 10
232.0000000000004
 20
379.0
 30
0.0
  0
ENDBLK
  5
7B1A
330
7B0F
100
AcDbEntity
  8
0
100
AcDbBlockEnd
  0
BLOCK
  5
7B28
330
7B1E
100
AcDbEntity
  8
0
100
AcDbBlockBegin
  2
*D9
 70
     1
 10
0.0
 20
0.0
 30
0.0
  3
*D9
  1

  0
LINE
  5
84B8
330
7B1E
100
AcDbEntity
  8
30
  6
Continuous
 62
     0
100
AcDbLine
 10
273.0000000000003
 20
289.5000000000008
 30
0.0
 11
291.5
 21
289.5000000000008
 31
0.0
  0
LINE
  5
84B9
330
7B1E
100
AcDbEntity
  8
30
  6
Continuous
 62
     0
100
AcDbLine
 10
283.0000000000001
 20
309.5000000000006
 30
0.0
 11
291.5
 21
309.5000000000006
 31
0.0
  0
LINE
  5
84BA
330
7B1E
100
AcDbEntity
  8
30
  6
Continuous
 62
     0
100
AcDbLine
 10
291.0
 20
291.5000000000008
 30
0.0
 11
291.0
 21
307.5000000000006
 31
0.0
  0
INSERT
  5
84BB
330
7B1E
100
AcDbEntity
  8
30
  6
Continuous
 62
     0
100
AcDbBlockReference
  2
_OPEN
 10
291.0
 20
289.5000000000008
 30
0.0
 41
2.0
 42
2.0
 43
2.0
 50
270.0
  0
INSERT
  5
84BC
330
7B1E
100
AcDbEntity
  8
30
  6
Continuous
 62
     0
100
AcDbBlockReference
  2
_OPEN
 10
291.0
 20
309.5000000000006
 30
0.0
 41
2.0
 42
2.0
 43
2.0
 50
90.0
  0
POINT
  5
84BD
330
7B1E
100
AcDbEntity
  8
DEFPOINTS
  6
Continuous
 62
     0
100
AcDbPoint
 10
272.0
 20
289.5000000000008
 30
0.0
  0
POINT
  5
84BE
330
7B1E
100
AcDbEntity
  8
DEFPOINTS
  6
Continuous
 62
     0
100
AcDbPoint
 10
282.0000000000001
 20
309.5000000000006
 30
0.0
  0
POINT
  5
84BF
330
7B1E
100
AcDbEntity
  8
DEFPOINTS
  6
Continuous
 62
     0
100
AcDbPoint
 10
291.0
 20
309.5000000000006
 30
0.0
  0
ENDBLK
  5
7B29
330
7B1E
100
AcDbEntity
  8
0
100
AcDbBlockEnd
  0
BLOCK
  5
7DD8
330
7DCE
100
AcDbEntity
  8
0
100
AcDbBlockBegin
  2
*D10
 70
     1
 10
0.0
 20
0.0
 30
0.0
  3
*D10
  1

  0
LINE
  5
7E06
330
7DCE
100
AcDbEntity
  8
30
  6
Continuous
 62
     0
100
AcDbLine
 10
-71.0
 20
130.0
 30
0.0
 11
-90.49999999999995
 21
130.0
 31
0.0
  0
LINE
  5
7E07
330
7DCE
100
AcDbEntity
  8
30
  6
Continuous
 62
     0
100
AcDbLine
 10
-71.0
 20
-130.0
 30
0.0
 11
-90.5
 21
-130.0
 31
0.0
  0
LINE
  5
7E08
330
7DCE
100
AcDbEntity
  8
30
  6
Continuous
 62
     0
100
AcDbLine
 10
-89.99999999999994
 20
127.9999999999999
 30
0.0
 11
-90.0
 21
-128.0
 31
0.0
  0
INSERT
  5
7E09
330
7DCE
100
AcDbEntity
  8
30
  6
Continuous
 62
     0
100
AcDbBlockReference
  2
_OPEN
 10
-89.99999999999994
 20
130.0
 30
0.0
 41
2.0
 42
2.0
 43
2.0
 50
90.0
  0
INSERT
  5
7E0A
330
7DCE
100
AcDbEntity
  8
30
  6
Continuous
 62
     0
100
AcDbBlockReference
  2
_OPEN
 10
-90.0
 20
-130.0
 30
0.0
 41
2.0
 42
2.0
 43
2.0
 50
270.0
  0
MTEXT
  5
7E0B
330
7DCE
100
AcDbEntity
  8
30
  6
Continuous
 62
     0
100
AcDbMText
 10
-93.49999999999996
 20
-0.0000000000000793
 30
0.0
 40
5.0
 41
0.0
 71
     5
 72
     1
  1
\A1;260
 11
0.0000000000000001
 21
1.0
 31
0.0
 73
     1
 44
1.0
1001
ACAD
1000
MTEXTBEGIN
1070
    73
1070
     1
1070
    44
1040
1.0
1070
    74
1070
     0
1000
MTEXTEND
1000
MTEXTBEGIN
1070
    73
1070
     1
1070
    44
1040
1.0
1070
    74
1070
     0
1000
MTEXTEND
1000
MTEXTBEGIN
1070
    73
1070
     1
1070
    44
1040
1.0
1070
    74
1070
     0
1000
MTEXTEND
  0
POINT
  5
7E0C
330
7DCE
100
AcDbEntity
  8
DEFPOINTS
  6
Continuous
 62
     0
100
AcDbPoint
 10
-70.0
 20
130.0
 30
0.0
  0
POINT
  5
7E0D
330
7DCE
100
AcDbEntity
  8
DEFPOINTS
  6
Continuous
 62
     0
100
AcDbPoint
 10
-70.0
 20
-130.0
 30
0.0
  0
POINT
  5
7E0E
330
7DCE
100
AcDbEntity
  8
DEFPOINTS
  6
Continuous
 62
     0
100
AcDbPoint
 10
-90.0
 20
-130.0
 30
0.0
  0
ENDBLK
  5
7DD9
330
7DCE
100
AcDbEntity
  8
0
100
AcDbBlockEnd
  0
BLOCK
  5
7DE5
330
7DDB
100
AcDbEntity
  8
0
100
AcDbBlockBegin
  2
*D11
 70
     1
 10
0.0
 20
0.0
 30
0.0
  3
*D11
  1

  0
LINE
  5
7DFD
330
7DDB
100
AcDbEntity
  8
30
  6
Continuous
 62
     0
100
AcDbLine
 10
-71.0
 20
143.0
 30
0.0
 11
-103.4999999999999
 21
143.0
 31
0.0
  0
LINE
  5
7DFE
330
7DDB
100
AcDbEntity
  8
30
  6
Continuous
 62
     0
100
AcDbLine
 10
-71.0
 20
-143.0
 30
0.0
 11
-103.4999999999999
 21
-143.0
 31
0.0
  0
LINE
  5
7DFF
330
7DDB
100
AcDbEntity
  8
30
  6
Continuous
 62
     0
100
AcDbLine
 10
-102.9999999999997
 20
141.0
 30
0.0
 11
-103.0
 21
-141.0
 31
0.0
  0
INSERT
  5
7E00
330
7DDB
100
AcDbEntity
  8
30
  6
Continuous
 62
     0
100
AcDbBlockReference
  2
_OPEN
 10
-102.9999999999997
 20
143.0
 30
0.0
 41
2.0
 42
2.0
 43
2.0
 50
90.0
  0
INSERT
  5
7E01
330
7DDB
100
AcDbEntity
  8
30
  6
Continuous
 62
     0
100
AcDbBlockReference
  2
_OPEN
 10
-103.0
 20
-143.0
 30
0.0
 41
2.0
 42
2.0
 43
2.0
 50
270.0
  0
MTEXT
  5
7E02
330
7DDB
100
AcDbEntity
  8
30
  6
Continuous
 62
     0
100
AcDbMText
 10
-106.4999999999999
 20
-0.0000000000000217
 30
0.0
 40
5.0
 41
0.0
 71
     5
 72
     1
  1
\A1;286
 11
0.0000000000000001
 21
1.0
 31
0.0
 73
     1
 44
1.0
1001
ACAD
1000
MTEXTBEGIN
1070
    73
1070
     1
1070
    44
1040
1.0
1070
    74
1070
     0
1000
MTEXTEND
1000
MTEXTBEGIN
1070
    73
1070
     1
1070
    44
1040
1.0
1070
    74
1070
     0
1000
MTEXTEND
1000
MTEXTBEGIN
1070
    73
1070
     1
1070
    44
1040
1.0
1070
    74
1070
     0
1000
MTEXTEND
  0
POINT
  5
7E03
330
7DDB
100
AcDbEntity
  8
DEFPOINTS
  6
Continuous
 62
     0
100
AcDbPoint
 10
-70.0
 20
143.0
 30
0.0
  0
POINT
  5
7E04
330
7DDB
100
AcDbEntity
  8
DEFPOINTS
  6
Continuous
 62
     0
100
AcDbPoint
 10
-70.0
 20
-143.0
 30
0.0
  0
POINT
  5
7E05
330
7DDB
100
AcDbEntity
  8
DEFPOINTS
  6
Continuous
 62
     0
100
AcDbPoint
 10
-103.0
 20
-143.0
 30
0.0
  0
ENDBLK
  5
7DE6
330
7DDB
100
AcDbEntity
  8
0
100
AcDbBlockEnd
  0
BLOCK
  5
7DF2
330
7DE8
100
AcDbEntity
  8
0
100
AcDbBlockBegin
  2
*D12
 70
     1
 10
0.0
 20
0.0
 30
0.0
  3
*D12
  1

  0
LINE
  5
7DF4
330
7DE8
100
AcDbEntity
  8
30
  6
Continuous
 62
     0
100
AcDbLine
 10
-31.0
 20
157.4999999999995
 30
0.0
 11
-117.4999999999996
 21
157.4999999999999
 31
0.0
  0
LINE
  5
7DF5
330
7DE8
100
AcDbEntity
  8
30
  6
Continuous
 62
     0
100
AcDbLine
 10
-31.0
 20
-157.5
 30
0.0
 11
-117.5
 21
-157.4999999999999
 31
0.0
  0
LINE
  5
7DF6
330
7DE8
100
AcDbEntity
  8
30
  6
Continuous
 62
     0
100
AcDbLine
 10
-116.9999999999999
 20
155.4999999999999
 30
0.0
 11
-117.0
 21
-155.4999999999999
 31
0.0
  0
INSERT
  5
7DF7
330
7DE8
100
AcDbEntity
  8
30
  6
Continuous
 62
     0
100
AcDbBlockReference
  2
_OPEN
 10
-116.9999999999999
 20
157.4999999999999
 30
0.0
 41
2.0
 42
2.0
 43
2.0
 50
90.0
  0
INSERT
  5
7DF8
330
7DE8
100
AcDbEntity
  8
30
  6
Continuous
 62
     0
100
AcDbBlockReference
  2
_OPEN
 10
-117.0
 20
-157.4999999999999
 30
0.0
 41
2.0
 42
2.0
 43
2.0
 50
270.0
  0
MTEXT
  5
7DF9
330
7DE8
100
AcDbEntity
  8
30
  6
Continuous
 62
     0
100
AcDbMText
 10
-120.4999999999996
 20
-0.0000000000000493
 30
0.0
 40
5.0
 41
0.0
 71
     5
 72
     1
  1
\A1;315
 11
0.0000000000000001
 21
1.0
 31
0.0
 73
     1
 44
1.0
1001
ACAD
1000
MTEXTBEGIN
1070
    73
1070
     1
1070
    44
1040
1.0
1070
    74
1070
     0
1000
MTEXTEND
1000
MTEXTBEGIN
1070
    73
1070
     1
1070
    44
1040
1.0
1070
    74
1070
     0
1000
MTEXTEND
1000
MTEXTBEGIN
1070
    73
1070
     1
1070
    44
1040
1.0
1070
    74
1070
     0
1000
MTEXTEND
  0
POINT
  5
7DFA
330
7DE8
100
AcDbEntity
  8
DEFPOINTS
  6
Continuous
 62
     0
100
AcDbPoint
 10
-30.0
 20
157.4999999999995
 30
0.0
  0
POINT
  5
7DFB
330
7DE8
100
AcDbEntity
  8
DEFPOINTS
  6
Continuous
 62
     0
100
AcDbPoint
 10
-30.0
 20
-157.5
 30
0.0
  0
POINT
  5
7DFC
330
7DE8
100
AcDbEntity
  8
DEFPOINTS
  6
Continuous
 62
     0
100
AcDbPoint
 10
-117.0
 20
-157.4999999999999
 30
0.0
  0
ENDBLK
  5
7DF3
330
7DE8
100
AcDbEntity
  8
0
100
AcDbBlockEnd
  0
BLOCK
  5
7E1A
330
7E10
100
AcDbEntity
  8
0
100
AcDbBlockBegin
  2
*D13
 70
     1
 10
0.0
 20
0.0
 30
0.0
  3
*D13
  1

  0
LINE
  5
8404
330
7E10
100
AcDbEntity
  8
30
  6
Continuous
 62
     0
100
AcDbLine
 10
-70.0
 20
-144.0
 30
0.0
 11
-70.0
 21
-176.5
 31
0.0
  0
LINE
  5
8405
330
7E10
100
AcDbEntity
  8
30
  6
Continuous
 62
     0
100
AcDbLine
 10
70.0
 20
-144.0
 30
0.0
 11
70.0
 21
-176.5
 31
0.0
  0
LINE
  5
8406
330
7E10
100
AcDbEntity
  8
30
  6
Continuous
 62
     0
100
AcDbLine
 10
-68.0
 20
-176.0
 30
0.0
 11
68.0
 21
-176.0
 31
0.0
  0
INSERT
  5
8407
330
7E10
100
AcDbEntity
  8
30
  6
Continuous
 62
     0
100
AcDbBlockReference
  2
_OPEN
 10
-70.0
 20
-176.0
 30
0.0
 41
2.0
 42
2.0
 43
2.0
 50
180.0
  0
INSERT
  5
8408
330
7E10
100
AcDbEntity
  8
30
  6
Continuous
 62
     0
100
AcDbBlockReference
  2
_OPEN
 10
70.0
 20
-176.0
 30
0.0
 41
2.0
 42
2.0
 43
2.0
  0
MTEXT
  5
8409
330
7E10
100
AcDbEntity
  8
30
  6
Continuous
 62
     0
100
AcDbMText
 10
0.0000000000000002
 20
-172.5
 30
0.0
 40
5.0
 41
0.0
 71
     5
 72
     1
  1
\A1;140
 73
     1
 44
1.0
1001
ACAD
1000
MTEXTBEGIN
1070
    73
1070
     1
1070
    44
1040
1.0
1070
    74
1070
     0
1000
MTEXTEND
1000
MTEXTBEGIN
1070
    73
1070
     1
1070
    44
1040
1.0
1070
    74
1070
     0
1000
MTEXTEND
1000
MTEXTBEGIN
1070
    73
1070
     1
1070
    44
1040
1.0
1070
    74
1070
     0
1000
MTEXTEND
  0
POINT
  5
840A
330
7E10
100
AcDbEntity
  8
DEFPOINTS
  6
Continuous
 62
     0
100
AcDbPoint
 10
-70.0
 20
-143.0
 30
0.0
  0
POINT
  5
840B
330
7E10
100
AcDbEntity
  8
DEFPOINTS
  6
Continuous
 62
     0
100
AcDbPoint
 10
70.0
 20
-143.0
 30
0.0
  0
POINT
  5
840C
330
7E10
100
AcDbEntity
  8
DEFPOINTS
  6
Continuous
 62
     0
100
AcDbPoint
 10
70.0
 20
-176.0
 30
0.0
  0
ENDBLK
  5
7E1B
330
7E10
100
AcDbEntity
  8
0
100
AcDbBlockEnd
  0
BLOCK
  5
8286
330
827C
100
AcDbEntity
  8
0
100
AcDbBlockBegin
  2
*D14
 70
     1
 10
0.0
 20
0.0
 30
0.0
  3
*D14
  1

  0
LINE
  5
842F
330
827C
100
AcDbEntity
  8
30
  6
Continuous
 62
     0
100
AcDbLine
 10
254.3937097878774
 20
-52.0
 30
0.0
 11
254.3937097878774
 21
-171.5
 31
0.0
  0
LINE
  5
8430
330
827C
100
AcDbEntity
  8
30
  6
Continuous
 62
     0
100
AcDbLine
 10
405.3937097878775
 20
-158.4999999999999
 30
0.0
 11
405.3937097878775
 21
-171.5
 31
0.0
  0
LINE
  5
8431
330
827C
100
AcDbEntity
  8
30
  6
Continuous
 62
     0
100
AcDbLine
 10
256.3937097878775
 20
-171.0
 30
0.0
 11
403.3937097878776
 21
-171.0
 31
0.0
  0
INSERT
  5
8432
330
827C
100
AcDbEntity
  8
30
  6
Continuous
 62
     0
100
AcDbBlockReference
  2
_OPEN
 10
254.3937097878774
 20
-171.0
 30
0.0
 41
2.0
 42
2.0
 43
2.0
 50
180.0
  0
INSERT
  5
8433
330
827C
100
AcDbEntity
  8
30
  6
Continuous
 62
     0
100
AcDbBlockReference
  2
_OPEN
 10
405.3937097878775
 20
-171.0
 30
0.0
 41
2.0
 42
2.0
 43
2.0
  0
MTEXT
  5
8434
330
827C
100
AcDbEntity
  8
30
  6
Continuous
 62
     0
100
AcDbMText
 10
329.8937097878775
 20
-167.5
 30
0.0
 40
5.0
 41
0.0
 71
     5
 72
     1
  1
\A1;151
 73
     1
 44
1.0
1001
ACAD
1000
MTEXTBEGIN
1070
    73
1070
     1
1070
    44
1040
1.0
1070
    74
1070
     0
1000
MTEXTEND
1000
MTEXTBEGIN
1070
    73
1070
     1
1070
    44
1040
1.0
1070
    74
1070
     0
1000
MTEXTEND
1000
MTEXTBEGIN
1070
    73
1070
     1
1070
    44
1040
1.0
1070
    74
1070
     0
1000
MTEXTEND
  0
POINT
  5
8435
330
827C
100
AcDbEntity
  8
DEFPOINTS
  6
Continuous
 62
     0
100
AcDbPoint
 10
254.3937097878774
 20
-51.0
 30
0.0
  0
POINT
  5
8436
330
827C
100
AcDbEntity
  8
DEFPOINTS
  6
Continuous
 62
     0
100
AcDbPoint
 10
405.3937097878775
 20
-157.5
 30
0.0
  0
POINT
  5
8437
330
827C
100
AcDbEntity
  8
DEFPOINTS
  6
Continuous
 62
     0
100
AcDbPoint
 10
405.3937097878775
 20
-171.0
 30
0.0
  0
ENDBLK
  5
8287
330
827C
100
AcDbEntity
  8
0
100
AcDbBlockEnd
  0
BLOCK
  5
8293
330
8289
100
AcDbEntity
  8
0
100
AcDbBlockBegin
  2
*D15
 70
     1
 10
0.0
 20
0.0
 30
0.0
  3
*D15
  1

  0
LINE
  5
8438
330
8289
100
AcDbEntity
  8
30
  6
Continuous
 62
     0
100
AcDbLine
 10
405.3937097878775
 20
-139.0
 30
0.0
 11
405.3937097878775
 21
-171.5
 31
0.0
  0
LINE
  5
8439
330
8289
100
AcDbEntity
  8
30
  6
Continuous
 62
     0
100
AcDbLine
 10
457.3937097878776
 20
-138.9999999999998
 30
0.0
 11
457.3937097878776
 21
-171.5
 31
0.0
  0
LINE
  5
843A
330
8289
100
AcDbEntity
  8
30
  6
Continuous
 62
     0
100
AcDbLine
 10
407.3937097878776
 20
-171.0
 30
0.0
 11
455.3937097878775
 21
-171.0
 31
0.0
  0
INSERT
  5
843B
330
8289
100
AcDbEntity
  8
30
  6
Continuous
 62
     0
100
AcDbBlockReference
  2
_OPEN
 10
405.3937097878775
 20
-171.0
 30
0.0
 41
2.0
 42
2.0
 43
2.0
 50
180.0
  0
INSERT
  5
843C
330
8289
100
AcDbEntity
  8
30
  6
Continuous
 62
     0
100
AcDbBlockReference
  2
_OPEN
 10
457.3937097878776
 20
-171.0
 30
0.0
 41
2.0
 42
2.0
 43
2.0
  0
MTEXT
  5
843D
330
8289
100
AcDbEntity
  8
30
  6
Continuous
 62
     0
100
AcDbMText
 10
431.3937097878776
 20
-167.5
 30
0.0
 40
5.0
 41
0.0
 71
     5
 72
     1
  1
\A1;52
 73
     1
 44
1.0
1001
ACAD
1000
MTEXTBEGIN
1070
    73
1070
     1
1070
    44
1040
1.0
1070
    74
1070
     0
1000
MTEXTEND
1000
MTEXTBEGIN
1070
    73
1070
     1
1070
    44
1040
1.0
1070
    74
1070
     0
1000
MTEXTEND
1000
MTEXTBEGIN
1070
    73
1070
     1
1070
    44
1040
1.0
1070
    74
1070
     0
1000
MTEXTEND
  0
POINT
  5
843E
330
8289
100
AcDbEntity
  8
DEFPOINTS
  6
Continuous
 62
     0
100
AcDbPoint
 10
405.3937097878775
 20
-138.0
 30
0.0
  0
POINT
  5
843F
330
8289
100
AcDbEntity
  8
DEFPOINTS
  6
Continuous
 62
     0
100
AcDbPoint
 10
457.3937097878776
 20
-137.9999999999998
 30
0.0
  0
POINT
  5
8440
330
8289
100
AcDbEntity
  8
DEFPOINTS
  6
Continuous
 62
     0
100
AcDbPoint
 10
457.3937097878776
 20
-171.0
 30
0.0
  0
ENDBLK
  5
8294
330
8289
100
AcDbEntity
  8
0
100
AcDbBlockEnd
  0
BLOCK
  5
82A1
330
8296
100
AcDbEntity
  8
0
100
AcDbBlockBegin
  2
*D16
 70
     1
 10
0.0
 20
0.0
 30
0.0
  3
*D16
  1

  0
LINE
  5
8441
330
8296
100
AcDbEntity
  8
30
  6
Continuous
 62
     0
100
AcDbLine
 10
457.3937097878776
 20
-139.9999999999998
 30
0.0
 11
457.3937097878776
 21
-171.5
 31
0.0
  0
LINE
  5
8442
330
8296
100
AcDbEntity
  8
30
  6
Continuous
 62
     0
100
AcDbLine
 10
461.3937097878776
 20
-119.999999999999
 30
0.0
 11
461.3937097878776
 21
-171.5
 31
0.0
  0
LINE
  5
8443
330
8296
100
AcDbEntity
  8
30
  6
Continuous
 62
     0
100
AcDbLine
 10
455.3937097878775
 20
-171.0
 30
0.0
 11
453.3937097878776
 21
-171.0
 31
0.0
  0
LINE
  5
8444
330
8296
100
AcDbEntity
  8
30
  6
Continuous
 62
     0
100
AcDbLine
 10
463.3937097878775
 20
-171.0
 30
0.0
 11
470.7270431212108
 21
-171.0
 31
0.0
  0
INSERT
  5
8445
330
8296
100
AcDbEntity
  8
30
  6
Continuous
 62
     0
100
AcDbBlockReference
  2
_OPEN
 10
457.3937097878776
 20
-171.0
 30
0.0
 41
2.0
 42
2.0
 43
2.0
  0
INSERT
  5
8446
330
8296
100
AcDbEntity
  8
30
  6
Continuous
 62
     0
100
AcDbBlockReference
  2
_OPEN
 10
461.3937097878776
 20
-171.0
 30
0.0
 41
2.0
 42
2.0
 43
2.0
 50
180.0
  0
MTEXT
  5
8447
330
8296
100
AcDbEntity
  8
30
  6
Continuous
 62
     0
100
AcDbMText
 10
468.0603764545442
 20
-167.5
 30
0.0
 40
5.0
 41
0.0
 71
     5
 72
     1
  1
\A1;4
 73
     1
 44
1.0
1001
ACAD
1000
MTEXTBEGIN
1070
    73
1070
     1
1070
    44
1040
1.0
1070
    74
1070
     0
1000
MTEXTEND
1000
MTEXTBEGIN
1070
    73
1070
     1
1070
    44
1040
1.0
1070
    74
1070
     0
1000
MTEXTEND
1000
MTEXTBEGIN
1070
    73
1070
     1
1070
    44
1040
1.0
1070
    74
1070
     0
1000
MTEXTEND
  0
POINT
  5
8448
330
8296
100
AcDbEntity
  8
DEFPOINTS
  6
Continuous
 62
     0
100
AcDbPoint
 10
457.3937097878776
 20
-138.9999999999998
 30
0.0
  0
POINT
  5
8449
330
8296
100
AcDbEntity
  8
DEFPOINTS
  6
Continuous
 62
     0
100
AcDbPoint
 10
461.3937097878776
 20
-118.9999999999992
 30
0.0
  0
POINT
  5
844A
330
8296
100
AcDbEntity
  8
DEFPOINTS
  6
Continuous
 62
     0
100
AcDbPoint
 10
461.3937097878776
 20
-171.0
 30
0.0
  0
ENDBLK
  5
82A2
330
8296
100
AcDbEntity
  8
0
100
AcDbBlockEnd
  0
BLOCK
  5
82AE
330
82A4
100
AcDbEntity
  8
0
100
AcDbBlockBegin
  2
*D17
 70
     1
 10
0.0
 20
0.0
 30
0.0
  3
*D17
  1

  0
LINE
  5
8426
330
82A4
100
AcDbEntity
  8
30
  6
Continuous
 62
     0
100
AcDbLine
 10
470.3937097878776
 20
114.0000000000005
 30
0.0
 11
486.5
 21
114.0000000000005
 31
0.0
  0
LINE
  5
8427
330
82A4
100
AcDbEntity
  8
30
  6
Continuous
 62
     0
100
AcDbLine
 10
470.3937097878776
 20
-113.9999999999992
 30
0.0
 11
486.5
 21
-113.9999999999992
 31
0.0
  0
LINE
  5
8428
330
82A4
100
AcDbEntity
  8
30
  6
Continuous
 62
     0
100
AcDbLine
 10
486.0
 20
112.0000000000006
 30
0.0
 11
486.0
 21
-111.9999999999992
 31
0.0
  0
INSERT
  5
8429
330
82A4
100
AcDbEntity
  8
30
  6
Continuous
 62
     0
100
AcDbBlockReference
  2
_OPEN
 10
486.0
 20
114.0000000000005
 30
0.0
 41
2.0
 42
2.0
 43
2.0
 50
90.0
  0
INSERT
  5
842A
330
82A4
100
AcDbEntity
  8
30
  6
Continuous
 62
     0
100
AcDbBlockReference
  2
_OPEN
 10
486.0
 20
-113.9999999999992
 30
0.0
 41
2.0
 42
2.0
 43
2.0
 50
270.0
  0
MTEXT
  5
842B
330
82A4
100
AcDbEntity
  8
30
  6
Continuous
 62
     0
100
AcDbMText
 10
482.5
 20
0.0000000000008091
 30
0.0
 40
5.0
 41
0.0
 71
     5
 72
     1
  1
\A1;228
 11
0.0000000000000001
 21
1.0
 31
0.0
 73
     1
 44
1.0
1001
ACAD
1000
MTEXTBEGIN
1070
    73
1070
     1
1070
    44
1040
1.0
1070
    74
1070
     0
1000
MTEXTEND
1000
MTEXTBEGIN
1070
    73
1070
     1
1070
    44
1040
1.0
1070
    74
1070
     0
1000
MTEXTEND
1000
MTEXTBEGIN
1070
    73
1070
     1
1070
    44
1040
1.0
1070
    74
1070
     0
1000
MTEXTEND
  0
POINT
  5
842C
330
82A4
100
AcDbEntity
  8
DEFPOINTS
  6
Continuous
 62
     0
100
AcDbPoint
 10
469.3937097878776
 20
114.0000000000005
 30
0.0
  0
POINT
  5
842D
330
82A4
100
AcDbEntity
  8
DEFPOINTS
  6
Continuous
 62
     0
100
AcDbPoint
 10
469.3937097878776
 20
-113.9999999999992
 30
0.0
  0
POINT
  5
842E
330
82A4
100
AcDbEntity
  8
DEFPOINTS
  6
Continuous
 62
     0
100
AcDbPoint
 10
486.0
 20
-113.9999999999992
 30
0.0
  0
ENDBLK
  5
82AF
330
82A4
100
AcDbEntity
  8
0
100
AcDbBlockEnd
  0
BLOCK
  5
82BB
330
82B1
100
AcDbEntity
  8
0
100
AcDbBlockBegin
  2
*D18
 70
     1
 10
0.0
 20
0.0
 30
0.0
  3
*D18
  1

  0
LINE
  5
844B
330
82B1
100
AcDbEntity
  8
30
  6
Continuous
 62
     0
100
AcDbLine
 10
458.3937097878775
 20
90.0
 30
0.0
 11
468.5
 21
90.0
 31
0.0
  0
LINE
  5
844C
330
82B1
100
AcDbEntity
  8
30
  6
Continuous
 62
     0
100
AcDbLine
 10
458.3937097878775
 20
-90.0
 30
0.0
 11
468.5
 21
-90.0
 31
0.0
  0
LINE
  5
844D
330
82B1
100
AcDbEntity
  8
30
  6
Continuous
 62
     0
100
AcDbLine
 10
468.0
 20
88.0
 30
0.0
 11
468.0
 21
-88.0
 31
0.0
  0
INSERT
  5
844E
330
82B1
100
AcDbEntity
  8
30
  6
Continuous
 62
     0
100
AcDbBlockReference
  2
_OPEN
 10
468.0
 20
90.0
 30
0.0
 41
2.0
 42
2.0
 43
2.0
 50
90.0
  0
INSERT
  5
844F
330
82B1
100
AcDbEntity
  8
30
  6
Continuous
 62
     0
100
AcDbBlockReference
  2
_OPEN
 10
468.0
 20
-90.0
 30
0.0
 41
2.0
 42
2.0
 43
2.0
 50
270.0
  0
MTEXT
  5
8450
330
82B1
100
AcDbEntity
  8
30
  6
Continuous
 62
     0
100
AcDbMText
 10
464.5
 20
0.0000000000000712
 30
0.0
 40
5.0
 41
0.0
 71
     5
 72
     1
  1
\A1;180
 11
0.0000000000000001
 21
1.0
 31
0.0
 73
     1
 44
1.0
1001
ACAD
1000
MTEXTBEGIN
1070
    73
1070
     1
1070
    44
1040
1.0
1070
    74
1070
     0
1000
MTEXTEND
1000
MTEXTBEGIN
1070
    73
1070
     1
1070
    44
1040
1.0
1070
    74
1070
     0
1000
MTEXTEND
1000
MTEXTBEGIN
1070
    73
1070
     1
1070
    44
1040
1.0
1070
    74
1070
     0
1000
MTEXTEND
  0
POINT
  5
8451
330
82B1
100
AcDbEntity
  8
DEFPOINTS
  6
Continuous
 62
     0
100
AcDbPoint
 10
457.3937097878776
 20
90.0
 30
0.0
  0
POINT
  5
8452
330
82B1
100
AcDbEntity
  8
DEFPOINTS
  6
Continuous
 62
     0
100
AcDbPoint
 10
457.3937097878776
 20
-90.0
 30
0.0
  0
POINT
  5
8453
330
82B1
100
AcDbEntity
  8
DEFPOINTS
  6
Continuous
 62
     0
100
AcDbPoint
 10
468.0
 20
-90.0
 30
0.0
  0
ENDBLK
  5
82BC
330
82B1
100
AcDbEntity
  8
0
100
AcDbBlockEnd
  0
BLOCK
  5
832E
330
8324
100
AcDbEntity
  8
0
100
AcDbBlockBegin
  2
*D19
 70
     1
 10
0.0
 20
0.0
 30
0.0
  3
*D19
  1

  0
LINE
  5
8325
330
8324
100
AcDbEntity
  8
30
  6
Continuous
 62
     0
100
AcDbLine
 10
-35.0
 20
-527.7499999999998
 30
0.0
 11
-35.0
 21
-648.5
 31
0.0
  0
LINE
  5
8326
330
8324
100
AcDbEntity
  8
30
  6
Continuous
 62
     0
100
AcDbLine
 10
35.0
 20
-527.7499999999998
 30
0.0
 11
34.99999999999999
 21
-648.5
 31
0.0
  0
LINE
  5
8327
330
8324
100
AcDbEntity
  8
30
  6
Continuous
 62
     0
100
AcDbLine
 10
-33.0
 20
-648.0
 30
0.0
 11
32.99999999999999
 21
-648.0
 31
0.0
  0
INSERT
  5
8328
330
8324
100
AcDbEntity
  8
30
  6
Continuous
 62
     0
100
AcDbBlockReference
  2
_OPEN
 10
-35.0
 20
-648.0
 30
0.0
 41
2.0
 42
2.0
 43
2.0
 50
180.0
  0
INSERT
  5
8329
330
8324
100
AcDbEntity
  8
30
  6
Continuous
 62
     0
100
AcDbBlockReference
  2
_OPEN
 10
34.99999999999999
 20
-648.0
 30
0.0
 41
2.0
 42
2.0
 43
2.0
  0
MTEXT
  5
832A
330
8324
100
AcDbEntity
  8
30
  6
Continuous
 62
     0
100
AcDbMText
 10
-0.0000000000000069
 20
-644.5
 30
0.0
 40
5.0
 41
0.0
 71
     5
 72
     1
  1
\A1;70
 73
     1
 44
1.0
1001
ACAD
1000
MTEXTBEGIN
1070
    73
1070
     1
1070
    44
1040
1.0
1070
    74
1070
     0
1000
MTEXTEND
1000
MTEXTBEGIN
1070
    73
1070
     1
1070
    44
1040
1.0
1070
    74
1070
     0
1000
MTEXTEND
1000
MTEXTBEGIN
1070
    73
1070
     1
1070
    44
1040
1.0
1070
    74
1070
     0
1000
MTEXTEND
  0
POINT
  5
832B
330
8324
100
AcDbEntity
  8
DEFPOINTS
  6
Continuous
 62
     0
100
AcDbPoint
 10
-35.0
 20
-526.75
 30
0.0
  0
POINT
  5
832C
330
8324
100
AcDbEntity
  8
DEFPOINTS
  6
Continuous
 62
     0
100
AcDbPoint
 10
35.0
 20
-526.75
 30
0.0
  0
POINT
  5
832D
330
8324
100
AcDbEntity
  8
DEFPOINTS
  6
Continuous
 62
     0
100
AcDbPoint
 10
34.99999999999999
 20
-648.0
 30
0.0
  0
ENDBLK
  5
832F
330
8324
100
AcDbEntity
  8
0
100
AcDbBlockEnd
  0
BLOCK
  5
833B
330
8331
100
AcDbEntity
  8
0
100
AcDbBlockBegin
  2
*D20
 70
     1
 10
0.0
 20
0.0
 30
0.0
  3
*D20
  1

  0
LINE
  5
8332
330
8331
100
AcDbEntity
  8
30
  6
Continuous
 62
     0
100
AcDbLine
 10
-59.0
 20
-491.0
 30
0.0
 11
-59.00000000000001
 21
-661.5
 31
0.0
  0
LINE
  5
8333
330
8331
100
AcDbEntity
  8
30
  6
Continuous
 62
     0
100
AcDbLine
 10
58.99999999999995
 20
-491.0
 30
0.0
 11
58.99999999999994
 21
-661.5
 31
0.0
  0
LINE
  5
8334
330
8331
100
AcDbEntity
  8
30
  6
Continuous
 62
     0
100
AcDbLine
 10
-57.00000000000001
 20
-661.0
 30
0.0
 11
56.99999999999993
 21
-661.0
 31
0.0
  0
INSERT
  5
8335
330
8331
100
AcDbEntity
  8
30
  6
Continuous
 62
     0
100
AcDbBlockReference
  2
_OPEN
 10
-59.00000000000001
 20
-661.0
 30
0.0
 41
2.0
 42
2.0
 43
2.0
 50
180.0
  0
INSERT
  5
8336
330
8331
100
AcDbEntity
  8
30
  6
Continuous
 62
     0
100
AcDbBlockReference
  2
_OPEN
 10
58.99999999999994
 20
-661.0
 30
0.0
 41
2.0
 42
2.0
 43
2.0
  0
MTEXT
  5
8337
330
8331
100
AcDbEntity
  8
30
  6
Continuous
 62
     0
100
AcDbMText
 10
-0.0000000000000353
 20
-657.5
 30
0.0
 40
5.0
 41
0.0
 71
     5
 72
     1
  1
\A1;118
 73
     1
 44
1.0
1001
ACAD
1000
MTEXTBEGIN
1070
    73
1070
     1
1070
    44
1040
1.0
1070
    74
1070
     0
1000
MTEXTEND
1000
MTEXTBEGIN
1070
    73
1070
     1
1070
    44
1040
1.0
1070
    74
1070
     0
1000
MTEXTEND
1000
MTEXTBEGIN
1070
    73
1070
     1
1070
    44
1040
1.0
1070
    74
1070
     0
1000
MTEXTEND
  0
POINT
  5
8338
330
8331
100
AcDbEntity
  8
DEFPOINTS
  6
Continuous
 62
     0
100
AcDbPoint
 10
-59.0
 20
-490.0
 30
0.0
  0
POINT
  5
8339
330
8331
100
AcDbEntity
  8
DEFPOINTS
  6
Continuous
 62
     0
100
AcDbPoint
 10
58.99999999999995
 20
-490.0
 30
0.0
  0
POINT
  5
833A
330
8331
100
AcDbEntity
  8
DEFPOINTS
  6
Continuous
 62
     0
100
AcDbPoint
 10
58.99999999999994
 20
-661.0
 30
0.0
  0
ENDBLK
  5
833C
330
8331
100
AcDbEntity
  8
0
100
AcDbBlockEnd
  0
BLOCK
  5
8348
330
833E
100
AcDbEntity
  8
0
100
AcDbBlockBegin
  2
*D21
 70
     1
 10
0.0
 20
0.0
 30
0.0
  3
*D21
  1

  0
LINE
  5
840E
330
833E
100
AcDbEntity
  8
30
  6
Continuous
 62
     0
100
AcDbLine
 10
53.99999999999995
 20
-404.0
 30
0.0
 11
89.50000000000008
 21
-404.0
 31
0.0
  0
LINE
  5
840F
330
833E
100
AcDbEntity
  8
30
  6
Continuous
 62
     0
100
AcDbLine
 10
53.99999999999995
 20
-496.0
 30
0.0
 11
89.50000000000006
 21
-496.0
 31
0.0
  0
LINE
  5
8410
330
833E
100
AcDbEntity
  8
30
  6
Continuous
 62
     0
100
AcDbLine
 10
89.00000000000011
 20
-406.0
 30
0.0
 11
89.00000000000003
 21
-494.0
 31
0.0
  0
INSERT
  5
8411
330
833E
100
AcDbEntity
  8
30
  6
Continuous
 62
     0
100
AcDbBlockReference
  2
_OPEN
 10
89.00000000000011
 20
-404.0
 30
0.0
 41
2.0
 42
2.0
 43
2.0
 50
90.0
  0
INSERT
  5
8412
330
833E
100
AcDbEntity
  8
30
  6
Continuous
 62
     0
100
AcDbBlockReference
  2
_OPEN
 10
89.00000000000003
 20
-496.0
 30
0.0
 41
2.0
 42
2.0
 43
2.0
 50
270.0
  0
MTEXT
  5
8413
330
833E
100
AcDbEntity
  8
30
  6
Continuous
 62
     0
100
AcDbMText
 10
85.50000000000014
 20
-450.0
 30
0.0
 40
5.0
 41
0.0
 71
     5
 72
     1
  1
\A1;92
 11
0.0000000000000001
 21
1.0
 31
0.0
 73
     1
 44
1.0
1001
ACAD
1000
MTEXTBEGIN
1070
    73
1070
     1
1070
    44
1040
1.0
1070
    74
1070
     0
1000
MTEXTEND
1000
MTEXTBEGIN
1070
    73
1070
     1
1070
    44
1040
1.0
1070
    74
1070
     0
1000
MTEXTEND
1000
MTEXTBEGIN
1070
    73
1070
     1
1070
    44
1040
1.0
1070
    74
1070
     0
1000
MTEXTEND
  0
POINT
  5
8414
330
833E
100
AcDbEntity
  8
DEFPOINTS
  6
Continuous
 62
     0
100
AcDbPoint
 10
52.99999999999993
 20
-404.0
 30
0.0
  0
POINT
  5
8415
330
833E
100
AcDbEntity
  8
DEFPOINTS
  6
Continuous
 62
     0
100
AcDbPoint
 10
52.99999999999993
 20
-496.0
 30
0.0
  0
POINT
  5
8416
330
833E
100
AcDbEntity
  8
DEFPOINTS
  6
Continuous
 62
     0
100
AcDbPoint
 10
89.00000000000003
 20
-496.0
 30
0.0
  0
ENDBLK
  5
8349
330
833E
100
AcDbEntity
  8
0
100
AcDbBlockEnd
  0
BLOCK
  5
8355
330
834B
100
AcDbEntity
  8
0
100
AcDbBlockBegin
  2
*D22
 70
     1
 10
0.0
 20
0.0
 30
0.0
  3
*D22
  1

  0
LINE
  5
8417
330
834B
100
AcDbEntity
  8
30
  6
Continuous
 62
     0
100
AcDbLine
 10
42.75
 20
-380.0
 30
0.0
 11
110.4999999999999
 21
-380.0
 31
0.0
  0
LINE
  5
8418
330
834B
100
AcDbEntity
  8
30
  6
Continuous
 62
     0
100
AcDbLine
 10
42.75
 20
-520.0
 30
0.0
 11
110.4999999999999
 21
-520.0
 31
0.0
  0
LINE
  5
8419
330
834B
100
AcDbEntity
  8
30
  6
Continuous
 62
     0
100
AcDbLine
 10
110.0
 20
-382.0
 30
0.0
 11
110.0
 21
-518.0
 31
0.0
  0
INSERT
  5
841A
330
834B
100
AcDbEntity
  8
30
  6
Continuous
 62
     0
100
AcDbBlockReference
  2
_OPEN
 10
110.0
 20
-380.0
 30
0.0
 41
2.0
 42
2.0
 43
2.0
 50
90.0
  0
INSERT
  5
841B
330
834B
100
AcDbEntity
  8
30
  6
Continuous
 62
     0
100
AcDbBlockReference
  2
_OPEN
 10
110.0
 20
-520.0
 30
0.0
 41
2.0
 42
2.0
 43
2.0
 50
270.0
  0
MTEXT
  5
841C
330
834B
100
AcDbEntity
  8
30
  6
Continuous
 62
     0
100
AcDbMText
 10
106.5000000000001
 20
-450.0
 30
0.0
 40
5.0
 41
0.0
 71
     5
 72
     1
  1
\A1;140
 11
0.0000000000000001
 21
1.0
 31
0.0
 73
     1
 44
1.0
1001
ACAD
1000
MTEXTBEGIN
1070
    73
1070
     1
1070
    44
1040
1.0
1070
    74
1070
     0
1000
MTEXTEND
1000
MTEXTBEGIN
1070
    73
1070
     1
1070
    44
1040
1.0
1070
    74
1070
     0
1000
MTEXTEND
1000
MTEXTBEGIN
1070
    73
1070
     1
1070
    44
1040
1.0
1070
    74
1070
     0
1000
MTEXTEND
  0
POINT
  5
841D
330
834B
100
AcDbEntity
  8
DEFPOINTS
  6
Continuous
 62
     0
100
AcDbPoint
 10
41.74999999999999
 20
-380.0
 30
0.0
  0
POINT
  5
841E
330
834B
100
AcDbEntity
  8
DEFPOINTS
  6
Continuous
 62
     0
100
AcDbPoint
 10
41.74999999999999
 20
-520.0
 30
0.0
  0
POINT
  5
841F
330
834B
100
AcDbEntity
  8
DEFPOINTS
  6
Continuous
 62
     0
100
AcDbPoint
 10
110.0
 20
-520.0
 30
0.0
  0
ENDBLK
  5
8356
330
834B
100
AcDbEntity
  8
0
100
AcDbBlockEnd
  0
BLOCK
  5
83A1
330
839C
100
AcDbEntity
  8
TOP
  6
Continuous
 62
     3
100
AcDbBlockBegin
  2
*U23
 70
     1
 10
0.0
 20
0.0
 30
0.0
  3
*U23
  1

  0
LINE
  5
839D
330
839C
100
AcDbEntity
  8
1
  6
ByBlock
 62
     0
100
AcDbLine
 10
548.3527638488361
 20
74.64070630641497
 30
0.0
 11
522.3527638488361
 21
74.64070630641497
 31
0.0
  0
LINE
  5
839E
330
839C
100
AcDbEntity
  8
1
  6
ByBlock
 62
     0
100
AcDbLine
 10
517.8511961722488
 20
100.6647232036204
 30
0.0
 11
522.3527638488361
 21
74.64070630641497
 31
0.0
  0
SOLID
  5
839F
330
839C
100
AcDbEntity
  8
1
  6
ByBlock
 62
     0
100
AcDbTrace
 10
517.8511961722488
 20
100.6647232036204
 30
0.0
 11
518.5205443376235
 21
98.75080465810007
 31
0.0
 12
517.8636330166235
 22
98.63717382314177
 32
0.0
 13
517.8636330166235
 23
98.63717382314177
 33
0.0
  0
TEXT
  5
83A0
330
839C
100
AcDbEntity
  8
TOP
  6
ByBlock
 62
     0
100
AcDbText
 10
548.3527638488361
 20
73.14070629651499
 30
0.0
 40
3.000000019799997
  1
 
 41
1.189062500000023
  7
UGMTXT
100
AcDbText
  0
ENDBLK
  5
83A2
330
839C
100
AcDbEntity
  8
0
100
AcDbBlockEnd
  0
ENDSEC
  0
SECTION
  2
ENTITIES
  0
LINE
  5
B4
330
1E
100
AcDbEntity
  8
16
100
AcDbLine
 10
0.0
 20
-170.0272802992444
 30
0.0
 11
0.0
 21
186.4499999999999
 31
0.0
  0
MTEXT
  5
BF3
330
1E
100
AcDbEntity
  8
24
  6
Continuous
100
AcDbMText
 10
142.1181906098743
 20
177.5
 30
0.0
 40
3.0
 41
0.0
 71
     1
 72
     1
  1
\A1;
 73
     1
 44
1.0
1001
ACAD
1000
MTEXTBEGIN
1070
    73
1070
     1
1070
    44
1040
1.0
1070
    74
1070
     0
1000
MTEXTEND
1000
MTEXTBEGIN
1070
    73
1070
     1
1070
    44
1040
1.0
1070
    74
1070
     0
1000
MTEXTEND
1000
MTEXTBEGIN
1070
    73
1070
     1
1070
    44
1040
1.0
1070
    74
1070
     0
1000
MTEXTEND
  0
LINE
  5
1C9B
330
1E
100
AcDbEntity
  8
16
100
AcDbLine
 10
456.1890316890183
 20
0.0
 30
0.0
 11
218.0
 21
0.0
 31
0.0
  0
LINE
  5
2260
330
1E
100
AcDbEntity
  8
16
100
AcDbLine
 10
119.8497158299921
 20
-450.0
 30
0.0
 11
-140.1065049170443
 21
-450.0
 31
0.0
  0
LINE
  5
4C5A
330
1E
100
AcDbEntity
  8
16
100
AcDbLine
 10
164.8497158299924
 20
0.0
 30
0.0
 11
-140.1065049170443
 21
0.0
 31
0.0
  0
LWPOLYLINE
  5
62AB
330
1E
100
AcDbEntity
  8
16
100
AcDbPolyline
 90
        2
 70
     0
 43
0.0
 10
0.0
 20
-620.0272802992445
 10
0.0
 20
-273.65625
  0
MTEXT
  5
6813
330
1E
100
AcDbEntity
  8
19
  6
Continuous
100
AcDbMText
 10
332.0
 20
414.0
 30
0.0
 40
7.0
 41
94.0
 71
     1
 72
     5
  1
S400-CF 3P PM\PS400-NF 3P PM\PS400-GF 3P PM\PS400-PF 3P PM\PS400-NE 3P PM\PS400-GE 3P PM\PS400-PE 3P PM\PS400-NN 3P PM
  7
STANDARD1
 73
     1
 44
1.0
1001
ACAD
1000
MTEXTBEGIN
1070
    73
1070
     1
1070
    44
1040
1.0
1070
    74
1070
     0
1000
MTEXTEND
1000
MTEXTBEGIN
1070
    73
1070
     1
1070
    44
1040
1.0
1070
    74
1070
     0
1000
MTEXTEND
1000
MTEXTBEGIN
1070
    73
1070
     1
1070
    44
1040
1.0
1070
    74
1070
     0
1000
MTEXTEND
  0
LINE
  5
745C
330
1E
100
AcDbEntity
  8
10
100
AcDbLine
 10
405.3937097878775
 20
90.00000000000046
 30
0.0
 11
405.3937097878775
 21
-90.0
 31
0.0
  0
LINE
  5
745D
330
1E
100
AcDbEntity
  8
10
100
AcDbLine
 10
362.3937097878775
 20
143.0
 30
0.0
 11
362.3937097878775
 21
-143.0
 31
0.0
  0
LINE
  5
745E
330
1E
100
AcDbEntity
  8
10
100
AcDbLine
 10
260.3937097878775
 20
-51.0
 30
0.0
 11
260.3937097878775
 21
-130.0
 31
0.0
  0
LINE
  5
745F
330
1E
100
AcDbEntity
  8
10
100
AcDbLine
 10
357.3937097878776
 20
130.0
 30
0.0
 11
357.3937097878776
 21
-130.0
 31
0.0
  0
LINE
  5
7460
330
1E
100
AcDbEntity
  8
12
100
AcDbLine
 10
429.3937097878774
 20
-70.0
 30
0.0
 11
374.3937097878776
 21
-70.0
 31
0.0
  0
LINE
  5
7461
330
1E
100
AcDbEntity
  8
17
100
AcDbLine
 10
312.3937097878775
 20
-113.9999999999992
 30
0.0
 11
469.3937097878776
 21
-113.9999999999992
 31
0.0
  0
LINE
  5
7462
330
1E
100
AcDbEntity
  8
12
100
AcDbLine
 10
417.6937097878774
 20
-74.39999999999997
 30
0.0
 11
412.6937097878775
 21
-74.39999999999997
 31
0.0
  0
LINE
  5
7463
330
1E
100
AcDbEntity
  8
12
100
AcDbLine
 10
417.6937097878774
 20
-72.19999999999993
 30
0.0
 11
412.6937097878775
 21
-72.19999999999993
 31
0.0
  0
LINE
  5
7464
330
1E
100
AcDbEntity
  8
12
100
AcDbLine
 10
417.6937097878774
 20
-67.79999999999995
 30
0.0
 11
412.6937097878775
 21
-67.79999999999995
 31
0.0
  0
LINE
  5
7465
330
1E
100
AcDbEntity
  8
12
100
AcDbLine
 10
417.6937097878774
 20
-65.60000000000002
 30
0.0
 11
412.6937097878775
 21
-65.60000000000002
 31
0.0
  0
LINE
  5
7466
330
1E
100
AcDbEntity
  8
10
100
AcDbLine
 10
362.3937097878775
 20
-138.0
 30
0.0
 11
457.3937097878776
 21
-138.0
 31
0.0
  0
LINE
  5
7467
330
1E
100
AcDbEntity
  8
10
100
AcDbLine
 10
362.3937097878775
 20
-90.0
 30
0.0
 11
457.3937097878776
 21
-90.0
 31
0.0
  0
LINE
  5
7468
330
1E
100
AcDbEntity
  8
10
100
AcDbLine
 10
260.3937097878775
 20
-130.0
 30
0.0
 11
357.3937097878776
 21
-130.0
 31
0.0
  0
LINE
  5
7469
330
1E
100
AcDbEntity
  8
10
100
AcDbLine
 10
405.3937097878775
 20
-137.9999999999998
 30
0.0
 11
405.3937097878775
 21
-157.5
 31
0.0
  0
LINE
  5
746A
330
1E
100
AcDbEntity
  8
10
100
AcDbLine
 10
392.3937097878775
 20
-137.9999999999998
 30
0.0
 11
392.3937097878775
 21
-157.5
 31
0.0
  0
LINE
  5
746B
330
1E
100
AcDbEntity
  8
10
100
AcDbLine
 10
345.3937097878776
 20
-130.0
 30
0.0
 11
345.3937097878776
 21
-143.0
 31
0.0
  0
LINE
  5
746C
330
1E
100
AcDbEntity
  8
10
100
AcDbLine
 10
345.3937097878776
 20
-143.0
 30
0.0
 11
362.3937097878775
 21
-143.0
 31
0.0
  0
LINE
  5
746D
330
1E
100
AcDbEntity
  8
10
100
AcDbLine
 10
392.3937097878775
 20
-157.5
 30
0.0
 11
405.3937097878775
 21
-157.5
 31
0.0
  0
LINE
  5
746E
330
1E
100
AcDbEntity
  8
12
100
AcDbLine
 10
386.3937097878775
 20
-65.5
 30
0.0
 11
382.3937097878776
 21
-65.5
 31
0.0
  0
LINE
  5
746F
330
1E
100
AcDbEntity
  8
12
100
AcDbLine
 10
386.3937097878775
 20
-74.5
 30
0.0
 11
382.3937097878776
 21
-74.5
 31
0.0
  0
LINE
  5
7470
330
1E
100
AcDbEntity
  8
12
100
AcDbLine
 10
382.3937097878776
 20
-74.5
 30
0.0
 11
382.3937097878776
 21
-65.5
 31
0.0
  0
LINE
  5
7471
330
1E
100
AcDbEntity
  8
12
100
AcDbLine
 10
412.6937097878775
 20
-75.0
 30
0.0
 11
412.6937097878775
 21
-65.0
 31
0.0
  0
LINE
  5
7472
330
1E
100
AcDbEntity
  8
12
100
AcDbLine
 10
411.3937097878776
 20
-75.0
 30
0.0
 11
411.3937097878776
 21
-65.0
 31
0.0
  0
LINE
  5
7473
330
1E
100
AcDbEntity
  8
12
100
AcDbLine
 10
387.3937097878775
 20
-75.0
 30
0.0
 11
387.3937097878775
 21
-65.0
 31
0.0
  0
LINE
  5
7474
330
1E
100
AcDbEntity
  8
12
100
AcDbLine
 10
386.3937097878775
 20
-75.0
 30
0.0
 11
386.3937097878775
 21
-65.0
 31
0.0
  0
LINE
  5
7475
330
1E
100
AcDbEntity
  8
12
100
AcDbLine
 10
387.3937097878775
 20
-75.0
 30
0.0
 11
386.3937097878775
 21
-75.0
 31
0.0
  0
LINE
  5
7476
330
1E
100
AcDbEntity
  8
12
100
AcDbLine
 10
412.6937097878767
 20
-75.0
 30
0.0
 11
410.3937097878775
 21
-75.0
 31
0.0
  0
LINE
  5
7477
330
1E
100
AcDbEntity
  8
12
100
AcDbLine
 10
410.3937097878775
 20
-72.5
 30
0.0
 11
387.3937097878775
 21
-72.5
 31
0.0
  0
LINE
  5
7478
330
1E
100
AcDbEntity
  8
12
100
AcDbLine
 10
410.3937097878775
 20
-67.5
 30
0.0
 11
387.3937097878775
 21
-67.5
 31
0.0
  0
LINE
  5
7479
330
1E
100
AcDbEntity
  8
12
100
AcDbLine
 10
387.3937097878775
 20
-65.0
 30
0.0
 11
386.3937097878775
 21
-65.0
 31
0.0
  0
LINE
  5
747A
330
1E
100
AcDbEntity
  8
12
100
AcDbLine
 10
412.6937097878767
 20
-65.0
 30
0.0
 11
410.3937097878775
 21
-65.0
 31
0.0
  0
LINE
  5
747B
330
1E
100
AcDbEntity
  8
10
100
AcDbLine
 10
457.3937097878776
 20
-90.0
 30
0.0
 11
457.3937097878776
 21
-137.9999999999998
 31
0.0
  0
LINE
  5
747C
330
1E
100
AcDbEntity
  8
10
100
AcDbLine
 10
461.3937097878776
 20
-108.9999999999992
 30
0.0
 11
461.3937097878776
 21
-118.999999999999
 31
0.0
  0
LINE
  5
747D
330
1E
100
AcDbEntity
  8
10
100
AcDbLine
 10
457.3937097878776
 20
-118.9999999999992
 30
0.0
 11
461.3937097878776
 21
-118.9999999999992
 31
0.0
  0
LINE
  5
747E
330
1E
100
AcDbEntity
  8
10
100
AcDbLine
 10
457.3937097878776
 20
-108.9999999999992
 30
0.0
 11
461.3937097878776
 21
-108.9999999999992
 31
0.0
  0
LINE
  5
747F
330
1E
100
AcDbEntity
  8
12
100
AcDbLine
 10
417.6937097878774
 20
-74.39999999999997
 30
0.0
 11
417.6937097878774
 21
-65.60000000000002
 31
0.0
  0
LINE
  5
7480
330
1E
100
AcDbEntity
  8
12
100
AcDbLine
 10
421.3937097878778
 20
-72.5
 30
0.0
 11
417.6937097878774
 21
-72.5
 31
0.0
  0
LINE
  5
7481
330
1E
100
AcDbEntity
  8
12
100
AcDbLine
 10
421.3937097878778
 20
-67.5
 30
0.0
 11
417.6937097878774
 21
-67.5
 31
0.0
  0
LINE
  5
7482
330
1E
100
AcDbEntity
  8
12
100
AcDbLine
 10
421.3937097878774
 20
-72.5
 30
0.0
 11
421.3937097878774
 21
-67.5
 31
0.0
  0
LINE
  5
7483
330
1E
100
AcDbEntity
  8
12
100
AcDbLine
 10
429.3937097878774
 20
70.0
 30
0.0
 11
374.3937097878776
 21
70.0
 31
0.0
  0
LINE
  5
7484
330
1E
100
AcDbEntity
  8
17
100
AcDbLine
 10
469.3937097878776
 20
114.0000000000005
 30
0.0
 11
312.3937097878775
 21
114.0000000000005
 31
0.0
  0
LINE
  5
7486
330
1E
100
AcDbEntity
  8
12
100
AcDbLine
 10
417.6937097878774
 20
65.60000000000002
 30
0.0
 11
412.6937097878775
 21
65.60000000000002
 31
0.0
  0
LINE
  5
7487
330
1E
100
AcDbEntity
  8
12
100
AcDbLine
 10
417.6937097878774
 20
67.79999999999984
 30
0.0
 11
412.6937097878775
 21
67.79999999999984
 31
0.0
  0
LINE
  5
7488
330
1E
100
AcDbEntity
  8
12
100
AcDbLine
 10
417.6937097878774
 20
74.39999999999997
 30
0.0
 11
412.6937097878775
 21
74.39999999999997
 31
0.0
  0
LINE
  5
7489
330
1E
100
AcDbEntity
  8
12
100
AcDbLine
 10
417.6937097878774
 20
72.20000000000005
 30
0.0
 11
412.6937097878775
 21
72.20000000000005
 31
0.0
  0
LINE
  5
748A
330
1E
100
AcDbEntity
  8
10
100
AcDbLine
 10
457.3937097878776
 20
90.0
 30
0.0
 11
362.3937097878775
 21
90.0
 31
0.0
  0
LINE
  5
748B
330
1E
100
AcDbEntity
  8
10
100
AcDbLine
 10
457.3937097878776
 20
138.0
 30
0.0
 11
362.3937097878775
 21
138.0
 31
0.0
  0
LINE
  5
748C
330
1E
100
AcDbEntity
  8
10
100
AcDbLine
 10
260.3937097878775
 20
130.0
 30
0.0
 11
260.3937097878775
 21
51.0
 31
0.0
  0
LINE
  5
748D
330
1E
100
AcDbEntity
  8
10
100
AcDbLine
 10
246.3937097878774
 20
29.78370889367909
 30
0.0
 11
219.7977223014651
 21
39.33264411704225
 31
0.0
  0
LINE
  5
748E
330
1E
100
AcDbEntity
  8
10
100
AcDbLine
 10
219.7977223014651
 20
39.33264411704225
 30
0.0
 11
215.7427216854251
 21
28.03853193396582
 31
0.0
  0
LINE
  5
748F
330
1E
100
AcDbEntity
  8
10
100
AcDbLine
 10
254.3937097878774
 20
51.0
 30
0.0
 11
254.3937097878774
 21
-51.0
 31
0.0
  0
LINE
  5
7490
330
1E
100
AcDbEntity
  8
10
100
AcDbLine
 10
250.3937097878774
 20
45.0
 30
0.0
 11
250.3937097878774
 21
-45.0
 31
0.0
  0
LINE
  5
7491
330
1E
100
AcDbEntity
  8
10
100
AcDbLine
 10
246.3937097878774
 20
45.0
 30
0.0
 11
246.3937097878774
 21
-45.0
 31
0.0
  0
LINE
  5
7492
330
1E
100
AcDbEntity
  8
10
100
AcDbLine
 10
246.3937097878774
 20
-45.0
 30
0.0
 11
254.3937097878774
 21
-45.0
 31
0.0
  0
LINE
  5
7493
330
1E
100
AcDbEntity
  8
10
100
AcDbLine
 10
254.3937097878774
 20
-51.0
 30
0.0
 11
260.3937097878775
 21
-51.0
 31
0.0
  0
LINE
  5
7494
330
1E
100
AcDbEntity
  8
10
100
AcDbLine
 10
246.3937097878774
 20
19.15870375340682
 30
0.0
 11
232.8891353884184
 21
24.00734139942017
 31
0.0
  0
LINE
  5
7495
330
1E
100
AcDbEntity
  8
10
100
AcDbLine
 10
246.3937097878774
 20
17.03370272535221
 30
0.0
 11
215.7427216854251
 21
28.03853193396582
 31
0.0
  0
LINE
  5
7496
330
1E
100
AcDbEntity
  8
10
100
AcDbLine
 10
235.592469132445
 20
31.53674952147116
 30
0.0
 11
232.8891353884184
 21
24.00734139942017
 31
0.0
  0
LINE
  5
7497
330
1E
100
AcDbEntity
  8
10
100
AcDbLine
 10
246.3937097878774
 20
27.65870786562459
 30
0.0
 11
235.5924691324453
 21
31.53674952147116
 31
0.0
  0
LINE
  5
7498
330
1E
100
AcDbEntity
  8
10
100
AcDbLine
 10
246.3937097878774
 20
45.0
 30
0.0
 11
254.3937097878774
 21
45.0
 31
0.0
  0
LINE
  5
7499
330
1E
100
AcDbEntity
  8
10
100
AcDbLine
 10
254.3937097878774
 20
51.0
 30
0.0
 11
260.3937097878775
 21
51.0
 31
0.0
  0
LINE
  5
749A
330
1E
100
AcDbEntity
  8
12
100
AcDbLine
 10
386.3937097878775
 20
65.5
 30
0.0
 11
382.3937097878776
 21
65.5
 31
0.0
  0
LINE
  5
749B
330
1E
100
AcDbEntity
  8
12
100
AcDbLine
 10
386.3937097878775
 20
74.5
 30
0.0
 11
382.3937097878776
 21
74.5
 31
0.0
  0
LINE
  5
749C
330
1E
100
AcDbEntity
  8
12
100
AcDbLine
 10
382.3937097878776
 20
74.5
 30
0.0
 11
382.3937097878776
 21
65.5
 31
0.0
  0
LINE
  5
749D
330
1E
100
AcDbEntity
  8
12
100
AcDbLine
 10
410.3937097878775
 20
72.5
 30
0.0
 11
387.3937097878775
 21
72.5
 31
0.0
  0
LINE
  5
749E
330
1E
100
AcDbEntity
  8
12
100
AcDbLine
 10
410.3937097878775
 20
67.5
 30
0.0
 11
387.3937097878775
 21
67.5
 31
0.0
  0
LINE
  5
749F
330
1E
100
AcDbEntity
  8
12
100
AcDbLine
 10
387.3937097878775
 20
65.0
 30
0.0
 11
386.3937097878775
 21
65.0
 31
0.0
  0
LINE
  5
74A0
330
1E
100
AcDbEntity
  8
12
100
AcDbLine
 10
387.3937097878775
 20
75.0
 30
0.0
 11
386.3937097878775
 21
75.0
 31
0.0
  0
LINE
  5
74A1
330
1E
100
AcDbEntity
  8
12
100
AcDbLine
 10
386.3937097878775
 20
75.0
 30
0.0
 11
386.3937097878775
 21
65.0
 31
0.0
  0
LINE
  5
74A2
330
1E
100
AcDbEntity
  8
12
100
AcDbLine
 10
387.3937097878775
 20
75.0
 30
0.0
 11
387.3937097878775
 21
65.0
 31
0.0
  0
LINE
  5
74A3
330
1E
100
AcDbEntity
  8
12
100
AcDbLine
 10
412.6937097878767
 20
75.0
 30
0.0
 11
410.3937097878775
 21
75.0
 31
0.0
  0
LINE
  5
74A4
330
1E
100
AcDbEntity
  8
12
100
AcDbLine
 10
412.6937097878767
 20
65.0
 30
0.0
 11
410.3937097878775
 21
65.0
 31
0.0
  0
LINE
  5
74A5
330
1E
100
AcDbEntity
  8
12
100
AcDbLine
 10
412.6937097878775
 20
75.0
 30
0.0
 11
412.6937097878775
 21
65.0
 31
0.0
  0
LINE
  5
74A6
330
1E
100
AcDbEntity
  8
12
100
AcDbLine
 10
411.3937097878776
 20
75.0
 30
0.0
 11
411.3937097878776
 21
65.0
 31
0.0
  0
LINE
  5
74A7
330
1E
100
AcDbEntity
  8
10
100
AcDbLine
 10
357.3937097878776
 20
130.0
 30
0.0
 11
260.3937097878775
 21
130.0
 31
0.0
  0
LINE
  5
74A8
330
1E
100
AcDbEntity
  8
10
100
AcDbLine
 10
362.3937097878775
 20
143.0
 30
0.0
 11
345.3937097878776
 21
143.0
 31
0.0
  0
LINE
  5
74A9
330
1E
100
AcDbEntity
  8
10
100
AcDbLine
 10
345.3937097878776
 20
143.0
 30
0.0
 11
345.3937097878776
 21
130.0
 31
0.0
  0
LINE
  5
74AA
330
1E
100
AcDbEntity
  8
10
100
AcDbLine
 10
392.3937097878775
 20
157.4999999999995
 30
0.0
 11
392.3937097878775
 21
138.0
 31
0.0
  0
LINE
  5
74AB
330
1E
100
AcDbEntity
  8
10
100
AcDbLine
 10
405.3937097878775
 20
157.4999999999995
 30
0.0
 11
405.3937097878775
 21
138.0
 31
0.0
  0
LINE
  5
74AC
330
1E
100
AcDbEntity
  8
10
100
AcDbLine
 10
405.3937097878775
 20
157.4999999999995
 30
0.0
 11
392.3937097878771
 21
157.4999999999995
 31
0.0
  0
LINE
  5
74AD
330
1E
100
AcDbEntity
  8
10
100
AcDbLine
 10
457.3937097878776
 20
138.0
 30
0.0
 11
457.3937097878776
 21
90.00000000000012
 31
0.0
  0
LINE
  5
74AE
330
1E
100
AcDbEntity
  8
12
100
AcDbLine
 10
417.6937097878774
 20
74.39999999999997
 30
0.0
 11
417.6937097878774
 21
65.60000000000002
 31
0.0
  0
LINE
  5
74AF
330
1E
100
AcDbEntity
  8
12
100
AcDbLine
 10
421.3937097878774
 20
72.5
 30
0.0
 11
421.3937097878774
 21
67.5
 31
0.0
  0
LINE
  5
74B0
330
1E
100
AcDbEntity
  8
12
100
AcDbLine
 10
421.3937097878778
 20
67.5
 30
0.0
 11
417.6937097878774
 21
67.5
 31
0.0
  0
LINE
  5
74B1
330
1E
100
AcDbEntity
  8
12
100
AcDbLine
 10
421.3937097878778
 20
72.5
 30
0.0
 11
417.6937097878774
 21
72.5
 31
0.0
  0
LINE
  5
74B2
330
1E
100
AcDbEntity
  8
10
100
AcDbLine
 10
461.3937097878776
 20
109.0000000000006
 30
0.0
 11
457.3937097878776
 21
109.0000000000006
 31
0.0
  0
LINE
  5
74B3
330
1E
100
AcDbEntity
  8
10
100
AcDbLine
 10
461.3937097878776
 20
119.0000000000005
 30
0.0
 11
457.3937097878776
 21
119.0000000000005
 31
0.0
  0
LINE
  5
74B4
330
1E
100
AcDbEntity
  8
10
100
AcDbLine
 10
461.3937097878776
 20
119.0000000000005
 30
0.0
 11
461.3937097878776
 21
109.0000000000006
 31
0.0
  0
LINE
  5
75AD
330
1E
100
AcDbEntity
  8
10
100
AcDbLine
 10
70.0
 20
130.0
 30
0.0
 11
70.0
 21
-130.0
 31
0.0
  0
LINE
  5
75AE
330
1E
100
AcDbEntity
  8
10
100
AcDbLine
 10
-70.0
 20
130.0
 30
0.0
 11
-70.0
 21
-130.0
 31
0.0
  0
ARC
  5
75AF
330
1E
100
AcDbEntity
  8
10
100
AcDbCircle
 10
45.0
 20
-114.0
 30
0.0
 40
5.5
210
0.0
220
0.0
230
-1.0
100
AcDbArc
 50
0.0
 51
180.0
  0
LINE
  5
75B0
330
1E
100
AcDbEntity
  8
10
100
AcDbLine
 10
-70.0
 20
-143.0
 30
0.0
 11
70.0
 21
-143.0
 31
0.0
  0
LINE
  5
75B1
330
1E
100
AcDbEntity
  8
17
100
AcDbLine
 10
-54.0
 20
-114.0
 30
0.0
 11
-36.0
 21
-114.0
 31
0.0
  0
LINE
  5
75B2
330
1E
100
AcDbEntity
  8
10
100
AcDbLine
 10
-70.0
 20
-130.0
 30
0.0
 11
70.0
 21
-130.0
 31
0.0
  0
LINE
  5
75B3
330
1E
100
AcDbEntity
  8
10
100
AcDbLine
 10
-70.0
 20
-130.0
 30
0.0
 11
-70.0
 21
-143.0
 31
0.0
  0
LINE
  5
75B4
330
1E
100
AcDbEntity
  8
10
100
AcDbLine
 10
-50.5
 20
-114.0
 30
0.0
 11
-50.5
 21
-130.0
 31
0.0
  0
LINE
  5
75B5
330
1E
100
AcDbEntity
  8
17
100
AcDbLine
 10
-45.0
 20
-123.0
 30
0.0
 11
-45.0
 21
-105.0
 31
0.0
  0
LINE
  5
75B7
330
1E
100
AcDbEntity
  8
10
100
AcDbLine
 10
15.0
 20
-157.5
 30
0.0
 11
30.0
 21
-157.5
 31
0.0
  0
LINE
  5
75B8
330
1E
100
AcDbEntity
  8
10
100
AcDbLine
 10
-30.0
 20
-157.5
 30
0.0
 11
-15.00000000000015
 21
-157.5
 31
0.0
  0
LINE
  5
75B9
330
1E
100
AcDbEntity
  8
10
100
AcDbLine
 10
-30.0
 20
-142.9999999999995
 30
0.0
 11
-30.0
 21
-157.5
 31
0.0
  0
LINE
  5
75BA
330
1E
100
AcDbEntity
  8
10
100
AcDbLine
 10
-15.0
 20
-142.9999999999995
 30
0.0
 11
-15.0
 21
-157.5
 31
0.0
  0
LINE
  5
75BB
330
1E
100
AcDbEntity
  8
10
100
AcDbLine
 10
15.0
 20
-142.9999999999995
 30
0.0
 11
15.0
 21
-157.5
 31
0.0
  0
LINE
  5
75BC
330
1E
100
AcDbEntity
  8
10
100
AcDbLine
 10
30.0
 20
-142.9999999999995
 30
0.0
 11
30.0
 21
-157.5
 31
0.0
  0
CIRCLE
  5
75C0
330
1E
100
AcDbEntity
  8
12
100
AcDbCircle
 10
22.5
 20
-107.0
 30
0.0
 40
4.0
  0
LINE
  5
75C1
330
1E
100
AcDbEntity
  8
12
100
AcDbLine
 10
30.5
 20
-107.0
 30
0.0
 11
14.5
 21
-107.0
 31
0.0
  0
LINE
  5
75C2
330
1E
100
AcDbEntity
  8
10
100
AcDbLine
 10
-39.5
 20
-114.0
 30
0.0
 11
-39.5
 21
-130.0
 31
0.0
  0
LINE
  5
75C3
330
1E
100
AcDbEntity
  8
12
100
AcDbLine
 10
-14.5
 20
-107.0
 30
0.0
 11
-30.5
 21
-107.0
 31
0.0
  0
CIRCLE
  5
75C4
330
1E
100
AcDbEntity
  8
12
100
AcDbCircle
 10
-22.5
 20
-107.0
 30
0.0
 40
4.0
  0
LINE
  5
75C5
330
1E
100
AcDbEntity
  8
12
100
AcDbLine
 10
-22.5
 20
-99.0
 30
0.0
 11
-22.5
 21
-115.0
 31
0.0
  0
LINE
  5
75C6
330
1E
100
AcDbEntity
  8
10
100
AcDbLine
 10
5.5
 20
-114.0
 30
0.0
 11
5.5
 21
-130.0
 31
0.0
  0
LINE
  5
75C7
330
1E
100
AcDbEntity
  8
10
100
AcDbLine
 10
-5.5
 20
-114.0
 30
0.0
 11
-5.5
 21
-130.0
 31
0.0
  0
LINE
  5
75C8
330
1E
100
AcDbEntity
  8
10
100
AcDbLine
 10
0.0
 20
-123.0
 30
0.0
 11
0.0
 21
-105.0
 31
0.0
  0
ARC
  5
75C9
330
1E
100
AcDbEntity
  8
10
100
AcDbCircle
 10
0.0
 20
-114.0
 30
0.0
 40
5.5
210
0.0
220
0.0
230
-1.0
100
AcDbArc
 50
0.0
 51
180.0
  0
LINE
  5
75CA
330
1E
100
AcDbEntity
  8
17
100
AcDbLine
 10
-9.0
 20
-114.0
 30
0.0
 11
9.0
 21
-114.0
 31
0.0
  0
LINE
  5
75CB
330
1E
100
AcDbEntity
  8
17
100
AcDbLine
 10
36.0
 20
-114.0
 30
0.0
 11
53.99999999999995
 21
-114.0
 31
0.0
  0
LINE
  5
75CC
330
1E
100
AcDbEntity
  8
10
100
AcDbLine
 10
50.49999999999993
 20
-114.0
 30
0.0
 11
50.49999999999993
 21
-130.0
 31
0.0
  0
LINE
  5
75CD
330
1E
100
AcDbEntity
  8
10
100
AcDbLine
 10
39.5
 20
-114.0
 30
0.0
 11
39.5
 21
-130.0
 31
0.0
  0
LINE
  5
75CE
330
1E
100
AcDbEntity
  8
17
100
AcDbLine
 10
45.0
 20
-123.0
 30
0.0
 11
45.0
 21
-105.0
 31
0.0
  0
LINE
  5
75CF
330
1E
100
AcDbEntity
  8
12
100
AcDbLine
 10
22.5
 20
-99.0
 30
0.0
 11
22.5
 21
-115.0
 31
0.0
  0
ARC
  5
75D0
330
1E
100
AcDbEntity
  8
10
100
AcDbCircle
 10
-45.0
 20
-114.0
 30
0.0
 40
5.5
210
0.0
220
0.0
230
-1.0
100
AcDbArc
 50
0.0
 51
180.0
  0
LINE
  5
75D1
330
1E
100
AcDbEntity
  8
10
100
AcDbLine
 10
70.0
 20
-130.0
 30
0.0
 11
70.0
 21
-143.0
 31
0.0
  0
ARC
  5
75D6
330
1E
100
AcDbEntity
  8
10
100
AcDbCircle
 10
-45.0
 20
114.0
 30
0.0
 40
5.5
100
AcDbArc
 50
180.0
 51
0.0
  0
LINE
  5
75D7
330
1E
100
AcDbEntity
  8
10
100
AcDbLine
 10
70.0
 20
143.0
 30
0.0
 11
-70.0
 21
143.0
 31
0.0
  0
LINE
  5
75D8
330
1E
100
AcDbEntity
  8
17
100
AcDbLine
 10
-54.0
 20
114.0
 30
0.0
 11
-36.0
 21
114.0
 31
0.0
  0
LINE
  5
75D9
330
1E
100
AcDbEntity
  8
10
100
AcDbLine
 10
-70.0
 20
-51.0
 30
0.0
 11
70.0
 21
-51.0
 31
0.0
  0
LINE
  5
75DA
330
1E
100
AcDbEntity
  8
10
100
AcDbLine
 10
-70.0
 20
50.99999999999898
 30
0.0
 11
70.0
 21
50.99999999999898
 31
0.0
  0
LINE
  5
75DC
330
1E
100
AcDbEntity
  8
10
100
AcDbLine
 10
-53.0
 20
-45.0
 30
0.0
 11
52.99999999999993
 21
-45.0
 31
0.0
  0
LINE
  5
75DD
330
1E
100
AcDbEntity
  8
10
100
AcDbLine
 10
-53.0
 20
45.0
 30
0.0
 11
52.99999999999993
 21
45.0
 31
0.0
  0
LINE
  5
75DE
330
1E
100
AcDbEntity
  8
10
100
AcDbLine
 10
70.0
 20
130.0
 30
0.0
 11
-70.0
 21
130.0
 31
0.0
  0
LINE
  5
75DF
330
1E
100
AcDbEntity
  8
10
100
AcDbLine
 10
-50.5
 20
114.0
 30
0.0
 11
-50.5
 21
130.0
 31
0.0
  0
LINE
  5
75E0
330
1E
100
AcDbEntity
  8
17
100
AcDbLine
 10
-45.0
 20
105.0
 30
0.0
 11
-45.0
 21
123.0
 31
0.0
  0
LINE
  5
75E1
330
1E
100
AcDbEntity
  8
10
100
AcDbLine
 10
-58.0
 20
40.0
 30
0.0
 11
-58.0
 21
-40.0
 31
0.0
  0
ARC
  5
75E2
330
1E
100
AcDbEntity
  8
10
100
AcDbCircle
 10
-53.0
 20
-40.0
 30
0.0
 40
5.0
100
AcDbArc
 50
180.0
 51
270.0
  0
ARC
  5
75E3
330
1E
100
AcDbEntity
  8
10
100
AcDbCircle
 10
-53.0
 20
40.0
 30
0.0
 40
5.0
100
AcDbArc
 50
90.0
 51
180.0
  0
LINE
  5
75E4
330
1E
100
AcDbEntity
  8
10
100
AcDbLine
 10
-70.0
 20
143.0
 30
0.0
 11
-70.0
 21
130.0
 31
0.0
  0
LINE
  5
75E7
330
1E
100
AcDbEntity
  8
10
100
AcDbLine
 10
50.49999999999993
 20
114.0
 30
0.0
 11
50.49999999999993
 21
130.0
 31
0.0
  0
LINE
  5
75E8
330
1E
100
AcDbEntity
  8
10
100
AcDbLine
 10
39.5
 20
114.0
 30
0.0
 11
39.5
 21
130.0
 31
0.0
  0
LINE
  5
75E9
330
1E
100
AcDbEntity
  8
10
100
AcDbLine
 10
5.5
 20
114.0
 30
0.0
 11
5.5
 21
130.0
 31
0.0
  0
LINE
  5
75EA
330
1E
100
AcDbEntity
  8
10
100
AcDbLine
 10
-5.5
 20
114.0
 30
0.0
 11
-5.5
 21
130.0
 31
0.0
  0
LINE
  5
75EB
330
1E
100
AcDbEntity
  8
10
100
AcDbLine
 10
-39.5
 20
114.0
 30
0.0
 11
-39.5
 21
130.0
 31
0.0
  0
LINE
  5
75ED
330
1E
100
AcDbEntity
  8
17
100
AcDbLine
 10
45.0
 20
105.0
 30
0.0
 11
45.0
 21
123.0
 31
0.0
  0
LINE
  5
75EE
330
1E
100
AcDbEntity
  8
10
100
AcDbLine
 10
0.0
 20
105.0
 30
0.0
 11
0.0
 21
123.0
 31
0.0
  0
LINE
  5
75F1
330
1E
100
AcDbEntity
  8
10
100
AcDbLine
 10
57.99999999999993
 20
40.0
 30
0.0
 11
57.99999999999993
 21
-40.0
 31
0.0
  0
LINE
  5
75F2
330
1E
100
AcDbEntity
  8
10
100
AcDbLine
 10
25.4999999999997
 20
-45.0
 30
0.0
 11
25.49999999999982
 21
45.0
 31
0.0
  0
LINE
  5
75F3
330
1E
100
AcDbEntity
  8
10
100
AcDbLine
 10
-25.49999999999977
 20
-45.0
 30
0.0
 11
-25.49999999999994
 21
45.0
 31
0.0
  0
LINE
  5
75F4
330
1E
100
AcDbEntity
  8
10
100
AcDbLine
 10
19.0
 20
-40.44999999999993
 30
0.0
 11
24.30000000000001
 21
-40.44999999999993
 31
0.0
  0
LINE
  5
75F5
330
1E
100
AcDbEntity
  8
10
100
AcDbLine
 10
19.0
 20
-33.85000000000001
 30
0.0
 11
24.30000000000001
 21
-33.85000000000001
 31
0.0
  0
LINE
  5
75F6
330
1E
100
AcDbEntity
  8
10
100
AcDbLine
 10
-18.0
 20
-34.0
 30
0.0
 11
-18.00000000000017
 21
34.0
 31
0.0
  0
LINE
  5
75F7
330
1E
100
AcDbEntity
  8
10
100
AcDbLine
 10
18.0
 20
-34.0
 30
0.0
 11
18.0
 21
34.0
 31
0.0
  0
LINE
  5
75F8
330
1E
100
AcDbEntity
  8
10
100
AcDbLine
 10
18.0
 20
-34.0
 30
0.0
 11
-18.0
 21
-34.0
 31
0.0
  0
LINE
  5
75F9
330
1E
100
AcDbEntity
  8
10
100
AcDbLine
 10
19.0
 20
-33.85000000000001
 30
0.0
 11
19.0
 21
-40.44999999999993
 31
0.0
  0
LINE
  5
75FA
330
1E
100
AcDbEntity
  8
10
100
AcDbLine
 10
18.0
 20
34.0
 30
0.0
 11
-18.00000000000017
 21
34.0
 31
0.0
  0
LINE
  5
75FB
330
1E
100
AcDbEntity
  8
10
100
AcDbLine
 10
16.99999999999983
 20
32.80866032004519
 30
0.0
 11
-17.00000000000017
 21
32.80866032004519
 31
0.0
  0
LINE
  5
75FC
330
1E
100
AcDbEntity
  8
10
100
AcDbLine
 10
17.00000000000022
 20
22.97883578857727
 30
0.0
 11
-17.0
 21
22.97883578857727
 31
0.0
  0
LINE
  5
75FD
330
1E
100
AcDbEntity
  8
10
100
AcDbLine
 10
-17.00000000000017
 20
22.97883578857727
 30
0.0
 11
-17.00000000000017
 21
32.80866032004519
 31
0.0
  0
LINE
  5
75FE
330
1E
100
AcDbEntity
  8
10
100
AcDbLine
 10
17.0
 20
22.97883578857727
 30
0.0
 11
17.0
 21
32.80866032004519
 31
0.0
  0
LINE
  5
75FF
330
1E
100
AcDbEntity
  8
10
100
AcDbLine
 10
24.30000000000001
 20
-33.85000000000001
 30
0.0
 11
24.30000000000001
 21
-40.44999999999993
 31
0.0
  0
ARC
  5
7600
330
1E
100
AcDbEntity
  8
10
100
AcDbCircle
 10
52.99999999999993
 20
-40.0
 30
0.0
 40
5.0
100
AcDbArc
 50
270.0
 51
0.0
  0
CIRCLE
  5
7601
330
1E
100
AcDbEntity
  8
12
100
AcDbCircle
 10
-22.5
 20
107.0
 30
0.0
 40
4.0
210
0.0
220
0.0
230
-1.0
  0
LINE
  5
7602
330
1E
100
AcDbEntity
  8
12
100
AcDbLine
 10
30.5
 20
107.0
 30
0.0
 11
14.5
 21
107.0
 31
0.0
  0
LINE
  5
7603
330
1E
100
AcDbEntity
  8
12
100
AcDbLine
 10
-22.5
 20
115.0
 30
0.0
 11
-22.5
 21
99.0
 31
0.0
  0
LINE
  5
7604
330
1E
100
AcDbEntity
  8
12
100
AcDbLine
 10
-14.5
 20
107.0
 30
0.0
 11
-30.5
 21
107.0
 31
0.0
  0
CIRCLE
  5
7605
330
1E
100
AcDbEntity
  8
12
100
AcDbCircle
 10
22.5
 20
107.0
 30
0.0
 40
4.0
210
0.0
220
0.0
230
-1.0
  0
ARC
  5
7606
330
1E
100
AcDbEntity
  8
10
100
AcDbCircle
 10
0.0
 20
114.0
 30
0.0
 40
5.5
100
AcDbArc
 50
180.0
 51
0.0
  0
LINE
  5
7607
330
1E
100
AcDbEntity
  8
17
100
AcDbLine
 10
-9.0
 20
114.0
 30
0.0
 11
9.0
 21
114.0
 31
0.0
  0
ARC
  5
7608
330
1E
100
AcDbEntity
  8
10
100
AcDbCircle
 10
52.99999999999993
 20
40.0
 30
0.0
 40
5.0
100
AcDbArc
 50
0.0
 51
90.0
  0
LINE
  5
7609
330
1E
100
AcDbEntity
  8
17
100
AcDbLine
 10
36.0
 20
114.0
 30
0.0
 11
53.99999999999995
 21
114.0
 31
0.0
  0
LINE
  5
760A
330
1E
100
AcDbEntity
  8
12
100
AcDbLine
 10
22.5
 20
115.0
 30
0.0
 11
22.5
 21
99.0
 31
0.0
  0
ARC
  5
760B
330
1E
100
AcDbEntity
  8
10
100
AcDbCircle
 10
45.0
 20
114.0
 30
0.0
 40
5.5
100
AcDbArc
 50
180.0
 51
0.0
  0
LINE
  5
7668
330
1E
100
AcDbEntity
  8
10
100
AcDbLine
 10
30.0
 20
157.4999999999995
 30
0.0
 11
15.0
 21
157.4999999999995
 31
0.0
  0
LINE
  5
7669
330
1E
100
AcDbEntity
  8
10
100
AcDbLine
 10
-15.0
 20
157.4999999999995
 30
0.0
 11
-15.0
 21
143.0
 31
0.0
  0
LINE
  5
766A
330
1E
100
AcDbEntity
  8
10
100
AcDbLine
 10
-30.0
 20
157.4999999999995
 30
0.0
 11
-30.0
 21
143.0
 31
0.0
  0
LINE
  5
766B
330
1E
100
AcDbEntity
  8
10
100
AcDbLine
 10
-15.0
 20
157.4999999999995
 30
0.0
 11
-30.0
 21
157.4999999999995
 31
0.0
  0
LINE
  5
766C
330
1E
100
AcDbEntity
  8
10
100
AcDbLine
 10
15.0
 20
157.4999999999995
 30
0.0
 11
15.0
 21
143.0
 31
0.0
  0
LINE
  5
766D
330
1E
100
AcDbEntity
  8
10
100
AcDbLine
 10
30.0
 20
157.4999999999995
 30
0.0
 11
30.0
 21
143.0
 31
0.0
  0
LINE
  5
7671
330
1E
100
AcDbEntity
  8
10
100
AcDbLine
 10
70.0
 20
143.0
 30
0.0
 11
70.0
 21
130.0
 31
0.0
  0
LINE
  5
7807
330
1E
100
AcDbEntity
  8
18
 48
2.0
100
AcDbLine
 10
70.0
 20
-307.0
 30
0.0
 11
70.0
 21
-593.0000000000001
 31
0.0
  0
LINE
  5
7808
330
1E
100
AcDbEntity
  8
18
 48
2.0
100
AcDbLine
 10
-70.0
 20
-307.0
 30
0.0
 11
-70.0
 21
-592.9999999999997
 31
0.0
  0
LINE
  5
7809
330
1E
100
AcDbEntity
  8
18
 48
2.0
100
AcDbLine
 10
-70.0
 20
-593.0
 30
0.0
 11
-30.00000000000017
 21
-593.0
 31
0.0
  0
LINE
  5
7811
330
1E
100
AcDbEntity
  8
18
 48
2.0
100
AcDbLine
 10
14.99999999999983
 20
-607.5
 30
0.0
 11
30.0
 21
-607.5
 31
0.0
  0
LINE
  5
7812
330
1E
100
AcDbEntity
  8
18
 48
2.0
100
AcDbLine
 10
-15.0
 20
-593.0
 30
0.0
 11
15.0
 21
-593.0
 31
0.0
  0
LINE
  5
7813
330
1E
100
AcDbEntity
  8
18
 48
2.0
100
AcDbLine
 10
-15.0
 20
-592.9999999999997
 30
0.0
 11
-15.0
 21
-607.5
 31
0.0
  0
LINE
  5
7814
330
1E
100
AcDbEntity
  8
18
 48
2.0
100
AcDbLine
 10
-30.0
 20
-592.9999999999997
 30
0.0
 11
-30.0
 21
-607.5
 31
0.0
  0
LINE
  5
7815
330
1E
100
AcDbEntity
  8
18
 48
2.0
100
AcDbLine
 10
-30.0
 20
-607.5
 30
0.0
 11
-15.00000000000015
 21
-607.5
 31
0.0
  0
LINE
  5
7816
330
1E
100
AcDbEntity
  8
18
 48
2.0
100
AcDbLine
 10
15.0
 20
-592.9999999999997
 30
0.0
 11
15.0
 21
-607.5
 31
0.0
  0
LINE
  5
7817
330
1E
100
AcDbEntity
  8
18
 48
2.0
100
AcDbLine
 10
30.0
 20
-593.0
 30
0.0
 11
70.0
 21
-593.0000000000001
 31
0.0
  0
LINE
  5
7818
330
1E
100
AcDbEntity
  8
18
 48
2.0
100
AcDbLine
 10
30.0
 20
-592.9999999999997
 30
0.0
 11
30.0
 21
-607.5
 31
0.0
  0
LINE
  5
781F
330
1E
100
AcDbEntity
  8
18
 48
2.0
100
AcDbLine
 10
-30.0
 20
-307.0
 30
0.0
 11
-70.0
 21
-307.0
 31
0.0
  0
LINE
  5
7821
330
1E
100
AcDbEntity
  8
18
 48
2.0
100
AcDbLine
 10
30.0
 20
-292.5
 30
0.0
 11
15.0
 21
-292.5
 31
0.0
  0
LINE
  5
7822
330
1E
100
AcDbEntity
  8
18
 48
2.0
100
AcDbLine
 10
15.0
 20
-307.0
 30
0.0
 11
-15.0
 21
-307.0
 31
0.0
  0
LINE
  5
7823
330
1E
100
AcDbEntity
  8
18
 48
2.0
100
AcDbLine
 10
-15.0
 20
-292.5
 30
0.0
 11
-15.0
 21
-307.0
 31
0.0
  0
LINE
  5
7824
330
1E
100
AcDbEntity
  8
18
 48
2.0
100
AcDbLine
 10
-30.0
 20
-292.5
 30
0.0
 11
-30.0
 21
-307.0
 31
0.0
  0
LINE
  5
7825
330
1E
100
AcDbEntity
  8
18
 48
2.0
100
AcDbLine
 10
-15.0
 20
-292.5
 30
0.0
 11
-30.0
 21
-292.5
 31
0.0
  0
LINE
  5
7826
330
1E
100
AcDbEntity
  8
18
 48
2.0
100
AcDbLine
 10
15.0
 20
-292.5
 30
0.0
 11
15.0
 21
-307.0
 31
0.0
  0
LINE
  5
7827
330
1E
100
AcDbEntity
  8
18
 48
2.0
100
AcDbLine
 10
70.0
 20
-307.0
 30
0.0
 11
30.0
 21
-307.0
 31
0.0
  0
LINE
  5
7828
330
1E
100
AcDbEntity
  8
18
 48
2.0
100
AcDbLine
 10
30.0
 20
-292.5
 30
0.0
 11
30.0
 21
-307.0
 31
0.0
  0
SPLINE
  5
7A00
330
1E
100
AcDbEntity
  8
10
100
AcDbSpline
210
0.0
220
0.0
230
1.0
 70
     8
 71
     3
 72
    14
 73
    10
 74
     0
 42
0.0000000001
 43
0.0000000001
 40
0.0
 40
0.0
 40
0.0
 40
0.0
 40
0.1428571428571429
 40
0.2857142857142857
 40
0.428571428571429
 40
0.5714285714285714
 40
0.7142857142857145
 40
0.8571428571428571
 40
1.0
 40
1.0
 40
1.0
 40
1.0
 10
216.0000000000003
 20
368.5
 30
0.0
 10
203.0000000000003
 20
358.5000000000007
 30
0.0
 10
183.0000000000003
 20
360.5000000000007
 30
0.0
 10
179.0000000000003
 20
342.5000000000006
 30
0.0
 10
155.0000000000003
 20
342.5000000000006
 30
0.0
 10
149.0000000000003
 20
322.5000000000006
 30
0.0
 10
141.0000000000003
 20
314.5000000000006
 30
0.0
 10
149.0000000000003
 20
300.5000000000006
 30
0.0
 10
139.0000000000003
 20
286.5000000000006
 30
0.0
 10
146.0000000000003
 20
273.4999999999999
 30
0.0
  0
SPLINE
  5
7A01
330
1E
100
AcDbEntity
  8
10
100
AcDbSpline
210
0.0
220
0.0
230
1.0
 70
     8
 71
     3
 72
     9
 73
     5
 74
     0
 42
0.0000000001
 43
0.0000000001
 40
0.0
 40
0.0
 40
0.0
 40
0.0
 40
0.5
 40
1.0
 40
1.0
 40
1.0
 40
1.0
 10
226.0000000000003
 20
313.5
 30
0.0
 10
221.0000000000003
 20
304.5000000000007
 30
0.0
 10
229.0000000000003
 20
292.5000000000006
 30
0.0
 10
221.0000000000003
 20
278.5000000000006
 30
0.0
 10
226.0000000000003
 20
265.5
 30
0.0
  0
LINE
  5
7A02
330
1E
100
AcDbEntity
  8
18
100
AcDbLine
 10
242.0000000000003
 20
298.5000000000006
 30
0.0
 11
242.0000000000003
 21
271.5000000000006
 31
0.0
  0
LINE
  5
7A03
330
1E
100
AcDbEntity
  8
18
100
AcDbLine
 10
236.0000000000002
 20
297.5000000000006
 30
0.0
 11
236.0000000000002
 21
271.5000000000006
 31
0.0
  0
LINE
  5
7A04
330
1E
100
AcDbEntity
  8
10
100
AcDbLine
 10
173.0000000000003
 20
344.1879249296566
 30
0.0
 11
173.0000000000003
 21
260.4999999999999
 31
0.0
  0
LINE
  5
7A05
330
1E
100
AcDbEntity
  8
10
100
AcDbLine
 10
168.0000000000003
 20
342.7155199943687
 30
0.0
 11
168.0000000000003
 21
273.4999999999999
 31
0.0
  0
LINE
  5
7A06
330
1E
100
AcDbEntity
  8
12
100
AcDbLine
 10
236.0000000000002
 20
301.5000000000006
 30
0.0
 11
236.0000000000002
 21
277.5000000000007
 31
0.0
  0
LINE
  5
7A07
330
1E
100
AcDbEntity
  8
10
100
AcDbLine
 10
268.0
 20
303.5000000000006
 30
0.0
 11
268.0
 21
294.5000000000007
 31
0.0
  0
LINE
  5
7A09
330
1E
100
AcDbEntity
  8
10
100
AcDbLine
 10
173.0000000000003
 20
265.5
 30
0.0
 11
237.6076951545873
 21
265.5
 31
0.0
  0
LINE
  5
7A0A
330
1E
100
AcDbEntity
  8
10
100
AcDbLine
 10
156.0000000000003
 20
260.4999999999999
 30
0.0
 11
173.0000000000003
 21
260.4999999999999
 31
0.0
  0
LINE
  5
7A0B
330
1E
100
AcDbEntity
  8
10
100
AcDbLine
 10
145.9999999999799
 20
273.4999999999999
 30
0.0
 11
168.0000000000003
 21
273.4999999999999
 31
0.0
  0
LINE
  5
7A0C
330
1E
100
AcDbEntity
  8
10
100
AcDbLine
 10
156.0000000000003
 20
273.4999999999999
 30
0.0
 11
156.0000000000003
 21
260.4999999999999
 31
0.0
  0
LINE
  5
7A0D
330
1E
100
AcDbEntity
  8
18
100
AcDbLine
 10
248.0000000000003
 20
265.5
 30
0.0
 11
268.0
 21
265.5
 31
0.0
  0
LINE
  5
7A0E
330
1E
100
AcDbEntity
  8
18
100
AcDbLine
 10
248.0000000000003
 20
259.5000000000006
 30
0.0
 11
282.0000000000001
 21
259.5000000000006
 31
0.0
  0
LINE
  5
7A0F
330
1E
100
AcDbEntity
  8
18
100
AcDbLine
 10
248.0000000000003
 20
265.5000000000006
 30
0.0
 11
282.0000000000001
 21
265.5000000000006
 31
0.0
  0
LINE
  5
7A10
330
1E
100
AcDbEntity
  8
12
100
AcDbLine
 10
236.0000000000002
 20
284.5000000000006
 30
0.0
 11
268.0
 21
284.5000000000006
 31
0.0
  0
LINE
  5
7A11
330
1E
100
AcDbEntity
  8
12
100
AcDbLine
 10
236.0000000000002
 20
294.5000000000007
 30
0.0
 11
268.0
 21
294.5000000000007
 31
0.0
  0
LINE
  5
7A12
330
1E
100
AcDbEntity
  8
10
100
AcDbLine
 10
216.0000000000003
 20
265.5
 30
0.0
 11
216.0000000000003
 21
246.0
 31
0.0
  0
LINE
  5
7A13
330
1E
100
AcDbEntity
  8
10
100
AcDbLine
 10
203.0000000000003
 20
265.5
 30
0.0
 11
203.0000000000003
 21
246.0
 31
0.0
  0
LINE
  5
7A14
330
1E
100
AcDbEntity
  8
10
100
AcDbLine
 10
203.0
 20
246.0
 30
0.0
 11
216.0000000000003
 21
246.0
 31
0.0
  0
LINE
  5
7A15
330
1E
100
AcDbEntity
  8
12
100
AcDbLine
 10
223.4919038134111
 20
277.5000000000007
 30
0.0
 11
236.0000000000004
 21
277.5000000000007
 31
0.0
  0
ARC
  5
7A16
330
1E
100
AcDbEntity
  8
18
100
AcDbCircle
 10
248.0000000000003
 20
271.5000000000006
 30
0.0
 40
12.0
100
AcDbArc
 50
180.0
 51
270.0
  0
ARC
  5
7A17
330
1E
100
AcDbEntity
  8
18
100
AcDbCircle
 10
248.0000000000003
 20
271.5000000000006
 30
0.0
 40
6.0
100
AcDbArc
 50
180.0
 51
270.0
  0
LINE
  5
7A18
330
1E
100
AcDbEntity
  8
12
100
AcDbLine
 10
236.0000000000002
 20
274.5000000000006
 30
0.0
 11
242.0000000000003
 21
274.5000000000006
 31
0.0
  0
LINE
  5
7A19
330
1E
100
AcDbEntity
  8
12
100
AcDbLine
 10
242.0000000000003
 20
280.5000000000006
 30
0.0
 11
246.5000000000002
 21
280.5000000000006
 31
0.0
  0
LINE
  5
7A1A
330
1E
100
AcDbEntity
  8
12
100
AcDbLine
 10
242.0000000000003
 20
298.5000000000006
 30
0.0
 11
246.5000000000002
 21
298.5000000000006
 31
0.0
  0
LINE
  5
7A1B
330
1E
100
AcDbEntity
  8
12
100
AcDbLine
 10
244.0000000000003
 20
298.5000000000006
 30
0.0
 11
244.0000000000003
 21
280.5000000000006
 31
0.0
  0
LINE
  5
7A1C
330
1E
100
AcDbEntity
  8
12
100
AcDbLine
 10
246.5000000000002
 20
280.6000000000008
 30
0.0
 11
255.5000000000003
 21
280.6000000000008
 31
0.0
  0
LINE
  5
7A1D
330
1E
100
AcDbEntity
  8
12
100
AcDbLine
 10
246.5000000000002
 20
285.0500000000008
 30
0.0
 11
255.5000000000003
 21
285.0500000000008
 31
0.0
  0
LINE
  5
7A1E
330
1E
100
AcDbEntity
  8
12
100
AcDbLine
 10
246.5000000000002
 20
298.4000000000006
 30
0.0
 11
255.5000000000003
 21
298.4000000000006
 31
0.0
  0
LINE
  5
7A1F
330
1E
100
AcDbEntity
  8
12
100
AcDbLine
 10
246.5000000000002
 20
293.9500000000005
 30
0.0
 11
255.5000000000003
 21
293.9500000000005
 31
0.0
  0
LINE
  5
7A20
330
1E
100
AcDbEntity
  8
12
100
AcDbLine
 10
255.5000000000003
 20
298.4000000000006
 30
0.0
 11
255.5000000000003
 21
280.6000000000008
 31
0.0
  0
LINE
  5
7A21
330
1E
100
AcDbEntity
  8
12
100
AcDbLine
 10
246.5000000000002
 20
298.5000000000006
 30
0.0
 11
246.5000000000002
 21
280.5000000000006
 31
0.0
  0
LINE
  5
7A22
330
1E
100
AcDbEntity
  8
10
100
AcDbLine
 10
268.0
 20
284.5000000000006
 30
0.0
 11
268.0
 21
265.5
 31
0.0
  0
SPLINE
  5
7A23
330
1E
100
AcDbEntity
  8
18
100
AcDbSpline
210
0.0
220
0.0
230
1.0
 70
     8
 71
     3
 72
     8
 73
     4
 74
     0
 42
0.0000000001
 43
0.0000000001
 40
0.0
 40
0.0
 40
0.0
 40
0.0
 40
1.0
 40
1.0
 40
1.0
 40
1.0
 10
282.0000000000001
 20
265.5000000000006
 30
0.0
 10
283.0000000000001
 20
262.5000000000006
 30
0.0
 10
281.0
 20
262.5000000000006
 30
0.0
 10
282.0000000000001
 20
259.5000000000006
 30
0.0
  0
LINE
  5
7A24
330
1E
100
AcDbEntity
  8
12
100
AcDbLine
 10
268.0
 20
284.5000000000006
 30
0.0
 11
272.0
 21
284.5000000000006
 31
0.0
  0
LINE
  5
7A25
330
1E
100
AcDbEntity
  8
12
100
AcDbLine
 10
268.0
 20
294.5000000000007
 30
0.0
 11
272.0
 21
294.5000000000007
 31
0.0
  0
LINE
  5
7A26
330
1E
100
AcDbEntity
  8
12
100
AcDbLine
 10
272.0
 20
294.5000000000007
 30
0.0
 11
272.0
 21
284.5000000000008
 31
0.0
  0
LINE
  5
7A28
330
1E
100
AcDbEntity
  8
12
100
AcDbLine
 10
221.0000000000003
 20
331.0
 30
0.0
 11
198.0000000000003
 21
331.0
 31
0.0
  0
LINE
  5
7A29
330
1E
100
AcDbEntity
  8
12
100
AcDbLine
 10
221.0000000000003
 20
336.0
 30
0.0
 11
198.0000000000003
 21
336.0
 31
0.0
  0
LINE
  5
7A2A
330
1E
100
AcDbEntity
  8
10
100
AcDbLine
 10
173.0000000000003
 20
313.5
 30
0.0
 11
237.6076951545864
 21
313.5
 31
0.0
  0
LINE
  5
7A2B
330
1E
100
AcDbEntity
  8
12
100
AcDbLine
 10
198.0000000000003
 20
338.5
 30
0.0
 11
197.0000000000003
 21
338.5
 31
0.0
  0
LINE
  5
7A2C
330
1E
100
AcDbEntity
  8
12
100
AcDbLine
 10
198.0000000000003
 20
328.5
 30
0.0
 11
197.0000000000003
 21
328.5
 31
0.0
  0
LINE
  5
7A2D
330
1E
100
AcDbEntity
  8
12
100
AcDbLine
 10
198.0000000000003
 20
328.5
 30
0.0
 11
198.0000000000003
 21
338.5
 31
0.0
  0
LINE
  5
7A2E
330
1E
100
AcDbEntity
  8
12
100
AcDbLine
 10
197.0000000000003
 20
328.5
 30
0.0
 11
197.0000000000003
 21
338.5
 31
0.0
  0
LINE
  5
7A2F
330
1E
100
AcDbEntity
  8
12
100
AcDbLine
 10
193.0000000000003
 20
329.0
 30
0.0
 11
193.0000000000003
 21
338.0000000000001
 31
0.0
  0
LINE
  5
7A30
330
1E
100
AcDbEntity
  8
12
100
AcDbLine
 10
197.0000000000003
 20
338.0
 30
0.0
 11
193.0000000000003
 21
338.0
 31
0.0
  0
LINE
  5
7A31
330
1E
100
AcDbEntity
  8
12
100
AcDbLine
 10
197.0000000000003
 20
329.0
 30
0.0
 11
193.0000000000003
 21
329.0
 31
0.0
  0
LINE
  5
7A33
330
1E
100
AcDbEntity
  8
18
100
AcDbLine
 10
248.0000000000003
 20
309.5000000000006
 30
0.0
 11
282.0000000000001
 21
309.5000000000006
 31
0.0
  0
LINE
  5
7A34
330
1E
100
AcDbEntity
  8
18
100
AcDbLine
 10
248.0000000000003
 20
303.5000000000006
 30
0.0
 11
282.0000000000001
 21
303.5000000000006
 31
0.0
  0
LINE
  5
7A35
330
1E
100
AcDbEntity
  8
10
100
AcDbLine
 10
216.0000000000003
 20
368.5
 30
0.0
 11
216.0000000000003
 21
313.5
 31
0.0
  0
LINE
  5
7A36
330
1E
100
AcDbEntity
  8
10
100
AcDbLine
 10
221.0000000000003
 20
318.4999999999997
 30
0.0
 11
221.0000000000003
 21
348.4999999999998
 31
0.0
  0
LINE
  5
7A37
330
1E
100
AcDbEntity
  8
12
100
AcDbLine
 10
223.6608695874342
 20
301.5000000000006
 30
0.0
 11
236.0000000000004
 21
301.5000000000006
 31
0.0
  0
LINE
  5
7A38
330
1E
100
AcDbEntity
  8
12
100
AcDbLine
 10
232.0000000000004
 20
331.0
 30
0.0
 11
228.3000000000003
 21
331.0
 31
0.0
  0
LINE
  5
7A39
330
1E
100
AcDbEntity
  8
12
100
AcDbLine
 10
232.0000000000004
 20
336.0
 30
0.0
 11
228.3000000000003
 21
336.0
 31
0.0
  0
LINE
  5
7A3A
330
1E
100
AcDbEntity
  8
10
100
AcDbLine
 10
221.0000000000003
 20
318.5
 30
0.0
 11
216.0000000000003
 21
318.5
 31
0.0
  0
LINE
  5
7A3B
330
1E
100
AcDbEntity
  8
12
100
AcDbLine
 10
228.3000000000003
 20
329.0999999999999
 30
0.0
 11
228.3000000000003
 21
337.9000000000002
 31
0.0
  0
LINE
  5
7A3C
330
1E
100
AcDbEntity
  8
12
100
AcDbLine
 10
223.3000000000003
 20
328.5
 30
0.0
 11
223.3000000000003
 21
338.5
 31
0.0
  0
LINE
  5
7A3D
330
1E
100
AcDbEntity
  8
12
100
AcDbLine
 10
228.3000000000003
 20
329.0999999999999
 30
0.0
 11
223.3000000000003
 21
329.0999999999999
 31
0.0
  0
LINE
  5
7A3E
330
1E
100
AcDbEntity
  8
12
100
AcDbLine
 10
223.2999999999995
 20
338.5
 30
0.0
 11
221.0000000000003
 21
338.5
 31
0.0
  0
LINE
  5
7A3F
330
1E
100
AcDbEntity
  8
12
100
AcDbLine
 10
223.2999999999995
 20
328.5
 30
0.0
 11
221.0000000000003
 21
328.5
 31
0.0
  0
LINE
  5
7A40
330
1E
100
AcDbEntity
  8
12
100
AcDbLine
 10
228.3000000000003
 20
331.2999999999996
 30
0.0
 11
223.3000000000003
 21
331.2999999999996
 31
0.0
  0
LINE
  5
7A41
330
1E
100
AcDbEntity
  8
12
100
AcDbLine
 10
228.3000000000003
 20
335.6999999999998
 30
0.0
 11
223.3000000000003
 21
335.6999999999998
 31
0.0
  0
LINE
  5
7A42
330
1E
100
AcDbEntity
  8
12
100
AcDbLine
 10
228.3000000000003
 20
337.9
 30
0.0
 11
223.3000000000003
 21
337.9
 31
0.0
  0
LINE
  5
7A43
330
1E
100
AcDbEntity
  8
12
100
AcDbLine
 10
222.0000000000003
 20
328.5
 30
0.0
 11
222.0000000000003
 21
338.5
 31
0.0
  0
ARC
  5
7A44
330
1E
100
AcDbEntity
  8
18
100
AcDbCircle
 10
248.0000000000003
 20
297.5000000000006
 30
0.0
 40
12.0
100
AcDbArc
 50
90.0
 51
180.0
  0
ARC
  5
7A45
330
1E
100
AcDbEntity
  8
18
100
AcDbCircle
 10
248.0000000000003
 20
297.5000000000006
 30
0.0
 40
6.0
100
AcDbArc
 50
90.0
 51
180.0
  0
LINE
  5
7A46
330
1E
100
AcDbEntity
  8
18
100
AcDbLine
 10
236.0000000000002
 20
294.5000000000007
 30
0.0
 11
242.0000000000003
 21
294.5000000000007
 31
0.0
  0
LINE
  5
7A47
330
1E
100
AcDbEntity
  8
12
100
AcDbLine
 10
232.0000000000003
 20
331.0000000000001
 30
0.0
 11
232.0000000000003
 21
336.0000000000001
 31
0.0
  0
LINE
  5
7A48
330
1E
100
AcDbEntity
  8
10
100
AcDbLine
 10
256.0
 20
353.5
 30
0.0
 11
226.0000000000003
 21
353.5
 31
0.0
  0
LINE
  5
7A49
330
1E
100
AcDbEntity
  8
10
100
AcDbLine
 10
256.0
 20
358.4999999999998
 30
0.0
 11
216.0000000000003
 21
358.4999999999998
 31
0.0
  0
ARC
  5
7A4A
330
1E
100
AcDbEntity
  8
10
100
AcDbCircle
 10
-226.0000000000003
 20
348.4999999999998
 30
0.0
 40
5.0
210
0.0
220
0.0
230
-1.0
100
AcDbArc
 50
0.0
 51
90.0
  0
LINE
  5
7A4B
330
1E
100
AcDbEntity
  8
10
100
AcDbLine
 10
256.0
 20
353.5
 30
0.0
 11
256.0
 21
358.4999999999998
 31
0.0
  0
SPLINE
  5
7A4C
330
1E
100
AcDbEntity
  8
18
100
AcDbSpline
210
0.0
220
0.0
230
1.0
 70
     8
 71
     3
 72
     8
 73
     4
 74
     0
 42
0.0000000001
 43
0.0000000001
 40
0.0
 40
0.0
 40
0.0
 40
0.0
 40
1.0
 40
1.0
 40
1.0
 40
1.0
 10
282.0000000000001
 20
309.5000000000006
 30
0.0
 10
283.0000000000001
 20
306.5000000000007
 30
0.0
 10
281.0
 20
306.5000000000007
 30
0.0
 10
282.0000000000001
 20
303.5000000000006
 30
0.0
  0
DIMENSION
  5
7A81
330
1E
100
AcDbEntity
  8
30
  6
Continuous
100
AcDbDimension
  2
*D1
 10
452.0569268515981
 20
306.7110319079341
 30
0.0
 11
479.9648401337988
 21
334.001285986539
 31
0.0
 70
   163
 71
     5
 42
-1.0
  3
STANDARD
100
AcDbDiametricDimension
 15
458.9430731484006
 25
315.2889680920655
 35
0.0
 40
0.0
1001
ACAD
1000
DSTYLE
1002
{
1070
    79
1070
     3
1070
   288
1070
     1
1002
}
  0
DIMENSION
  5
7A82
330
1E
100
AcDbEntity
  8
30
  6
Continuous
100
AcDbDimension
  2
*D2
 10
486.9423296781887
 20
311.0
 30
0.0
 11
483.4423296781886
 21
301.0
 31
0.0
 70
    32
 71
     5
 42
-1.0
  3
STANDARD
100
AcDbAlignedDimension
 13
470.5
 23
291.0
 33
0.0
 14
462.9999999999998
 24
311.0
 34
0.0
 50
90.0
100
AcDbRotatedDimension
1001
ACAD
1000
DSTYLE
1002
{
1070
    79
1070
     3
1002
}
  0
DIMENSION
  5
7A83
330
1E
100
AcDbEntity
  8
30
  6
Continuous
100
AcDbDimension
  2
*D3
 10
470.5
 20
275.4137199825054
 30
0.0
 11
455.4999999999998
 21
278.9137199825054
 31
0.0
 70
    32
 71
     5
 42
-1.0
  3
STANDARD
100
AcDbAlignedDimension
 13
440.5
 23
291.0
 33
0.0
 14
470.5
 24
291.0
 34
0.0
100
AcDbRotatedDimension
1001
ACAD
1000
DSTYLE
1002
{
1070
    79
1070
     3
1002
}
  0
LINE
  5
7A84
330
1E
100
AcDbEntity
  8
24
  6
CONTINOUS
100
AcDbLine
 10
463.5624817848158
 20
324.6552316442665
 30
0.0
 11
470.5
 21
326.6499034991694
 31
0.0
  0
LINE
  5
7A85
330
1E
100
AcDbEntity
  8
24
  6
CONTINOUS
100
AcDbLine
 10
440.5
 20
291.0
 30
0.0
 11
470.5
 21
291.0
 31
0.0
  0
LINE
  5
7A86
330
1E
100
AcDbEntity
  8
24
  6
CONTINOUS
100
AcDbLine
 10
440.5
 20
328.1412821908999
 30
0.0
 11
440.5
 21
291.0
 31
0.0
  0
LINE
  5
7A87
330
1E
100
AcDbEntity
  8
24
  6
CONTINOUS
100
AcDbLine
 10
455.4999999999997
 20
318.5
 30
0.0
 11
455.4999999999998
 21
303.5
 31
0.0
  0
CIRCLE
  5
7A88
330
1E
100
AcDbEntity
  8
24
  6
CONTINOUS
100
AcDbCircle
 10
455.4999999999997
 20
311.0
 30
0.0
 40
5.5
  0
LINE
  5
7A89
330
1E
100
AcDbEntity
  8
24
  6
CONTINOUS
100
AcDbLine
 10
447.9999999999995
 20
311.0
 30
0.0
 11
462.9999999999998
 21
311.0
 31
0.0
  0
ARC
  5
7A8A
330
1E
100
AcDbEntity
  8
24
  6
CONTINOUS
100
AcDbCircle
 10
442.3456855852392
 20
305.0467079395426
 30
0.0
 40
22.59903724617389
100
AcDbArc
 50
78.93706202154312
 51
94.49431768038436
  0
LINE
  5
7A8B
330
1E
100
AcDbEntity
  8
24
  6
CONTINOUS
100
AcDbLine
 10
446.6821509528972
 20
327.2257871036797
 30
0.0
 11
458.0902528026056
 21
324.3893848671846
 31
0.0
  0
ARC
  5
7A8C
330
1E
100
AcDbEntity
  8
24
  6
CONTINOUS
100
AcDbCircle
 10
460.4875818209463
 20
331.4959180288477
 30
0.0
 40
7.5
100
AcDbArc
 50
251.3586110284597
 51
294.2039969225343
  0
LINE
  5
7A8D
330
1E
100
AcDbEntity
  8
24
  6
CONTINOUS
100
AcDbLine
 10
470.5
 20
326.6499034991694
 30
0.0
 11
470.5
 21
291.0
 31
0.0
  0
TEXT
  5
7ACC
330
1E
100
AcDbEntity
  8
30
100
AcDbText
 10
240.8975598414476
 20
244.8175979197848
 30
0.0
 40
5.0
  1
M10 nut
 41
0.8216911764705923
  7
UGMTXT
100
AcDbText
  0
DIMENSION
  5
7ACD
330
1E
100
AcDbEntity
  8
30
  6
Continuous
100
AcDbDimension
  2
*D4
 10
173.0000000000003
 20
227.0
 30
0.0
 11
161.3333333333333
 21
227.0
 31
0.0
 70
   160
 71
     5
 42
-1.0
  3
STANDARD
100
AcDbAlignedDimension
 13
168.0000000000003
 23
273.4999999999999
 33
0.0
 14
173.0000000000003
 24
265.5
 34
0.0
100
AcDbRotatedDimension
  0
DIMENSION
  5
7AE5
330
1E
100
AcDbEntity
  8
30
  6
Continuous
100
AcDbDimension
  2
*D5
 10
216.0000000000003
 20
227.3333333333332
 30
0.0
 11
194.5000000000003
 21
230.8333333333333
 31
0.0
 70
    32
 71
     5
 42
-1.0
  3
STANDARD
100
AcDbAlignedDimension
 13
173.0000000000003
 23
260.4999999999999
 33
0.0
 14
216.0000000000003
 24
265.5
 34
0.0
100
AcDbRotatedDimension
  0
DIMENSION
  5
7AF2
330
1E
100
AcDbEntity
  8
30
  6
Continuous
100
AcDbDimension
  2
*D6
 10
236.0000000000002
 20
227.3333333333332
 30
0.0
 11
226.0000000000003
 21
230.8333333333333
 31
0.0
 70
    32
 71
     5
 42
-1.0
  3
STANDARD
100
AcDbAlignedDimension
 13
216.0000000000003
 23
246.0
 33
0.0
 14
236.0000000000002
 24
277.5000000000007
 34
0.0
100
AcDbRotatedDimension
  0
DIMENSION
  5
7AFF
330
1E
100
AcDbEntity
  8
30
  6
Continuous
100
AcDbDimension
  2
*D7
 10
272.0
 20
226.8333333333333
 30
0.0
 11
254.0000000000003
 21
230.3333333333333
 31
0.0
 70
    32
 71
     5
 42
-1.0
  3
STANDARD
100
AcDbAlignedDimension
 13
236.0000000000002
 23
265.5
 33
0.0
 14
272.0
 24
284.5000000000006
 34
0.0
100
AcDbRotatedDimension
  0
LEADER
  5
7B0C
330
1E
100
AcDbEntity
  8
30
  6
Continuous
100
AcDbLeader
  3
STANDARD
 73
     0
 40
5.0
 76
     3
 10
246.5000000000002
 20
280.5000000000006
 30
0.0
 10
239.0
 20
243.0
 30
0.0
 10
269.0
 20
243.0
 30
0.0
340
7B0D
213
-39.0
223
-4.5
233
0.0
1001
ACAD
1000
DSTYLE
1002
{
1070
     5
1000
OPEN
1070
    77
1070
     0
1070
   147
1040
1.0
1070
   342
1005
3B2
1002
}
  0
MTEXT
  5
7B0D
102
{ACAD_REACTORS
330
7B0C
102
}
330
1E
100
AcDbEntity
  8
30
  6
Continuous
100
AcDbMText
 10
336.0
 20
247.5
 30
0.0
 40
5.0
 41
0.0
 71
     1
 72
     1
  1
\A1;
 73
     1
 44
1.0
1001
ACAD
1000
MTEXTBEGIN
1070
    73
1070
     1
1070
    44
1040
1.0
1070
    74
1070
     0
1000
MTEXTEND
1000
MTEXTBEGIN
1070
    73
1070
     1
1070
    44
1040
1.0
1070
    74
1070
     0
1000
MTEXTEND
1000
MTEXTBEGIN
1070
    73
1070
     1
1070
    44
1040
1.0
1070
    74
1070
     0
1000
MTEXTEND
  0
DIMENSION
  5
7B0E
330
1E
100
AcDbEntity
  8
30
  6
Continuous
100
AcDbDimension
  2
*D8
 10
232.0000000000004
 20
379.0
 30
0.0
 11
224.0000000000004
 21
382.5
 31
0.0
 70
    32
 71
     5
 42
-1.0
  3
STANDARD
100
AcDbAlignedDimension
 13
216.0000000000003
 23
358.4999999999998
 33
0.0
 14
232.0000000000004
 24
336.0
 34
0.0
100
AcDbRotatedDimension
  0
LEADER
  5
7B1B
330
1E
100
AcDbEntity
  8
30
  6
Continuous
100
AcDbLeader
  3
STANDARD
 40
5.0
 76
     3
 10
276.5
 20
260.5000000000007
 30
0.0
 10
289.0
 20
241.0
 30
0.0
 10
368.0
 20
241.0
 30
0.0
213
0.0
223
-2.5
233
0.0
1001
ACAD
1000
DSTYLE
1002
{
1070
     5
1000
OPEN
1070
    77
1070
     0
1070
   147
1040
1.0
1070
   342
1005
3B2
1002
}
  0
TEXT
  5
7B1C
330
1E
100
AcDbEntity
  8
30
100
AcDbText
 10
290.8975598414476
 20
242.8175979197848
 30
0.0
 40
5.0
  1
30 max. conductor width
 41
0.8216911764705923
  7
UGMTXT
100
AcDbText
  0
DIMENSION
  5
7B1D
330
1E
100
AcDbEntity
  8
30
  6
Continuous
100
AcDbDimension
  2
*D9
 10
291.0
 20
309.5000000000006
 30
0.0
 11
291.0
 21
302.0
 31
0.0
 70
   160
  1
 
 71
     5
 42
-1.0
  3
STANDARD
100
AcDbAlignedDimension
 13
272.0
 23
289.5000000000008
 33
0.0
 14
282.0000000000001
 24
309.5000000000006
 34
0.0
 50
90.0
100
AcDbRotatedDimension
  0
TEXT
  5
7B68
330
1E
100
AcDbEntity
  8
30
100
AcDbText
 10
299.098074945947
 20
286.0
 30
0.0
 40
5.0
  1
20 (max.)
 50
90.0
 41
0.8216911764705923
  7
UGMTXT
100
AcDbText
  0
DIMENSION
  5
7DCD
330
1E
100
AcDbEntity
  8
30
  6
Continuous
100
AcDbDimension
  2
*D10
 10
-90.0
 20
-130.0
 30
0.0
 11
-93.49999999999996
 21
-0.0000000000000793
 31
0.0
 70
    32
 71
     5
 42
-1.0
  3
STANDARD
100
AcDbAlignedDimension
 13
-70.0
 23
130.0
 33
0.0
 14
-70.0
 24
-130.0
 34
0.0
 50
90.0
100
AcDbRotatedDimension
  0
DIMENSION
  5
7DDA
330
1E
100
AcDbEntity
  8
30
  6
Continuous
100
AcDbDimension
  2
*D11
 10
-103.0
 20
-143.0
 30
0.0
 11
-106.4999999999999
 21
-0.0000000000000217
 31
0.0
 70
    32
 71
     5
 42
-1.0
  3
STANDARD
100
AcDbAlignedDimension
 13
-70.0
 23
143.0
 33
0.0
 14
-70.0
 24
-143.0
 34
0.0
 50
90.0
100
AcDbRotatedDimension
  0
DIMENSION
  5
7DE7
330
1E
100
AcDbEntity
  8
30
  6
Continuous
100
AcDbDimension
  2
*D12
 10
-117.0
 20
-157.4999999999999
 30
0.0
 11
-120.4999999999996
 21
-0.0000000000000493
 31
0.0
 70
    32
 71
     5
 42
-1.0
  3
STANDARD
100
AcDbAlignedDimension
 13
-30.0
 23
157.4999999999995
 33
0.0
 14
-30.0
 24
-157.5
 34
0.0
 50
90.0
100
AcDbRotatedDimension
  0
DIMENSION
  5
7E0F
330
1E
100
AcDbEntity
  8
30
  6
Continuous
100
AcDbDimension
  2
*D13
 10
70.0
 20
-176.0
 30
0.0
 11
0.0000000000000002
 21
-172.5
 31
0.0
 70
    32
 71
     5
 42
-1.0
  3
STANDARD
100
AcDbAlignedDimension
 13
-70.0
 23
-143.0
 33
0.0
 14
70.0
 24
-143.0
 34
0.0
100
AcDbRotatedDimension
  0
DIMENSION
  5
827B
330
1E
100
AcDbEntity
  8
30
  6
Continuous
100
AcDbDimension
  2
*D14
 10
405.3937097878775
 20
-171.0
 30
0.0
 11
329.8937097878775
 21
-167.5
 31
0.0
 70
    32
 71
     5
 42
-1.0
  3
STANDARD
100
AcDbAlignedDimension
 13
254.3937097878774
 23
-51.0
 33
0.0
 14
405.3937097878775
 24
-157.5
 34
0.0
100
AcDbRotatedDimension
  0
DIMENSION
  5
8288
330
1E
100
AcDbEntity
  8
30
  6
Continuous
100
AcDbDimension
  2
*D15
 10
457.3937097878776
 20
-171.0
 30
0.0
 11
431.3937097878776
 21
-167.5
 31
0.0
 70
    32
 71
     5
 42
-1.0
  3
STANDARD
100
AcDbAlignedDimension
 13
405.3937097878775
 23
-138.0
 33
0.0
 14
457.3937097878776
 24
-137.9999999999998
 34
0.0
100
AcDbRotatedDimension
  0
DIMENSION
  5
8295
330
1E
100
AcDbEntity
  8
30
  6
Continuous
100
AcDbDimension
  2
*D16
 10
461.3937097878776
 20
-171.0
 30
0.0
 11
468.0603764545442
 21
-167.5
 31
0.0
 70
    32
 71
     5
 42
-1.0
  3
STANDARD
100
AcDbAlignedDimension
 13
457.3937097878776
 23
-138.9999999999998
 33
0.0
 14
461.3937097878776
 24
-118.9999999999992
 34
0.0
100
AcDbRotatedDimension
  0
DIMENSION
  5
82A3
330
1E
100
AcDbEntity
  8
30
  6
Continuous
100
AcDbDimension
  2
*D17
 10
486.0
 20
-113.9999999999992
 30
0.0
 11
482.5
 21
0.0000000000008091
 31
0.0
 70
    32
 71
     5
 42
-1.0
  3
STANDARD
100
AcDbAlignedDimension
 13
469.3937097878776
 23
114.0000000000005
 33
0.0
 14
469.3937097878776
 24
-113.9999999999992
 34
0.0
 50
90.0
100
AcDbRotatedDimension
  0
DIMENSION
  5
82B0
330
1E
100
AcDbEntity
  8
30
  6
Continuous
100
AcDbDimension
  2
*D18
 10
468.0
 20
-90.0
 30
0.0
 11
464.5
 21
0.0000000000000712
 31
0.0
 70
    32
 71
     5
 42
-1.0
  3
STANDARD
100
AcDbAlignedDimension
 13
457.3937097878776
 23
90.0
 33
0.0
 14
457.3937097878776
 24
-90.0
 34
0.0
 50
90.0
100
AcDbRotatedDimension
  0
CIRCLE
  5
8317
330
1E
100
AcDbEntity
  8
12
100
AcDbCircle
 10
-35.0
 20
-520.0
 30
0.0
 40
2.75
  0
LINE
  5
8318
330
1E
100
AcDbEntity
  8
12
100
AcDbLine
 10
-41.74999999999999
 20
-520.0
 30
0.0
 11
-28.25
 21
-520.0
 31
0.0
  0
LINE
  5
8319
330
1E
100
AcDbEntity
  8
12
100
AcDbLine
 10
-35.0
 20
-513.25
 30
0.0
 11
-35.0
 21
-526.75
 31
0.0
  0
CIRCLE
  5
831A
330
1E
100
AcDbEntity
  8
12
100
AcDbCircle
 10
-35.0
 20
-380.0
 30
0.0
 40
2.75
  0
LINE
  5
831B
330
1E
100
AcDbEntity
  8
12
100
AcDbLine
 10
-41.74999999999999
 20
-380.0
 30
0.0
 11
-28.25
 21
-380.0
 31
0.0
  0
LINE
  5
831C
330
1E
100
AcDbEntity
  8
12
100
AcDbLine
 10
-35.0
 20
-373.2499999999998
 30
0.0
 11
-35.0
 21
-386.75
 31
0.0
  0
LINE
  5
831D
330
1E
100
AcDbEntity
  8
12
100
AcDbLine
 10
35.0
 20
-513.25
 30
0.0
 11
35.0
 21
-526.75
 31
0.0
  0
CIRCLE
  5
831E
330
1E
100
AcDbEntity
  8
12
100
AcDbCircle
 10
35.0
 20
-520.0
 30
0.0
 40
2.75
  0
LINE
  5
831F
330
1E
100
AcDbEntity
  8
12
100
AcDbLine
 10
28.25
 20
-520.0
 30
0.0
 11
41.74999999999999
 21
-520.0
 31
0.0
  0
CIRCLE
  5
8320
330
1E
100
AcDbEntity
  8
12
100
AcDbCircle
 10
35.0
 20
-380.0
 30
0.0
 40
2.75
  0
LINE
  5
8321
330
1E
100
AcDbEntity
  8
12
100
AcDbLine
 10
35.0
 20
-373.2499999999998
 30
0.0
 11
35.0
 21
-386.75
 31
0.0
  0
LINE
  5
8322
330
1E
100
AcDbEntity
  8
12
100
AcDbLine
 10
28.25
 20
-380.0
 30
0.0
 11
41.74999999999999
 21
-380.0
 31
0.0
  0
DIMENSION
  5
8323
330
1E
100
AcDbEntity
  8
30
  6
Continuous
100
AcDbDimension
  2
*D19
 10
34.99999999999999
 20
-648.0
 30
0.0
 11
-0.0000000000000069
 21
-644.5
 31
0.0
 70
    32
 71
     5
 42
-1.0
  3
STANDARD
100
AcDbAlignedDimension
 13
-35.0
 23
-526.75
 33
0.0
 14
35.0
 24
-526.75
 34
0.0
100
AcDbRotatedDimension
  0
DIMENSION
  5
834A
330
1E
100
AcDbEntity
  8
30
  6
Continuous
100
AcDbDimension
  2
*D22
 10
110.0
 20
-520.0
 30
0.0
 11
106.5000000000001
 21
-450.0
 31
0.0
 70
    32
 71
     5
 42
-1.0
  3
STANDARD
100
AcDbAlignedDimension
 13
41.74999999999999
 23
-380.0
 33
0.0
 14
41.74999999999999
 24
-520.0
 34
0.0
 50
90.0
100
AcDbRotatedDimension
  0
LINE
  5
837F
330
1E
100
AcDbEntity
  8
10
 48
2.0
100
AcDbLine
 10
95.70980217546212
 20
-400.0
 30
0.0
 11
-82.29019782453997
 21
-400.0
 31
0.0
  0
LINE
  5
8380
330
1E
100
AcDbEntity
  8
10
 48
2.0
100
AcDbLine
 10
98.00000000000006
 20
-405.0
 30
0.0
 11
-80.0
 21
-405.0
 31
0.0
  0
LINE
  5
8381
330
1E
100
AcDbEntity
  8
10
 48
2.0
100
AcDbLine
 10
98.00000000000006
 20
-365.0
 30
0.0
 11
-80.0
 21
-365.0
 31
0.0
  0
SPLINE
  5
8382
330
1E
100
AcDbEntity
  8
10
 48
2.0
100
AcDbSpline
210
0.0
220
0.0
230
1.0
 70
     8
 71
     3
 72
     9
 73
     5
 74
     0
 42
0.0000000001
 43
0.0000000001
 40
0.0
 40
0.0
 40
0.0
 40
0.0
 40
0.5
 40
1.0
 40
1.0
 40
1.0
 40
1.0
 10
-80.0
 20
-365.0
 30
0.0
 10
-86.5
 20
-377.0
 30
0.0
 10
-78.5
 20
-389.0
 30
0.0
 10
-84.50000000000001
 20
-399.0
 30
0.0
 10
-80.0
 20
-405.0
 30
0.0
  0
SPLINE
  5
8384
330
1E
100
AcDbEntity
  8
10
 48
2.0
100
AcDbSpline
210
0.0
220
0.0
230
1.0
 70
     8
 71
     3
 72
     9
 73
     5
 74
     0
 42
0.0000000001
 43
0.0000000001
 40
0.0
 40
0.0
 40
0.0
 40
0.0
 40
0.5
 40
1.0
 40
1.0
 40
1.0
 40
1.0
 10
98.00000000000006
 20
-365.0
 30
0.0
 10
91.50000000000003
 20
-377.0
 30
0.0
 10
99.50000000000006
 20
-389.0
 30
0.0
 10
93.50000000000006
 20
-399.0
 30
0.0
 10
98.00000000000006
 20
-405.0
 30
0.0
  0
LINE
  5
8385
330
1E
100
AcDbEntity
  8
10
 48
2.0
100
AcDbLine
 10
-82.28189342645647
 20
-500.0
 30
0.0
 11
81.7181065735436
 21
-500.0
 31
0.0
  0
LINE
  5
8386
330
1E
100
AcDbEntity
  8
10
 48
2.0
100
AcDbLine
 10
-80.0
 20
-535.0
 30
0.0
 11
84.00000000000003
 21
-535.0
 31
0.0
  0
LINE
  5
8387
330
1E
100
AcDbEntity
  8
10
 48
2.0
100
AcDbLine
 10
-80.0
 20
-495.0
 30
0.0
 11
84.00000000000003
 21
-495.0
 31
0.0
  0
SPLINE
  5
8388
330
1E
100
AcDbEntity
  8
10
 48
2.0
100
AcDbSpline
210
0.0
220
0.0
230
1.0
 70
     8
 71
     3
 72
     9
 73
     5
 74
     0
 42
0.0000000001
 43
0.0000000001
 40
0.0
 40
0.0
 40
0.0
 40
0.0
 40
0.5
 40
1.0
 40
1.0
 40
1.0
 40
1.0
 10
84.00000000000003
 20
-495.0
 30
0.0
 10
77.50000000000007
 20
-507.0
 30
0.0
 10
85.50000000000007
 20
-517.0
 30
0.0
 10
79.50000000000007
 20
-525.0
 30
0.0
 10
84.00000000000003
 20
-535.0
 30
0.0
  0
SPLINE
  5
8389
330
1E
100
AcDbEntity
  8
10
 48
2.0
100
AcDbSpline
210
0.0
220
0.0
230
1.0
 70
     8
 71
     3
 72
     9
 73
     5
 74
     0
 42
0.0000000001
 43
0.0000000001
 40
0.0
 40
0.0
 40
0.0
 40
0.0
 40
0.5
 40
1.0
 40
1.0
 40
1.0
 40
1.0
 10
-80.0
 20
-495.0
 30
0.0
 10
-86.5
 20
-507.0
 30
0.0
 10
-78.5
 20
-517.0
 30
0.0
 10
-84.50000000000001
 20
-525.0
 30
0.0
 10
-80.0
 20
-535.0
 30
0.0
  0
INSERT
  5
83A9
330
1E
100
AcDbEntity
  8
30
100
AcDbBlockReference
  2
*U23
 10
-1220.627990430622
 20
-779.6618080089404
 30
0.0
 41
2.5
 42
2.5
 43
2.5
  0
TEXT
  5
83AA
330
1E
100
AcDbEntity
  8
30
100
AcDbText
 10
91.08930659638737
 20
-589.9116046250867
 30
0.0
 40
6.25
  1
Mounting plate
 41
0.7125304878048843
  7
UGMTXT
100
AcDbText
  0
LINE
  5
8403
330
1E
100
AcDbEntity
  8
0
100
AcDbLine
 10
70.0
 20
-130.0
 30
0.0
 11
70.0
 21
130.0
 31
0.0
  0
VIEWPORT
  5
9AC
330
1A
100
AcDbEntity
 67
     1
  8
0
  6
Continuous
100
AcDbViewport
 10
171.9995348790992
 20
144.1384735538403
 30
0.0
 40
488.8676857773511
 41
292.3514905034161
 68
     1
 69
     1
 12
171.9995348790992
 22
144.1384735538403
 13
0.0
 23
0.0
 14
10.0
 24
10.0
 15
10.0
 25
10.0
 16
0.0
 26
0.0
 36
1.0
 17
0.0
 27
0.0
 37
0.0
 42
50.0
 43
0.0
 44
0.0
 45
292.3514905034161
 50
0.0
 51
0.0
 72
   100
 90
    32800
  1

281
     0
 71
     1
 74
     0
110
0.0
120
0.0
130
0.0
111
1.0
121
0.0
131
0.0
112
0.0
122
1.0
132
0.0
 79
     0
146
0.0
  0
ENDSEC
  0
SECTION
  2
OBJECTS
  0
DICTIONARY
  5
C
330
0
100
AcDbDictionary
281
     1
  3
ACAD_GROUP
350
D
  3
ACAD_LAYOUT
350
19
  3
ACAD_MLINESTYLE
350
16
  3
ACAD_PLOTSETTINGS
350
18
  3
ACAD_PLOTSTYLENAME
350
E
  3
ACDBVARIABLEDICTIONARY
350
69C9
  0
DICTIONARY
  5
178
330
1E
100
AcDbDictionary
280
     1
281
     1
  3
ACAD_LAYOUTSELFREF
360
855A
  0
DICTIONARY
  5
17A
330
1A
100
AcDbDictionary
280
     1
281
     1
  3
ACAD_LAYOUTSELFREF
360
8559
  0
DICTIONARY
  5
D
102
{ACAD_REACTORS
330
C
102
}
330
C
100
AcDbDictionary
281
     1
  0
DICTIONARY
  5
19
102
{ACAD_REACTORS
330
C
102
}
330
C
100
AcDbDictionary
281
     1
  3
Model
350
8560
  3
ﾚｲｱｳﾄ1
350
8561
  0
DICTIONARY
  5
16
102
{ACAD_REACTORS
330
C
102
}
330
C
100
AcDbDictionary
281
     1
  3
STANDARD
350
17
  0
DICTIONARY
  5
18
102
{ACAD_REACTORS
330
C
102
}
330
C
100
AcDbDictionary
281
     1
  0
ACDBDICTIONARYWDFLT
  5
E
102
{ACAD_REACTORS
330
C
102
}
330
C
100
AcDbDictionary
281
     1
  3
Normal
350
F
100
AcDbDictionaryWithDefault
340
F
  0
DICTIONARY
  5
69C9
102
{ACAD_REACTORS
330
C
102
}
330
C
100
AcDbDictionary
281
     1
  3
DIMASSOC
350
69CA
  0
XRECORD
  5
855A
102
{ACAD_REACTORS
330
178
102
}
330
178
100
AcDbXrecord
280
     1
340
1E
  0
XRECORD
  5
8559
102
{ACAD_REACTORS
330
17A
102
}
330
17A
100
AcDbXrecord
280
     1
340
1A
  0
LAYOUT
  5
8560
102
{ACAD_REACTORS
330
19
102
}
330
19
100
AcDbPlotSettings
  1

  2
Canon LBP3800 LIPSLX
  4

  6

 40
0.0
 41
0.0
 42
0.0
 43
0.0
 44
0.0
 45
0.0
 46
0.0
 47
0.0
 48
0.0
 49
0.0
140
0.0
141
0.0
142
1.0
143
1.0
 70
  1712
 72
     0
 73
     0
 74
     0
  7
monochrome.ctb
 75
     0
147
1.0
148
0.0
149
0.0
100
AcDbLayout
  1
Model
 70
     1
 71
     0
 10
0.0
 20
0.0
 11
12.0
 21
9.0
 12
0.0
 22
0.0
 32
0.0
 14
0.0
 24
0.0
 34
0.0
 15
0.0
 25
0.0
 35
0.0
146
0.0
 13
0.0
 23
0.0
 33
0.0
 16
1.0
 26
0.0
 36
0.0
 17
0.0
 27
1.0
 37
0.0
 76
     0
330
1E
  0
LAYOUT
  5
8561
102
{ACAD_REACTORS
330
19
102
}
330
19
100
AcDbPlotSettings
  1

  2
Canon LBP3800 LIPSLX
  4

  6

 40
0.0
 41
0.0
 42
0.0
 43
0.0
 44
0.0
 45
0.0
 46
0.0
 47
0.0
 48
0.0
 49
0.0
140
0.0
141
0.0
142
1.0
143
1.0
 70
   688
 72
     0
 73
     0
 74
     5
  7
monochrome.ctb
 75
    16
147
1.0
148
0.0
149
0.0
100
AcDbLayout
  1
ﾚｲｱｳﾄ1
 70
     1
 71
     1
 10
-5.873748779296875
 20
-5.873749732971191
 11
204.0995788574218
 21
291.1369009017943
 12
0.0
 22
0.0
 32
0.0
 14
4.273573370203961
 24
5.205246163471485
 34
0.0
 15
194.6100952986349
 25
283.0697008572913
 35
0.0
146
0.0
 13
0.0
 23
0.0
 33
0.0
 16
1.0
 26
0.0
 36
0.0
 17
0.0
 27
1.0
 37
0.0
 76
     0
330
1A
331
9AC
  0
MLINESTYLE
  5
17
102
{ACAD_REACTORS
330
16
102
}
330
16
100
AcDbMlineStyle
  2
STANDARD
 70
     0
  3

 62
   256
 51
90.0
 52
90.0
 71
     2
 49
0.5
 62
   256
  6
BYLAYER
 49
-0.5
 62
   256
  6
BYLAYER
  0
ACDBPLACEHOLDER
  5
F
102
{ACAD_REACTORS
330
E
102
}
330
E
  0
DICTIONARYVAR
  5
69CA
102
{ACAD_REACTORS
330
69C9
102
}
330
69C9
100
DictionaryVariables
280
     0
  1
1
  0
ENDSEC
  0
EOF
