  0
SECTION
  2
HEADER
  9
$ACADVER
  1
AC1014
  9
$ACADMAINTVER
 70
     9
  9
$DWGCODEPAGE
  3
ANSI_932
  9
$INSBASE
 10
0.0
 20
0.0
 30
0.0
  9
$EXTMIN
 10
-120.5887787465562
 20
-519.2058028152983
 30
-0.0000000000000129
  9
$EXTMAX
 10
349.7785352896426
 20
407.9721878828945
 30
0.0000000000000024
  9
$LIMMIN
 10
-296.316999476111
 20
-370.7034300441653
  9
$LIMMAX
 10
623.3128432133979
 20
328.6261559379898
  9
$ORTHOMODE
 70
     0
  9
$REGENMODE
 70
     1
  9
$FILLMODE
 70
     1
  9
$QTEXTMODE
 70
     0
  9
$MIRRTEXT
 70
     1
  9
$DRAGMODE
 70
     2
  9
$LTSCALE
 40
10.0
  9
$OSMODE
 70
    37
  9
$ATTMODE
 70
     1
  9
$TEXTSIZE
 40
5.0
  9
$TRACEWID
 40
0.05
  9
$TEXTSTYLE
  7
STANDARD1
  9
$CLAYER
  8
30
  9
$CELTYPE
  6
CONTINUOUS
  9
$CECOLOR
 62
   256
  9
$CELTSCALE
 40
1.0
  9
$DELOBJ
 70
     1
  9
$DISPSILH
 70
     0
  9
$DIMSCALE
 40
1.0
  9
$DIMASZ
 40
2.0
  9
$DIMEXO
 40
1.0
  9
$DIMDLI
 40
0.5
  9
$DIMRND
 40
0.0
  9
$DIMDLE
 40
0.0
  9
$DIMEXE
 40
0.5
  9
$DIMTP
 40
0.0
  9
$DIMTM
 40
0.0
  9
$DIMTXT
 40
4.0
  9
$DIMCEN
 40
0.09
  9
$DIMTSZ
 40
0.0
  9
$DIMTOL
 70
     0
  9
$DIMLIM
 70
     0
  9
$DIMTIH
 70
     0
  9
$DIMTOH
 70
     1
  9
$DIMSE1
 70
     0
  9
$DIMSE2
 70
     0
  9
$DIMTAD
 70
     3
  9
$DIMZIN
 70
    12
  9
$DIMBLK
  1
OPEN
  9
$DIMASO
 70
     1
  9
$DIMSHO
 70
     1
  9
$DIMPOST
  1

  9
$DIMAPOST
  1

  9
$DIMALT
 70
     0
  9
$DIMALTD
 70
     2
  9
$DIMALTF
 40
25.4
  9
$DIMLFAC
 40
1.0
  9
$DIMTOFL
 70
     0
  9
$DIMTVP
 40
0.0
  9
$DIMTIX
 70
     0
  9
$DIMSOXD
 70
     0
  9
$DIMSAH
 70
     0
  9
$DIMBLK1
  1

  9
$DIMBLK2
  1

  9
$DIMSTYLE
  2
STANDARD
  9
$DIMCLRD
 70
     0
  9
$DIMCLRE
 70
     0
  9
$DIMCLRT
 70
     0
  9
$DIMTFAC
 40
1.0
  9
$DIMGAP
 40
1.0
  9
$DIMJUST
 70
     0
  9
$DIMSD1
 70
     0
  9
$DIMSD2
 70
     0
  9
$DIMTOLJ
 70
     1
  9
$DIMTZIN
 70
     0
  9
$DIMALTZ
 70
     0
  9
$DIMALTTZ
 70
     0
  9
$DIMFIT
 70
     3
  9
$DIMUPT
 70
     0
  9
$DIMUNIT
 70
     2
  9
$DIMDEC
 70
     1
  9
$DIMTDEC
 70
     1
  9
$DIMALTU
 70
     2
  9
$DIMALTTD
 70
     2
  9
$DIMTXSTY
  7
STANDARD
  9
$DIMAUNIT
 70
     0
  9
$LUNITS
 70
     2
  9
$LUPREC
 70
     4
  9
$SKETCHINC
 40
0.1
  9
$FILLETRAD
 40
0.0
  9
$AUNITS
 70
     0
  9
$AUPREC
 70
     0
  9
$MENU
  1
.
  9
$ELEVATION
 40
0.0
  9
$PELEVATION
 40
0.0
  9
$THICKNESS
 40
0.0
  9
$LIMCHECK
 70
     0
  9
$BLIPMODE
 70
     0
  9
$CHAMFERA
 40
0.0
  9
$CHAMFERB
 40
0.0
  9
$CHAMFERC
 40
0.0
  9
$CHAMFERD
 40
0.0
  9
$SKPOLY
 70
     0
  9
$TDCREATE
 40
2452286.555658657
  9
$TDUPDATE
 40
2453088.639416771
  9
$TDINDWG
 40
1.3287656019
  9
$TDUSRTIMER
 40
1.3287648727
  9
$USRTIMER
 70
     1
  9
$ANGBASE
 50
0.0
  9
$ANGDIR
 70
     0
  9
$PDMODE
 70
     0
  9
$PDSIZE
 40
0.0
  9
$PLINEWID
 40
0.0
  9
$COORDS
 70
     1
  9
$SPLFRAME
 70
     0
  9
$SPLINETYPE
 70
     6
  9
$SPLINESEGS
 70
     8
  9
$ATTDIA
 70
     0
  9
$ATTREQ
 70
     1
  9
$HANDLING
 70
 22529
  9
$HANDSEED
  5
7E96
  9
$SURFTAB1
 70
     6
  9
$SURFTAB2
 70
     6
  9
$SURFTYPE
 70
     6
  9
$SURFU
 70
     6
  9
$SURFV
 70
     6
  9
$UCSNAME
  2

  9
$UCSORG
 10
0.0
 20
0.0
 30
0.0
  9
$UCSXDIR
 10
1.0
 20
0.0
 30
0.0
  9
$UCSYDIR
 10
0.0
 20
1.0
 30
0.0
  9
$PUCSNAME
  2

  9
$PUCSORG
 10
0.0
 20
0.0
 30
0.0
  9
$PUCSXDIR
 10
1.0
 20
0.0
 30
0.0
  9
$PUCSYDIR
 10
0.0
 20
1.0
 30
0.0
  9
$USERI1
 70
     0
  9
$USERI2
 70
     0
  9
$USERI3
 70
     0
  9
$USERI4
 70
     0
  9
$USERI5
 70
     0
  9
$USERR1
 40
0.0
  9
$USERR2
 40
0.0
  9
$USERR3
 40
0.0
  9
$USERR4
 40
0.0
  9
$USERR5
 40
0.0
  9
$WORLDVIEW
 70
     1
  9
$SHADEDGE
 70
     3
  9
$SHADEDIF
 70
    70
  9
$TILEMODE
 70
     1
  9
$MAXACTVP
 70
    48
  9
$PINSBASE
 10
0.0
 20
0.0
 30
0.0
  9
$PLIMCHECK
 70
     0
  9
$PEXTMIN
 10
4.273573
 20
5.205245999999998
 30
0.0
  9
$PEXTMAX
 10
194.610095
 20
283.0697009999996
 30
0.0
  9
$PLIMMIN
 10
-5.873749
 20
-5.87375
  9
$PLIMMAX
 10
204.099579
 20
291.1369009999999
  9
$UNITMODE
 70
     0
  9
$VISRETAIN
 70
     1
  9
$PLINEGEN
 70
     0
  9
$PSLTSCALE
 70
     1
  9
$TREEDEPTH
 70
  3020
  9
$PICKSTYLE
 70
     1
  9
$CMLSTYLE
  2
STANDARD
  9
$CMLJUST
 70
     0
  9
$CMLSCALE
 40
1.0
  9
$PROXYGRAPHICS
 70
     1
  9
$MEASUREMENT
 70
     0
  0
ENDSEC
  0
SECTION
  2
CLASSES
  0
CLASS
  1
ACDBDICTIONARYWDFLT
  2
AcDbDictionaryWithDefault
  3
AutoCAD 2000
 90
        0
280
     0
281
     0
  0
CLASS
  1
ACDBPLACEHOLDER
  2
AcDbPlaceHolder
  3
AutoCAD 2000
 90
        0
280
     0
281
     0
  0
CLASS
  1
LAYOUT
  2
AcDbLayout
  3
AutoCAD 2000
 90
        0
280
     0
281
     0
  0
CLASS
  1
LONG_TRANSACTION
  2
AcDbLongTransaction
  3
AutoCAD 2000
 90
        0
280
     0
281
     0
  0
CLASS
  1
LWPOLYLINE
  2
AcDbPolyline
  3
AutoCAD 2000
 90
        0
280
     0
281
     1
  0
CLASS
  1
HATCH
  2
AcDbHatch
  3
AutoCAD 2000
 90
        0
280
     0
281
     1
  0
CLASS
  1
XRECORD
  2
AcDbXrecord
  3
AutoCAD 2000
 90
        0
280
     0
281
     0
  0
CLASS
  1
LONG_TRANSACTION
  2
AcDbLongTransaction
  3
AutoCAD 2000
 90
        0
280
     0
281
     0
  0
CLASS
  1
LWPOLYLINE
  2
AcDbPolyline
  3
AutoCAD 2000
 90
        0
280
     0
281
     1
  0
CLASS
  1
HATCH
  2
AcDbHatch
  3
AutoCAD 2000
 90
        0
280
     0
281
     1
  0
CLASS
  1
XRECORD
  2
AcDbXrecord
  3
AutoCAD 2000
 90
        0
280
     0
281
     0
  0
CLASS
  1
LONG_TRANSACTION
  2
AcDbLongTransaction
  3
AutoCAD 2000
 90
        0
280
     0
281
     0
  0
CLASS
  1
LWPOLYLINE
  2
AcDbPolyline
  3
AutoCAD 2000
 90
        0
280
     0
281
     1
  0
CLASS
  1
HATCH
  2
AcDbHatch
  3
AutoCAD 2000
 90
        0
280
     0
281
     1
  0
CLASS
  1
XRECORD
  2
AcDbXrecord
  3
AutoCAD 2000
 90
        0
280
     0
281
     0
  0
CLASS
  1
LONG_TRANSACTION
  2
AcDbLongTransaction
  3
AutoCAD 2000
 90
        0
280
     0
281
     0
  0
CLASS
  1
LWPOLYLINE
  2
AcDbPolyline
  3
AutoCAD 2000
 90
        0
280
     0
281
     1
  0
CLASS
  1
HATCH
  2
AcDbHatch
  3
AutoCAD 2000
 90
        0
280
     0
281
     1
  0
CLASS
  1
XRECORD
  2
AcDbXrecord
  3
AutoCAD 2000
 90
        0
280
     0
281
     0
  0
CLASS
  1
LONG_TRANSACTION
  2
AcDbLongTransaction
  3
AutoCAD 2000
 90
        0
280
     0
281
     0
  0
CLASS
  1
LWPOLYLINE
  2
AcDbPolyline
  3
AutoCAD 2000
 90
        0
280
     0
281
     1
  0
CLASS
  1
HATCH
  2
AcDbHatch
  3
AutoCAD 2000
 90
        0
280
     0
281
     1
  0
CLASS
  1
XRECORD
  2
AcDbXrecord
  3
AutoCAD 2000
 90
        0
280
     0
281
     0
  0
CLASS
  1
LONG_TRANSACTION
  2
AcDbLongTransaction
  3
AutoCAD 2000
 90
        0
280
     0
281
     0
  0
CLASS
  1
LWPOLYLINE
  2
AcDbPolyline
  3
AutoCAD 2000
 90
        0
280
     0
281
     1
  0
CLASS
  1
HATCH
  2
AcDbHatch
  3
AutoCAD 2000
 90
        0
280
     0
281
     1
  0
CLASS
  1
XRECORD
  2
AcDbXrecord
  3
AutoCAD 2000
 90
        0
280
     0
281
     0
  0
CLASS
  1
LONG_TRANSACTION
  2
AcDbLongTransaction
  3
AutoCAD 2000
 90
        0
280
     0
281
     0
  0
CLASS
  1
LWPOLYLINE
  2
AcDbPolyline
  3
AutoCAD 2000
 90
        0
280
     0
281
     1
  0
CLASS
  1
HATCH
  2
AcDbHatch
  3
AutoCAD 2000
 90
        0
280
     0
281
     1
  0
CLASS
  1
XRECORD
  2
AcDbXrecord
  3
AutoCAD 2000
 90
        0
280
     0
281
     0
  0
CLASS
  1
LONG_TRANSACTION
  2
AcDbLongTransaction
  3
AutoCAD 2000
 90
        0
280
     0
281
     0
  0
CLASS
  1
LWPOLYLINE
  2
AcDbPolyline
  3
AutoCAD 2000
 90
        0
280
     0
281
     1
  0
CLASS
  1
HATCH
  2
AcDbHatch
  3
AutoCAD 2000
 90
        0
280
     0
281
     1
  0
CLASS
  1
XRECORD
  2
AcDbXrecord
  3
AutoCAD 2000
 90
        0
280
     0
281
     0
  0
CLASS
  1
LONG_TRANSACTION
  2
AcDbLongTransaction
  3
AutoCAD 2000
 90
        0
280
     0
281
     0
  0
CLASS
  1
LWPOLYLINE
  2
AcDbPolyline
  3
AutoCAD 2000
 90
        0
280
     0
281
     1
  0
CLASS
  1
HATCH
  2
AcDbHatch
  3
AutoCAD 2000
 90
        0
280
     0
281
     1
  0
CLASS
  1
XRECORD
  2
AcDbXrecord
  3
AutoCAD 2000
 90
        0
280
     0
281
     0
  0
CLASS
  1
LONG_TRANSACTION
  2
AcDbLongTransaction
  3
AutoCAD 2000
 90
        0
280
     0
281
     0
  0
CLASS
  1
LWPOLYLINE
  2
AcDbPolyline
  3
AutoCAD 2000
 90
        0
280
     0
281
     1
  0
CLASS
  1
HATCH
  2
AcDbHatch
  3
AutoCAD 2000
 90
        0
280
     0
281
     1
  0
CLASS
  1
XRECORD
  2
AcDbXrecord
  3
AutoCAD 2000
 90
        0
280
     0
281
     0
  0
CLASS
  1
LONG_TRANSACTION
  2
AcDbLongTransaction
  3
AutoCAD 2000
 90
        0
280
     0
281
     0
  0
CLASS
  1
LWPOLYLINE
  2
AcDbPolyline
  3
AutoCAD 2000
 90
        0
280
     0
281
     1
  0
CLASS
  1
HATCH
  2
AcDbHatch
  3
AutoCAD 2000
 90
        0
280
     0
281
     1
  0
CLASS
  1
XRECORD
  2
AcDbXrecord
  3
AutoCAD 2000
 90
        0
280
     0
281
     0
  0
CLASS
  1
LONG_TRANSACTION
  2
AcDbLongTransaction
  3
AutoCAD 2000
 90
        0
280
     0
281
     0
  0
CLASS
  1
LWPOLYLINE
  2
AcDbPolyline
  3
AutoCAD 2000
 90
        0
280
     0
281
     1
  0
CLASS
  1
HATCH
  2
AcDbHatch
  3
AutoCAD 2000
 90
        0
280
     0
281
     1
  0
CLASS
  1
XRECORD
  2
AcDbXrecord
  3
AutoCAD 2000
 90
        0
280
     0
281
     0
  0
CLASS
  1
LONG_TRANSACTION
  2
AcDbLongTransaction
  3
AutoCAD 2000
 90
        0
280
     0
281
     0
  0
CLASS
  1
LWPOLYLINE
  2
AcDbPolyline
  3
AutoCAD 2000
 90
        0
280
     0
281
     1
  0
CLASS
  1
HATCH
  2
AcDbHatch
  3
AutoCAD 2000
 90
        0
280
     0
281
     1
  0
CLASS
  1
XRECORD
  2
AcDbXrecord
  3
AutoCAD 2000
 90
        0
280
     0
281
     0
  0
CLASS
  1
LONG_TRANSACTION
  2
AcDbLongTransaction
  3
AutoCAD 2000
 90
        0
280
     0
281
     0
  0
CLASS
  1
LWPOLYLINE
  2
AcDbPolyline
  3
AutoCAD 2000
 90
        0
280
     0
281
     1
  0
CLASS
  1
HATCH
  2
AcDbHatch
  3
AutoCAD 2000
 90
        0
280
     0
281
     1
  0
CLASS
  1
XRECORD
  2
AcDbXrecord
  3
AutoCAD 2000
 90
        0
280
     0
281
     0
  0
CLASS
  1
LONG_TRANSACTION
  2
AcDbLongTransaction
  3
AutoCAD 2000
 90
        0
280
     0
281
     0
  0
CLASS
  1
LWPOLYLINE
  2
AcDbPolyline
  3
AutoCAD 2000
 90
        0
280
     0
281
     1
  0
CLASS
  1
HATCH
  2
AcDbHatch
  3
AutoCAD 2000
 90
        0
280
     0
281
     1
  0
CLASS
  1
XRECORD
  2
AcDbXrecord
  3
AutoCAD 2000
 90
        0
280
     0
281
     0
  0
CLASS
  1
LONG_TRANSACTION
  2
AcDbLongTransaction
  3
AutoCAD 2000
 90
        0
280
     0
281
     0
  0
CLASS
  1
LWPOLYLINE
  2
AcDbPolyline
  3
AutoCAD 2000
 90
        0
280
     0
281
     1
  0
CLASS
  1
HATCH
  2
AcDbHatch
  3
AutoCAD 2000
 90
        0
280
     0
281
     1
  0
CLASS
  1
XRECORD
  2
AcDbXrecord
  3
AutoCAD 2000
 90
        0
280
     0
281
     0
  0
CLASS
  1
LONG_TRANSACTION
  2
AcDbLongTransaction
  3
AutoCAD 2000
 90
        0
280
     0
281
     0
  0
CLASS
  1
LWPOLYLINE
  2
AcDbPolyline
  3
AutoCAD 2000
 90
        0
280
     0
281
     1
  0
CLASS
  1
HATCH
  2
AcDbHatch
  3
AutoCAD 2000
 90
        0
280
     0
281
     1
  0
CLASS
  1
XRECORD
  2
AcDbXrecord
  3
AutoCAD 2000
 90
        0
280
     0
281
     0
  0
CLASS
  1
LONG_TRANSACTION
  2
AcDbLongTransaction
  3
AutoCAD 2000
 90
        0
280
     0
281
     0
  0
CLASS
  1
LWPOLYLINE
  2
AcDbPolyline
  3
AutoCAD 2000
 90
        0
280
     0
281
     1
  0
CLASS
  1
HATCH
  2
AcDbHatch
  3
AutoCAD 2000
 90
        0
280
     0
281
     1
  0
CLASS
  1
XRECORD
  2
AcDbXrecord
  3
AutoCAD 2000
 90
        0
280
     0
281
     0
  0
CLASS
  1
LONG_TRANSACTION
  2
AcDbLongTransaction
  3
AutoCAD 2000
 90
        0
280
     0
281
     0
  0
CLASS
  1
LWPOLYLINE
  2
AcDbPolyline
  3
AutoCAD 2000
 90
        0
280
     0
281
     1
  0
CLASS
  1
HATCH
  2
AcDbHatch
  3
AutoCAD 2000
 90
        0
280
     0
281
     1
  0
CLASS
  1
XRECORD
  2
AcDbXrecord
  3
AutoCAD 2000
 90
        0
280
     0
281
     0
  0
CLASS
  1
LONG_TRANSACTION
  2
AcDbLongTransaction
  3
AutoCAD 2000
 90
        0
280
     0
281
     0
  0
CLASS
  1
LWPOLYLINE
  2
AcDbPolyline
  3
AutoCAD 2000
 90
        0
280
     0
281
     1
  0
CLASS
  1
HATCH
  2
AcDbHatch
  3
AutoCAD 2000
 90
        0
280
     0
281
     1
  0
CLASS
  1
XRECORD
  2
AcDbXrecord
  3
AutoCAD 2000
 90
        0
280
     0
281
     0
  0
CLASS
  1
LONG_TRANSACTION
  2
AcDbLongTransaction
  3
AutoCAD 2000
 90
        0
280
     0
281
     0
  0
CLASS
  1
LWPOLYLINE
  2
AcDbPolyline
  3
AutoCAD 2000
 90
        0
280
     0
281
     1
  0
CLASS
  1
HATCH
  2
AcDbHatch
  3
AutoCAD 2000
 90
        0
280
     0
281
     1
  0
CLASS
  1
XRECORD
  2
AcDbXrecord
  3
AutoCAD 2000
 90
        0
280
     0
281
     0
  0
CLASS
  1
LONG_TRANSACTION
  2
AcDbLongTransaction
  3
AutoCAD 2000
 90
        0
280
     0
281
     0
  0
CLASS
  1
LWPOLYLINE
  2
AcDbPolyline
  3
AutoCAD 2000
 90
        0
280
     0
281
     1
  0
CLASS
  1
HATCH
  2
AcDbHatch
  3
AutoCAD 2000
 90
        0
280
     0
281
     1
  0
CLASS
  1
XRECORD
  2
AcDbXrecord
  3
AutoCAD 2000
 90
        0
280
     0
281
     0
  0
CLASS
  1
LONG_TRANSACTION
  2
AcDbLongTransaction
  3
AutoCAD 2000
 90
        0
280
     0
281
     0
  0
CLASS
  1
LWPOLYLINE
  2
AcDbPolyline
  3
AutoCAD 2000
 90
        0
280
     0
281
     1
  0
CLASS
  1
HATCH
  2
AcDbHatch
  3
AutoCAD 2000
 90
        0
280
     0
281
     1
  0
CLASS
  1
XRECORD
  2
AcDbXrecord
  3
AutoCAD 2000
 90
        0
280
     0
281
     0
  0
CLASS
  1
LONG_TRANSACTION
  2
AcDbLongTransaction
  3
AutoCAD 2000
 90
        0
280
     0
281
     0
  0
CLASS
  1
LWPOLYLINE
  2
AcDbPolyline
  3
AutoCAD 2000
 90
        0
280
     0
281
     1
  0
CLASS
  1
HATCH
  2
AcDbHatch
  3
AutoCAD 2000
 90
        0
280
     0
281
     1
  0
CLASS
  1
XRECORD
  2
AcDbXrecord
  3
AutoCAD 2000
 90
        0
280
     0
281
     0
  0
CLASS
  1
LONG_TRANSACTION
  2
AcDbLongTransaction
  3
AutoCAD 2000
 90
        0
280
     0
281
     0
  0
CLASS
  1
LWPOLYLINE
  2
AcDbPolyline
  3
AutoCAD 2000
 90
        0
280
     0
281
     1
  0
CLASS
  1
HATCH
  2
AcDbHatch
  3
AutoCAD 2000
 90
        0
280
     0
281
     1
  0
CLASS
  1
XRECORD
  2
AcDbXrecord
  3
AutoCAD 2000
 90
        0
280
     0
281
     0
  0
CLASS
  1
LONG_TRANSACTION
  2
AcDbLongTransaction
  3
AutoCAD 2000
 90
        0
280
     0
281
     0
  0
CLASS
  1
LWPOLYLINE
  2
AcDbPolyline
  3
AutoCAD 2000
 90
        0
280
     0
281
     1
  0
CLASS
  1
HATCH
  2
AcDbHatch
  3
AutoCAD 2000
 90
        0
280
     0
281
     1
  0
CLASS
  1
XRECORD
  2
AcDbXrecord
  3
AutoCAD 2000
 90
        0
280
     0
281
     0
  0
CLASS
  1
LONG_TRANSACTION
  2
AcDbLongTransaction
  3
AutoCAD 2000
 90
        0
280
     0
281
     0
  0
CLASS
  1
LWPOLYLINE
  2
AcDbPolyline
  3
AutoCAD 2000
 90
        0
280
     0
281
     1
  0
CLASS
  1
HATCH
  2
AcDbHatch
  3
AutoCAD 2000
 90
        0
280
     0
281
     1
  0
CLASS
  1
XRECORD
  2
AcDbXrecord
  3
AutoCAD 2000
 90
        0
280
     0
281
     0
  0
CLASS
  1
LONG_TRANSACTION
  2
AcDbLongTransaction
  3
AutoCAD 2000
 90
        0
280
     0
281
     0
  0
CLASS
  1
LWPOLYLINE
  2
AcDbPolyline
  3
AutoCAD 2000
 90
        0
280
     0
281
     1
  0
CLASS
  1
HATCH
  2
AcDbHatch
  3
AutoCAD 2000
 90
        0
280
     0
281
     1
  0
CLASS
  1
XRECORD
  2
AcDbXrecord
  3
AutoCAD 2000
 90
        0
280
     0
281
     0
  0
CLASS
  1
LONG_TRANSACTION
  2
AcDbLongTransaction
  3
AutoCAD 2000
 90
        0
280
     0
281
     0
  0
CLASS
  1
LWPOLYLINE
  2
AcDbPolyline
  3
AutoCAD 2000
 90
        0
280
     0
281
     1
  0
CLASS
  1
HATCH
  2
AcDbHatch
  3
AutoCAD 2000
 90
        0
280
     0
281
     1
  0
CLASS
  1
XRECORD
  2
AcDbXrecord
  3
AutoCAD 2000
 90
        0
280
     0
281
     0
  0
CLASS
  1
LONG_TRANSACTION
  2
AcDbLongTransaction
  3
AutoCAD 2000
 90
        0
280
     0
281
     0
  0
CLASS
  1
LWPOLYLINE
  2
AcDbPolyline
  3
AutoCAD 2000
 90
        0
280
     0
281
     1
  0
CLASS
  1
HATCH
  2
AcDbHatch
  3
AutoCAD 2000
 90
        0
280
     0
281
     1
  0
CLASS
  1
XRECORD
  2
AcDbXrecord
  3
AutoCAD 2000
 90
        0
280
     0
281
     0
  0
CLASS
  1
LONG_TRANSACTION
  2
AcDbLongTransaction
  3
AutoCAD 2000
 90
        0
280
     0
281
     0
  0
CLASS
  1
LWPOLYLINE
  2
AcDbPolyline
  3
AutoCAD 2000
 90
        0
280
     0
281
     1
  0
CLASS
  1
HATCH
  2
AcDbHatch
  3
AutoCAD 2000
 90
        0
280
     0
281
     1
  0
CLASS
  1
XRECORD
  2
AcDbXrecord
  3
AutoCAD 2000
 90
        0
280
     0
281
     0
  0
CLASS
  1
LONG_TRANSACTION
  2
AcDbLongTransaction
  3
AutoCAD 2000
 90
        0
280
     0
281
     0
  0
CLASS
  1
LWPOLYLINE
  2
AcDbPolyline
  3
AutoCAD 2000
 90
        0
280
     0
281
     1
  0
CLASS
  1
HATCH
  2
AcDbHatch
  3
AutoCAD 2000
 90
        0
280
     0
281
     1
  0
CLASS
  1
XRECORD
  2
AcDbXrecord
  3
AutoCAD 2000
 90
        0
280
     0
281
     0
  0
CLASS
  1
LONG_TRANSACTION
  2
AcDbLongTransaction
  3
AutoCAD 2000
 90
        0
280
     0
281
     0
  0
CLASS
  1
LWPOLYLINE
  2
AcDbPolyline
  3
AutoCAD 2000
 90
        0
280
     0
281
     1
  0
CLASS
  1
HATCH
  2
AcDbHatch
  3
AutoCAD 2000
 90
        0
280
     0
281
     1
  0
CLASS
  1
XRECORD
  2
AcDbXrecord
  3
AutoCAD 2000
 90
        0
280
     0
281
     0
  0
CLASS
  1
DICTIONARYVAR
  2
AcDbDictionaryVar
  3
AutoCAD 2000
 90
        0
280
     0
281
     0
  0
CLASS
  1
LONG_TRANSACTION
  2
AcDbLongTransaction
  3
AutoCAD 2000
 90
        0
280
     0
281
     0
  0
CLASS
  1
LWPOLYLINE
  2
AcDbPolyline
  3
AutoCAD 2000
 90
        0
280
     0
281
     1
  0
CLASS
  1
HATCH
  2
AcDbHatch
  3
AutoCAD 2000
 90
        0
280
     0
281
     1
  0
CLASS
  1
XRECORD
  2
AcDbXrecord
  3
AutoCAD 2000
 90
        0
280
     0
281
     0
  0
CLASS
  1
LONG_TRANSACTION
  2
AcDbLongTransaction
  3
AutoCAD 2000
 90
        0
280
     0
281
     0
  0
CLASS
  1
LWPOLYLINE
  2
AcDbPolyline
  3
AutoCAD 2000
 90
        0
280
     0
281
     1
  0
CLASS
  1
HATCH
  2
AcDbHatch
  3
AutoCAD 2000
 90
        0
280
     0
281
     1
  0
CLASS
  1
XRECORD
  2
AcDbXrecord
  3
AutoCAD 2000
 90
        0
280
     0
281
     0
  0
CLASS
  1
LONG_TRANSACTION
  2
AcDbLongTransaction
  3
AutoCAD 2000
 90
        0
280
     0
281
     0
  0
CLASS
  1
LWPOLYLINE
  2
AcDbPolyline
  3
AutoCAD 2000
 90
        0
280
     0
281
     1
  0
CLASS
  1
HATCH
  2
AcDbHatch
  3
AutoCAD 2000
 90
        0
280
     0
281
     1
  0
CLASS
  1
XRECORD
  2
AcDbXrecord
  3
AutoCAD 2000
 90
        0
280
     0
281
     0
  0
CLASS
  1
LONG_TRANSACTION
  2
AcDbLongTransaction
  3
AutoCAD 2000
 90
        0
280
     0
281
     0
  0
CLASS
  1
LWPOLYLINE
  2
AcDbPolyline
  3
AutoCAD 2000
 90
        0
280
     0
281
     1
  0
CLASS
  1
HATCH
  2
AcDbHatch
  3
AutoCAD 2000
 90
        0
280
     0
281
     1
  0
CLASS
  1
XRECORD
  2
AcDbXrecord
  3
AutoCAD 2000
 90
        0
280
     0
281
     0
  0
CLASS
  1
LONG_TRANSACTION
  2
AcDbLongTransaction
  3
AutoCAD 2000
 90
        0
280
     0
281
     0
  0
CLASS
  1
LWPOLYLINE
  2
AcDbPolyline
  3
AutoCAD 2000
 90
        0
280
     0
281
     1
  0
CLASS
  1
HATCH
  2
AcDbHatch
  3
AutoCAD 2000
 90
        0
280
     0
281
     1
  0
CLASS
  1
XRECORD
  2
AcDbXrecord
  3
AutoCAD 2000
 90
        0
280
     0
281
     0
  0
CLASS
  1
LONG_TRANSACTION
  2
AcDbLongTransaction
  3
AutoCAD 2000
 90
        0
280
     0
281
     0
  0
CLASS
  1
LWPOLYLINE
  2
AcDbPolyline
  3
AutoCAD 2000
 90
        0
280
     0
281
     1
  0
CLASS
  1
HATCH
  2
AcDbHatch
  3
AutoCAD 2000
 90
        0
280
     0
281
     1
  0
CLASS
  1
XRECORD
  2
AcDbXrecord
  3
AutoCAD 2000
 90
        0
280
     0
281
     0
  0
CLASS
  1
LONG_TRANSACTION
  2
AcDbLongTransaction
  3
AutoCAD 2000
 90
        0
280
     0
281
     0
  0
CLASS
  1
LWPOLYLINE
  2
AcDbPolyline
  3
AutoCAD 2000
 90
        0
280
     0
281
     1
  0
CLASS
  1
HATCH
  2
AcDbHatch
  3
AutoCAD 2000
 90
        0
280
     0
281
     1
  0
CLASS
  1
XRECORD
  2
AcDbXrecord
  3
AutoCAD 2000
 90
        0
280
     0
281
     0
  0
CLASS
  1
LONG_TRANSACTION
  2
AcDbLongTransaction
  3
AutoCAD 2000
 90
        0
280
     0
281
     0
  0
CLASS
  1
LWPOLYLINE
  2
AcDbPolyline
  3
AutoCAD 2000
 90
        0
280
     0
281
     1
  0
CLASS
  1
HATCH
  2
AcDbHatch
  3
AutoCAD 2000
 90
        0
280
     0
281
     1
  0
CLASS
  1
XRECORD
  2
AcDbXrecord
  3
AutoCAD 2000
 90
        0
280
     0
281
     0
  0
CLASS
  1
LONG_TRANSACTION
  2
AcDbLongTransaction
  3
AutoCAD 2000
 90
        0
280
     0
281
     0
  0
CLASS
  1
LWPOLYLINE
  2
AcDbPolyline
  3
AutoCAD 2000
 90
        0
280
     0
281
     1
  0
CLASS
  1
HATCH
  2
AcDbHatch
  3
AutoCAD 2000
 90
        0
280
     0
281
     1
  0
CLASS
  1
XRECORD
  2
AcDbXrecord
  3
AutoCAD 2000
 90
        0
280
     0
281
     0
  0
CLASS
  1
LONG_TRANSACTION
  2
AcDbLongTransaction
  3
AutoCAD 2000
 90
        0
280
     0
281
     0
  0
CLASS
  1
LWPOLYLINE
  2
AcDbPolyline
  3
AutoCAD 2000
 90
        0
280
     0
281
     1
  0
CLASS
  1
HATCH
  2
AcDbHatch
  3
AutoCAD 2000
 90
        0
280
     0
281
     1
  0
CLASS
  1
XRECORD
  2
AcDbXrecord
  3
AutoCAD 2000
 90
        0
280
     0
281
     0
  0
ENDSEC
  0
SECTION
  2
TABLES
  0
TABLE
  2
VPORT
  5
8
330
0
100
AcDbSymbolTable
 70
     3
  0
VPORT
  5
7E4E
330
8
100
AcDbSymbolTableRecord
100
AcDbViewportTableRecord
  2
*ACTIVE
 70
     0
 10
0.0
 20
0.0
 11
1.0
 21
1.0
 12
114.5948782715431
 22
-55.61680746620186
 13
0.0
 23
0.0
 14
1.0
 24
1.0
 15
10.0
 25
10.0
 16
0.0
 26
0.0
 36
1.0
 17
0.0
 27
0.0
 37
0.0
 40
934.2287738974187
 41
1.510152284263959
 42
50.0
 43
0.0
 44
0.0
 50
0.0
 51
0.0
 71
     0
 72
   100
 73
     1
 74
     1
 75
     0
 76
     0
 77
     0
 78
     0
  0
ENDTAB
  0
TABLE
  2
LTYPE
  5
5
330
0
100
AcDbSymbolTable
 70
     8
  0
LTYPE
  5
13
330
5
100
AcDbSymbolTableRecord
100
AcDbLinetypeTableRecord
  2
BYBLOCK
 70
     0
  3

 72
    65
 73
     0
 40
0.0
  0
LTYPE
  5
14
330
5
100
AcDbSymbolTableRecord
100
AcDbLinetypeTableRecord
  2
BYLAYER
 70
     0
  3

 72
    65
 73
     0
 40
0.0
  0
LTYPE
  5
15
330
5
100
AcDbSymbolTableRecord
100
AcDbLinetypeTableRecord
  2
CONTINUOUS
 70
     0
  3
Solid line
 72
    65
 73
     0
 40
0.0
  0
LTYPE
  5
22
330
5
100
AcDbSymbolTableRecord
100
AcDbLinetypeTableRecord
  2
CONTINOUS
 70
     0
  3
Solid line
 72
    65
 73
     0
 40
0.0
  0
LTYPE
  5
23
330
5
100
AcDbSymbolTableRecord
100
AcDbLinetypeTableRecord
  2
DASHED
 70
     0
  3
__ __ __ __ __ __ __ __ __ __ __ __ __ __ __
 72
    65
 73
     2
 40
0.75
 49
0.5
 74
     0
 49
-0.25
 74
     0
  0
LTYPE
  5
24
330
5
100
AcDbSymbolTableRecord
100
AcDbLinetypeTableRecord
  2
DASHDOT
 70
     0
  3
__ . __ . __ . __ . __ . __ . __ . __ . __ . __
 72
    65
 73
     4
 40
1.0
 49
0.5
 74
     0
 49
-0.25
 74
     0
 49
0.0
 74
     0
 49
-0.25
 74
     0
  0
LTYPE
  5
4C47
330
5
100
AcDbSymbolTableRecord
100
AcDbLinetypeTableRecord
  2
DIVIDE
 70
     0
  3
Divide ____ . . ____ . . ____ . . ____ . . ____
 72
    65
 73
     6
 40
1.25
 49
0.5
 74
     0
 49
-0.25
 74
     0
 49
0.0
 74
     0
 49
-0.25
 74
     0
 49
0.0
 74
     0
 49
-0.25
 74
     0
  0
LTYPE
  5
6265
330
5
100
AcDbSymbolTableRecord
100
AcDbLinetypeTableRecord
  2
CENTER
 70
     0
  3
Center ____ _ ____ _ ____ _ ____ _ ____ _ ____
 72
    65
 73
     4
 40
50.8
 49
31.75
 74
     0
 49
-6.349999999999998
 74
     0
 49
6.349999999999998
 74
     0
 49
-6.349999999999998
 74
     0
  0
LTYPE
  5
685F
330
5
100
AcDbSymbolTableRecord
100
AcDbLinetypeTableRecord
  2
PHANTOM
 70
     0
  3
Phantom ______  __  __  ______  __  __  ______
 72
    65
 73
     6
 40
63.5
 49
31.75
 74
     0
 49
-6.349999999999998
 74
     0
 49
6.349999999999998
 74
     0
 49
-6.349999999999998
 74
     0
 49
6.349999999999998
 74
     0
 49
-6.349999999999998
 74
     0
  0
LTYPE
  5
6FA1
330
5
100
AcDbSymbolTableRecord
100
AcDbLinetypeTableRecord
  2
HIDDEN
 70
     0
  3
_ _ _ _ _ _ _ _ _ _ _ _ _ _ _ _ _ _ _ _ _ _ _
 72
    65
 73
     2
 40
0.5
 49
0.25
 74
     0
 49
-0.25
 74
     0
  0
ENDTAB
  0
TABLE
  2
LAYER
  5
2
330
0
100
AcDbSymbolTable
 70
    11
  0
LAYER
  5
10
330
2
100
AcDbSymbolTableRecord
100
AcDbLayerTableRecord
  2
0
 70
     0
 62
     7
  6
CONTINOUS
  0
LAYER
  5
2F
330
2
100
AcDbSymbolTableRecord
100
AcDbLayerTableRecord
  2
10
 70
     0
 62
     4
  6
CONTINOUS
  0
LAYER
  5
31
330
2
100
AcDbSymbolTableRecord
100
AcDbLayerTableRecord
  2
12
 70
     0
 62
     3
  6
CONTINOUS
  0
LAYER
  5
35
330
2
100
AcDbSymbolTableRecord
100
AcDbLayerTableRecord
  2
16
 70
     0
 62
     6
  6
DASHDOT
  0
LAYER
  5
38
330
2
100
AcDbSymbolTableRecord
100
AcDbLayerTableRecord
  2
19
 70
     0
 62
     7
  6
CONTINOUS
  0
LAYER
  5
3D
330
2
100
AcDbSymbolTableRecord
100
AcDbLayerTableRecord
  2
24
 70
     0
 62
     2
  6
CONTINOUS
  0
LAYER
  5
3A2
330
2
100
AcDbSymbolTableRecord
100
AcDbLayerTableRecord
  2
30
 70
     0
 62
     9
  6
CONTINUOUS
  0
LAYER
  5
3A4
330
2
100
AcDbSymbolTableRecord
100
AcDbLayerTableRecord
  2
DEFPOINTS
 70
     0
 62
     7
  6
CONTINUOUS
  0
LAYER
  5
3BBA
330
2
100
AcDbSymbolTableRecord
100
AcDbLayerTableRecord
  2
18
 70
     0
 62
     5
  6
DIVIDE
  0
LAYER
  5
67A8
330
2
100
AcDbSymbolTableRecord
100
AcDbLayerTableRecord
  2
11
 70
     0
 62
     1
  6
CONTINOUS
  0
LAYER
  5
7837
330
2
100
AcDbSymbolTableRecord
100
AcDbLayerTableRecord
  2
17
 70
     0
 62
     2
  6
DASHDOT
  0
ENDTAB
  0
TABLE
  2
STYLE
  5
3
330
0
100
AcDbSymbolTable
 70
     4
  0
STYLE
  5
11
330
3
100
AcDbSymbolTableRecord
100
AcDbTextStyleTableRecord
  2
STANDARD
 70
     0
 40
0.0
 41
1.0
 50
0.0
 71
     0
 42
2.0
  3
txt.shx
  4
bigfont.shx
  0
STYLE
  5
42
330
3
100
AcDbSymbolTableRecord
100
AcDbTextStyleTableRecord
  2
STANDARD1
 70
     0
 40
0.0
 41
1.0
 50
0.0
 71
     0
 42
5.0
  3
MONOTXT
  4
BIGFONT
  0
STYLE
  5
6861
330
3
100
AcDbSymbolTableRecord
100
AcDbTextStyleTableRecord
  2
MX_NOTE_STANDARD
 70
     0
 40
0.0
 41
1.0
 50
0.0
 71
     0
 42
5.891046
  3
txt.shx
  4
extfont.shx
  0
STYLE
  5
6D9B
330
3
100
AcDbSymbolTableRecord
100
AcDbTextStyleTableRecord
  2
UGMTXT
 70
     0
 40
0.0
 41
1.0
 50
0.0
 71
     0
 42
0.2
  3
ugmtxt
  4
bigfont
  0
ENDTAB
  0
TABLE
  2
VIEW
  5
6
330
0
100
AcDbSymbolTable
 70
     3
  0
VIEW
  5
230C
330
6
100
AcDbSymbolTableRecord
100
AcDbViewTableRecord
  2
OLE1
 70
     0
 40
148.912488
 10
429.497628
 20
2.560627
 41
103.145806
 11
0.0
 21
0.0
 31
1.0
 12
0.0
 22
0.0
 32
0.0
 42
50.0
 43
0.0
 44
0.0
 50
0.0
 71
     0
  0
VIEW
  5
230E
330
6
100
AcDbSymbolTableRecord
100
AcDbViewTableRecord
  2
OLE2
 70
     0
 40
170.778692
 10
322.66497
 20
-5.978304
 41
102.467215
 11
0.0
 21
0.0
 31
1.0
 12
0.0
 22
0.0
 32
0.0
 42
50.0
 43
0.0
 44
0.0
 50
0.0
 71
     0
  0
VIEW
  5
23AA
330
6
100
AcDbSymbolTableRecord
100
AcDbViewTableRecord
  2
OLE3
 70
     0
 40
591.7897389999998
 10
84.79698199999999
 20
-46.09335999999998
 41
388.792096
 11
0.0
 21
0.0
 31
1.0
 12
0.0
 22
0.0
 32
0.0
 42
50.0
 43
0.0
 44
0.0
 50
0.0
 71
     0
  0
ENDTAB
  0
TABLE
  2
UCS
  5
7
330
0
100
AcDbSymbolTable
 70
     0
  0
ENDTAB
  0
TABLE
  2
APPID
  5
9
330
0
100
AcDbSymbolTable
 70
     2
  0
APPID
  5
12
330
9
100
AcDbSymbolTableRecord
100
AcDbRegAppTableRecord
  2
ACAD
 70
     0
  0
APPID
  5
ECD
330
9
100
AcDbSymbolTableRecord
100
AcDbRegAppTableRecord
  2
CONTENTBLOCKICON
 70
     0
  0
ENDTAB
  0
TABLE
  2
DIMSTYLE
  5
A
330
0
100
AcDbSymbolTable
 70
     1
  0
DIMSTYLE
105
175
102
{ACAD_REACTORS
330
7671
330
767E
330
7694
330
76A8
330
76B5
330
76C3
330
76D0
330
76DD
330
770C
330
7722
330
772F
330
773C
330
7749
330
7757
330
7764
330
7771
330
77D5
330
77EB
330
780A
330
7817
330
7895
330
78B0
330
78C5
330
7B72
330
7BA7
330
7BB4
330
7BC1
330
7CE4
330
7CE5
330
7D87
102
}
330
A
100
AcDbSymbolTableRecord
100
AcDbDimStyleTableRecord
  2
STANDARD
 70
     0
  3

  4

  5
OPEN
  6

  7

 40
1.0
 41
2.0
 42
1.0
 43
0.5
 44
0.5
 45
0.0
 46
0.0
 47
0.0
 48
0.0
140
4.0
141
0.09
142
0.0
143
25.4
144
1.0
145
0.0
146
1.0
147
1.0
 71
     0
 72
     0
 73
     0
 74
     1
 75
     0
 76
     0
 77
     3
 78
    12
170
     0
171
     2
172
     0
173
     0
174
     0
175
     0
176
     0
177
     0
178
     0
270
     2
271
     1
272
     1
273
     2
274
     2
340
11
275
     0
280
     0
281
     0
282
     0
283
     1
284
     0
285
     0
286
     0
287
     3
288
     0
  0
ENDTAB
  0
TABLE
  2
BLOCK_RECORD
  5
1
330
0
100
AcDbSymbolTable
 70
    39
  0
BLOCK_RECORD
  5
1E
102
{ACAD_XDICTIONARY
360
178
102
}
330
1
100
AcDbSymbolTableRecord
100
AcDbBlockTableRecord
  2
*MODEL_SPACE
  0
BLOCK_RECORD
  5
1A
102
{ACAD_XDICTIONARY
360
17A
102
}
330
1
100
AcDbSymbolTableRecord
100
AcDbBlockTableRecord
  2
*PAPER_SPACE
  0
BLOCK_RECORD
  5
3B2
330
1
100
AcDbSymbolTableRecord
100
AcDbBlockTableRecord
  2
_OPEN
  0
BLOCK_RECORD
  5
676A
330
1
100
AcDbSymbolTableRecord
100
AcDbBlockTableRecord
  2
_OPEN30
  0
BLOCK_RECORD
  5
6D9C
330
1
100
AcDbSymbolTableRecord
100
AcDbBlockTableRecord
  2
A$C21544DCF
  0
BLOCK_RECORD
  5
725D
330
1
100
AcDbSymbolTableRecord
100
AcDbBlockTableRecord
  2
A$C15744025
  0
BLOCK_RECORD
  5
7672
330
1
100
AcDbSymbolTableRecord
100
AcDbBlockTableRecord
  2
*D4
  0
BLOCK_RECORD
  5
767F
330
1
100
AcDbSymbolTableRecord
100
AcDbBlockTableRecord
  2
*D5
  0
BLOCK_RECORD
  5
7695
330
1
100
AcDbSymbolTableRecord
100
AcDbBlockTableRecord
  2
*D6
  0
BLOCK_RECORD
  5
76A9
330
1
100
AcDbSymbolTableRecord
100
AcDbBlockTableRecord
  2
*D7
  0
BLOCK_RECORD
  5
76B6
330
1
100
AcDbSymbolTableRecord
100
AcDbBlockTableRecord
  2
*D8
  0
BLOCK_RECORD
  5
76C4
330
1
100
AcDbSymbolTableRecord
100
AcDbBlockTableRecord
  2
*D9
  0
BLOCK_RECORD
  5
76D1
330
1
100
AcDbSymbolTableRecord
100
AcDbBlockTableRecord
  2
*D10
  0
BLOCK_RECORD
  5
76DE
330
1
100
AcDbSymbolTableRecord
100
AcDbBlockTableRecord
  2
*D11
  0
BLOCK_RECORD
  5
770D
330
1
100
AcDbSymbolTableRecord
100
AcDbBlockTableRecord
  2
*D12
  0
BLOCK_RECORD
  5
7723
330
1
100
AcDbSymbolTableRecord
100
AcDbBlockTableRecord
  2
*D13
  0
BLOCK_RECORD
  5
7730
330
1
100
AcDbSymbolTableRecord
100
AcDbBlockTableRecord
  2
*D14
  0
BLOCK_RECORD
  5
773D
330
1
100
AcDbSymbolTableRecord
100
AcDbBlockTableRecord
  2
*D15
  0
BLOCK_RECORD
  5
774A
330
1
100
AcDbSymbolTableRecord
100
AcDbBlockTableRecord
  2
*D16
  0
BLOCK_RECORD
  5
7758
330
1
100
AcDbSymbolTableRecord
100
AcDbBlockTableRecord
  2
*D17
  0
BLOCK_RECORD
  5
7765
330
1
100
AcDbSymbolTableRecord
100
AcDbBlockTableRecord
  2
*D18
  0
BLOCK_RECORD
  5
7772
330
1
100
AcDbSymbolTableRecord
100
AcDbBlockTableRecord
  2
*D19
  0
BLOCK_RECORD
  5
77D6
330
1
100
AcDbSymbolTableRecord
100
AcDbBlockTableRecord
  2
*D20
  0
BLOCK_RECORD
  5
77EC
330
1
100
AcDbSymbolTableRecord
100
AcDbBlockTableRecord
  2
*D21
  0
BLOCK_RECORD
  5
780B
330
1
100
AcDbSymbolTableRecord
100
AcDbBlockTableRecord
  2
*D22
  0
BLOCK_RECORD
  5
7818
330
1
100
AcDbSymbolTableRecord
100
AcDbBlockTableRecord
  2
*D23
  0
BLOCK_RECORD
  5
7896
330
1
100
AcDbSymbolTableRecord
100
AcDbBlockTableRecord
  2
*D24
  0
BLOCK_RECORD
  5
78B1
330
1
100
AcDbSymbolTableRecord
100
AcDbBlockTableRecord
  2
*D25
  0
BLOCK_RECORD
  5
78C6
330
1
100
AcDbSymbolTableRecord
100
AcDbBlockTableRecord
  2
*D26
  0
BLOCK_RECORD
  5
7AF2
330
1
100
AcDbSymbolTableRecord
100
AcDbBlockTableRecord
  2
*D27
  0
BLOCK_RECORD
  5
7B73
330
1
100
AcDbSymbolTableRecord
100
AcDbBlockTableRecord
  2
*D28
  0
BLOCK_RECORD
  5
7BA8
330
1
100
AcDbSymbolTableRecord
100
AcDbBlockTableRecord
  2
*D29
  0
BLOCK_RECORD
  5
7BB5
330
1
100
AcDbSymbolTableRecord
100
AcDbBlockTableRecord
  2
*D30
  0
BLOCK_RECORD
  5
7BC2
330
1
100
AcDbSymbolTableRecord
100
AcDbBlockTableRecord
  2
*D31
  0
BLOCK_RECORD
  5
7CC8
330
1
100
AcDbSymbolTableRecord
100
AcDbBlockTableRecord
  2
*D32
  0
BLOCK_RECORD
  5
7CD3
330
1
100
AcDbSymbolTableRecord
100
AcDbBlockTableRecord
  2
*D33
  0
BLOCK_RECORD
  5
7CE6
330
1
100
AcDbSymbolTableRecord
100
AcDbBlockTableRecord
  2
*D34
  0
BLOCK_RECORD
  5
7CF1
330
1
100
AcDbSymbolTableRecord
100
AcDbBlockTableRecord
  2
*D35
  0
BLOCK_RECORD
  5
7D0D
330
1
100
AcDbSymbolTableRecord
100
AcDbBlockTableRecord
  2
A$C549F26BC
  0
BLOCK_RECORD
  5
7D1F
330
1
100
AcDbSymbolTableRecord
100
AcDbBlockTableRecord
  2
*D37
  0
BLOCK_RECORD
  5
7D95
330
1
100
AcDbSymbolTableRecord
100
AcDbBlockTableRecord
  2
*D38
  0
ENDTAB
  0
ENDSEC
  0
SECTION
  2
BLOCKS
  0
BLOCK
  5
1F
330
1E
100
AcDbEntity
  8
0
100
AcDbBlockBegin
  2
*MODEL_SPACE
 70
     0
 10
0.0
 20
0.0
 30
0.0
  3
*MODEL_SPACE
  1

  0
ENDBLK
  5
20
330
1E
100
AcDbEntity
  8
0
100
AcDbBlockEnd
  0
BLOCK
  5
1B
330
1A
100
AcDbEntity
 67
     1
  8
0
100
AcDbBlockBegin
  2
*PAPER_SPACE
 70
     0
 10
0.0
 20
0.0
 30
0.0
  3
*PAPER_SPACE
  1

  0
ENDBLK
  5
1C
330
1A
100
AcDbEntity
 67
     1
  8
0
100
AcDbBlockEnd
  0
BLOCK
  5
3B6
330
3B2
100
AcDbEntity
  8
0
100
AcDbBlockBegin
  2
_OPEN
 70
     0
 10
0.0
 20
0.0
 30
0.0
  3
_OPEN
  1

  0
LINE
  5
3B3
330
3B2
100
AcDbEntity
  8
30
  6
CONTINUOUS
 62
     0
100
AcDbLine
 10
-1.0
 20
0.166667
 30
0.0
 11
0.0
 21
0.0
 31
0.0
  0
LINE
  5
3B4
330
3B2
100
AcDbEntity
  8
30
  6
CONTINUOUS
 62
     0
100
AcDbLine
 10
-1.0
 20
-0.166667
 30
0.0
 11
0.0
 21
0.0
 31
0.0
  0
LINE
  5
3B5
330
3B2
100
AcDbEntity
  8
30
  6
CONTINUOUS
 62
     0
100
AcDbLine
 10
0.0
 20
0.0
 30
0.0
 11
-1.0
 21
0.0
 31
0.0
  0
ENDBLK
  5
3B7
330
3B2
100
AcDbEntity
  8
0
100
AcDbBlockEnd
  0
BLOCK
  5
676E
330
676A
100
AcDbEntity
  8
0
100
AcDbBlockBegin
  2
_OPEN30
 70
     0
 10
0.0
 20
0.0
 30
0.0
  3
_OPEN30
  1

  0
LINE
  5
676B
330
676A
100
AcDbEntity
  8
0
  6
BYBLOCK
 62
     0
100
AcDbLine
 10
-1.0
 20
0.26794919
 30
0.0
 11
0.0
 21
0.0
 31
0.0
  0
LINE
  5
676C
330
676A
100
AcDbEntity
  8
0
  6
BYBLOCK
 62
     0
100
AcDbLine
 10
0.0
 20
0.0
 30
0.0
 11
-1.0
 21
-0.26794919
 31
0.0
  0
LINE
  5
676D
330
676A
100
AcDbEntity
  8
0
  6
BYBLOCK
 62
     0
100
AcDbLine
 10
0.0
 20
0.0
 30
0.0
 11
-1.0
 21
0.0
 31
0.0
  0
ENDBLK
  5
676F
330
676A
100
AcDbEntity
  8
0
100
AcDbBlockEnd
  0
BLOCK
  5
6E0C
330
6D9C
100
AcDbEntity
  8
0
100
AcDbBlockBegin
  2
A$C21544DCF
 70
     0
 10
0.0
 20
0.0
 30
0.0
  3
A$C21544DCF
  1

  0
LINE
  5
6D9D
330
6D9C
100
AcDbEntity
  8
0
  6
CONTINUOUS
100
AcDbLine
 10
0.0
 20
92.5
 30
0.0
 11
0.0
 21
-92.5
 31
0.0
  0
LINE
  5
6D9E
330
6D9C
100
AcDbEntity
  8
0
  6
CONTINUOUS
100
AcDbLine
 10
-52.5
 20
82.5
 30
0.0
 11
-52.5
 21
-82.5
 31
0.0
  0
LINE
  5
6D9F
330
6D9C
100
AcDbEntity
  8
0
  6
CONTINUOUS
100
AcDbLine
 10
52.5
 20
-82.5
 30
0.0
 11
52.5
 21
82.5
 31
0.0
  0
ARC
  5
6DA0
330
6D9C
100
AcDbEntity
  8
0
  6
CONTINUOUS
100
AcDbCircle
 10
28.0
 20
-65.0
 30
0.0
 40
5.0
210
0.0
220
0.0
230
-1.0
100
AcDbArc
 50
90.0
 51
180.0
  0
LINE
  5
6DA1
330
6D9C
100
AcDbEntity
  8
0
  6
CONTINUOUS
100
AcDbLine
 10
-49.0
 20
-25.0
 30
0.0
 11
49.0
 21
-25.0
 31
0.0
  0
LINE
  5
6DA2
330
6D9C
100
AcDbEntity
  8
0
  6
CONTINUOUS
100
AcDbLine
 10
-49.0
 20
25.0
 30
0.0
 11
49.0
 21
25.0
 31
0.0
  0
LINE
  5
6DA3
330
6D9C
100
AcDbEntity
  8
0
  6
CONTINUOUS
100
AcDbLine
 10
-52.5
 20
-51.0
 30
0.0
 11
47.0
 21
-51.0
 31
0.0
  0
LINE
  5
6DA4
330
6D9C
100
AcDbEntity
  8
0
  6
CONTINUOUS
100
AcDbLine
 10
-52.5
 20
-82.5
 30
0.0
 11
47.0
 21
-82.5
 31
0.0
  0
LINE
  5
6DA5
330
6D9C
100
AcDbEntity
  8
0
  6
CONTINUOUS
100
AcDbLine
 10
-57.5
 20
0.0
 30
0.0
 11
58.2251927359449
 21
0.0
 31
0.0
  0
LINE
  5
6DA6
330
6D9C
100
AcDbEntity
  8
0
  6
CONTINUOUS
100
AcDbLine
 10
-49.0
 20
-25.0
 30
0.0
 11
49.0
 21
-25.0
 31
0.0
  0
CIRCLE
  5
6DA7
330
6D9C
100
AcDbEntity
  8
0
  6
CONTINUOUS
100
AcDbCircle
 10
-35.0
 20
-72.0
 30
0.0
 40
5.0
  0
LINE
  5
6DA8
330
6D9C
100
AcDbEntity
  8
0
  6
CONTINUOUS
100
AcDbLine
 10
-47.0
 20
-82.5
 30
0.0
 11
-47.0
 21
-65.0
 31
0.0
  0
LINE
  5
6DA9
330
6D9C
100
AcDbEntity
  8
0
  6
CONTINUOUS
100
AcDbLine
 10
-35.0
 20
-65.0
 30
0.0
 11
-35.0
 21
-79.0
 31
0.0
  0
LINE
  5
6DAA
330
6D9C
100
AcDbEntity
  8
0
  6
CONTINUOUS
100
AcDbLine
 10
-49.0
 20
25.0
 30
0.0
 11
-49.0
 21
-25.0
 31
0.0
  0
ARC
  5
6DAB
330
6D9C
100
AcDbEntity
  8
0
  6
CONTINUOUS
100
AcDbCircle
 10
42.0
 20
-65.0
 30
0.0
 40
5.0
210
0.0
220
0.0
230
-1.0
100
AcDbArc
 50
0.0
 51
90.0
  0
LINE
  5
6DAC
330
6D9C
100
AcDbEntity
  8
0
  6
CONTINUOUS
100
AcDbLine
 10
-42.0
 20
-72.0
 30
0.0
 11
-28.0
 21
-72.0
 31
0.0
  0
LINE
  5
6DAD
330
6D9C
100
AcDbEntity
  8
0
  6
CONTINUOUS
100
AcDbLine
 10
-28.0
 20
-60.0
 30
0.0
 11
-42.0
 21
-60.0
 31
0.0
  0
CIRCLE
  5
6DAE
330
6D9C
100
AcDbEntity
  8
0
  6
CONTINUOUS
100
AcDbCircle
 10
35.0
 20
-72.0
 30
0.0
 40
5.0
  0
CIRCLE
  5
6DAF
330
6D9C
100
AcDbEntity
  8
0
  6
CONTINUOUS
100
AcDbCircle
 10
0.0
 20
-72.0
 30
0.0
 40
5.0
  0
LINE
  5
6DB0
330
6D9C
100
AcDbEntity
  8
0
  6
CONTINUOUS
100
AcDbLine
 10
-23.0
 20
-82.5
 30
0.0
 11
-23.0
 21
-65.0
 31
0.0
  0
LINE
  5
6DB1
330
6D9C
100
AcDbEntity
  8
0
  6
CONTINUOUS
100
AcDbLine
 10
12.0
 20
-82.5
 30
0.0
 11
12.0
 21
-65.0
 31
0.0
  0
LINE
  5
6DB2
330
6D9C
100
AcDbEntity
  8
0
  6
CONTINUOUS
100
AcDbLine
 10
-12.0
 20
-82.5
 30
0.0
 11
-12.0
 21
-65.0
 31
0.0
  0
LINE
  5
6DB3
330
6D9C
100
AcDbEntity
  8
0
  6
CONTINUOUS
100
AcDbLine
 10
47.0
 20
-82.5
 30
0.0
 11
47.0
 21
-65.0
 31
0.0
  0
LINE
  5
6DB4
330
6D9C
100
AcDbEntity
  8
0
  6
CONTINUOUS
100
AcDbLine
 10
23.0
 20
-82.5
 30
0.0
 11
23.0
 21
-65.0
 31
0.0
  0
LINE
  5
6DB5
330
6D9C
100
AcDbEntity
  8
0
  6
CONTINUOUS
100
AcDbLine
 10
35.0
 20
-65.0
 30
0.0
 11
35.0
 21
-79.0
 31
0.0
  0
LINE
  5
6DB6
330
6D9C
100
AcDbEntity
  8
0
  6
CONTINUOUS
100
AcDbLine
 10
49.0
 20
-25.0
 30
0.0
 11
49.0
 21
-131.5101879612343
 31
0.0
  0
LINE
  5
6DB7
330
6D9C
100
AcDbEntity
  8
0
  6
CONTINUOUS
100
AcDbLine
 10
47.0
 20
-25.0
 30
0.0
 11
47.0
 21
-131.5214696541707
 31
0.0
  0
LINE
  5
6DB8
330
6D9C
100
AcDbEntity
  8
0
  6
CONTINUOUS
100
AcDbLine
 10
48.0
 20
-149.845960942616
 30
0.0
 11
48.0
 21
-153.845960942616
 31
0.0
  0
LINE
  5
6DB9
330
6D9C
100
AcDbEntity
  8
0
  6
CONTINUOUS
100
AcDbLine
 10
47.0
 20
-134.5214696541707
 30
0.0
 11
47.0
 21
-153.845960942616
 31
0.0
  0
LINE
  5
6DBA
330
6D9C
100
AcDbEntity
  8
0
  6
CONTINUOUS
100
AcDbLine
 10
49.0
 20
-134.5101879612343
 30
0.0
 11
49.0
 21
-153.845960942616
 31
0.0
  0
SPLINE
  5
6DBB
330
6D9C
100
AcDbEntity
  8
0
  6
CONTINUOUS
100
AcDbSpline
210
0.0
220
0.0
230
1.0
 70
     8
 71
     3
 72
    12
 73
     8
 74
     0
 42
0.0000000001
 43
0.0000000001
 40
0.0
 40
0.0
 40
0.0
 40
0.0
 40
0.25
 40
0.5
 40
0.75
 40
0.9027560157721172
 40
1.0
 40
1.0
 40
1.0
 40
1.0
 10
49.0
 20
-153.845960942616
 30
0.0
 10
49.15692719906866
 20
-155.0345150325693
 30
0.0
 10
49.37589598553778
 20
-155.9207784093739
 30
0.0
 10
49.7668726427459
 20
-157.0318195661038
 30
0.0
 10
50.35438487459838
 20
-158.4317914732045
 30
0.0
 10
50.65699082607824
 20
-159.2027110017873
 30
0.0
 10
50.9174311296145
 20
-159.8815494359974
 30
0.0
 10
51.10274862781523
 20
-160.4220588057494
 30
0.0
  0
SPLINE
  5
6DBC
330
6D9C
100
AcDbEntity
  8
0
  6
CONTINUOUS
100
AcDbSpline
210
0.0
220
0.0
230
1.0
 70
     8
 71
     3
 72
    12
 73
     8
 74
     0
 42
0.0000000001
 43
0.0000000001
 40
0.0
 40
0.0
 40
0.0
 40
0.0
 40
0.25
 40
0.5
 40
0.75
 40
0.9027560157721172
 40
1.0
 40
1.0
 40
1.0
 40
1.0
 10
47.0
 20
-153.845960942616
 30
0.0
 10
46.84307280093134
 20
-155.0345150325693
 30
0.0
 10
46.6241040144622
 20
-155.9207784093739
 30
0.0
 10
46.23312735725408
 20
-157.0318195661038
 30
0.0
 10
45.64561512540166
 20
-158.4317914732045
 30
0.0
 10
45.34300917392175
 20
-159.2027110017873
 30
0.0
 10
45.0825688703855
 20
-159.8815494359974
 30
0.0
 10
44.89725137218481
 20
-160.4220588057494
 30
0.0
  0
ARC
  5
6DBD
330
6D9C
100
AcDbEntity
  8
0
  6
CONTINUOUS
100
AcDbCircle
 10
48.0
 20
-161.545960942616
 30
0.0
 40
3.299999999999998
100
AcDbArc
 50
160.0881997351806
 51
19.91180026481925
  0
CIRCLE
  5
6DBE
330
6D9C
100
AcDbEntity
  8
0
  6
CONTINUOUS
100
AcDbCircle
 10
48.0
 20
-161.545960942616
 30
0.0
 40
2.149999999999999
  0
LINE
  5
6DBF
330
6D9C
100
AcDbEntity
  8
0
  6
CONTINUOUS
100
AcDbLine
 10
47.0
 20
-153.845960942616
 30
0.0
 11
49.0
 21
-153.845960942616
 31
0.0
  0
LINE
  5
6DC0
330
6D9C
100
AcDbEntity
  8
0
  6
CONTINUOUS
100
AcDbLine
 10
47.0
 20
-149.845960942616
 30
0.0
 11
49.0
 21
-149.845960942616
 31
0.0
  0
SPLINE
  5
6DC1
330
6D9C
100
AcDbEntity
  8
0
  6
CONTINUOUS
100
AcDbSpline
210
0.0
220
0.0
230
1.0
 70
     8
 71
     3
 72
     8
 73
     4
 74
     0
 42
0.0000000001
 43
0.0000000001
 40
0.0
 40
0.0
 40
0.0
 40
0.0
 40
1.0
 40
1.0
 40
1.0
 40
1.0
 10
47.00000000073258
 20
-134.5214696541707
 30
0.0
 10
47.54632667002561
 20
-133.5619339293595
 30
0.0
 10
48.48752698565374
 20
-135.8187863795232
 30
0.0
 10
49.00000000116675
 20
-134.5101879612343
 30
0.0
  0
SPLINE
  5
6DC2
330
6D9C
100
AcDbEntity
  8
0
  6
CONTINUOUS
100
AcDbSpline
210
0.0
220
0.0
230
1.0
 70
     8
 71
     3
 72
     8
 73
     4
 74
     0
 42
0.0000000001
 43
0.0000000001
 40
0.0
 40
0.0
 40
0.0
 40
0.0
 40
1.0
 40
1.0
 40
1.0
 40
1.0
 10
47.00000000073258
 20
-131.5214696541707
 30
0.0
 10
47.54632667002561
 20
-130.5619339293595
 30
0.0
 10
48.48752698565374
 20
-132.8187863795232
 30
0.0
 10
49.00000000116675
 20
-131.5101879612343
 30
0.0
  0
LINE
  5
6DC3
330
6D9C
100
AcDbEntity
  8
0
  6
CONTINUOUS
100
AcDbLine
 10
49.0
 20
-82.5
 30
0.0
 11
52.5
 21
-82.5
 31
0.0
  0
LINE
  5
6DC4
330
6D9C
100
AcDbEntity
  8
0
  6
CONTINUOUS
100
AcDbLine
 10
-11.0
 20
25.0
 30
0.0
 11
-11.0
 21
-25.0
 31
0.0
  0
LINE
  5
6DC5
330
6D9C
100
AcDbEntity
  8
0
  6
CONTINUOUS
100
AcDbLine
 10
11.0
 20
25.0
 30
0.0
 11
11.0
 21
-25.0
 31
0.0
  0
LINE
  5
6DC6
330
6D9C
100
AcDbEntity
  8
0
  6
CONTINUOUS
100
AcDbLine
 10
49.0
 20
25.0
 30
0.0
 11
49.0
 21
-25.0
 31
0.0
  0
CIRCLE
  5
6DC7
330
6D9C
100
AcDbEntity
  8
0
  6
CONTINUOUS
100
AcDbCircle
 10
17.5
 20
-63.0
 30
0.0
 40
4.0
  0
LINE
  5
6DC8
330
6D9C
100
AcDbEntity
  8
0
  6
CONTINUOUS
100
AcDbLine
 10
12.0
 20
-63.0
 30
0.0
 11
23.0
 21
-63.0
 31
0.0
  0
LINE
  5
6DC9
330
6D9C
100
AcDbEntity
  8
0
  6
CONTINUOUS
100
AcDbLine
 10
7.0
 20
-60.0
 30
0.0
 11
-7.0
 21
-60.0
 31
0.0
  0
LINE
  5
6DCA
330
6D9C
100
AcDbEntity
  8
0
  6
CONTINUOUS
100
AcDbLine
 10
-7.0
 20
-72.0
 30
0.0
 11
7.0
 21
-72.0
 31
0.0
  0
ARC
  5
6DCB
330
6D9C
100
AcDbEntity
  8
0
  6
CONTINUOUS
100
AcDbCircle
 10
7.0
 20
-65.0
 30
0.0
 40
5.0
210
0.0
220
0.0
230
-1.0
100
AcDbArc
 50
0.0
 51
90.0
  0
ARC
  5
6DCC
330
6D9C
100
AcDbEntity
  8
0
  6
CONTINUOUS
100
AcDbCircle
 10
-7.0
 20
-65.0
 30
0.0
 40
5.0
210
0.0
220
0.0
230
-1.0
100
AcDbArc
 50
90.0
 51
180.0
  0
LINE
  5
6DCD
330
6D9C
100
AcDbEntity
  8
0
  6
CONTINUOUS
100
AcDbLine
 10
17.5
 20
-57.5
 30
0.0
 11
17.5
 21
-68.5
 31
0.0
  0
LINE
  5
6DCE
330
6D9C
100
AcDbEntity
  8
0
  6
CONTINUOUS
100
AcDbLine
 10
42.0
 20
-60.0
 30
0.0
 11
28.0
 21
-60.0
 31
0.0
  0
LINE
  5
6DCF
330
6D9C
100
AcDbEntity
  8
0
  6
CONTINUOUS
100
AcDbLine
 10
28.0
 20
-72.0
 30
0.0
 11
42.0
 21
-72.0
 31
0.0
  0
ARC
  5
6DD0
330
6D9C
100
AcDbEntity
  8
0
  6
CONTINUOUS
100
AcDbCircle
 10
-28.0
 20
-65.0
 30
0.0
 40
5.0
210
0.0
220
0.0
230
-1.0
100
AcDbArc
 50
0.0
 51
90.0
  0
ARC
  5
6DD1
330
6D9C
100
AcDbEntity
  8
0
  6
CONTINUOUS
100
AcDbCircle
 10
-42.0
 20
-65.0
 30
0.0
 40
5.0
210
0.0
220
0.0
230
-1.0
100
AcDbArc
 50
90.0
 51
180.0
  0
LINE
  5
6DD2
330
6D9C
100
AcDbEntity
  8
0
  6
CONTINUOUS
100
AcDbLine
 10
49.0
 20
-51.0
 30
0.0
 11
52.5
 21
-51.0
 31
0.0
  0
LINE
  5
6DD3
330
6D9C
100
AcDbEntity
  8
0
  6
CONTINUOUS
100
AcDbLine
 10
-7.0
 20
-18.5
 30
0.0
 11
-6.999999999999943
 21
20.15486870581022
 31
0.0
  0
LINE
  5
6DD4
330
6D9C
100
AcDbEntity
  8
0
  6
CONTINUOUS
100
AcDbLine
 10
7.0
 20
-18.5
 30
0.0
 11
7.000000000000056
 21
20.15486870581028
 31
0.0
  0
LINE
  5
6DD5
330
6D9C
100
AcDbEntity
  8
0
  6
CONTINUOUS
100
AcDbLine
 10
-7.0
 20
-18.5
 30
0.0
 11
7.0
 21
-18.5
 31
0.0
  0
LINE
  5
6DD6
330
6D9C
100
AcDbEntity
  8
0
  6
CONTINUOUS
100
AcDbLine
 10
7.0
 20
6.840789306861521
 30
0.0
 11
-6.999999999999147
 21
6.84078930686158
 31
0.0
  0
LINE
  5
6DD7
330
6D9C
100
AcDbEntity
  8
0
  6
CONTINUOUS
100
AcDbLine
 10
7.0
 20
20.15486870581028
 30
0.0
 11
-7.000000000000909
 21
20.15486870581022
 31
0.0
  0
LINE
  5
6DD8
330
6D9C
100
AcDbEntity
  8
0
  6
CONTINUOUS
100
AcDbLine
 10
7.0
 20
15.23995644007664
 30
0.0
 11
-7.0
 21
15.23995644007664
 31
0.0
  0
LINE
  5
6DD9
330
6D9C
100
AcDbEntity
  8
0
  6
CONTINUOUS
100
AcDbLine
 10
31.10000000000002
 20
10.0495722744776
 30
0.0
 11
31.10000000000002
 21
-6.431389353983262
 31
0.0
  0
LINE
  5
6DDA
330
6D9C
100
AcDbEntity
  8
0
  6
CONTINUOUS
100
AcDbLine
 10
31.60000000000001
 20
-6.337747526548894
 30
0.0
 11
31.60000000000001
 21
-16.98662646131889
 31
0.0
  0
LINE
  5
6DDB
330
6D9C
100
AcDbEntity
  8
0
  6
CONTINUOUS
100
AcDbLine
 10
27.0
 20
-7.000000000000027
 30
0.0
 11
27.0
 21
-11.00000000000002
 31
0.0
  0
LINE
  5
6DDC
330
6D9C
100
AcDbEntity
  8
0
  6
CONTINUOUS
100
AcDbLine
 10
36.19999999999999
 20
-7.000000000000027
 30
0.0
 11
36.19999999999999
 21
-11.00000000000002
 31
0.0
  0
LINE
  5
6DDD
330
6D9C
100
AcDbEntity
  8
0
  6
CONTINUOUS
100
AcDbLine
 10
27.0
 20
-12.0
 30
0.0
 11
36.2000000000001
 21
-12.0
 31
0.0
  0
LINE
  5
6DDE
330
6D9C
100
AcDbEntity
  8
0
  6
CONTINUOUS
100
AcDbLine
 10
27.0
 20
-16.0
 30
0.0
 11
36.2000000000001
 21
-16.0
 31
0.0
  0
LINE
  5
6DDF
330
6D9C
100
AcDbEntity
  8
0
  6
CONTINUOUS
100
AcDbLine
 10
25.36102323011846
 20
-14.0
 30
0.0
 11
37.4470617576565
 21
-14.0
 31
0.0
  0
LINE
  5
6DE0
330
6D9C
100
AcDbEntity
  8
0
  6
CONTINUOUS
100
AcDbLine
 10
27.0
 20
-11.0
 30
0.0
 11
36.2000000000001
 21
-11.0
 31
0.0
  0
LINE
  5
6DE1
330
6D9C
100
AcDbEntity
  8
0
  6
CONTINUOUS
100
AcDbLine
 10
27.0
 20
-12.00000000000001
 30
0.0
 11
27.0
 21
-16.00000000000003
 31
0.0
  0
LINE
  5
6DE2
330
6D9C
100
AcDbEntity
  8
0
  6
CONTINUOUS
100
AcDbLine
 10
36.19999999999999
 20
-12.00000000000001
 30
0.0
 11
36.19999999999999
 21
-16.00000000000003
 31
0.0
  0
CIRCLE
  5
6DE3
330
6D9C
100
AcDbEntity
  8
0
  6
CONTINUOUS
100
AcDbCircle
 10
31.10000000000002
 20
-1.900000000000004
 30
0.0
 40
2.5
  0
CIRCLE
  5
6DE4
330
6D9C
100
AcDbEntity
  8
0
  6
CONTINUOUS
100
AcDbCircle
 10
31.10000000000002
 20
-1.900000000000004
 30
0.0
 40
3.6
  0
LINE
  5
6DE5
330
6D9C
100
AcDbEntity
  8
0
  6
CONTINUOUS
100
AcDbLine
 10
25.4609078460486
 20
-1.900000000000004
 30
0.0
 11
36.34833098242575
 21
-1.900000000000004
 31
0.0
  0
LINE
  5
6DE6
330
6D9C
100
AcDbEntity
  8
0
  6
CONTINUOUS
100
AcDbLine
 10
27.0
 20
-7.0
 30
0.0
 11
36.2000000000001
 21
-7.0
 31
0.0
  0
LINE
  5
6DE7
330
6D9C
100
AcDbEntity
  8
0
  6
CONTINUOUS
100
AcDbLine
 10
25.36102323011846
 20
-9.0
 30
0.0
 11
37.4470617576565
 21
-9.0
 31
0.0
  0
CIRCLE
  5
6DE8
330
6D9C
100
AcDbEntity
  8
0
  6
CONTINUOUS
100
AcDbCircle
 10
31.10000000000002
 20
5.799999999999953
 30
0.0
 40
2.75
  0
LINE
  5
6DE9
330
6D9C
100
AcDbEntity
  8
0
  6
CONTINUOUS
100
AcDbLine
 10
25.4609078460486
 20
5.800000000000012
 30
0.0
 11
36.34833098242575
 21
5.800000000000012
 31
0.0
  0
ARC
  5
6DEA
330
6D9C
100
AcDbEntity
  8
0
  6
CONTINUOUS
100
AcDbCircle
 10
-28.0
 20
65.0
 30
0.0
 40
5.0
100
AcDbArc
 50
270.0
 51
0.0
  0
LINE
  5
6DEB
330
6D9C
100
AcDbEntity
  8
0
  6
CONTINUOUS
100
AcDbLine
 10
-52.5
 20
51.0
 30
0.0
 11
52.5
 21
51.0
 31
0.0
  0
LINE
  5
6DEC
330
6D9C
100
AcDbEntity
  8
0
  6
CONTINUOUS
100
AcDbLine
 10
52.5
 20
82.5
 30
0.0
 11
-52.5
 21
82.5
 31
0.0
  0
LINE
  5
6DED
330
6D9C
100
AcDbEntity
  8
0
  6
CONTINUOUS
100
AcDbLine
 10
-47.0
 20
82.5
 30
0.0
 11
-47.0
 21
65.0
 31
0.0
  0
ARC
  5
6DEE
330
6D9C
100
AcDbEntity
  8
0
  6
CONTINUOUS
100
AcDbCircle
 10
-42.0
 20
65.0
 30
0.0
 40
5.0
100
AcDbArc
 50
180.0
 51
270.0
  0
CIRCLE
  5
6DEF
330
6D9C
100
AcDbEntity
  8
0
  6
CONTINUOUS
100
AcDbCircle
 10
-35.0
 20
72.0
 30
0.0
 40
5.0
  0
LINE
  5
6DF0
330
6D9C
100
AcDbEntity
  8
0
  6
CONTINUOUS
100
AcDbLine
 10
-35.0
 20
79.0
 30
0.0
 11
-35.0
 21
65.0
 31
0.0
  0
LINE
  5
6DF1
330
6D9C
100
AcDbEntity
  8
0
  6
CONTINUOUS
100
AcDbLine
 10
-28.0
 20
60.0
 30
0.0
 11
-42.0
 21
60.0
 31
0.0
  0
LINE
  5
6DF2
330
6D9C
100
AcDbEntity
  8
0
  6
CONTINUOUS
100
AcDbLine
 10
-42.0
 20
72.0
 30
0.0
 11
-28.0
 21
72.0
 31
0.0
  0
LINE
  5
6DF3
330
6D9C
100
AcDbEntity
  8
0
  6
CONTINUOUS
100
AcDbLine
 10
-23.0
 20
82.5
 30
0.0
 11
-23.0
 21
65.0
 31
0.0
  0
LINE
  5
6DF4
330
6D9C
100
AcDbEntity
  8
0
  6
CONTINUOUS
100
AcDbLine
 10
12.0
 20
82.5
 30
0.0
 11
12.0
 21
65.0
 31
0.0
  0
LINE
  5
6DF5
330
6D9C
100
AcDbEntity
  8
0
  6
CONTINUOUS
100
AcDbLine
 10
-12.0
 20
82.5
 30
0.0
 11
-12.0
 21
65.0
 31
0.0
  0
LINE
  5
6DF6
330
6D9C
100
AcDbEntity
  8
0
  6
CONTINUOUS
100
AcDbLine
 10
23.0
 20
82.5
 30
0.0
 11
23.0
 21
65.0
 31
0.0
  0
LINE
  5
6DF7
330
6D9C
100
AcDbEntity
  8
0
  6
CONTINUOUS
100
AcDbLine
 10
47.0
 20
82.5
 30
0.0
 11
47.0
 21
65.0
 31
0.0
  0
CIRCLE
  5
6DF8
330
6D9C
100
AcDbEntity
  8
0
  6
CONTINUOUS
100
AcDbCircle
 10
0.0
 20
72.0
 30
0.0
 40
5.0
  0
LINE
  5
6DF9
330
6D9C
100
AcDbEntity
  8
0
  6
CONTINUOUS
100
AcDbLine
 10
7.0
 20
60.0
 30
0.0
 11
-7.0
 21
60.0
 31
0.0
  0
LINE
  5
6DFA
330
6D9C
100
AcDbEntity
  8
0
  6
CONTINUOUS
100
AcDbLine
 10
-7.0
 20
72.0
 30
0.0
 11
7.0
 21
72.0
 31
0.0
  0
LINE
  5
6DFB
330
6D9C
100
AcDbEntity
  8
0
  6
CONTINUOUS
100
AcDbLine
 10
-17.5
 20
68.5
 30
0.0
 11
-17.5
 21
57.5
 31
0.0
  0
ARC
  5
6DFC
330
6D9C
100
AcDbEntity
  8
0
  6
CONTINUOUS
100
AcDbCircle
 10
-7.0
 20
65.0
 30
0.0
 40
5.0
100
AcDbArc
 50
180.0
 51
270.0
  0
LINE
  5
6DFD
330
6D9C
100
AcDbEntity
  8
0
  6
CONTINUOUS
100
AcDbLine
 10
-23.0
 20
63.0
 30
0.0
 11
-12.0
 21
63.0
 31
0.0
  0
CIRCLE
  5
6DFE
330
6D9C
100
AcDbEntity
  8
0
  6
CONTINUOUS
100
AcDbCircle
 10
-17.5
 20
63.0
 30
0.0
 40
4.0
  0
ARC
  5
6DFF
330
6D9C
100
AcDbEntity
  8
0
  6
CONTINUOUS
100
AcDbCircle
 10
7.0
 20
65.0
 30
0.0
 40
5.0
100
AcDbArc
 50
270.0
 51
0.0
  0
LINE
  5
6E00
330
6D9C
100
AcDbEntity
  8
0
  6
CONTINUOUS
100
AcDbLine
 10
42.0
 20
60.0
 30
0.0
 11
28.0
 21
60.0
 31
0.0
  0
LINE
  5
6E01
330
6D9C
100
AcDbEntity
  8
0
  6
CONTINUOUS
100
AcDbLine
 10
28.0
 20
72.0
 30
0.0
 11
42.0
 21
72.0
 31
0.0
  0
CIRCLE
  5
6E02
330
6D9C
100
AcDbEntity
  8
0
  6
CONTINUOUS
100
AcDbCircle
 10
35.0
 20
72.0
 30
0.0
 40
5.0
  0
LINE
  5
6E03
330
6D9C
100
AcDbEntity
  8
0
  6
CONTINUOUS
100
AcDbLine
 10
35.0
 20
79.0
 30
0.0
 11
35.0
 21
65.0
 31
0.0
  0
ARC
  5
6E04
330
6D9C
100
AcDbEntity
  8
0
  6
CONTINUOUS
100
AcDbCircle
 10
28.0
 20
65.0
 30
0.0
 40
5.0
100
AcDbArc
 50
180.0
 51
270.0
  0
ARC
  5
6E05
330
6D9C
100
AcDbEntity
  8
0
  6
CONTINUOUS
100
AcDbCircle
 10
42.0
 20
65.0
 30
0.0
 40
5.0
100
AcDbArc
 50
270.0
 51
0.0
  0
LINE
  5
6E06
330
6D9C
100
AcDbEntity
  8
0
  6
PHANTOM
100
AcDbLine
 10
19.0
 20
129.4999999999999
 30
0.0
 11
19.0
 21
82.49999999999992
 31
0.0
  0
LINE
  5
6E07
330
6D9C
100
AcDbEntity
  8
0
  6
PHANTOM
100
AcDbLine
 10
16.0
 20
129.4999999999999
 30
0.0
 11
16.0
 21
82.49999999999992
 31
0.0
  0
LINE
  5
6E08
330
6D9C
100
AcDbEntity
  8
0
  6
PHANTOM
100
AcDbLine
 10
-16.0
 20
129.4999999999999
 30
0.0
 11
-16.0
 21
82.49999999999992
 31
0.0
  0
LINE
  5
6E09
330
6D9C
100
AcDbEntity
  8
0
  6
PHANTOM
100
AcDbLine
 10
-19.0
 20
129.4999999999999
 30
0.0
 11
-19.0
 21
82.49999999999992
 31
0.0
  0
LINE
  5
6E0A
330
6D9C
100
AcDbEntity
  8
0
  6
PHANTOM
100
AcDbLine
 10
-16.0
 20
129.4999999999999
 30
0.0
 11
-19.0
 21
129.4999999999999
 31
0.0
  0
LINE
  5
6E0B
330
6D9C
100
AcDbEntity
  8
0
  6
PHANTOM
100
AcDbLine
 10
16.0
 20
129.4999999999999
 30
0.0
 11
19.0
 21
129.4999999999999
 31
0.0
  0
ENDBLK
  5
6E0D
330
6D9C
100
AcDbEntity
  8
0
100
AcDbBlockEnd
  0
BLOCK
  5
731F
330
725D
100
AcDbEntity
  8
0
100
AcDbBlockBegin
  2
A$C15744025
 70
     0
 10
0.0
 20
0.0
 30
0.0
  3
A$C15744025
  1

  0
LINE
  5
725E
330
725D
100
AcDbEntity
  8
0
100
AcDbLine
 10
46.0
 20
-174.5
 30
0.0
 11
74.0
 21
-174.5
 31
0.0
  0
LINE
  5
725F
330
725D
100
AcDbEntity
  8
0
100
AcDbLine
 10
49.0
 20
-160.0
 30
0.0
 11
71.0
 21
-160.0
 31
0.0
  0
LINE
  5
7260
330
725D
100
AcDbEntity
  8
0
100
AcDbLine
 10
49.0
 20
160.0000000000002
 30
0.0
 11
71.0
 21
160.0000000000002
 31
0.0
  0
LINE
  5
7261
330
725D
100
AcDbEntity
  8
0
100
AcDbLine
 10
46.0
 20
174.5000000000002
 30
0.0
 11
74.0
 21
174.5000000000002
 31
0.0
  0
LINE
  5
7262
330
725D
100
AcDbEntity
  8
0
100
AcDbLine
 10
-70.00000000000007
 20
50.99999999999909
 30
0.0
 11
70.0
 21
50.99999999999909
 31
0.0
  0
LINE
  5
7263
330
725D
100
AcDbEntity
  8
0
100
AcDbLine
 10
-53.0
 20
45.0000000000001
 30
0.0
 11
53.0
 21
45.0000000000001
 31
0.0
  0
LINE
  5
7264
330
725D
100
AcDbEntity
  8
0
100
AcDbLine
 10
70.0
 20
130.0
 30
0.0
 11
-70.00000000000007
 21
130.0
 31
0.0
  0
LINE
  5
7265
330
725D
100
AcDbEntity
  8
0
100
AcDbLine
 10
-53.0
 20
-45.0
 30
0.0
 11
53.0
 21
-45.0
 31
0.0
  0
LINE
  5
7266
330
725D
100
AcDbEntity
  8
0
100
AcDbLine
 10
-75.00000000000007
 20
0.0
 30
0.0
 11
75.0
 21
0.0
 31
0.0
  0
LINE
  5
7267
330
725D
100
AcDbEntity
  8
0
100
AcDbLine
 10
36.0
 20
-114.0
 30
0.0
 11
54.0
 21
-114.0
 31
0.0
  0
LINE
  5
7268
330
725D
100
AcDbEntity
  8
0
100
AcDbLine
 10
36.0
 20
114.0000000000001
 30
0.0
 11
54.0
 21
114.0000000000001
 31
0.0
  0
LINE
  5
7269
330
725D
100
AcDbEntity
  8
0
100
AcDbLine
 10
-70.00000000000007
 20
-130.0
 30
0.0
 11
70.0
 21
-130.0
 31
0.0
  0
LINE
  5
726A
330
725D
100
AcDbEntity
  8
0
100
AcDbLine
 10
-70.00000000000007
 20
-51.0
 30
0.0
 11
70.0
 21
-51.0
 31
0.0
  0
LINE
  5
726B
330
725D
100
AcDbEntity
  8
0
100
AcDbLine
 10
0.0
 20
178.5000000000001
 30
0.0
 11
0.0
 21
-178.5
 31
0.0
  0
LINE
  5
726C
330
725D
100
AcDbEntity
  8
0
100
AcDbLine
 10
-25.49999999999977
 20
-45.0
 30
0.0
 11
-25.5
 21
45.0000000000001
 31
0.0
  0
LINE
  5
726D
330
725D
100
AcDbEntity
  8
0
100
AcDbLine
 10
25.49999999999977
 20
-45.0
 30
0.0
 11
25.49999999999977
 21
45.0000000000001
 31
0.0
  0
LINE
  5
726E
330
725D
100
AcDbEntity
  8
0
100
AcDbLine
 10
-70.00000000000007
 20
130.0
 30
0.0
 11
-70.00000000000007
 21
-130.0
 31
0.0
  0
ARC
  5
726F
330
725D
100
AcDbEntity
  8
0
100
AcDbCircle
 10
-53.0
 20
-40.0
 30
0.0
 40
5.0
100
AcDbArc
 50
180.0
 51
270.0
  0
LINE
  5
7270
330
725D
100
AcDbEntity
  8
0
100
AcDbLine
 10
-71.00000000000004
 20
-160.0
 30
0.0
 11
-49.0
 21
-160.0
 31
0.0
  0
LINE
  5
7271
330
725D
100
AcDbEntity
  8
0
100
AcDbLine
 10
-74.00000000000004
 20
-150.0000000000003
 30
0.0
 11
-59.0
 21
-130.0000000000003
 31
0.0
  0
LINE
  5
7272
330
725D
100
AcDbEntity
  8
0
100
AcDbLine
 10
-74.00000000000004
 20
-174.5
 30
0.0
 11
-46.0
 21
-174.5
 31
0.0
  0
CIRCLE
  5
7273
330
725D
100
AcDbEntity
  8
0
100
AcDbCircle
 10
60.0
 20
-160.0
 30
0.0
 40
7.0
210
0.0
220
0.0
230
-1.0
  0
LINE
  5
7274
330
725D
100
AcDbEntity
  8
0
100
AcDbLine
 10
-74.00000000000004
 20
-174.5
 30
0.0
 11
-74.00000000000004
 21
-150.0000000000003
 31
0.0
  0
LINE
  5
7275
330
725D
100
AcDbEntity
  8
0
100
AcDbLine
 10
14.0
 20
-174.5
 30
0.0
 11
14.0
 21
-130.0
 31
0.0
  0
LINE
  5
7276
330
725D
100
AcDbEntity
  8
0
100
AcDbLine
 10
31.0
 20
-130.0000000000003
 30
0.0
 11
46.0
 21
-150.0000000000003
 31
0.0
  0
LINE
  5
7277
330
725D
100
AcDbEntity
  8
0
100
AcDbLine
 10
-46.0
 20
-150.0000000000003
 30
0.0
 11
-31.0
 21
-130.0000000000003
 31
0.0
  0
LINE
  5
7278
330
725D
100
AcDbEntity
  8
0
100
AcDbLine
 10
-14.0
 20
-174.5
 30
0.0
 11
-14.0
 21
-130.0
 31
0.0
  0
LINE
  5
7279
330
725D
100
AcDbEntity
  8
0
100
AcDbLine
 10
-11.0
 20
-160.0
 30
0.0
 11
11.0
 21
-160.0
 31
0.0
  0
LINE
  5
727A
330
725D
100
AcDbEntity
  8
0
100
AcDbLine
 10
-14.0
 20
-174.5
 30
0.0
 11
14.0
 21
-174.5
 31
0.0
  0
CIRCLE
  5
727B
330
725D
100
AcDbEntity
  8
0
100
AcDbCircle
 10
0.0
 20
-160.0
 30
0.0
 40
7.0
210
0.0
220
0.0
230
-1.0
  0
LINE
  5
727C
330
725D
100
AcDbEntity
  8
0
100
AcDbLine
 10
-60.0
 20
-149.0
 30
0.0
 11
-60.0
 21
-171.0
 31
0.0
  0
LINE
  5
727D
330
725D
100
AcDbEntity
  8
0
100
AcDbLine
 10
-46.0
 20
-174.5
 30
0.0
 11
-46.0
 21
-150.0000000000003
 31
0.0
  0
LINE
  5
727E
330
725D
100
AcDbEntity
  8
0
100
AcDbLine
 10
46.0
 20
-174.5
 30
0.0
 11
46.0
 21
-150.0000000000003
 31
0.0
  0
LINE
  5
727F
330
725D
100
AcDbEntity
  8
0
100
AcDbLine
 10
-9.0
 20
-114.0
 30
0.0
 11
9.0
 21
-114.0
 31
0.0
  0
LINE
  5
7280
330
725D
100
AcDbEntity
  8
0
100
AcDbLine
 10
-45.0000000000001
 20
-109.3811978464831
 30
0.0
 11
-41.0
 21
-111.6905989232416
 31
0.0
  0
LINE
  5
7281
330
725D
100
AcDbEntity
  8
0
100
AcDbLine
 10
-49.0
 20
-111.6905989232416
 30
0.0
 11
-45.0000000000001
 21
-109.3811978464831
 31
0.0
  0
LINE
  5
7282
330
725D
100
AcDbEntity
  8
0
100
AcDbLine
 10
-45.0
 20
-123.0
 30
0.0
 11
-45.0
 21
-105.0
 31
0.0
  0
ARC
  5
7283
330
725D
100
AcDbEntity
  8
0
100
AcDbCircle
 10
45.0
 20
-114.0
 30
0.0
 40
5.5
210
0.0
220
0.0
230
-1.0
100
AcDbArc
 50
0.0
 51
180.0
  0
LINE
  5
7284
330
725D
100
AcDbEntity
  8
0
100
AcDbLine
 10
-54.0
 20
-114.0
 30
0.0
 11
-36.0
 21
-114.0
 31
0.0
  0
LINE
  5
7285
330
725D
100
AcDbEntity
  8
0
100
AcDbLine
 10
-41.0
 20
-111.6905989232416
 30
0.0
 11
-41.0
 21
-116.3094010767586
 31
0.0
  0
LINE
  5
7286
330
725D
100
AcDbEntity
  8
0
100
AcDbLine
 10
-49.0
 20
-116.3094010767586
 30
0.0
 11
-49.0
 21
-111.6905989232416
 31
0.0
  0
LINE
  5
7287
330
725D
100
AcDbEntity
  8
0
100
AcDbLine
 10
-45.0
 20
-118.6188021535169
 30
0.0
 11
-49.0
 21
-116.3094010767586
 31
0.0
  0
LINE
  5
7288
330
725D
100
AcDbEntity
  8
0
100
AcDbLine
 10
-41.0
 20
-116.3094010767586
 30
0.0
 11
-45.0
 21
-118.6188021535169
 31
0.0
  0
LINE
  5
7289
330
725D
100
AcDbEntity
  8
0
100
AcDbLine
 10
-50.5
 20
-114.0
 30
0.0
 11
-50.5
 21
-130.0
 31
0.0
  0
LINE
  5
728A
330
725D
100
AcDbEntity
  8
0
100
AcDbLine
 10
-39.5
 20
-114.0
 30
0.0
 11
-39.5
 21
-130.0
 31
0.0
  0
ARC
  5
728B
330
725D
100
AcDbEntity
  8
0
100
AcDbCircle
 10
45.0
 20
-114.0
 30
0.0
 40
8.0
210
0.0
220
0.0
230
-1.0
100
AcDbArc
 50
226.5674634422111
 51
313.4325365577887
  0
LINE
  5
728C
330
725D
100
AcDbEntity
  8
0
100
AcDbLine
 10
-22.5
 20
-99.0
 30
0.0
 11
-22.5
 21
-115.0
 31
0.0
  0
CIRCLE
  5
728D
330
725D
100
AcDbEntity
  8
0
100
AcDbCircle
 10
-22.5
 20
-107.0
 30
0.0
 40
4.0
  0
LINE
  5
728E
330
725D
100
AcDbEntity
  8
0
100
AcDbLine
 10
-14.5
 20
-107.0
 30
0.0
 11
-30.5
 21
-107.0
 31
0.0
  0
LINE
  5
728F
330
725D
100
AcDbEntity
  8
0
100
AcDbLine
 10
30.5
 20
-107.0
 30
0.0
 11
14.5
 21
-107.0
 31
0.0
  0
CIRCLE
  5
7290
330
725D
100
AcDbEntity
  8
0
100
AcDbCircle
 10
22.5
 20
-107.0
 30
0.0
 40
4.0
  0
LINE
  5
7291
330
725D
100
AcDbEntity
  8
0
100
AcDbLine
 10
-0.0000000000001137
 20
-109.3811978464831
 30
0.0
 11
4.0
 21
-111.6905989232416
 31
0.0
  0
LINE
  5
7292
330
725D
100
AcDbEntity
  8
0
100
AcDbLine
 10
-4.0
 20
-111.6905989232416
 30
0.0
 11
-0.0000000000001137
 21
-109.3811978464831
 31
0.0
  0
LINE
  5
7293
330
725D
100
AcDbEntity
  8
0
100
AcDbLine
 10
22.5
 20
-99.0
 30
0.0
 11
22.5
 21
-115.0
 31
0.0
  0
LINE
  5
7294
330
725D
100
AcDbEntity
  8
0
100
AcDbLine
 10
0.0
 20
-123.0
 30
0.0
 11
0.0
 21
-105.0
 31
0.0
  0
ARC
  5
7295
330
725D
100
AcDbEntity
  8
0
100
AcDbCircle
 10
0.0
 20
-114.0
 30
0.0
 40
5.5
210
0.0
220
0.0
230
-1.0
100
AcDbArc
 50
0.0
 51
180.0
  0
LINE
  5
7296
330
725D
100
AcDbEntity
  8
0
100
AcDbLine
 10
4.0
 20
-111.6905989232416
 30
0.0
 11
4.0
 21
-116.3094010767586
 31
0.0
  0
LINE
  5
7297
330
725D
100
AcDbEntity
  8
0
100
AcDbLine
 10
-4.0
 20
-116.3094010767586
 30
0.0
 11
-4.0
 21
-111.6905989232416
 31
0.0
  0
LINE
  5
7298
330
725D
100
AcDbEntity
  8
0
100
AcDbLine
 10
0.0
 20
-118.6188021535169
 30
0.0
 11
-4.0
 21
-116.3094010767586
 31
0.0
  0
LINE
  5
7299
330
725D
100
AcDbEntity
  8
0
100
AcDbLine
 10
4.0
 20
-116.3094010767586
 30
0.0
 11
0.0
 21
-118.6188021535169
 31
0.0
  0
LINE
  5
729A
330
725D
100
AcDbEntity
  8
0
100
AcDbLine
 10
-5.5
 20
-114.0
 30
0.0
 11
-5.5
 21
-130.0
 31
0.0
  0
LINE
  5
729B
330
725D
100
AcDbEntity
  8
0
100
AcDbLine
 10
5.5
 20
-114.0
 30
0.0
 11
5.5
 21
-130.0
 31
0.0
  0
ARC
  5
729C
330
725D
100
AcDbEntity
  8
0
100
AcDbCircle
 10
0.0
 20
-114.0
 30
0.0
 40
8.0
210
0.0
220
0.0
230
-1.0
100
AcDbArc
 50
226.5674634422111
 51
313.4325365577887
  0
LINE
  5
729D
330
725D
100
AcDbEntity
  8
0
100
AcDbLine
 10
44.99999999999988
 20
-109.3811978464831
 30
0.0
 11
49.0
 21
-111.6905989232416
 31
0.0
  0
LINE
  5
729E
330
725D
100
AcDbEntity
  8
0
100
AcDbLine
 10
41.0
 20
-111.6905989232416
 30
0.0
 11
44.99999999999988
 21
-109.3811978464831
 31
0.0
  0
LINE
  5
729F
330
725D
100
AcDbEntity
  8
0
100
AcDbLine
 10
45.0
 20
-123.0
 30
0.0
 11
45.0
 21
-105.0
 31
0.0
  0
ARC
  5
72A0
330
725D
100
AcDbEntity
  8
0
100
AcDbCircle
 10
-45.0
 20
-114.0
 30
0.0
 40
5.5
210
0.0
220
0.0
230
-1.0
100
AcDbArc
 50
0.0
 51
180.0
  0
LINE
  5
72A1
330
725D
100
AcDbEntity
  8
0
100
AcDbLine
 10
49.0
 20
-111.6905989232416
 30
0.0
 11
49.0
 21
-116.3094010767586
 31
0.0
  0
LINE
  5
72A2
330
725D
100
AcDbEntity
  8
0
100
AcDbLine
 10
41.0
 20
-116.3094010767586
 30
0.0
 11
41.0
 21
-111.6905989232416
 31
0.0
  0
LINE
  5
72A3
330
725D
100
AcDbEntity
  8
0
100
AcDbLine
 10
45.0
 20
-118.6188021535169
 30
0.0
 11
41.0
 21
-116.3094010767586
 31
0.0
  0
LINE
  5
72A4
330
725D
100
AcDbEntity
  8
0
100
AcDbLine
 10
49.0
 20
-116.3094010767586
 30
0.0
 11
45.0
 21
-118.6188021535169
 31
0.0
  0
LINE
  5
72A5
330
725D
100
AcDbEntity
  8
0
100
AcDbLine
 10
39.5
 20
-114.0
 30
0.0
 11
39.5
 21
-130.0
 31
0.0
  0
LINE
  5
72A6
330
725D
100
AcDbEntity
  8
0
100
AcDbLine
 10
50.5
 20
-114.0
 30
0.0
 11
50.5
 21
-130.0
 31
0.0
  0
ARC
  5
72A7
330
725D
100
AcDbEntity
  8
0
100
AcDbCircle
 10
-45.0
 20
-114.0
 30
0.0
 40
8.0
210
0.0
220
0.0
230
-1.0
100
AcDbArc
 50
226.5674634422111
 51
313.4325365577887
  0
LINE
  5
72A8
330
725D
100
AcDbEntity
  8
0
100
AcDbLine
 10
14.0
 20
174.5000000000002
 30
0.0
 11
14.0
 21
130.0
 31
0.0
  0
LINE
  5
72A9
330
725D
100
AcDbEntity
  8
0
100
AcDbLine
 10
31.0
 20
130.0
 30
0.0
 11
46.0
 21
150.0000000000001
 31
0.0
  0
LINE
  5
72AA
330
725D
100
AcDbEntity
  8
0
100
AcDbLine
 10
-46.0
 20
150.0000000000001
 30
0.0
 11
-31.0
 21
130.0
 31
0.0
  0
LINE
  5
72AB
330
725D
100
AcDbEntity
  8
0
100
AcDbLine
 10
-74.00000000000004
 20
150.0000000000001
 30
0.0
 11
-59.0
 21
130.0
 31
0.0
  0
LINE
  5
72AC
330
725D
100
AcDbEntity
  8
0
100
AcDbLine
 10
-14.0
 20
174.5000000000002
 30
0.0
 11
-14.0
 21
130.0
 31
0.0
  0
LINE
  5
72AD
330
725D
100
AcDbEntity
  8
0
100
AcDbLine
 10
17.99999999999988
 20
-31.0
 30
0.0
 11
-18.0
 21
-31.0
 31
0.0
  0
LINE
  5
72AE
330
725D
100
AcDbEntity
  8
0
100
AcDbLine
 10
17.0
 20
17.0337027253521
 30
0.0
 11
-17.0
 21
17.0337027253521
 31
0.0
  0
LINE
  5
72AF
330
725D
100
AcDbEntity
  8
0
100
AcDbLine
 10
17.0
 20
28.03853193396571
 30
0.0
 11
-17.00000000000011
 21
28.03853193396571
 31
0.0
  0
LINE
  5
72B0
330
725D
100
AcDbEntity
  8
0
100
AcDbLine
 10
17.0
 20
39.33264411704204
 30
0.0
 11
-17.00000000000011
 21
39.33264411704204
 31
0.0
  0
LINE
  5
72B1
330
725D
100
AcDbEntity
  8
0
100
AcDbLine
 10
-18.0
 20
-31.0
 30
0.0
 11
-18.00000000000011
 21
31.00000000000011
 31
0.0
  0
LINE
  5
72B2
330
725D
100
AcDbEntity
  8
0
100
AcDbLine
 10
-58.0
 20
40.0000000000001
 30
0.0
 11
-58.0
 21
-40.0
 31
0.0
  0
ARC
  5
72B3
330
725D
100
AcDbEntity
  8
0
100
AcDbCircle
 10
-53.0
 20
40.0000000000001
 30
0.0
 40
5.0
100
AcDbArc
 50
90.0
 51
180.0
  0
LINE
  5
72B4
330
725D
100
AcDbEntity
  8
0
100
AcDbLine
 10
-17.00000000000011
 20
17.0337027253521
 30
0.0
 11
-17.00000000000011
 21
39.33264411704204
 31
0.0
  0
LINE
  5
72B5
330
725D
100
AcDbEntity
  8
0
100
AcDbLine
 10
-17.00000000000011
 20
31.00000000000011
 30
0.0
 11
-18.00000000000011
 21
31.00000000000011
 31
0.0
  0
LINE
  5
72B6
330
725D
100
AcDbEntity
  8
0
100
AcDbLine
 10
17.99999999999988
 20
-31.0
 30
0.0
 11
18.0
 21
31.00000000000011
 31
0.0
  0
CIRCLE
  5
72B7
330
725D
100
AcDbEntity
  8
0
100
AcDbCircle
 10
40.94999999999993
 20
5.0
 30
0.0
 40
5.5
  0
CIRCLE
  5
72B8
330
725D
100
AcDbEntity
  8
0
100
AcDbCircle
 10
40.94999999999993
 20
5.0
 30
0.0
 40
3.5
  0
LINE
  5
72B9
330
725D
100
AcDbEntity
  8
0
100
AcDbLine
 10
19.0
 20
-40.45000000000015
 30
0.0
 11
24.29999999999994
 21
-40.45000000000015
 31
0.0
  0
LINE
  5
72BA
330
725D
100
AcDbEntity
  8
0
100
AcDbLine
 10
19.0
 20
-33.85000000000013
 30
0.0
 11
24.29999999999994
 21
-33.85000000000013
 31
0.0
  0
LINE
  5
72BB
330
725D
100
AcDbEntity
  8
0
100
AcDbLine
 10
19.0
 20
-33.85000000000013
 30
0.0
 11
19.0
 21
-40.45000000000015
 31
0.0
  0
LINE
  5
72BC
330
725D
100
AcDbEntity
  8
0
100
AcDbLine
 10
36.94999999999993
 20
-28.5
 30
0.0
 11
44.94999999999993
 21
-28.5
 31
0.0
  0
LINE
  5
72BD
330
725D
100
AcDbEntity
  8
0
100
AcDbLine
 10
36.94999999999993
 20
-23.5
 30
0.0
 11
44.94999999999993
 21
-23.5
 31
0.0
  0
LINE
  5
72BE
330
725D
100
AcDbEntity
  8
0
100
AcDbLine
 10
36.94999999999993
 20
-25.5
 30
0.0
 11
44.94999999999993
 21
-25.5
 31
0.0
  0
LINE
  5
72BF
330
725D
100
AcDbEntity
  8
0
100
AcDbLine
 10
36.94999999999993
 20
-20.5
 30
0.0
 11
44.94999999999993
 21
-20.5
 31
0.0
  0
LINE
  5
72C0
330
725D
100
AcDbEntity
  8
0
100
AcDbLine
 10
36.94999999999993
 20
-25.5
 30
0.0
 11
36.94999999999993
 21
-28.5
 31
0.0
  0
LINE
  5
72C1
330
725D
100
AcDbEntity
  8
0
100
AcDbLine
 10
36.94999999999993
 20
-20.5
 30
0.0
 11
36.94999999999993
 21
-23.5
 31
0.0
  0
LINE
  5
72C2
330
725D
100
AcDbEntity
  8
0
100
AcDbLine
 10
24.29999999999994
 20
-33.85000000000013
 30
0.0
 11
24.29999999999994
 21
-40.45000000000015
 31
0.0
  0
LINE
  5
72C3
330
725D
100
AcDbEntity
  8
0
100
AcDbLine
 10
44.94999999999993
 20
-25.5
 30
0.0
 11
44.94999999999993
 21
-28.5
 31
0.0
  0
LINE
  5
72C4
330
725D
100
AcDbEntity
  8
0
100
AcDbLine
 10
44.94999999999993
 20
-20.5
 30
0.0
 11
44.94999999999993
 21
-23.5
 31
0.0
  0
CIRCLE
  5
72C5
330
725D
100
AcDbEntity
  8
0
100
AcDbCircle
 10
40.94999999999993
 20
-10.0
 30
0.0
 40
3.5
  0
LINE
  5
72C6
330
725D
100
AcDbEntity
  8
0
100
AcDbLine
 10
17.0
 20
17.0337027253521
 30
0.0
 11
17.0
 21
39.33264411704204
 31
0.0
  0
LINE
  5
72C7
330
725D
100
AcDbEntity
  8
0
100
AcDbLine
 10
18.0
 20
31.00000000000011
 30
0.0
 11
17.0
 21
31.00000000000011
 31
0.0
  0
LINE
  5
72C8
330
725D
100
AcDbEntity
  8
0
100
AcDbLine
 10
-9.0
 20
114.0000000000001
 30
0.0
 11
9.0
 21
114.0000000000001
 31
0.0
  0
LINE
  5
72C9
330
725D
100
AcDbEntity
  8
0
100
AcDbLine
 10
-50.5
 20
114.0000000000001
 30
0.0
 11
-50.5
 21
130.0
 31
0.0
  0
LINE
  5
72CA
330
725D
100
AcDbEntity
  8
0
100
AcDbLine
 10
-39.5
 20
114.0000000000001
 30
0.0
 11
-39.5
 21
130.0
 31
0.0
  0
LINE
  5
72CB
330
725D
100
AcDbEntity
  8
0
100
AcDbLine
 10
-45.0
 20
105.0
 30
0.0
 11
-45.0
 21
123.0000000000001
 31
0.0
  0
ARC
  5
72CC
330
725D
100
AcDbEntity
  8
0
100
AcDbCircle
 10
-45.0
 20
114.0000000000001
 30
0.0
 40
5.5
100
AcDbArc
 50
180.0
 51
0.0
  0
LINE
  5
72CD
330
725D
100
AcDbEntity
  8
0
100
AcDbLine
 10
-54.0
 20
114.0000000000001
 30
0.0
 11
-36.0
 21
114.0000000000001
 31
0.0
  0
LINE
  5
72CE
330
725D
100
AcDbEntity
  8
0
100
AcDbLine
 10
-41.0
 20
111.6905989232412
 30
0.0
 11
-41.0
 21
116.3094010767582
 31
0.0
  0
LINE
  5
72CF
330
725D
100
AcDbEntity
  8
0
100
AcDbLine
 10
-45.0000000000001
 20
109.3811978464827
 30
0.0
 11
-41.0
 21
111.6905989232412
 31
0.0
  0
LINE
  5
72D0
330
725D
100
AcDbEntity
  8
0
100
AcDbLine
 10
-49.0
 20
111.6905989232412
 30
0.0
 11
-45.0000000000001
 21
109.3811978464827
 31
0.0
  0
LINE
  5
72D1
330
725D
100
AcDbEntity
  8
0
100
AcDbLine
 10
-49.0
 20
116.3094010767582
 30
0.0
 11
-49.0
 21
111.6905989232412
 31
0.0
  0
LINE
  5
72D2
330
725D
100
AcDbEntity
  8
0
100
AcDbLine
 10
-45.0
 20
118.6188021535167
 30
0.0
 11
-49.0
 21
116.3094010767582
 31
0.0
  0
LINE
  5
72D3
330
725D
100
AcDbEntity
  8
0
100
AcDbLine
 10
-41.0
 20
116.3094010767582
 30
0.0
 11
-45.0
 21
118.6188021535167
 31
0.0
  0
ARC
  5
72D4
330
725D
100
AcDbEntity
  8
0
100
AcDbCircle
 10
-45.0
 20
114.0000000000001
 30
0.0
 40
8.0
100
AcDbArc
 50
46.5674634422112
 51
133.4325365577887
  0
CIRCLE
  5
72D5
330
725D
100
AcDbEntity
  8
0
100
AcDbCircle
 10
22.50000000000011
 20
107.0
 30
0.0
 40
4.0
210
0.0
220
0.0
230
-1.0
  0
LINE
  5
72D6
330
725D
100
AcDbEntity
  8
0
100
AcDbLine
 10
-14.5
 20
107.0
 30
0.0
 11
-30.5
 21
107.0
 31
0.0
  0
LINE
  5
72D7
330
725D
100
AcDbEntity
  8
0
100
AcDbLine
 10
-22.5
 20
115.0000000000001
 30
0.0
 11
-22.5
 21
99.00000000000012
 31
0.0
  0
LINE
  5
72D8
330
725D
100
AcDbEntity
  8
0
100
AcDbLine
 10
30.5
 20
107.0
 30
0.0
 11
14.5
 21
107.0
 31
0.0
  0
CIRCLE
  5
72D9
330
725D
100
AcDbEntity
  8
0
100
AcDbCircle
 10
-22.49999999999988
 20
107.0
 30
0.0
 40
4.0
210
0.0
220
0.0
230
-1.0
  0
LINE
  5
72DA
330
725D
100
AcDbEntity
  8
0
100
AcDbLine
 10
-5.5
 20
114.0000000000001
 30
0.0
 11
-5.5
 21
130.0
 31
0.0
  0
LINE
  5
72DB
330
725D
100
AcDbEntity
  8
0
100
AcDbLine
 10
5.5
 20
114.0000000000001
 30
0.0
 11
5.5
 21
130.0
 31
0.0
  0
LINE
  5
72DC
330
725D
100
AcDbEntity
  8
0
100
AcDbLine
 10
0.0
 20
105.0
 30
0.0
 11
0.0
 21
123.0000000000001
 31
0.0
  0
ARC
  5
72DD
330
725D
100
AcDbEntity
  8
0
100
AcDbCircle
 10
0.0
 20
114.0000000000001
 30
0.0
 40
5.5
100
AcDbArc
 50
180.0
 51
0.0
  0
LINE
  5
72DE
330
725D
100
AcDbEntity
  8
0
100
AcDbLine
 10
4.0
 20
111.6905989232412
 30
0.0
 11
4.0
 21
116.3094010767582
 31
0.0
  0
LINE
  5
72DF
330
725D
100
AcDbEntity
  8
0
100
AcDbLine
 10
-0.0000000000001137
 20
109.3811978464827
 30
0.0
 11
4.0
 21
111.6905989232412
 31
0.0
  0
LINE
  5
72E0
330
725D
100
AcDbEntity
  8
0
100
AcDbLine
 10
-4.0
 20
111.6905989232412
 30
0.0
 11
-0.0000000000001137
 21
109.3811978464827
 31
0.0
  0
LINE
  5
72E1
330
725D
100
AcDbEntity
  8
0
100
AcDbLine
 10
-4.0
 20
116.3094010767582
 30
0.0
 11
-4.0
 21
111.6905989232412
 31
0.0
  0
LINE
  5
72E2
330
725D
100
AcDbEntity
  8
0
100
AcDbLine
 10
0.0
 20
118.6188021535167
 30
0.0
 11
-4.0
 21
116.3094010767582
 31
0.0
  0
LINE
  5
72E3
330
725D
100
AcDbEntity
  8
0
100
AcDbLine
 10
4.0
 20
116.3094010767582
 30
0.0
 11
0.0
 21
118.6188021535167
 31
0.0
  0
LINE
  5
72E4
330
725D
100
AcDbEntity
  8
0
100
AcDbLine
 10
22.5
 20
115.0000000000001
 30
0.0
 11
22.5
 21
99.00000000000012
 31
0.0
  0
ARC
  5
72E5
330
725D
100
AcDbEntity
  8
0
100
AcDbCircle
 10
0.0
 20
114.0000000000001
 30
0.0
 40
8.0
100
AcDbArc
 50
46.5674634422112
 51
133.4325365577887
  0
LINE
  5
72E6
330
725D
100
AcDbEntity
  8
0
100
AcDbLine
 10
39.5
 20
114.0000000000001
 30
0.0
 11
39.5
 21
130.0
 31
0.0
  0
LINE
  5
72E7
330
725D
100
AcDbEntity
  8
0
100
AcDbLine
 10
50.5
 20
114.0000000000001
 30
0.0
 11
50.5
 21
130.0
 31
0.0
  0
LINE
  5
72E8
330
725D
100
AcDbEntity
  8
0
100
AcDbLine
 10
45.0
 20
105.0
 30
0.0
 11
45.0
 21
123.0000000000001
 31
0.0
  0
ARC
  5
72E9
330
725D
100
AcDbEntity
  8
0
100
AcDbCircle
 10
45.0
 20
114.0000000000001
 30
0.0
 40
5.5
100
AcDbArc
 50
180.0
 51
0.0
  0
LINE
  5
72EA
330
725D
100
AcDbEntity
  8
0
100
AcDbLine
 10
49.0
 20
111.6905989232412
 30
0.0
 11
49.0
 21
116.3094010767582
 31
0.0
  0
LINE
  5
72EB
330
725D
100
AcDbEntity
  8
0
100
AcDbLine
 10
44.99999999999988
 20
109.3811978464827
 30
0.0
 11
49.0
 21
111.6905989232412
 31
0.0
  0
LINE
  5
72EC
330
725D
100
AcDbEntity
  8
0
100
AcDbLine
 10
41.0
 20
111.6905989232412
 30
0.0
 11
44.99999999999988
 21
109.3811978464827
 31
0.0
  0
LINE
  5
72ED
330
725D
100
AcDbEntity
  8
0
100
AcDbLine
 10
41.0
 20
116.3094010767582
 30
0.0
 11
41.0
 21
111.6905989232412
 31
0.0
  0
LINE
  5
72EE
330
725D
100
AcDbEntity
  8
0
100
AcDbLine
 10
45.0
 20
118.6188021535167
 30
0.0
 11
41.0
 21
116.3094010767582
 31
0.0
  0
LINE
  5
72EF
330
725D
100
AcDbEntity
  8
0
100
AcDbLine
 10
49.0
 20
116.3094010767582
 30
0.0
 11
45.0
 21
118.6188021535167
 31
0.0
  0
ARC
  5
72F0
330
725D
100
AcDbEntity
  8
0
100
AcDbCircle
 10
45.0
 20
114.0000000000001
 30
0.0
 40
8.0
100
AcDbArc
 50
46.5674634422112
 51
133.4325365577887
  0
LINE
  5
72F1
330
725D
100
AcDbEntity
  8
0
100
AcDbLine
 10
-74.00000000000004
 20
174.5000000000002
 30
0.0
 11
-46.0
 21
174.5000000000002
 31
0.0
  0
LINE
  5
72F2
330
725D
100
AcDbEntity
  8
0
100
AcDbLine
 10
-71.00000000000004
 20
160.0000000000002
 30
0.0
 11
-49.0
 21
160.0000000000002
 31
0.0
  0
CIRCLE
  5
72F3
330
725D
100
AcDbEntity
  8
0
100
AcDbCircle
 10
-60.0
 20
160.0000000000002
 30
0.0
 40
7.0
  0
LINE
  5
72F4
330
725D
100
AcDbEntity
  8
0
100
AcDbLine
 10
-74.00000000000004
 20
174.5000000000002
 30
0.0
 11
-74.00000000000004
 21
150.0000000000001
 31
0.0
  0
LINE
  5
72F5
330
725D
100
AcDbEntity
  8
0
100
AcDbLine
 10
-11.0
 20
160.0000000000002
 30
0.0
 11
11.0
 21
160.0000000000002
 31
0.0
  0
LINE
  5
72F6
330
725D
100
AcDbEntity
  8
0
100
AcDbLine
 10
-14.0
 20
174.5000000000002
 30
0.0
 11
14.0
 21
174.5000000000002
 31
0.0
  0
CIRCLE
  5
72F7
330
725D
100
AcDbEntity
  8
0
100
AcDbCircle
 10
0.0
 20
160.0000000000002
 30
0.0
 40
7.0
  0
LINE
  5
72F8
330
725D
100
AcDbEntity
  8
0
100
AcDbLine
 10
-60.0
 20
171.0000000000001
 30
0.0
 11
-60.0
 21
149.0
 31
0.0
  0
LINE
  5
72F9
330
725D
100
AcDbEntity
  8
0
100
AcDbLine
 10
-46.0
 20
174.5000000000002
 30
0.0
 11
-46.0
 21
150.0000000000001
 31
0.0
  0
LINE
  5
72FA
330
725D
100
AcDbEntity
  8
0
100
AcDbLine
 10
46.0
 20
174.5000000000002
 30
0.0
 11
46.0
 21
150.0000000000001
 31
0.0
  0
ARC
  5
72FB
330
725D
100
AcDbEntity
  8
0
100
AcDbCircle
 10
53.0
 20
-40.0
 30
0.0
 40
5.0
100
AcDbArc
 50
270.0
 51
0.0
  0
LINE
  5
72FC
330
725D
100
AcDbEntity
  8
0
100
AcDbLine
 10
70.0
 20
130.0
 30
0.0
 11
70.0
 21
-130.0
 31
0.0
  0
LINE
  5
72FD
330
725D
100
AcDbEntity
  8
0
100
AcDbLine
 10
101.2499999999999
 20
-220.0727983283795
 30
0.0
 11
101.2499999999999
 21
-245.0
 31
0.0
  0
LINE
  5
72FE
330
725D
100
AcDbEntity
  8
0
100
AcDbLine
 10
99.25
 20
-218.6397501985154
 30
0.0
 11
99.25
 21
-245.0
 31
0.0
  0
LINE
  5
72FF
330
725D
100
AcDbEntity
  8
0
100
AcDbLine
 10
98.54999999999996
 20
-245.0
 30
0.0
 11
98.54999999999996
 21
-249.946911919693
 31
0.0
  0
LINE
  5
7300
330
725D
100
AcDbEntity
  8
0
100
AcDbLine
 10
101.9499999999998
 20
-245.0
 30
0.0
 11
101.9499999999998
 21
-249.946911919693
 31
0.0
  0
LINE
  5
7301
330
725D
100
AcDbEntity
  8
0
100
AcDbLine
 10
98.20195134105155
 20
-251.5788590397281
 30
0.0
 11
96.59804865894841
 21
-255.1680528799646
 31
0.0
  0
ARC
  5
7302
330
725D
100
AcDbEntity
  8
0
100
AcDbCircle
 10
100.2499999999999
 20
-256.8
 30
0.0
 40
4.0
100
AcDbArc
 50
155.9215699388889
 51
24.07843006111111
  0
LINE
  5
7303
330
725D
100
AcDbEntity
  8
0
100
AcDbLine
 10
98.54999999999996
 20
-249.8
 30
0.0
 11
101.9499999999998
 21
-249.8
 31
0.0
  0
LINE
  5
7304
330
725D
100
AcDbEntity
  8
0
100
AcDbLine
 10
102.2980486589484
 20
-251.5788590397281
 30
0.0
 11
103.9019513410514
 21
-255.1680528799646
 31
0.0
  0
ARC
  5
7305
330
725D
100
AcDbEntity
  8
0
100
AcDbCircle
 10
94.54999999999996
 20
-249.946911919693
 30
0.0
 40
4.0
100
AcDbArc
 50
335.9215699388887
 51
0.0
  0
CIRCLE
  5
7306
330
725D
100
AcDbEntity
  8
0
100
AcDbCircle
 10
100.2499999999999
 20
-256.8
 30
0.0
 40
2.149999999999999
  0
ARC
  5
7307
330
725D
100
AcDbEntity
  8
0
100
AcDbCircle
 10
105.9499999999998
 20
-249.946911919693
 30
0.0
 40
4.0
100
AcDbArc
 50
180.0
 51
204.0784300611111
  0
LINE
  5
7308
330
725D
100
AcDbEntity
  8
0
100
AcDbLine
 10
98.54999999999996
 20
-245.0
 30
0.0
 11
101.9499999999998
 21
-245.0
 31
0.0
  0
LINE
  5
7309
330
725D
100
AcDbEntity
  8
0
100
AcDbLine
 10
59.25
 20
-130.0
 30
0.0
 11
59.25
 21
-175.0
 31
0.0
  0
LINE
  5
730A
330
725D
100
AcDbEntity
  8
0
100
AcDbLine
 10
61.25
 20
-130.0
 30
0.0
 11
61.25
 21
-175.0
 31
0.0
  0
LINE
  5
730B
330
725D
100
AcDbEntity
  8
0
100
AcDbLine
 10
74.0
 20
-150.0000000000003
 30
0.0
 11
59.0
 21
-130.0000000000003
 31
0.0
  0
ARC
  5
730C
330
725D
100
AcDbEntity
  8
0
100
AcDbCircle
 10
71.25
 20
-175.0
 30
0.0
 40
10.0
100
AcDbArc
 50
180.0
 51
270.0
  0
ARC
  5
730D
330
725D
100
AcDbEntity
  8
0
100
AcDbCircle
 10
71.25
 20
-175.0
 30
0.0
 40
12.0
100
AcDbArc
 50
180.0
 51
270.0
  0
LINE
  5
730E
330
725D
100
AcDbEntity
  8
0
100
AcDbLine
 10
71.25
 20
-185.0
 30
0.0
 11
89.25
 21
-185.0
 31
0.0
  0
LINE
  5
730F
330
725D
100
AcDbEntity
  8
0
100
AcDbLine
 10
71.25
 20
-187.0
 30
0.0
 11
89.25
 21
-187.0
 31
0.0
  0
LINE
  5
7310
330
725D
100
AcDbEntity
  8
0
100
AcDbLine
 10
101.2499999999999
 20
-197.0
 30
0.0
 11
101.2499999999999
 21
-218.0727983283795
 31
0.0
  0
LINE
  5
7311
330
725D
100
AcDbEntity
  8
0
100
AcDbLine
 10
99.25
 20
-197.0
 30
0.0
 11
99.25
 21
-216.6397501985156
 31
0.0
  0
SPLINE
  5
7312
330
725D
100
AcDbEntity
  8
0
100
AcDbSpline
210
0.0
220
0.0
230
1.0
 70
     8
 71
     3
 72
     8
 73
     4
 74
     0
 42
0.0000000001
 43
0.0000000001
 40
0.0
 40
0.0
 40
0.0
 40
0.0
 40
1.0
 40
1.0
 40
1.0
 40
1.0
 10
96.25
 20
-219.0
 30
0.0
 10
98.25000000000001
 20
-215.0
 30
0.0
 10
102.2499999999999
 20
-224.0
 30
0.0
 10
104.2499999999999
 20
-219.0
 30
0.0
  0
SPLINE
  5
7313
330
725D
100
AcDbEntity
  8
0
100
AcDbSpline
210
0.0
220
0.0
230
1.0
 70
     8
 71
     3
 72
     8
 73
     4
 74
     0
 42
0.0000000001
 43
0.0000000001
 40
0.0
 40
0.0
 40
0.0
 40
0.0
 40
1.0
 40
1.0
 40
1.0
 40
1.0
 10
96.25
 20
-217.0
 30
0.0
 10
98.25000000000001
 20
-213.0
 30
0.0
 10
102.2499999999999
 20
-222.0
 30
0.0
 10
104.2499999999999
 20
-217.0
 30
0.0
  0
ARC
  5
7314
330
725D
100
AcDbEntity
  8
0
100
AcDbCircle
 10
89.25
 20
-197.0
 30
0.0
 40
12.0
100
AcDbArc
 50
0.0
 51
90.0
  0
ARC
  5
7315
330
725D
100
AcDbEntity
  8
0
100
AcDbCircle
 10
89.25
 20
-197.0
 30
0.0
 40
10.0
100
AcDbArc
 50
0.0
 51
90.0
  0
LINE
  5
7316
330
725D
100
AcDbEntity
  8
0
100
AcDbLine
 10
60.0
 20
-149.0
 30
0.0
 11
60.0
 21
-171.0
 31
0.0
  0
LINE
  5
7317
330
725D
100
AcDbEntity
  8
0
100
AcDbLine
 10
74.0
 20
-174.5
 30
0.0
 11
74.0
 21
-150.0000000000003
 31
0.0
  0
CIRCLE
  5
7318
330
725D
100
AcDbEntity
  8
0
100
AcDbCircle
 10
-60.0
 20
-160.0
 30
0.0
 40
7.0
210
0.0
220
0.0
230
-1.0
  0
LINE
  5
7319
330
725D
100
AcDbEntity
  8
0
100
AcDbLine
 10
74.0
 20
150.0000000000001
 30
0.0
 11
59.0
 21
130.0
 31
0.0
  0
LINE
  5
731A
330
725D
100
AcDbEntity
  8
0
100
AcDbLine
 10
58.0
 20
40.0000000000001
 30
0.0
 11
58.0
 21
-40.0
 31
0.0
  0
ARC
  5
731B
330
725D
100
AcDbEntity
  8
0
100
AcDbCircle
 10
53.0
 20
40.0000000000001
 30
0.0
 40
5.0
100
AcDbArc
 50
0.0
 51
90.0
  0
LINE
  5
731C
330
725D
100
AcDbEntity
  8
0
100
AcDbLine
 10
60.0
 20
171.0000000000001
 30
0.0
 11
60.0
 21
149.0
 31
0.0
  0
LINE
  5
731D
330
725D
100
AcDbEntity
  8
0
100
AcDbLine
 10
74.0
 20
174.5000000000002
 30
0.0
 11
74.0
 21
150.0000000000001
 31
0.0
  0
CIRCLE
  5
731E
330
725D
100
AcDbEntity
  8
0
100
AcDbCircle
 10
60.0
 20
160.0000000000002
 30
0.0
 40
7.0
  0
ENDBLK
  5
7320
330
725D
100
AcDbEntity
  8
0
100
AcDbBlockEnd
  0
BLOCK
  5
767C
330
7672
100
AcDbEntity
  8
0
100
AcDbBlockBegin
  2
*D4
 70
     1
 10
0.0
 20
0.0
 30
0.0
  3
*D4
  1

  0
LINE
  5
768B
330
7672
100
AcDbEntity
  8
30
  6
CONTINUOUS
 62
     0
100
AcDbLine
 10
-35.04569613739295
 20
-253.0
 30
0.0
 11
-97.59969543092026
 21
-252.9999999999999
 31
0.0
  0
LINE
  5
768C
330
7672
100
AcDbEntity
  8
30
  6
CONTINUOUS
 62
     0
100
AcDbLine
 10
-35.04569613739295
 20
-466.9999999999998
 30
0.0
 11
-97.59969543092028
 21
-466.9999999999998
 31
0.0
  0
LINE
  5
768D
330
7672
100
AcDbEntity
  8
30
  6
CONTINUOUS
 62
     0
100
AcDbLine
 10
-97.09969543092023
 20
-254.9999999999999
 30
0.0
 11
-97.09969543092029
 21
-464.9999999999998
 31
0.0
  0
INSERT
  5
768E
330
7672
100
AcDbEntity
  8
30
  6
CONTINUOUS
 62
     0
100
AcDbBlockReference
  2
_OPEN
 10
-97.09969543092023
 20
-252.9999999999999
 30
0.0
 41
2.0
 42
2.0
 43
2.0
 50
90.0
  0
INSERT
  5
768F
330
7672
100
AcDbEntity
  8
30
  6
CONTINUOUS
 62
     0
100
AcDbBlockReference
  2
_OPEN
 10
-97.09969543092029
 20
-466.9999999999998
 30
0.0
 41
2.0
 42
2.0
 43
2.0
 50
270.0
  0
MTEXT
  5
7690
330
7672
100
AcDbEntity
  8
30
  6
CONTINUOUS
 62
     0
100
AcDbMText
 10
-100.0996954309202
 20
-360.0
 30
0.0
 40
4.0
 41
0.0
 71
     5
 72
     5
  1
\A1;214
 11
0.0000000000000001
 21
1.0
 31
0.0
1001
ACAD
1000
MTEXTBEGIN
1070
    73
1070
     1
1070
    44
1040
1.0
1070
    74
1070
     0
1000
MTEXTEND
1000
MTEXTBEGIN
1070
    73
1070
     1
1070
    44
1040
1.0
1070
    74
1070
     0
1000
MTEXTEND
  0
POINT
  5
7691
330
7672
100
AcDbEntity
  8
DEFPOINTS
  6
CONTINUOUS
 62
     0
100
AcDbPoint
 10
-34.04569613739295
 20
-253.0
 30
0.0
  0
POINT
  5
7692
330
7672
100
AcDbEntity
  8
DEFPOINTS
  6
CONTINUOUS
 62
     0
100
AcDbPoint
 10
-34.04569613739295
 20
-466.9999999999998
 30
0.0
  0
POINT
  5
7693
330
7672
100
AcDbEntity
  8
DEFPOINTS
  6
CONTINUOUS
 62
     0
100
AcDbPoint
 10
-97.09969543092029
 20
-466.9999999999998
 30
0.0
  0
ENDBLK
  5
767D
330
7672
100
AcDbEntity
  8
0
100
AcDbBlockEnd
  0
BLOCK
  5
7689
330
767F
100
AcDbEntity
  8
0
100
AcDbBlockBegin
  2
*D5
 70
     1
 10
0.0
 20
0.0
 30
0.0
  3
*D5
  1

  0
LINE
  5
7680
330
767F
100
AcDbEntity
  8
30
  6
CONTINUOUS
 62
     0
100
AcDbLine
 10
-22.5
 20
-474.9999999999998
 30
0.0
 11
-22.5
 21
-519.2040664304705
 31
0.0
  0
LINE
  5
7681
330
767F
100
AcDbEntity
  8
30
  6
CONTINUOUS
 62
     0
100
AcDbLine
 10
22.5
 20
-474.9999999999998
 30
0.0
 11
22.49999999999999
 21
-519.2040664304705
 31
0.0
  0
LINE
  5
7682
330
767F
100
AcDbEntity
  8
30
  6
CONTINUOUS
 62
     0
100
AcDbLine
 10
-20.5
 20
-518.7040664304706
 30
0.0
 11
20.49999999999998
 21
-518.7040664304706
 31
0.0
  0
INSERT
  5
7683
330
767F
100
AcDbEntity
  8
30
  6
CONTINUOUS
 62
     0
100
AcDbBlockReference
  2
_OPEN
 10
-22.5
 20
-518.7040664304706
 30
0.0
 41
2.0
 42
2.0
 43
2.0
 50
180.0
  0
INSERT
  5
7684
330
767F
100
AcDbEntity
  8
30
  6
CONTINUOUS
 62
     0
100
AcDbBlockReference
  2
_OPEN
 10
22.49999999999999
 20
-518.7040664304706
 30
0.0
 41
2.0
 42
2.0
 43
2.0
  0
MTEXT
  5
7685
330
767F
100
AcDbEntity
  8
30
  6
CONTINUOUS
 62
     0
100
AcDbMText
 10
-0.0000000000000034
 20
-515.7040664304705
 30
0.0
 40
4.0
 41
0.0
 71
     5
 72
     5
  1
\A1;45
1001
ACAD
1000
MTEXTBEGIN
1070
    73
1070
     1
1070
    44
1040
1.0
1070
    74
1070
     0
1000
MTEXTEND
1000
MTEXTBEGIN
1070
    73
1070
     1
1070
    44
1040
1.0
1070
    74
1070
     0
1000
MTEXTEND
  0
POINT
  5
7686
330
767F
100
AcDbEntity
  8
DEFPOINTS
  6
CONTINUOUS
 62
     0
100
AcDbPoint
 10
-22.5
 20
-473.9999999999998
 30
0.0
  0
POINT
  5
7687
330
767F
100
AcDbEntity
  8
DEFPOINTS
  6
CONTINUOUS
 62
     0
100
AcDbPoint
 10
22.5
 20
-473.9999999999998
 30
0.0
  0
POINT
  5
7688
330
767F
100
AcDbEntity
  8
DEFPOINTS
  6
CONTINUOUS
 62
     0
100
AcDbPoint
 10
22.49999999999999
 20
-518.7040664304706
 30
0.0
  0
ENDBLK
  5
768A
330
767F
100
AcDbEntity
  8
0
100
AcDbBlockEnd
  0
BLOCK
  5
769E
330
7695
100
AcDbEntity
  8
0
100
AcDbBlockBegin
  2
*D6
 70
     1
 10
0.0
 20
0.0
 30
0.0
  3
*D6
  1

  0
LINE
  5
76A0
330
7695
100
AcDbEntity
  8
30
  6
CONTINUOUS
 62
     0
100
AcDbLine
 10
311.6597496400637
 20
-306.031299459585
 30
0.0
 11
303.9930829733971
 21
-306.031299459585
 31
0.0
  0
LINE
  5
76A1
330
7695
100
AcDbEntity
  8
30
  6
CONTINUOUS
 62
     0
100
AcDbLine
 10
303.9930829733971
 20
-306.031299459585
 30
0.0
 11
280.2934498468416
 21
-316.7128143752427
 31
0.0
  0
MTEXT
  5
76A2
330
7695
100
AcDbEntity
  8
30
  6
CONTINUOUS
 62
     0
100
AcDbMText
 10
308.3264163067303
 20
-303.031299459585
 30
0.0
 40
4.0
 41
0.0
 71
     5
 72
     5
  1
\A1;R6
1001
ACAD
1000
MTEXTBEGIN
1070
    73
1070
     1
1070
    44
1040
1.0
1070
    74
1070
     0
1000
MTEXTEND
1000
MTEXTBEGIN
1070
    73
1070
     1
1070
    44
1040
1.0
1070
    74
1070
     0
1000
MTEXTEND
  0
INSERT
  5
76A3
330
7695
100
AcDbEntity
  8
30
  6
CONTINUOUS
 62
     0
100
AcDbBlockReference
  2
_OPEN
 10
278.4700873851313
 20
-317.5346107814319
 30
0.0
 41
2.0
 42
2.0
 43
2.0
 50
204.2612710120866
  0
LINE
  5
76A4
330
7695
100
AcDbEntity
  8
30
  6
CONTINUOUS
 62
     0
100
AcDbLine
 10
272.9100000000002
 20
-320.0000000000001
 30
0.0
 11
273.09
 21
-320.0000000000001
 31
0.0
  0
LINE
  5
76A5
330
7695
100
AcDbEntity
  8
30
  6
CONTINUOUS
 62
     0
100
AcDbLine
 10
273.0
 20
-320.0900000000002
 30
0.0
 11
273.0
 21
-319.9100000000001
 31
0.0
  0
POINT
  5
76A6
330
7695
100
AcDbEntity
  8
DEFPOINTS
  6
CONTINUOUS
 62
     0
100
AcDbPoint
 10
278.4700873851313
 20
-317.5346107814319
 30
0.0
  0
POINT
  5
76A7
330
7695
100
AcDbEntity
  8
DEFPOINTS
  6
CONTINUOUS
 62
     0
100
AcDbPoint
 10
273.0
 20
-320.0000000000001
 30
0.0
  0
ENDBLK
  5
769F
330
7695
100
AcDbEntity
  8
0
100
AcDbBlockEnd
  0
BLOCK
  5
76B3
330
76A9
100
AcDbEntity
  8
0
100
AcDbBlockBegin
  2
*D7
 70
     1
 10
0.0
 20
0.0
 30
0.0
  3
*D7
  1

  0
LINE
  5
76AA
330
76A9
100
AcDbEntity
  8
30
  6
CONTINUOUS
 62
     0
100
AcDbLine
 10
161.0
 20
-401.0
 30
0.0
 11
161.0
 21
-431.4055588177363
 31
0.0
  0
LINE
  5
76AB
330
76A9
100
AcDbEntity
  8
30
  6
CONTINUOUS
 62
     0
100
AcDbLine
 10
279.0
 20
-401.0
 30
0.0
 11
279.0
 21
-431.4055588177363
 31
0.0
  0
LINE
  5
76AC
330
76A9
100
AcDbEntity
  8
30
  6
CONTINUOUS
 62
     0
100
AcDbLine
 10
163.0
 20
-430.9055588177363
 30
0.0
 11
277.0
 21
-430.9055588177363
 31
0.0
  0
INSERT
  5
76AD
330
76A9
100
AcDbEntity
  8
30
  6
CONTINUOUS
 62
     0
100
AcDbBlockReference
  2
_OPEN
 10
161.0
 20
-430.9055588177363
 30
0.0
 41
2.0
 42
2.0
 43
2.0
 50
180.0
  0
INSERT
  5
76AE
330
76A9
100
AcDbEntity
  8
30
  6
CONTINUOUS
 62
     0
100
AcDbBlockReference
  2
_OPEN
 10
279.0
 20
-430.9055588177363
 30
0.0
 41
2.0
 42
2.0
 43
2.0
  0
MTEXT
  5
76AF
330
76A9
100
AcDbEntity
  8
30
  6
CONTINUOUS
 62
     0
100
AcDbMText
 10
220.0
 20
-427.9055588177363
 30
0.0
 40
4.0
 41
0.0
 71
     5
 72
     5
  1
\A1;118
1001
ACAD
1000
MTEXTBEGIN
1070
    73
1070
     1
1070
    44
1040
1.0
1070
    74
1070
     0
1000
MTEXTEND
1000
MTEXTBEGIN
1070
    73
1070
     1
1070
    44
1040
1.0
1070
    74
1070
     0
1000
MTEXTEND
  0
POINT
  5
76B0
330
76A9
100
AcDbEntity
  8
DEFPOINTS
  6
CONTINUOUS
 62
     0
100
AcDbPoint
 10
161.0
 20
-400.0
 30
0.0
  0
POINT
  5
76B1
330
76A9
100
AcDbEntity
  8
DEFPOINTS
  6
CONTINUOUS
 62
     0
100
AcDbPoint
 10
279.0
 20
-400.0
 30
0.0
  0
POINT
  5
76B2
330
76A9
100
AcDbEntity
  8
DEFPOINTS
  6
CONTINUOUS
 62
     0
100
AcDbPoint
 10
279.0
 20
-430.9055588177363
 30
0.0
  0
ENDBLK
  5
76B4
330
76A9
100
AcDbEntity
  8
0
100
AcDbBlockEnd
  0
BLOCK
  5
76C0
330
76B6
100
AcDbEntity
  8
0
100
AcDbBlockBegin
  2
*D8
 70
     1
 10
0.0
 20
0.0
 30
0.0
  3
*D8
  1

  0
LINE
  5
76B7
330
76B6
100
AcDbEntity
  8
30
  6
CONTINUOUS
 62
     0
100
AcDbLine
 10
274.0
 20
-313.9999999999998
 30
0.0
 11
313.5844752481833
 21
-313.9999999999998
 31
0.0
  0
LINE
  5
76B8
330
76B6
100
AcDbEntity
  8
30
  6
CONTINUOUS
 62
     0
100
AcDbLine
 10
274.0
 20
-406.0
 30
0.0
 11
313.5844752481832
 21
-406.0
 31
0.0
  0
LINE
  5
76B9
330
76B6
100
AcDbEntity
  8
30
  6
CONTINUOUS
 62
     0
100
AcDbLine
 10
313.0844752481833
 20
-315.9999999999998
 30
0.0
 11
313.0844752481832
 21
-404.0
 31
0.0
  0
INSERT
  5
76BA
330
76B6
100
AcDbEntity
  8
30
  6
CONTINUOUS
 62
     0
100
AcDbBlockReference
  2
_OPEN
 10
313.0844752481833
 20
-313.9999999999998
 30
0.0
 41
2.0
 42
2.0
 43
2.0
 50
90.0
  0
INSERT
  5
76BB
330
76B6
100
AcDbEntity
  8
30
  6
CONTINUOUS
 62
     0
100
AcDbBlockReference
  2
_OPEN
 10
313.0844752481832
 20
-406.0
 30
0.0
 41
2.0
 42
2.0
 43
2.0
 50
270.0
  0
MTEXT
  5
76BC
330
76B6
100
AcDbEntity
  8
30
  6
CONTINUOUS
 62
     0
100
AcDbMText
 10
310.0844752481833
 20
-359.9999999999998
 30
0.0
 40
4.0
 41
0.0
 71
     5
 72
     5
  1
\A1;92
 11
0.0000000000000001
 21
1.0
 31
0.0
1001
ACAD
1000
MTEXTBEGIN
1070
    73
1070
     1
1070
    44
1040
1.0
1070
    74
1070
     0
1000
MTEXTEND
1000
MTEXTBEGIN
1070
    73
1070
     1
1070
    44
1040
1.0
1070
    74
1070
     0
1000
MTEXTEND
  0
POINT
  5
76BD
330
76B6
100
AcDbEntity
  8
DEFPOINTS
  6
CONTINUOUS
 62
     0
100
AcDbPoint
 10
273.0
 20
-313.9999999999998
 30
0.0
  0
POINT
  5
76BE
330
76B6
100
AcDbEntity
  8
DEFPOINTS
  6
CONTINUOUS
 62
     0
100
AcDbPoint
 10
273.0
 20
-406.0
 30
0.0
  0
POINT
  5
76BF
330
76B6
100
AcDbEntity
  8
DEFPOINTS
  6
CONTINUOUS
 62
     0
100
AcDbPoint
 10
313.0844752481832
 20
-406.0
 30
0.0
  0
ENDBLK
  5
76C1
330
76B6
100
AcDbEntity
  8
0
100
AcDbBlockEnd
  0
BLOCK
  5
76CE
330
76C4
100
AcDbEntity
  8
0
100
AcDbBlockBegin
  2
*D9
 70
     1
 10
0.0
 20
0.0
 30
0.0
  3
*D9
  1

  0
LINE
  5
76C5
330
76C4
100
AcDbEntity
  8
30
  6
CONTINUOUS
 62
     0
100
AcDbLine
 10
307.7699465681198
 20
144.262182860446
 30
0.0
 11
307.7699465681198
 21
129.1759028429517
 31
0.0
  0
LINE
  5
76C6
330
76C4
100
AcDbEntity
  8
30
  6
CONTINUOUS
 62
     0
100
AcDbLine
 10
332.7699465681198
 20
144.262182860446
 30
0.0
 11
332.7699465681198
 21
129.1759028429517
 31
0.0
  0
LINE
  5
76C7
330
76C4
100
AcDbEntity
  8
30
  6
CONTINUOUS
 62
     0
100
AcDbLine
 10
309.7699465681198
 20
129.6759028429517
 30
0.0
 11
330.7699465681197
 21
129.6759028429517
 31
0.0
  0
INSERT
  5
76C8
330
76C4
100
AcDbEntity
  8
30
  6
CONTINUOUS
 62
     0
100
AcDbBlockReference
  2
_OPEN
 10
307.7699465681198
 20
129.6759028429517
 30
0.0
 41
2.0
 42
2.0
 43
2.0
 50
180.0
  0
INSERT
  5
76C9
330
76C4
100
AcDbEntity
  8
30
  6
CONTINUOUS
 62
     0
100
AcDbBlockReference
  2
_OPEN
 10
332.7699465681198
 20
129.6759028429517
 30
0.0
 41
2.0
 42
2.0
 43
2.0
  0
MTEXT
  5
76CA
330
76C4
100
AcDbEntity
  8
30
  6
CONTINUOUS
 62
     0
100
AcDbMText
 10
320.2699465681198
 20
132.6759028429517
 30
0.0
 40
4.0
 41
0.0
 71
     5
 72
     5
  1
\A1;25
1001
ACAD
1000
MTEXTBEGIN
1070
    73
1070
     1
1070
    44
1040
1.0
1070
    74
1070
     0
1000
MTEXTEND
1000
MTEXTBEGIN
1070
    73
1070
     1
1070
    44
1040
1.0
1070
    74
1070
     0
1000
MTEXTEND
  0
POINT
  5
76CB
330
76C4
100
AcDbEntity
  8
DEFPOINTS
  6
CONTINUOUS
 62
     0
100
AcDbPoint
 10
307.7699465681198
 20
145.2621828604461
 30
0.0
  0
POINT
  5
76CC
330
76C4
100
AcDbEntity
  8
DEFPOINTS
  6
CONTINUOUS
 62
     0
100
AcDbPoint
 10
332.7699465681198
 20
145.2621828604461
 30
0.0
  0
POINT
  5
76CD
330
76C4
100
AcDbEntity
  8
DEFPOINTS
  6
CONTINUOUS
 62
     0
100
AcDbPoint
 10
332.7699465681198
 20
129.6759028429517
 30
0.0
  0
ENDBLK
  5
76CF
330
76C4
100
AcDbEntity
  8
0
100
AcDbBlockEnd
  0
BLOCK
  5
76DB
330
76D1
100
AcDbEntity
  8
0
100
AcDbBlockBegin
  2
*D10
 70
     1
 10
0.0
 20
0.0
 30
0.0
  3
*D10
  1

  0
LINE
  5
76D2
330
76D1
100
AcDbEntity
  8
30
  6
CONTINUOUS
 62
     0
100
AcDbLine
 10
333.7699465681197
 20
145.2621828604461
 30
0.0
 11
349.7122762463086
 21
145.2621828604461
 31
0.0
  0
LINE
  5
76D3
330
76D1
100
AcDbEntity
  8
30
  6
CONTINUOUS
 62
     0
100
AcDbLine
 10
328.7699465681196
 20
157.2621828604461
 30
0.0
 11
349.7122762463086
 21
157.2621828604461
 31
0.0
  0
LINE
  5
76D4
330
76D1
100
AcDbEntity
  8
30
  6
CONTINUOUS
 62
     0
100
AcDbLine
 10
349.2122762463086
 20
147.262182860446
 30
0.0
 11
349.2122762463086
 21
155.2621828604461
 31
0.0
  0
INSERT
  5
76D5
330
76D1
100
AcDbEntity
  8
30
  6
CONTINUOUS
 62
     0
100
AcDbBlockReference
  2
_OPEN
 10
349.2122762463086
 20
145.2621828604461
 30
0.0
 41
2.0
 42
2.0
 43
2.0
 50
270.0
  0
INSERT
  5
76D6
330
76D1
100
AcDbEntity
  8
30
  6
CONTINUOUS
 62
     0
100
AcDbBlockReference
  2
_OPEN
 10
349.2122762463086
 20
157.2621828604461
 30
0.0
 41
2.0
 42
2.0
 43
2.0
 50
90.0
  0
MTEXT
  5
76D7
330
76D1
100
AcDbEntity
  8
30
  6
CONTINUOUS
 62
     0
100
AcDbMText
 10
346.2122762463085
 20
151.2621828604461
 30
0.0
 40
4.0
 41
0.0
 71
     5
 72
     5
  1
\A1;12
 11
0.0000000000000001
 21
1.0
 31
0.0
1001
ACAD
1000
MTEXTBEGIN
1070
    73
1070
     1
1070
    44
1040
1.0
1070
    74
1070
     0
1000
MTEXTEND
1000
MTEXTBEGIN
1070
    73
1070
     1
1070
    44
1040
1.0
1070
    74
1070
     0
1000
MTEXTEND
  0
POINT
  5
76D8
330
76D1
100
AcDbEntity
  8
DEFPOINTS
  6
CONTINUOUS
 62
     0
100
AcDbPoint
 10
332.7699465681198
 20
145.2621828604461
 30
0.0
  0
POINT
  5
76D9
330
76D1
100
AcDbEntity
  8
DEFPOINTS
  6
CONTINUOUS
 62
     0
100
AcDbPoint
 10
327.7699465681196
 20
157.2621828604461
 30
0.0
  0
POINT
  5
76DA
330
76D1
100
AcDbEntity
  8
DEFPOINTS
  6
CONTINUOUS
 62
     0
100
AcDbPoint
 10
349.2122762463086
 20
157.2621828604461
 30
0.0
  0
ENDBLK
  5
76DC
330
76D1
100
AcDbEntity
  8
0
100
AcDbBlockEnd
  0
BLOCK
  5
76E7
330
76DE
100
AcDbEntity
  8
0
100
AcDbBlockBegin
  2
*D11
 70
     1
 10
0.0
 20
0.0
 30
0.0
  3
*D11
  1

  0
LINE
  5
76DF
330
76DE
100
AcDbEntity
  8
30
  6
CONTINUOUS
 62
     0
100
AcDbLine
 10
347.7347867019194
 20
180.2634688469851
 30
0.0
 11
338.7347867019195
 21
180.2634688469851
 31
0.0
  0
LINE
  5
76E0
330
76DE
100
AcDbEntity
  8
30
  6
CONTINUOUS
 62
     0
100
AcDbLine
 10
338.7347867019195
 20
180.2634688469851
 30
0.0
 11
324.9650463159398
 21
163.1107757132626
 31
0.0
  0
MTEXT
  5
76E1
330
76DE
100
AcDbEntity
  8
30
  6
CONTINUOUS
 62
     0
100
AcDbMText
 10
343.7347867019194
 20
183.263468846985
 30
0.0
 40
4.0
 41
0.0
 71
     5
 72
     5
  1
\A1;\U+220511
1001
ACAD
1000
MTEXTBEGIN
1070
    73
1070
     1
1070
    44
1040
1.0
1070
    74
1070
     0
1000
MTEXTEND
1000
MTEXTBEGIN
1070
    73
1070
     1
1070
    44
1040
1.0
1070
    74
1070
     0
1000
MTEXTEND
  0
INSERT
  5
76E2
330
76DE
100
AcDbEntity
  8
30
  6
CONTINUOUS
 62
     0
100
AcDbBlockReference
  2
_OPEN
 10
323.713019716521
 20
161.5511509525116
 30
0.0
 41
2.0
 42
2.0
 43
2.0
 50
231.2434003354113
  0
LINE
  5
76E3
330
76DE
100
AcDbEntity
  8
30
  6
CONTINUOUS
 62
     0
100
AcDbLine
 10
320.1799465681196
 20
157.2621828604461
 30
0.0
 11
320.3599465681195
 21
157.2621828604461
 31
0.0
  0
LINE
  5
76E4
330
76DE
100
AcDbEntity
  8
30
  6
CONTINUOUS
 62
     0
100
AcDbLine
 10
320.2699465681195
 20
157.172182860446
 30
0.0
 11
320.2699465681196
 21
157.352182860446
 31
0.0
  0
POINT
  5
76E5
330
76DE
100
AcDbEntity
  8
DEFPOINTS
  6
CONTINUOUS
 62
     0
100
AcDbPoint
 10
323.713019716521
 20
161.5511509525116
 30
0.0
  0
POINT
  5
76E6
330
76DE
100
AcDbEntity
  8
DEFPOINTS
  6
CONTINUOUS
 62
     0
100
AcDbPoint
 10
316.8268734197178
 20
152.9732147683805
 30
0.0
  0
ENDBLK
  5
76E8
330
76DE
100
AcDbEntity
  8
0
100
AcDbBlockEnd
  0
BLOCK
  5
7717
330
770D
100
AcDbEntity
  8
0
100
AcDbBlockBegin
  2
*D12
 70
     1
 10
0.0
 20
0.0
 30
0.0
  3
*D12
  1

  0
LINE
  5
7719
330
770D
100
AcDbEntity
  8
30
  6
CONTINUOUS
 62
     0
100
AcDbLine
 10
273.2585283399446
 20
-129.9999999999998
 30
0.0
 11
256.3232766496641
 21
-129.9999999999998
 31
0.0
  0
LINE
  5
771A
330
770D
100
AcDbEntity
  8
30
  6
CONTINUOUS
 62
     0
100
AcDbLine
 10
240.2585283399445
 20
-159.9999999999998
 30
0.0
 11
257.3232766496642
 21
-159.9999999999998
 31
0.0
  0
LINE
  5
771B
330
770D
100
AcDbEntity
  8
30
  6
CONTINUOUS
 62
     0
100
AcDbLine
 10
256.823276649664
 20
-131.9999999999998
 30
0.0
 11
256.823276649664
 21
-157.9999999999999
 31
0.0
  0
INSERT
  5
771C
330
770D
100
AcDbEntity
  8
30
  6
CONTINUOUS
 62
     0
100
AcDbBlockReference
  2
_OPEN
 10
256.823276649664
 20
-129.9999999999998
 30
0.0
 41
2.0
 42
2.0
 43
2.0
 50
90.0
  0
INSERT
  5
771D
330
770D
100
AcDbEntity
  8
30
  6
CONTINUOUS
 62
     0
100
AcDbBlockReference
  2
_OPEN
 10
256.823276649664
 20
-159.9999999999998
 30
0.0
 41
2.0
 42
2.0
 43
2.0
 50
270.0
  0
MTEXT
  5
771E
330
770D
100
AcDbEntity
  8
30
  6
CONTINUOUS
 62
     0
100
AcDbMText
 10
253.8232766496641
 20
-144.9999999999997
 30
0.0
 40
4.0
 41
0.0
 71
     5
 72
     5
  1
\A1;30
 11
0.0000000000000001
 21
1.0
 31
0.0
1001
ACAD
1000
MTEXTBEGIN
1070
    73
1070
     1
1070
    44
1040
1.0
1070
    74
1070
     0
1000
MTEXTEND
1000
MTEXTBEGIN
1070
    73
1070
     1
1070
    44
1040
1.0
1070
    74
1070
     0
1000
MTEXTEND
  0
POINT
  5
771F
330
770D
100
AcDbEntity
  8
DEFPOINTS
  6
CONTINUOUS
 62
     0
100
AcDbPoint
 10
274.2585283399446
 20
-129.9999999999998
 30
0.0
  0
POINT
  5
7720
330
770D
100
AcDbEntity
  8
DEFPOINTS
  6
CONTINUOUS
 62
     0
100
AcDbPoint
 10
239.2585283399446
 20
-159.9999999999998
 30
0.0
  0
POINT
  5
7721
330
770D
100
AcDbEntity
  8
DEFPOINTS
  6
CONTINUOUS
 62
     0
100
AcDbPoint
 10
256.823276649664
 20
-159.9999999999998
 30
0.0
  0
ENDBLK
  5
7718
330
770D
100
AcDbEntity
  8
0
100
AcDbBlockEnd
  0
BLOCK
  5
772D
330
7723
100
AcDbEntity
  8
0
100
AcDbBlockBegin
  2
*D13
 70
     1
 10
0.0
 20
0.0
 30
0.0
  3
*D13
  1

  0
LINE
  5
7724
330
7723
100
AcDbEntity
  8
30
  6
CONTINUOUS
 62
     0
100
AcDbLine
 10
240.2585283399445
 20
-159.9999999999998
 30
0.0
 11
257.8232766496642
 21
-159.9999999999998
 31
0.0
  0
LINE
  5
7725
330
7723
100
AcDbEntity
  8
30
  6
CONTINUOUS
 62
     0
100
AcDbLine
 10
240.2585283399445
 20
-174.4999999999999
 30
0.0
 11
257.8232766496642
 21
-174.4999999999999
 31
0.0
  0
LINE
  5
7726
330
7723
100
AcDbEntity
  8
30
  6
CONTINUOUS
 62
     0
100
AcDbLine
 10
257.3232766496642
 20
-161.9999999999999
 30
0.0
 11
257.3232766496642
 21
-172.4999999999998
 31
0.0
  0
INSERT
  5
7727
330
7723
100
AcDbEntity
  8
30
  6
CONTINUOUS
 62
     0
100
AcDbBlockReference
  2
_OPEN
 10
257.3232766496642
 20
-159.9999999999998
 30
0.0
 41
2.0
 42
2.0
 43
2.0
 50
90.0
  0
INSERT
  5
7728
330
7723
100
AcDbEntity
  8
30
  6
CONTINUOUS
 62
     0
100
AcDbBlockReference
  2
_OPEN
 10
257.3232766496642
 20
-174.4999999999999
 30
0.0
 41
2.0
 42
2.0
 43
2.0
 50
270.0
  0
MTEXT
  5
7729
330
7723
100
AcDbEntity
  8
30
  6
CONTINUOUS
 62
     0
100
AcDbMText
 10
254.3232766496641
 20
-167.2499999999998
 30
0.0
 40
4.0
 41
0.0
 71
     5
 72
     5
  1
\A1;14.5
 11
0.0000000000000001
 21
1.0
 31
0.0
1001
ACAD
1000
MTEXTBEGIN
1070
    73
1070
     1
1070
    44
1040
1.0
1070
    74
1070
     0
1000
MTEXTEND
1000
MTEXTBEGIN
1070
    73
1070
     1
1070
    44
1040
1.0
1070
    74
1070
     0
1000
MTEXTEND
  0
POINT
  5
772A
330
7723
100
AcDbEntity
  8
DEFPOINTS
  6
CONTINUOUS
 62
     0
100
AcDbPoint
 10
239.2585283399446
 20
-159.9999999999998
 30
0.0
  0
POINT
  5
772B
330
7723
100
AcDbEntity
  8
DEFPOINTS
  6
CONTINUOUS
 62
     0
100
AcDbPoint
 10
239.2585283399446
 20
-174.4999999999999
 30
0.0
  0
POINT
  5
772C
330
7723
100
AcDbEntity
  8
DEFPOINTS
  6
CONTINUOUS
 62
     0
100
AcDbPoint
 10
257.3232766496642
 20
-174.4999999999999
 30
0.0
  0
ENDBLK
  5
772E
330
7723
100
AcDbEntity
  8
0
100
AcDbBlockEnd
  0
BLOCK
  5
773A
330
7730
100
AcDbEntity
  8
0
100
AcDbBlockBegin
  2
*D14
 70
     1
 10
0.0
 20
0.0
 30
0.0
  3
*D14
  1

  0
LINE
  5
7731
330
7730
100
AcDbEntity
  8
30
  6
CONTINUOUS
 62
     0
100
AcDbLine
 10
-54.0
 20
45.0000000000001
 30
0.0
 11
-91.89860450474336
 21
45.00000000000011
 31
0.0
  0
LINE
  5
7732
330
7730
100
AcDbEntity
  8
30
  6
CONTINUOUS
 62
     0
100
AcDbLine
 10
-54.0
 20
-45.0
 30
0.0
 11
-91.89860450474339
 21
-44.99999999999999
 31
0.0
  0
LINE
  5
7733
330
7730
100
AcDbEntity
  8
30
  6
CONTINUOUS
 62
     0
100
AcDbLine
 10
-91.39860450474335
 20
43.00000000000011
 30
0.0
 11
-91.39860450474341
 21
-42.99999999999999
 31
0.0
  0
INSERT
  5
7734
330
7730
100
AcDbEntity
  8
30
  6
CONTINUOUS
 62
     0
100
AcDbBlockReference
  2
_OPEN
 10
-91.39860450474335
 20
45.00000000000011
 30
0.0
 41
2.0
 42
2.0
 43
2.0
 50
90.0
  0
INSERT
  5
7735
330
7730
100
AcDbEntity
  8
30
  6
CONTINUOUS
 62
     0
100
AcDbBlockReference
  2
_OPEN
 10
-91.39860450474341
 20
-44.99999999999999
 30
0.0
 41
2.0
 42
2.0
 43
2.0
 50
270.0
  0
MTEXT
  5
7736
330
7730
100
AcDbEntity
  8
30
  6
CONTINUOUS
 62
     0
100
AcDbMText
 10
-94.39860450474336
 20
0.0000000000000486
 30
0.0
 40
4.0
 41
0.0
 71
     5
 72
     5
  1
\A1;90
 11
0.0000000000000001
 21
1.0
 31
0.0
1001
ACAD
1000
MTEXTBEGIN
1070
    73
1070
     1
1070
    44
1040
1.0
1070
    74
1070
     0
1000
MTEXTEND
1000
MTEXTBEGIN
1070
    73
1070
     1
1070
    44
1040
1.0
1070
    74
1070
     0
1000
MTEXTEND
  0
POINT
  5
7737
330
7730
100
AcDbEntity
  8
DEFPOINTS
  6
CONTINUOUS
 62
     0
100
AcDbPoint
 10
-53.0
 20
45.0000000000001
 30
0.0
  0
POINT
  5
7738
330
7730
100
AcDbEntity
  8
DEFPOINTS
  6
CONTINUOUS
 62
     0
100
AcDbPoint
 10
-53.0
 20
-45.0
 30
0.0
  0
POINT
  5
7739
330
7730
100
AcDbEntity
  8
DEFPOINTS
  6
CONTINUOUS
 62
     0
100
AcDbPoint
 10
-91.39860450474341
 20
-44.99999999999999
 30
0.0
  0
ENDBLK
  5
773B
330
7730
100
AcDbEntity
  8
0
100
AcDbBlockEnd
  0
BLOCK
  5
7747
330
773D
100
AcDbEntity
  8
0
100
AcDbBlockBegin
  2
*D15
 70
     1
 10
0.0
 20
0.0
 30
0.0
  3
*D15
  1

  0
LINE
  5
773E
330
773D
100
AcDbEntity
  8
30
  6
CONTINUOUS
 62
     0
100
AcDbLine
 10
-71.00000000000004
 20
50.99999999999909
 30
0.0
 11
-104.3479123954377
 21
50.99999999999909
 31
0.0
  0
LINE
  5
773F
330
773D
100
AcDbEntity
  8
30
  6
CONTINUOUS
 62
     0
100
AcDbLine
 10
-71.00000000000004
 20
-51.0
 30
0.0
 11
-104.3479123954377
 21
-50.99999999999999
 31
0.0
  0
LINE
  5
7740
330
773D
100
AcDbEntity
  8
30
  6
CONTINUOUS
 62
     0
100
AcDbLine
 10
-103.8479123954377
 20
48.99999999999909
 30
0.0
 11
-103.8479123954377
 21
-48.99999999999999
 31
0.0
  0
INSERT
  5
7741
330
773D
100
AcDbEntity
  8
30
  6
CONTINUOUS
 62
     0
100
AcDbBlockReference
  2
_OPEN
 10
-103.8479123954377
 20
50.99999999999909
 30
0.0
 41
2.0
 42
2.0
 43
2.0
 50
90.0
  0
INSERT
  5
7742
330
773D
100
AcDbEntity
  8
30
  6
CONTINUOUS
 62
     0
100
AcDbBlockReference
  2
_OPEN
 10
-103.8479123954377
 20
-50.99999999999999
 30
0.0
 41
2.0
 42
2.0
 43
2.0
 50
270.0
  0
MTEXT
  5
7743
330
773D
100
AcDbEntity
  8
30
  6
CONTINUOUS
 62
     0
100
AcDbMText
 10
-106.8479123954377
 20
-0.0000000000004622
 30
0.0
 40
4.0
 41
0.0
 71
     5
 72
     5
  1
\A1;102
 11
0.0000000000000001
 21
1.0
 31
0.0
1001
ACAD
1000
MTEXTBEGIN
1070
    73
1070
     1
1070
    44
1040
1.0
1070
    74
1070
     0
1000
MTEXTEND
1000
MTEXTBEGIN
1070
    73
1070
     1
1070
    44
1040
1.0
1070
    74
1070
     0
1000
MTEXTEND
  0
POINT
  5
7744
330
773D
100
AcDbEntity
  8
DEFPOINTS
  6
CONTINUOUS
 62
     0
100
AcDbPoint
 10
-70.00000000000007
 20
50.99999999999909
 30
0.0
  0
POINT
  5
7745
330
773D
100
AcDbEntity
  8
DEFPOINTS
  6
CONTINUOUS
 62
     0
100
AcDbPoint
 10
-70.00000000000007
 20
-51.0
 30
0.0
  0
POINT
  5
7746
330
773D
100
AcDbEntity
  8
DEFPOINTS
  6
CONTINUOUS
 62
     0
100
AcDbPoint
 10
-103.8479123954377
 20
-50.99999999999999
 30
0.0
  0
ENDBLK
  5
7748
330
773D
100
AcDbEntity
  8
0
100
AcDbBlockEnd
  0
BLOCK
  5
7754
330
774A
100
AcDbEntity
  8
0
100
AcDbBlockBegin
  2
*D16
 70
     1
 10
0.0
 20
0.0
 30
0.0
  3
*D16
  1

  0
LINE
  5
774B
330
774A
100
AcDbEntity
  8
30
  6
CONTINUOUS
 62
     0
100
AcDbLine
 10
-71.00000000000004
 20
130.0
 30
0.0
 11
-116.0191388944171
 21
130.0
 31
0.0
  0
LINE
  5
774C
330
774A
100
AcDbEntity
  8
30
  6
CONTINUOUS
 62
     0
100
AcDbLine
 10
-71.00000000000004
 20
-130.0
 30
0.0
 11
-116.0191388944172
 21
-130.0
 31
0.0
  0
LINE
  5
774D
330
774A
100
AcDbEntity
  8
30
  6
CONTINUOUS
 62
     0
100
AcDbLine
 10
-115.519138894417
 20
128.0
 30
0.0
 11
-115.5191388944172
 21
-128.0
 31
0.0
  0
INSERT
  5
774E
330
774A
100
AcDbEntity
  8
30
  6
CONTINUOUS
 62
     0
100
AcDbBlockReference
  2
_OPEN
 10
-115.519138894417
 20
130.0
 30
0.0
 41
2.0
 42
2.0
 43
2.0
 50
90.0
  0
INSERT
  5
774F
330
774A
100
AcDbEntity
  8
30
  6
CONTINUOUS
 62
     0
100
AcDbBlockReference
  2
_OPEN
 10
-115.5191388944172
 20
-130.0
 30
0.0
 41
2.0
 42
2.0
 43
2.0
 50
270.0
  0
MTEXT
  5
7750
330
774A
100
AcDbEntity
  8
30
  6
CONTINUOUS
 62
     0
100
AcDbMText
 10
-118.519138894417
 20
0.0000000000000359
 30
0.0
 40
4.0
 41
0.0
 71
     5
 72
     5
  1
\A1;260
 11
0.0000000000000001
 21
1.0
 31
0.0
1001
ACAD
1000
MTEXTBEGIN
1070
    73
1070
     1
1070
    44
1040
1.0
1070
    74
1070
     0
1000
MTEXTEND
1000
MTEXTBEGIN
1070
    73
1070
     1
1070
    44
1040
1.0
1070
    74
1070
     0
1000
MTEXTEND
  0
POINT
  5
7751
330
774A
100
AcDbEntity
  8
DEFPOINTS
  6
CONTINUOUS
 62
     0
100
AcDbPoint
 10
-70.00000000000007
 20
130.0
 30
0.0
  0
POINT
  5
7752
330
774A
100
AcDbEntity
  8
DEFPOINTS
  6
CONTINUOUS
 62
     0
100
AcDbPoint
 10
-70.00000000000007
 20
-130.0
 30
0.0
  0
POINT
  5
7753
330
774A
100
AcDbEntity
  8
DEFPOINTS
  6
CONTINUOUS
 62
     0
100
AcDbPoint
 10
-115.5191388944172
 20
-130.0
 30
0.0
  0
ENDBLK
  5
7755
330
774A
100
AcDbEntity
  8
0
100
AcDbBlockEnd
  0
BLOCK
  5
7762
330
7758
100
AcDbEntity
  8
0
100
AcDbBlockBegin
  2
*D17
 70
     1
 10
0.0
 20
0.0
 30
0.0
  3
*D17
  1

  0
LINE
  5
7759
330
7758
100
AcDbEntity
  8
30
  6
CONTINUOUS
 62
     0
100
AcDbLine
 10
-60.0
 20
-172.0
 30
0.0
 11
-60.0
 21
-187.9375309206458
 31
0.0
  0
LINE
  5
775A
330
7758
100
AcDbEntity
  8
30
  6
CONTINUOUS
 62
     0
100
AcDbLine
 10
-0.0000000000000001
 20
-172.0
 30
0.0
 11
-0.000000000000001
 21
-187.9375309206458
 31
0.0
  0
LINE
  5
775B
330
7758
100
AcDbEntity
  8
30
  6
CONTINUOUS
 62
     0
100
AcDbLine
 10
-58.0
 20
-187.4375309206458
 30
0.0
 11
-2.0
 21
-187.4375309206458
 31
0.0
  0
INSERT
  5
775C
330
7758
100
AcDbEntity
  8
30
  6
CONTINUOUS
 62
     0
100
AcDbBlockReference
  2
_OPEN
 10
-60.0
 20
-187.4375309206458
 30
0.0
 41
2.0
 42
2.0
 43
2.0
 50
180.0
  0
INSERT
  5
775D
330
7758
100
AcDbEntity
  8
30
  6
CONTINUOUS
 62
     0
100
AcDbBlockReference
  2
_OPEN
 10
-0.000000000000001
 20
-187.4375309206458
 30
0.0
 41
2.0
 42
2.0
 43
2.0
  0
MTEXT
  5
775E
330
7758
100
AcDbEntity
  8
30
  6
CONTINUOUS
 62
     0
100
AcDbMText
 10
-30.0
 20
-184.4375309206458
 30
0.0
 40
4.0
 41
0.0
 71
     5
 72
     5
  1
\A1;60
1001
ACAD
1000
MTEXTBEGIN
1070
    73
1070
     1
1070
    44
1040
1.0
1070
    74
1070
     0
1000
MTEXTEND
1000
MTEXTBEGIN
1070
    73
1070
     1
1070
    44
1040
1.0
1070
    74
1070
     0
1000
MTEXTEND
  0
POINT
  5
775F
330
7758
100
AcDbEntity
  8
DEFPOINTS
  6
CONTINUOUS
 62
     0
100
AcDbPoint
 10
-60.0
 20
-171.0
 30
0.0
  0
POINT
  5
7760
330
7758
100
AcDbEntity
  8
DEFPOINTS
  6
CONTINUOUS
 62
     0
100
AcDbPoint
 10
0.0
 20
-171.0
 30
0.0
  0
POINT
  5
7761
330
7758
100
AcDbEntity
  8
DEFPOINTS
  6
CONTINUOUS
 62
     0
100
AcDbPoint
 10
-0.000000000000001
 20
-187.4375309206458
 30
0.0
  0
ENDBLK
  5
7763
330
7758
100
AcDbEntity
  8
0
100
AcDbBlockEnd
  0
BLOCK
  5
776F
330
7765
100
AcDbEntity
  8
0
100
AcDbBlockBegin
  2
*D18
 70
     1
 10
0.0
 20
0.0
 30
0.0
  3
*D18
  1

  0
LINE
  5
7E72
330
7765
100
AcDbEntity
  8
30
  6
CONTINUOUS
 62
     0
100
AcDbLine
 10
-0.0000000000000001
 20
-172.0
 30
0.0
 11
-0.000000000000001
 21
-187.9375309206458
 31
0.0
  0
LINE
  5
7E73
330
7765
100
AcDbEntity
  8
30
  6
CONTINUOUS
 62
     0
100
AcDbLine
 10
60.0
 20
-172.0
 30
0.0
 11
60.0
 21
-187.9375309206458
 31
0.0
  0
LINE
  5
7E74
330
7765
100
AcDbEntity
  8
30
  6
CONTINUOUS
 62
     0
100
AcDbLine
 10
1.999999999999998
 20
-187.4375309206458
 30
0.0
 11
58.0
 21
-187.4375309206458
 31
0.0
  0
INSERT
  5
7E75
330
7765
100
AcDbEntity
  8
30
  6
CONTINUOUS
 62
     0
100
AcDbBlockReference
  2
_OPEN
 10
-0.000000000000001
 20
-187.4375309206458
 30
0.0
 41
2.0
 42
2.0
 43
2.0
 50
180.0
  0
INSERT
  5
7E76
330
7765
100
AcDbEntity
  8
30
  6
CONTINUOUS
 62
     0
100
AcDbBlockReference
  2
_OPEN
 10
60.0
 20
-187.4375309206458
 30
0.0
 41
2.0
 42
2.0
 43
2.0
  0
MTEXT
  5
7E77
330
7765
100
AcDbEntity
  8
30
  6
CONTINUOUS
 62
     0
100
AcDbMText
 10
30.0
 20
-184.4375309206458
 30
0.0
 40
4.0
 41
0.0
 71
     5
 72
     1
  1
\A1;60
  0
POINT
  5
7E78
330
7765
100
AcDbEntity
  8
DEFPOINTS
  6
CONTINUOUS
 62
     0
100
AcDbPoint
 10
0.0
 20
-171.0
 30
0.0
  0
POINT
  5
7E79
330
7765
100
AcDbEntity
  8
DEFPOINTS
  6
CONTINUOUS
 62
     0
100
AcDbPoint
 10
60.0
 20
-171.0
 30
0.0
  0
POINT
  5
7E7A
330
7765
100
AcDbEntity
  8
DEFPOINTS
  6
CONTINUOUS
 62
     0
100
AcDbPoint
 10
60.0
 20
-187.4375309206458
 30
0.0
  0
ENDBLK
  5
7770
330
7765
100
AcDbEntity
  8
0
100
AcDbBlockEnd
  0
BLOCK
  5
777C
330
7772
100
AcDbEntity
  8
0
100
AcDbBlockBegin
  2
*D19
 70
     1
 10
0.0
 20
0.0
 30
0.0
  3
*D19
  1

  0
LINE
  5
777E
330
7772
100
AcDbEntity
  8
30
  6
CONTINUOUS
 62
     0
100
AcDbLine
 10
-70.00000000000007
 20
-131.0
 30
0.0
 11
-70.00000000000007
 21
-199.6004021123758
 31
0.0
  0
LINE
  5
777F
330
7772
100
AcDbEntity
  8
30
  6
CONTINUOUS
 62
     0
100
AcDbLine
 10
70.0
 20
-131.0
 30
0.0
 11
70.0
 21
-199.6004021123758
 31
0.0
  0
LINE
  5
7780
330
7772
100
AcDbEntity
  8
30
  6
CONTINUOUS
 62
     0
100
AcDbLine
 10
-68.00000000000007
 20
-199.1004021123758
 30
0.0
 11
68.0
 21
-199.1004021123758
 31
0.0
  0
INSERT
  5
7781
330
7772
100
AcDbEntity
  8
30
  6
CONTINUOUS
 62
     0
100
AcDbBlockReference
  2
_OPEN
 10
-70.00000000000007
 20
-199.1004021123758
 30
0.0
 41
2.0
 42
2.0
 43
2.0
 50
180.0
  0
INSERT
  5
7782
330
7772
100
AcDbEntity
  8
30
  6
CONTINUOUS
 62
     0
100
AcDbBlockReference
  2
_OPEN
 10
70.0
 20
-199.1004021123758
 30
0.0
 41
2.0
 42
2.0
 43
2.0
  0
MTEXT
  5
7783
330
7772
100
AcDbEntity
  8
30
  6
CONTINUOUS
 62
     0
100
AcDbMText
 10
-0.0000000000000282
 20
-196.1004021123758
 30
0.0
 40
4.0
 41
0.0
 71
     5
 72
     5
  1
\A1;140
1001
ACAD
1000
MTEXTBEGIN
1070
    73
1070
     1
1070
    44
1040
1.0
1070
    74
1070
     0
1000
MTEXTEND
1000
MTEXTBEGIN
1070
    73
1070
     1
1070
    44
1040
1.0
1070
    74
1070
     0
1000
MTEXTEND
  0
POINT
  5
7784
330
7772
100
AcDbEntity
  8
DEFPOINTS
  6
CONTINUOUS
 62
     0
100
AcDbPoint
 10
-70.00000000000007
 20
-130.0
 30
0.0
  0
POINT
  5
7785
330
7772
100
AcDbEntity
  8
DEFPOINTS
  6
CONTINUOUS
 62
     0
100
AcDbPoint
 10
70.0
 20
-130.0
 30
0.0
  0
POINT
  5
7786
330
7772
100
AcDbEntity
  8
DEFPOINTS
  6
CONTINUOUS
 62
     0
100
AcDbPoint
 10
70.0
 20
-199.1004021123758
 30
0.0
  0
ENDBLK
  5
777D
330
7772
100
AcDbEntity
  8
0
100
AcDbBlockEnd
  0
BLOCK
  5
77E0
330
77D6
100
AcDbEntity
  8
0
100
AcDbBlockBegin
  2
*D20
 70
     1
 10
0.0
 20
0.0
 30
0.0
  3
*D20
  1

  0
LINE
  5
77F8
330
77D6
100
AcDbEntity
  8
30
  6
CONTINUOUS
 62
     0
100
AcDbLine
 10
238.2585283399446
 20
175.5
 30
0.0
 11
238.2585283399446
 21
184.7587842897581
 31
0.0
  0
LINE
  5
77F9
330
77D6
100
AcDbEntity
  8
30
  6
CONTINUOUS
 62
     0
100
AcDbLine
 10
274.2585283399446
 20
131.0000000000002
 30
0.0
 11
274.2585283399446
 21
184.7587842897581
 31
0.0
  0
LINE
  5
77FA
330
77D6
100
AcDbEntity
  8
30
  6
CONTINUOUS
 62
     0
100
AcDbLine
 10
240.2585283399445
 20
184.2587842897581
 30
0.0
 11
272.2585283399446
 21
184.2587842897581
 31
0.0
  0
INSERT
  5
77FB
330
77D6
100
AcDbEntity
  8
30
  6
CONTINUOUS
 62
     0
100
AcDbBlockReference
  2
_OPEN
 10
238.2585283399446
 20
184.2587842897581
 30
0.0
 41
2.0
 42
2.0
 43
2.0
 50
180.0
  0
INSERT
  5
77FC
330
77D6
100
AcDbEntity
  8
30
  6
CONTINUOUS
 62
     0
100
AcDbBlockReference
  2
_OPEN
 10
274.2585283399446
 20
184.2587842897581
 30
0.0
 41
2.0
 42
2.0
 43
2.0
  0
MTEXT
  5
77FD
330
77D6
100
AcDbEntity
  8
30
  6
CONTINUOUS
 62
     0
100
AcDbMText
 10
256.2585283399446
 20
187.2587842897583
 30
0.0
 40
4.0
 41
0.0
 71
     5
 72
     5
  1
\A1;36
1001
ACAD
1000
MTEXTBEGIN
1070
    73
1070
     1
1070
    44
1040
1.0
1070
    74
1070
     0
1000
MTEXTEND
1000
MTEXTBEGIN
1070
    73
1070
     1
1070
    44
1040
1.0
1070
    74
1070
     0
1000
MTEXTEND
  0
POINT
  5
77FE
330
77D6
100
AcDbEntity
  8
DEFPOINTS
  6
CONTINUOUS
 62
     0
100
AcDbPoint
 10
238.2585283399446
 20
174.5
 30
0.0
  0
POINT
  5
77FF
330
77D6
100
AcDbEntity
  8
DEFPOINTS
  6
CONTINUOUS
 62
     0
100
AcDbPoint
 10
274.2585283399446
 20
130.0000000000002
 30
0.0
  0
POINT
  5
7800
330
77D6
100
AcDbEntity
  8
DEFPOINTS
  6
CONTINUOUS
 62
     0
100
AcDbPoint
 10
274.2585283399446
 20
184.2587842897581
 30
0.0
  0
ENDBLK
  5
77E1
330
77D6
100
AcDbEntity
  8
0
100
AcDbBlockEnd
  0
BLOCK
  5
77F6
330
77EC
100
AcDbEntity
  8
0
100
AcDbBlockBegin
  2
*D21
 70
     1
 10
0.0
 20
0.0
 30
0.0
  3
*D21
  1

  0
LINE
  5
7801
330
77EC
100
AcDbEntity
  8
30
  6
CONTINUOUS
 62
     0
100
AcDbLine
 10
238.2585283399446
 20
175.5
 30
0.0
 11
238.2585283399446
 21
184.7587842897581
 31
0.0
  0
LINE
  5
7802
330
77EC
100
AcDbEntity
  8
30
  6
CONTINUOUS
 62
     0
100
AcDbLine
 10
230.2585283399446
 20
175.5
 30
0.0
 11
230.2585283399446
 21
184.7587842897581
 31
0.0
  0
LINE
  5
7803
330
77EC
100
AcDbEntity
  8
30
  6
CONTINUOUS
 62
     0
100
AcDbLine
 10
236.2585283399446
 20
184.2587842897581
 30
0.0
 11
232.2585283399446
 21
184.2587842897581
 31
0.0
  0
INSERT
  5
7804
330
77EC
100
AcDbEntity
  8
30
  6
CONTINUOUS
 62
     0
100
AcDbBlockReference
  2
_OPEN
 10
238.2585283399446
 20
184.2587842897581
 30
0.0
 41
2.0
 42
2.0
 43
2.0
  0
INSERT
  5
7805
330
77EC
100
AcDbEntity
  8
30
  6
CONTINUOUS
 62
     0
100
AcDbBlockReference
  2
_OPEN
 10
230.2585283399446
 20
184.2587842897581
 30
0.0
 41
2.0
 42
2.0
 43
2.0
 50
180.0
  0
MTEXT
  5
7806
330
77EC
100
AcDbEntity
  8
30
  6
CONTINUOUS
 62
     0
100
AcDbMText
 10
234.2585283399446
 20
187.2587842897583
 30
0.0
 40
4.0
 41
0.0
 71
     5
 72
     5
  1
\A1;8
1001
ACAD
1000
MTEXTBEGIN
1070
    73
1070
     1
1070
    44
1040
1.0
1070
    74
1070
     0
1000
MTEXTEND
1000
MTEXTBEGIN
1070
    73
1070
     1
1070
    44
1040
1.0
1070
    74
1070
     0
1000
MTEXTEND
  0
POINT
  5
7807
330
77EC
100
AcDbEntity
  8
DEFPOINTS
  6
CONTINUOUS
 62
     0
100
AcDbPoint
 10
238.2585283399446
 20
174.5
 30
0.0
  0
POINT
  5
7808
330
77EC
100
AcDbEntity
  8
DEFPOINTS
  6
CONTINUOUS
 62
     0
100
AcDbPoint
 10
230.2585283399446
 20
174.5
 30
0.0
  0
POINT
  5
7809
330
77EC
100
AcDbEntity
  8
DEFPOINTS
  6
CONTINUOUS
 62
     0
100
AcDbPoint
 10
230.2585283399446
 20
184.2587842897581
 30
0.0
  0
ENDBLK
  5
77F7
330
77EC
100
AcDbEntity
  8
0
100
AcDbBlockEnd
  0
BLOCK
  5
7815
330
780B
100
AcDbEntity
  8
0
100
AcDbBlockBegin
  2
*D22
 70
     1
 10
0.0
 20
0.0
 30
0.0
  3
*D22
  1

  0
LINE
  5
780C
330
780B
100
AcDbEntity
  8
30
  6
CONTINUOUS
 62
     0
100
AcDbLine
 10
274.2585283399446
 20
-130.9999999999998
 30
0.0
 11
274.2585283399446
 21
-187.4743266923104
 31
0.0
  0
LINE
  5
780D
330
780B
100
AcDbEntity
  8
30
  6
CONTINUOUS
 62
     0
100
AcDbLine
 10
239.2585283399446
 20
-175.4999999999999
 30
0.0
 11
239.2585283399446
 21
-187.4743266923104
 31
0.0
  0
LINE
  5
780E
330
780B
100
AcDbEntity
  8
30
  6
CONTINUOUS
 62
     0
100
AcDbLine
 10
272.2585283399446
 20
-186.9743266923104
 30
0.0
 11
241.2585283399446
 21
-186.9743266923104
 31
0.0
  0
INSERT
  5
780F
330
780B
100
AcDbEntity
  8
30
  6
CONTINUOUS
 62
     0
100
AcDbBlockReference
  2
_OPEN
 10
274.2585283399446
 20
-186.9743266923104
 30
0.0
 41
2.0
 42
2.0
 43
2.0
  0
INSERT
  5
7810
330
780B
100
AcDbEntity
  8
30
  6
CONTINUOUS
 62
     0
100
AcDbBlockReference
  2
_OPEN
 10
239.2585283399446
 20
-186.9743266923104
 30
0.0
 41
2.0
 42
2.0
 43
2.0
 50
180.0
  0
MTEXT
  5
7811
330
780B
100
AcDbEntity
  8
30
  6
CONTINUOUS
 62
     0
100
AcDbMText
 10
256.7585283399446
 20
-183.9743266923104
 30
0.0
 40
4.0
 41
0.0
 71
     5
 72
     5
  1
\A1;35
1001
ACAD
1000
MTEXTBEGIN
1070
    73
1070
     1
1070
    44
1040
1.0
1070
    74
1070
     0
1000
MTEXTEND
1000
MTEXTBEGIN
1070
    73
1070
     1
1070
    44
1040
1.0
1070
    74
1070
     0
1000
MTEXTEND
  0
POINT
  5
7812
330
780B
100
AcDbEntity
  8
DEFPOINTS
  6
CONTINUOUS
 62
     0
100
AcDbPoint
 10
274.2585283399446
 20
-129.9999999999998
 30
0.0
  0
POINT
  5
7813
330
780B
100
AcDbEntity
  8
DEFPOINTS
  6
CONTINUOUS
 62
     0
100
AcDbPoint
 10
239.2585283399446
 20
-174.4999999999999
 30
0.0
  0
POINT
  5
7814
330
780B
100
AcDbEntity
  8
DEFPOINTS
  6
CONTINUOUS
 62
     0
100
AcDbPoint
 10
239.2585283399446
 20
-186.9743266923104
 30
0.0
  0
ENDBLK
  5
7816
330
780B
100
AcDbEntity
  8
0
100
AcDbBlockEnd
  0
BLOCK
  5
7822
330
7818
100
AcDbEntity
  8
0
100
AcDbBlockBegin
  2
*D23
 70
     1
 10
0.0
 20
0.0
 30
0.0
  3
*D23
  1

  0
LINE
  5
7E7B
330
7818
100
AcDbEntity
  8
30
  6
CONTINUOUS
 62
     0
100
AcDbLine
 10
239.2585283399446
 20
-175.4999999999999
 30
0.0
 11
239.2585283399446
 21
-187.4743266923104
 31
0.0
  0
LINE
  5
7E7C
330
7818
100
AcDbEntity
  8
30
  6
CONTINUOUS
 62
     0
100
AcDbLine
 10
231.2585283399446
 20
-175.4999999999999
 30
0.0
 11
231.2585283399446
 21
-187.4743266923104
 31
0.0
  0
LINE
  5
7E7D
330
7818
100
AcDbEntity
  8
30
  6
CONTINUOUS
 62
     0
100
AcDbLine
 10
237.2585283399446
 20
-186.9743266923104
 30
0.0
 11
233.2585283399446
 21
-186.9743266923104
 31
0.0
  0
INSERT
  5
7E7E
330
7818
100
AcDbEntity
  8
30
  6
CONTINUOUS
 62
     0
100
AcDbBlockReference
  2
_OPEN
 10
239.2585283399446
 20
-186.9743266923104
 30
0.0
 41
2.0
 42
2.0
 43
2.0
  0
INSERT
  5
7E7F
330
7818
100
AcDbEntity
  8
30
  6
CONTINUOUS
 62
     0
100
AcDbBlockReference
  2
_OPEN
 10
231.2585283399446
 20
-186.9743266923104
 30
0.0
 41
2.0
 42
2.0
 43
2.0
 50
180.0
  0
MTEXT
  5
7E80
330
7818
100
AcDbEntity
  8
30
  6
CONTINUOUS
 62
     0
100
AcDbMText
 10
235.2585283399446
 20
-183.9743266923104
 30
0.0
 40
4.0
 41
0.0
 71
     5
 72
     1
  1
\A1;8
  0
POINT
  5
7E81
330
7818
100
AcDbEntity
  8
DEFPOINTS
  6
CONTINUOUS
 62
     0
100
AcDbPoint
 10
239.2585283399446
 20
-174.4999999999999
 30
0.0
  0
POINT
  5
7E82
330
7818
100
AcDbEntity
  8
DEFPOINTS
  6
CONTINUOUS
 62
     0
100
AcDbPoint
 10
231.2585283399446
 20
-174.4999999999999
 30
0.0
  0
POINT
  5
7E83
330
7818
100
AcDbEntity
  8
DEFPOINTS
  6
CONTINUOUS
 62
     0
100
AcDbPoint
 10
231.2585283399446
 20
-186.9743266923104
 30
0.0
  0
ENDBLK
  5
7823
330
7818
100
AcDbEntity
  8
0
100
AcDbBlockEnd
  0
BLOCK
  5
78A0
330
7896
100
AcDbEntity
  8
0
100
AcDbBlockBegin
  2
*D24
 70
     1
 10
0.0
 20
0.0
 30
0.0
  3
*D24
  1

  0
LINE
  5
78BD
330
7896
100
AcDbEntity
  8
30
  6
CONTINUOUS
 62
     0
100
AcDbLine
 10
274.2585283399446
 20
-131.9999999999998
 30
0.0
 11
274.2585283399446
 21
-201.0942601669824
 31
0.0
  0
LINE
  5
78BE
330
7896
100
AcDbEntity
  8
30
  6
CONTINUOUS
 62
     0
100
AcDbLine
 10
173.2585283399446
 20
-200.5942601669822
 30
0.0
 11
272.2585283399446
 21
-200.5942601669822
 31
0.0
  0
INSERT
  5
78BF
330
7896
100
AcDbEntity
  8
30
  6
CONTINUOUS
 62
     0
100
AcDbBlockReference
  2
_OPEN
 10
171.2585283399446
 20
-200.5942601669822
 30
0.0
 41
2.0
 42
2.0
 43
2.0
 50
180.0
  0
INSERT
  5
78C0
330
7896
100
AcDbEntity
  8
30
  6
CONTINUOUS
 62
     0
100
AcDbBlockReference
  2
_OPEN
 10
274.2585283399446
 20
-200.5942601669822
 30
0.0
 41
2.0
 42
2.0
 43
2.0
  0
MTEXT
  5
78C1
330
7896
100
AcDbEntity
  8
30
  6
CONTINUOUS
 62
     0
100
AcDbMText
 10
222.7585283399446
 20
-197.5942601669824
 30
0.0
 40
4.0
 41
0.0
 71
     5
 72
     5
  1
\A1;103
1001
ACAD
1000
MTEXTBEGIN
1070
    73
1070
     1
1070
    44
1040
1.0
1070
    74
1070
     0
1000
MTEXTEND
1000
MTEXTBEGIN
1070
    73
1070
     1
1070
    44
1040
1.0
1070
    74
1070
     0
1000
MTEXTEND
  0
POINT
  5
78C2
330
7896
100
AcDbEntity
  8
DEFPOINTS
  6
CONTINUOUS
 62
     0
100
AcDbPoint
 10
171.2585283399446
 20
-201.0942601669824
 30
0.0
  0
POINT
  5
78C3
330
7896
100
AcDbEntity
  8
DEFPOINTS
  6
CONTINUOUS
 62
     0
100
AcDbPoint
 10
274.2585283399446
 20
-130.9999999999998
 30
0.0
  0
POINT
  5
78C4
330
7896
100
AcDbEntity
  8
DEFPOINTS
  6
CONTINUOUS
 62
     0
100
AcDbPoint
 10
274.2585283399446
 20
-200.5942601669822
 30
0.0
  0
ENDBLK
  5
78A1
330
7896
100
AcDbEntity
  8
0
100
AcDbBlockEnd
  0
BLOCK
  5
78BB
330
78B1
100
AcDbEntity
  8
0
100
AcDbBlockBegin
  2
*D25
 70
     1
 10
0.0
 20
0.0
 30
0.0
  3
*D25
  1

  0
LINE
  5
78B2
330
78B1
100
AcDbEntity
  8
30
  6
CONTINUOUS
 62
     0
100
AcDbLine
 10
163.2585283399446
 20
-45.99999999999988
 30
0.0
 11
163.2585283399446
 21
-201.5942601669824
 31
0.0
  0
LINE
  5
78B3
330
78B1
100
AcDbEntity
  8
30
  6
CONTINUOUS
 62
     0
100
AcDbLine
 10
171.2585283399446
 20
-45.99999999999988
 30
0.0
 11
171.2585283399446
 21
-201.5942601669824
 31
0.0
  0
LINE
  5
78B4
330
78B1
100
AcDbEntity
  8
30
  6
CONTINUOUS
 62
     0
100
AcDbLine
 10
165.2585283399446
 20
-201.0942601669824
 30
0.0
 11
169.2585283399446
 21
-201.0942601669824
 31
0.0
  0
INSERT
  5
78B5
330
78B1
100
AcDbEntity
  8
30
  6
CONTINUOUS
 62
     0
100
AcDbBlockReference
  2
_OPEN
 10
163.2585283399446
 20
-201.0942601669824
 30
0.0
 41
2.0
 42
2.0
 43
2.0
 50
180.0
  0
INSERT
  5
78B6
330
78B1
100
AcDbEntity
  8
30
  6
CONTINUOUS
 62
     0
100
AcDbBlockReference
  2
_OPEN
 10
171.2585283399446
 20
-201.0942601669824
 30
0.0
 41
2.0
 42
2.0
 43
2.0
  0
MTEXT
  5
78B7
330
78B1
100
AcDbEntity
  8
30
  6
CONTINUOUS
 62
     0
100
AcDbMText
 10
167.2585283399446
 20
-198.0942601669823
 30
0.0
 40
4.0
 41
0.0
 71
     5
 72
     5
  1
\A1;8
1001
ACAD
1000
MTEXTBEGIN
1070
    73
1070
     1
1070
    44
1040
1.0
1070
    74
1070
     0
1000
MTEXTEND
1000
MTEXTBEGIN
1070
    73
1070
     1
1070
    44
1040
1.0
1070
    74
1070
     0
1000
MTEXTEND
  0
POINT
  5
78B8
330
78B1
100
AcDbEntity
  8
DEFPOINTS
  6
CONTINUOUS
 62
     0
100
AcDbPoint
 10
163.2585283399446
 20
-44.99999999999988
 30
0.0
  0
POINT
  5
78B9
330
78B1
100
AcDbEntity
  8
DEFPOINTS
  6
CONTINUOUS
 62
     0
100
AcDbPoint
 10
171.2585283399446
 20
-44.99999999999988
 30
0.0
  0
POINT
  5
78BA
330
78B1
100
AcDbEntity
  8
DEFPOINTS
  6
CONTINUOUS
 62
     0
100
AcDbPoint
 10
171.2585283399446
 20
-201.0942601669824
 30
0.0
  0
ENDBLK
  5
78BC
330
78B1
100
AcDbEntity
  8
0
100
AcDbBlockEnd
  0
BLOCK
  5
78D0
330
78C6
100
AcDbEntity
  8
0
100
AcDbBlockBegin
  2
*D26
 70
     1
 10
0.0
 20
0.0
 30
0.0
  3
*D26
  1

  0
LINE
  5
7B69
330
78C6
100
AcDbEntity
  8
30
  6
CONTINUOUS
 62
     0
100
AcDbLine
 10
129.3075402374922
 20
-0.9999999999998864
 30
0.0
 11
129.3075402374922
 21
-216.2420353336826
 31
0.0
  0
LINE
  5
7B6A
330
78C6
100
AcDbEntity
  8
30
  6
CONTINUOUS
 62
     0
100
AcDbLine
 10
274.2585283399446
 20
-202.0942601669823
 30
0.0
 11
274.2585283399446
 21
-216.2420353336826
 31
0.0
  0
LINE
  5
7B6B
330
78C6
100
AcDbEntity
  8
30
  6
CONTINUOUS
 62
     0
100
AcDbLine
 10
131.3075402374922
 20
-215.7420353336827
 30
0.0
 11
272.2585283399446
 21
-215.7420353336827
 31
0.0
  0
INSERT
  5
7B6C
330
78C6
100
AcDbEntity
  8
30
  6
CONTINUOUS
 62
     0
100
AcDbBlockReference
  2
_OPEN
 10
129.3075402374922
 20
-215.7420353336827
 30
0.0
 41
2.0
 42
2.0
 43
2.0
 50
180.0
  0
INSERT
  5
7B6D
330
78C6
100
AcDbEntity
  8
30
  6
CONTINUOUS
 62
     0
100
AcDbBlockReference
  2
_OPEN
 10
274.2585283399446
 20
-215.7420353336827
 30
0.0
 41
2.0
 42
2.0
 43
2.0
  0
MTEXT
  5
7B6E
330
78C6
100
AcDbEntity
  8
30
  6
CONTINUOUS
 62
     0
100
AcDbMText
 10
201.7830342887184
 20
-212.7420353336825
 30
0.0
 40
4.0
 41
0.0
 71
     5
 72
     5
  1
\A1;145
1001
ACAD
1000
MTEXTBEGIN
1070
    73
1070
     1
1070
    44
1040
1.0
1070
    74
1070
     0
1000
MTEXTEND
1000
MTEXTBEGIN
1070
    73
1070
     1
1070
    44
1040
1.0
1070
    74
1070
     0
1000
MTEXTEND
  0
POINT
  5
7B6F
330
78C6
100
AcDbEntity
  8
DEFPOINTS
  6
CONTINUOUS
 62
     0
100
AcDbPoint
 10
129.3075402374922
 20
0.0000000000001137
 30
0.0
  0
POINT
  5
7B70
330
78C6
100
AcDbEntity
  8
DEFPOINTS
  6
CONTINUOUS
 62
     0
100
AcDbPoint
 10
274.2585283399446
 20
-201.0942601669824
 30
0.0
  0
POINT
  5
7B71
330
78C6
100
AcDbEntity
  8
DEFPOINTS
  6
CONTINUOUS
 62
     0
100
AcDbPoint
 10
274.2585283399446
 20
-215.7420353336827
 30
0.0
  0
ENDBLK
  5
78D1
330
78C6
100
AcDbEntity
  8
0
100
AcDbBlockEnd
  0
BLOCK
  5
7AFC
330
7AF2
100
AcDbEntity
  8
0
100
AcDbBlockBegin
  2
*D27
 70
     1
 10
0.0
 20
0.0
 30
0.0
  3
*D27
  1

  0
LINE
  5
7CA1
330
7AF2
100
AcDbEntity
  8
30
  6
CONTINUOUS
 62
     0
100
AcDbLine
 10
70.99993896483986
 20
390.4369478956378
 30
0.0
 11
94.07756810706727
 21
390.4369478956378
 31
0.0
  0
LINE
  5
7CA2
330
7AF2
100
AcDbEntity
  8
30
  6
CONTINUOUS
 62
     0
100
AcDbLine
 10
59.86574955133993
 20
354.4369478956378
 30
0.0
 11
94.07756810706727
 21
354.4369478956378
 31
0.0
  0
LINE
  5
7CA3
330
7AF2
100
AcDbEntity
  8
30
  6
CONTINUOUS
 62
     0
100
AcDbLine
 10
93.5775681070673
 20
388.4369478956378
 30
0.0
 11
93.5775681070673
 21
356.4369478956378
 31
0.0
  0
MTEXT
  5
7CA4
330
7AF2
100
AcDbEntity
  8
30
  6
CONTINUOUS
 62
     0
100
AcDbMText
 10
115.0397314126011
 20
371.7474129077194
 30
0.0
 40
4.0
 41
0.0
 71
     5
 72
     5
  1
\A1;ON SIDE 36\POFF SIDE 35
1001
ACAD
1000
MTEXTBEGIN
1070
    73
1070
     1
1070
    44
1040
1.0
1070
    74
1070
     0
1000
MTEXTEND
1000
MTEXTBEGIN
1070
    73
1070
     1
1070
    44
1040
1.0
1070
    74
1070
     0
1000
MTEXTEND
  0
INSERT
  5
7CA5
330
7AF2
100
AcDbEntity
  8
30
  6
CONTINUOUS
 62
     0
100
AcDbBlockReference
  2
_OPEN
 10
93.5775681070673
 20
390.4369478956378
 30
0.0
 41
2.0
 42
2.0
 43
2.0
 50
90.0
  0
INSERT
  5
7CA6
330
7AF2
100
AcDbEntity
  8
30
  6
CONTINUOUS
 62
     0
100
AcDbBlockReference
  2
_OPEN
 10
93.5775681070673
 20
354.4369478956378
 30
0.0
 41
2.0
 42
2.0
 43
2.0
 50
270.0
  0
POINT
  5
7CA7
330
7AF2
100
AcDbEntity
  8
DEFPOINTS
  6
CONTINUOUS
 62
     0
100
AcDbPoint
 10
69.99993896483985
 20
390.4369478956378
 30
0.0
  0
POINT
  5
7CA8
330
7AF2
100
AcDbEntity
  8
DEFPOINTS
  6
CONTINUOUS
 62
     0
100
AcDbPoint
 10
58.86574955133993
 20
354.4369478956378
 30
0.0
  0
POINT
  5
7CA9
330
7AF2
100
AcDbEntity
  8
DEFPOINTS
  6
CONTINUOUS
 62
     0
100
AcDbPoint
 10
93.5775681070673
 20
354.4369478956378
 30
0.0
  0
ENDBLK
  5
7AFD
330
7AF2
100
AcDbEntity
  8
0
100
AcDbBlockEnd
  0
BLOCK
  5
7B7D
330
7B73
100
AcDbEntity
  8
0
100
AcDbBlockBegin
  2
*D28
 70
     1
 10
0.0
 20
0.0
 30
0.0
  3
*D28
  1

  0
LINE
  5
7B74
330
7B73
100
AcDbEntity
  8
30
  6
CONTINUOUS
 62
     0
100
AcDbLine
 10
-74.00000000000004
 20
-175.5
 30
0.0
 11
-74.00000000000004
 21
-209.4738795776015
 31
0.0
  0
LINE
  5
7B75
330
7B73
100
AcDbEntity
  8
30
  6
CONTINUOUS
 62
     0
100
AcDbLine
 10
74.0
 20
-175.5
 30
0.0
 11
74.0
 21
-209.4738795776015
 31
0.0
  0
LINE
  5
7B76
330
7B73
100
AcDbEntity
  8
30
  6
CONTINUOUS
 62
     0
100
AcDbLine
 10
-72.00000000000007
 20
-208.9738795776014
 30
0.0
 11
72.0
 21
-208.9738795776014
 31
0.0
  0
INSERT
  5
7B77
330
7B73
100
AcDbEntity
  8
30
  6
CONTINUOUS
 62
     0
100
AcDbBlockReference
  2
_OPEN
 10
-74.00000000000004
 20
-208.9738795776014
 30
0.0
 41
2.0
 42
2.0
 43
2.0
 50
180.0
  0
INSERT
  5
7B78
330
7B73
100
AcDbEntity
  8
30
  6
CONTINUOUS
 62
     0
100
AcDbBlockReference
  2
_OPEN
 10
74.0
 20
-208.9738795776014
 30
0.0
 41
2.0
 42
2.0
 43
2.0
  0
MTEXT
  5
7B79
330
7B73
100
AcDbEntity
  8
30
  6
CONTINUOUS
 62
     0
100
AcDbMText
 10
-0.0000000000000282
 20
-205.9738795776015
 30
0.0
 40
4.0
 41
0.0
 71
     5
 72
     5
  1
\A1;148
1001
ACAD
1000
MTEXTBEGIN
1070
    73
1070
     1
1070
    44
1040
1.0
1070
    74
1070
     0
1000
MTEXTEND
1000
MTEXTBEGIN
1070
    73
1070
     1
1070
    44
1040
1.0
1070
    74
1070
     0
1000
MTEXTEND
  0
POINT
  5
7B7A
330
7B73
100
AcDbEntity
  8
DEFPOINTS
  6
CONTINUOUS
 62
     0
100
AcDbPoint
 10
-74.00000000000004
 20
-174.5
 30
0.0
  0
POINT
  5
7B7B
330
7B73
100
AcDbEntity
  8
DEFPOINTS
  6
CONTINUOUS
 62
     0
100
AcDbPoint
 10
74.0
 20
-174.5
 30
0.0
  0
POINT
  5
7B7C
330
7B73
100
AcDbEntity
  8
DEFPOINTS
  6
CONTINUOUS
 62
     0
100
AcDbPoint
 10
74.0
 20
-208.9738795776014
 30
0.0
  0
ENDBLK
  5
7B7E
330
7B73
100
AcDbEntity
  8
0
100
AcDbBlockEnd
  0
BLOCK
  5
7BB2
330
7BA8
100
AcDbEntity
  8
0
100
AcDbBlockBegin
  2
*D29
 70
     1
 10
0.0
 20
0.0
 30
0.0
  3
*D29
  1

  0
LINE
  5
7BA9
330
7BA8
100
AcDbEntity
  8
30
  6
CONTINUOUS
 62
     0
100
AcDbLine
 10
-75.00000000000007
 20
174.5
 30
0.0
 11
-88.11492830650331
 21
174.5
 31
0.0
  0
LINE
  5
7BAA
330
7BA8
100
AcDbEntity
  8
30
  6
CONTINUOUS
 62
     0
100
AcDbLine
 10
-72.00000000000007
 20
160.0
 30
0.0
 11
-88.11492830650333
 21
160.0
 31
0.0
  0
LINE
  5
7BAB
330
7BA8
100
AcDbEntity
  8
30
  6
CONTINUOUS
 62
     0
100
AcDbLine
 10
-87.61492830650331
 20
172.5
 30
0.0
 11
-87.61492830650331
 21
162.0
 31
0.0
  0
INSERT
  5
7BAC
330
7BA8
100
AcDbEntity
  8
30
  6
CONTINUOUS
 62
     0
100
AcDbBlockReference
  2
_OPEN
 10
-87.61492830650331
 20
174.5
 30
0.0
 41
2.0
 42
2.0
 43
2.0
 50
90.0
  0
INSERT
  5
7BAD
330
7BA8
100
AcDbEntity
  8
30
  6
CONTINUOUS
 62
     0
100
AcDbBlockReference
  2
_OPEN
 10
-87.61492830650333
 20
160.0
 30
0.0
 41
2.0
 42
2.0
 43
2.0
 50
270.0
  0
MTEXT
  5
7BAE
330
7BA8
100
AcDbEntity
  8
30
  6
CONTINUOUS
 62
     0
100
AcDbMText
 10
-90.61492830650335
 20
167.2499999999999
 30
0.0
 40
4.0
 41
0.0
 71
     5
 72
     5
  1
\A1;14.5
 11
0.0000000000000001
 21
1.0
 31
0.0
1001
ACAD
1000
MTEXTBEGIN
1070
    73
1070
     1
1070
    44
1040
1.0
1070
    74
1070
     0
1000
MTEXTEND
1000
MTEXTBEGIN
1070
    73
1070
     1
1070
    44
1040
1.0
1070
    74
1070
     0
1000
MTEXTEND
  0
POINT
  5
7BAF
330
7BA8
100
AcDbEntity
  8
DEFPOINTS
  6
CONTINUOUS
 62
     0
100
AcDbPoint
 10
-74.00000000000004
 20
174.5
 30
0.0
  0
POINT
  5
7BB0
330
7BA8
100
AcDbEntity
  8
DEFPOINTS
  6
CONTINUOUS
 62
     0
100
AcDbPoint
 10
-71.00000000000004
 20
160.0
 30
0.0
  0
POINT
  5
7BB1
330
7BA8
100
AcDbEntity
  8
DEFPOINTS
  6
CONTINUOUS
 62
     0
100
AcDbPoint
 10
-87.61492830650333
 20
160.0
 30
0.0
  0
ENDBLK
  5
7BB3
330
7BA8
100
AcDbEntity
  8
0
100
AcDbBlockEnd
  0
BLOCK
  5
7BBF
330
7BB5
100
AcDbEntity
  8
0
100
AcDbBlockBegin
  2
*D30
 70
     1
 10
0.0
 20
0.0
 30
0.0
  3
*D30
  1

  0
LINE
  5
7E84
330
7BB5
100
AcDbEntity
  8
30
  6
CONTINUOUS
 62
     0
100
AcDbLine
 10
-72.00000000000006
 20
160.0
 30
0.0
 11
-88.11492830650335
 21
160.0
 31
0.0
  0
LINE
  5
7E85
330
7BB5
100
AcDbEntity
  8
30
  6
CONTINUOUS
 62
     0
100
AcDbLine
 10
-71.00000000000007
 20
130.0
 30
0.0
 11
-88.11492830650335
 21
130.0
 31
0.0
  0
LINE
  5
7E86
330
7BB5
100
AcDbEntity
  8
30
  6
CONTINUOUS
 62
     0
100
AcDbLine
 10
-87.61492830650336
 20
158.0
 30
0.0
 11
-87.61492830650336
 21
132.0
 31
0.0
  0
INSERT
  5
7E87
330
7BB5
100
AcDbEntity
  8
30
  6
CONTINUOUS
 62
     0
100
AcDbBlockReference
  2
_OPEN
 10
-87.61492830650336
 20
160.0
 30
0.0
 41
2.0
 42
2.0
 43
2.0
 50
90.0
  0
INSERT
  5
7E88
330
7BB5
100
AcDbEntity
  8
30
  6
CONTINUOUS
 62
     0
100
AcDbBlockReference
  2
_OPEN
 10
-87.61492830650336
 20
130.0
 30
0.0
 41
2.0
 42
2.0
 43
2.0
 50
270.0
  0
MTEXT
  5
7E89
330
7BB5
100
AcDbEntity
  8
30
  6
CONTINUOUS
 62
     0
100
AcDbMText
 10
-90.61492830650337
 20
145.0
 30
0.0
 40
4.0
 41
0.0
 71
     5
 72
     1
  1
\A1;30
 11
0.0000000000000001
 21
1.0
 31
0.0
  0
POINT
  5
7E8A
330
7BB5
100
AcDbEntity
  8
DEFPOINTS
  6
CONTINUOUS
 62
     0
100
AcDbPoint
 10
-71.00000000000005
 20
160.0
 30
0.0
  0
POINT
  5
7E8B
330
7BB5
100
AcDbEntity
  8
DEFPOINTS
  6
CONTINUOUS
 62
     0
100
AcDbPoint
 10
-70.00000000000007
 20
130.0
 30
0.0
  0
POINT
  5
7E8C
330
7BB5
100
AcDbEntity
  8
DEFPOINTS
  6
CONTINUOUS
 62
     0
100
AcDbPoint
 10
-87.61492830650336
 20
130.0
 30
0.0
  0
ENDBLK
  5
7BC0
330
7BB5
100
AcDbEntity
  8
0
100
AcDbBlockEnd
  0
BLOCK
  5
7BCC
330
7BC2
100
AcDbEntity
  8
0
100
AcDbBlockBegin
  2
*D31
 70
     1
 10
0.0
 20
0.0
 30
0.0
  3
*D31
  1

  0
LINE
  5
7BC3
330
7BC2
100
AcDbEntity
  8
30
  6
CONTINUOUS
 62
     0
100
AcDbLine
 10
-89.11492830650336
 20
130.0
 30
0.0
 11
-116.0191388944171
 21
130.0
 31
0.0
  0
LINE
  5
7BC4
330
7BC2
100
AcDbEntity
  8
30
  6
CONTINUOUS
 62
     0
100
AcDbLine
 10
-88.61492830650332
 20
174.5
 30
0.0
 11
-116.0191388944171
 21
174.5
 31
0.0
  0
LINE
  5
7BC5
330
7BC2
100
AcDbEntity
  8
30
  6
CONTINUOUS
 62
     0
100
AcDbLine
 10
-115.519138894417
 20
132.0
 30
0.0
 11
-115.519138894417
 21
172.5
 31
0.0
  0
INSERT
  5
7BC6
330
7BC2
100
AcDbEntity
  8
30
  6
CONTINUOUS
 62
     0
100
AcDbBlockReference
  2
_OPEN
 10
-115.519138894417
 20
130.0
 30
0.0
 41
2.0
 42
2.0
 43
2.0
 50
270.0
  0
INSERT
  5
7BC7
330
7BC2
100
AcDbEntity
  8
30
  6
CONTINUOUS
 62
     0
100
AcDbBlockReference
  2
_OPEN
 10
-115.519138894417
 20
174.5
 30
0.0
 41
2.0
 42
2.0
 43
2.0
 50
90.0
  0
MTEXT
  5
7BC8
330
7BC2
100
AcDbEntity
  8
30
  6
CONTINUOUS
 62
     0
100
AcDbMText
 10
-118.519138894417
 20
152.2499999999999
 30
0.0
 40
4.0
 41
0.0
 71
     5
 72
     5
  1
\A1;44.5
 11
0.0000000000000001
 21
1.0
 31
0.0
1001
ACAD
1000
MTEXTBEGIN
1070
    73
1070
     1
1070
    44
1040
1.0
1070
    74
1070
     0
1000
MTEXTEND
1000
MTEXTBEGIN
1070
    73
1070
     1
1070
    44
1040
1.0
1070
    74
1070
     0
1000
MTEXTEND
  0
POINT
  5
7BC9
330
7BC2
100
AcDbEntity
  8
DEFPOINTS
  6
CONTINUOUS
 62
     0
100
AcDbPoint
 10
-88.11492830650335
 20
130.0
 30
0.0
  0
POINT
  5
7BCA
330
7BC2
100
AcDbEntity
  8
DEFPOINTS
  6
CONTINUOUS
 62
     0
100
AcDbPoint
 10
-87.61492830650331
 20
174.5
 30
0.0
  0
POINT
  5
7BCB
330
7BC2
100
AcDbEntity
  8
DEFPOINTS
  6
CONTINUOUS
 62
     0
100
AcDbPoint
 10
-115.519138894417
 20
174.5
 30
0.0
  0
ENDBLK
  5
7BCD
330
7BC2
100
AcDbEntity
  8
0
100
AcDbBlockEnd
  0
BLOCK
  5
7CD1
330
7CC8
100
AcDbEntity
  8
0
100
AcDbBlockBegin
  2
*D32
 70
     1
 10
0.0
 20
0.0
 30
0.0
  3
*D32
  1

  0
LINE
  5
7CC9
330
7CC8
100
AcDbEntity
  8
30
  6
CONTINUOUS
 62
     0
100
AcDbLine
 10
-46.36963796348358
 20
184.4805147390161
 30
0.0
 11
-56.7029712968169
 21
184.4805147390161
 31
0.0
  0
LINE
  5
7CCA
330
7CC8
100
AcDbEntity
  8
30
  6
CONTINUOUS
 62
     0
100
AcDbLine
 10
-56.7029712968169
 20
184.4805147390161
 30
0.0
 11
-58.79872832906379
 21
168.9194700724093
 31
0.0
  0
MTEXT
  5
7CCB
330
7CC8
100
AcDbEntity
  8
30
  6
CONTINUOUS
 62
     0
100
AcDbMText
 10
-51.03630463015026
 20
187.480514739016
 30
0.0
 40
4.0
 41
0.0
 71
     5
 72
     1
  1
\A1;\U+220514
1001
ACAD
1000
MTEXTBEGIN
1070
    73
1070
     1
1070
    44
1040
1.0
1070
    74
1070
     0
1000
MTEXTEND
1000
MTEXTBEGIN
1070
    73
1070
     1
1070
    44
1040
1.0
1070
    74
1070
     0
1000
MTEXTEND
  0
INSERT
  5
7CCC
330
7CC8
100
AcDbEntity
  8
30
  6
CONTINUOUS
 62
     0
100
AcDbBlockReference
  2
_OPEN
 10
-59.06567758927183
 20
166.9373656118739
 30
0.0
 41
2.0
 42
2.0
 43
2.0
 50
262.3295756164606
  0
LINE
  5
7CCD
330
7CC8
100
AcDbEntity
  8
30
  6
CONTINUOUS
 62
     0
100
AcDbLine
 10
-60.09
 20
160.0
 30
0.0
 11
-59.90999999999998
 21
160.0
 31
0.0
  0
LINE
  5
7CCE
330
7CC8
100
AcDbEntity
  8
30
  6
CONTINUOUS
 62
     0
100
AcDbLine
 10
-59.99999999999997
 20
159.9099999999999
 30
0.0
 11
-60.0
 21
160.09
 31
0.0
  0
POINT
  5
7CCF
330
7CC8
100
AcDbEntity
  8
DEFPOINTS
  6
CONTINUOUS
 62
     0
100
AcDbPoint
 10
-59.06567758927183
 20
166.9373656118739
 30
0.0
  0
POINT
  5
7CD0
330
7CC8
100
AcDbEntity
  8
DEFPOINTS
  6
CONTINUOUS
 62
     0
100
AcDbPoint
 10
-60.93432241072815
 20
153.0626343881259
 30
0.0
  0
ENDBLK
  5
7CD2
330
7CC8
100
AcDbEntity
  8
0
100
AcDbBlockEnd
  0
BLOCK
  5
7CDC
330
7CD3
100
AcDbEntity
  8
0
100
AcDbBlockBegin
  2
*D33
 70
     1
 10
0.0
 20
0.0
 30
0.0
  3
*D33
  1

  0
LINE
  5
7CD4
330
7CD3
100
AcDbEntity
  8
30
  6
CONTINUOUS
 62
     0
100
AcDbLine
 10
-67.15911487308381
 20
-220.6800347238195
 30
0.0
 11
-46.82578153975049
 21
-220.6800347238195
 31
0.0
  0
LINE
  5
7CD5
330
7CD3
100
AcDbEntity
  8
30
  6
CONTINUOUS
 62
     0
100
AcDbLine
 10
-46.82578153975049
 20
-220.6800347238195
 30
0.0
 11
-25.5067836676054
 21
-249.0050967500799
 31
0.0
  0
MTEXT
  5
7CD6
330
7CD3
100
AcDbEntity
  8
30
  6
CONTINUOUS
 62
     0
100
AcDbMText
 10
-57.49244820641718
 20
-217.6800347238195
 30
0.0
 40
4.0
 41
0.0
 71
     5
 72
     1
  1
\A1;M6x0.7
1001
ACAD
1000
MTEXTBEGIN
1070
    73
1070
     1
1070
    44
1040
1.0
1070
    74
1070
     0
1000
MTEXTEND
1000
MTEXTBEGIN
1070
    73
1070
     1
1070
    44
1040
1.0
1070
    74
1070
     0
1000
MTEXTEND
  0
INSERT
  5
7CD7
330
7CD3
100
AcDbEntity
  8
30
  6
CONTINUOUS
 62
     0
100
AcDbBlockReference
  2
_OPEN
 10
-24.30407020056323
 20
-250.6030580500479
 30
0.0
 41
2.0
 42
2.0
 43
2.0
 50
306.9671284485152
  0
LINE
  5
7CD8
330
7CD3
100
AcDbEntity
  8
30
  6
CONTINUOUS
 62
     0
100
AcDbLine
 10
-22.59000000000001
 20
-252.9999999999999
 30
0.0
 11
-22.41000000000001
 21
-252.9999999999999
 31
0.0
  0
LINE
  5
7CD9
330
7CD3
100
AcDbEntity
  8
30
  6
CONTINUOUS
 62
     0
100
AcDbLine
 10
-22.50000000000003
 20
-253.0899999999999
 30
0.0
 11
-22.50000000000001
 21
-252.9099999999999
 31
0.0
  0
POINT
  5
7CDA
330
7CD3
100
AcDbEntity
  8
DEFPOINTS
  6
CONTINUOUS
 62
     0
100
AcDbPoint
 10
-24.30407020056323
 20
-250.6030580500479
 30
0.0
  0
POINT
  5
7CDB
330
7CD3
100
AcDbEntity
  8
DEFPOINTS
  6
CONTINUOUS
 62
     0
100
AcDbPoint
 10
-20.69592979943675
 20
-255.3969419499519
 30
0.0
  0
ENDBLK
  5
7CDD
330
7CD3
100
AcDbEntity
  8
0
100
AcDbBlockEnd
  0
BLOCK
  5
7CEF
330
7CE6
100
AcDbEntity
  8
0
100
AcDbBlockBegin
  2
*D34
 70
     1
 10
0.0
 20
0.0
 30
0.0
  3
*D34
  1

  0
LINE
  5
7DFE
330
7CE6
100
AcDbEntity
  8
30
  6
CONTINUOUS
 62
     0
100
AcDbLine
 10
-60.82578153975055
 20
-220.6800347238195
 30
0.0
 11
-46.82578153975025
 21
-220.6800347238195
 31
0.0
  0
LINE
  5
7DFF
330
7CE6
100
AcDbEntity
  8
30
  6
CONTINUOUS
 62
     0
100
AcDbLine
 10
-46.82578153975025
 20
-220.6800347238195
 30
0.0
 11
-25.50678366760537
 21
-249.0050967500799
 31
0.0
  0
MTEXT
  5
7E00
330
7CE6
100
AcDbEntity
  8
30
  6
CONTINUOUS
 62
     0
100
AcDbMText
 10
-57.49244820641722
 20
-217.6800347238195
 30
0.0
 40
4.0
 41
0.0
 71
     5
 72
     1
  1
\A1;M6
1001
ACAD
1000
MTEXTBEGIN
1070
    73
1070
     1
1070
    44
1040
1.0
1070
    74
1070
     0
1000
MTEXTEND
  0
INSERT
  5
7E01
330
7CE6
100
AcDbEntity
  8
30
  6
CONTINUOUS
 62
     0
100
AcDbBlockReference
  2
_OPEN
 10
-24.30407020056323
 20
-250.6030580500479
 30
0.0
 41
2.0
 42
2.0
 43
2.0
 50
306.9671284485148
  0
LINE
  5
7E02
330
7CE6
100
AcDbEntity
  8
30
  6
CONTINUOUS
 62
     0
100
AcDbLine
 10
-22.59000000000003
 20
-252.9999999999998
 30
0.0
 11
-22.41000000000004
 21
-252.9999999999998
 31
0.0
  0
LINE
  5
7E03
330
7CE6
100
AcDbEntity
  8
30
  6
CONTINUOUS
 62
     0
100
AcDbLine
 10
-22.50000000000004
 20
-253.0899999999999
 30
0.0
 11
-22.50000000000003
 21
-252.9099999999998
 31
0.0
  0
POINT
  5
7E04
330
7CE6
100
AcDbEntity
  8
DEFPOINTS
  6
CONTINUOUS
 62
     0
100
AcDbPoint
 10
-24.30407020056323
 20
-250.6030580500479
 30
0.0
  0
POINT
  5
7E05
330
7CE6
100
AcDbEntity
  8
DEFPOINTS
  6
CONTINUOUS
 62
     0
100
AcDbPoint
 10
-20.69592979943676
 20
-255.3969419499519
 30
0.0
  0
ENDBLK
  5
7CF0
330
7CE6
100
AcDbEntity
  8
0
100
AcDbBlockEnd
  0
BLOCK
  5
7CFA
330
7CF1
100
AcDbEntity
  8
0
100
AcDbBlockBegin
  2
*D35
 70
     1
 10
0.0
 20
0.0
 30
0.0
  3
*D35
  1

  0
LINE
  5
7D04
330
7CF1
100
AcDbEntity
  8
30
  6
CONTINUOUS
 62
     0
100
AcDbLine
 10
-46.36963796348349
 20
184.4805147390161
 30
0.0
 11
-56.70297129681681
 21
184.4805147390161
 31
0.0
  0
LINE
  5
7D05
330
7CF1
100
AcDbEntity
  8
30
  6
CONTINUOUS
 62
     0
100
AcDbLine
 10
-56.70297129681681
 20
184.4805147390161
 30
0.0
 11
-58.79872832906375
 21
168.9194700724091
 31
0.0
  0
MTEXT
  5
7D06
330
7CF1
100
AcDbEntity
  8
30
  6
CONTINUOUS
 62
     0
100
AcDbMText
 10
-51.03630463015019
 20
187.480514739016
 30
0.0
 40
4.0
 41
0.0
 71
     5
 72
     1
  1
\A1;\U+220514
1001
ACAD
1000
MTEXTBEGIN
1070
    73
1070
     1
1070
    44
1040
1.0
1070
    74
1070
     0
1000
MTEXTEND
1000
MTEXTBEGIN
1070
    73
1070
     1
1070
    44
1040
1.0
1070
    74
1070
     0
1000
MTEXTEND
  0
INSERT
  5
7D07
330
7CF1
100
AcDbEntity
  8
30
  6
CONTINUOUS
 62
     0
100
AcDbBlockReference
  2
_OPEN
 10
-59.06567758927179
 20
166.9373656118738
 30
0.0
 41
2.0
 42
2.0
 43
2.0
 50
262.3295756164606
  0
LINE
  5
7D08
330
7CF1
100
AcDbEntity
  8
30
  6
CONTINUOUS
 62
     0
100
AcDbLine
 10
-60.08999999999996
 20
159.9999999999998
 30
0.0
 11
-59.90999999999996
 21
159.9999999999998
 31
0.0
  0
LINE
  5
7D09
330
7CF1
100
AcDbEntity
  8
30
  6
CONTINUOUS
 62
     0
100
AcDbLine
 10
-59.99999999999996
 20
159.9099999999998
 30
0.0
 11
-59.99999999999996
 21
160.0899999999997
 31
0.0
  0
POINT
  5
7D0A
330
7CF1
100
AcDbEntity
  8
DEFPOINTS
  6
CONTINUOUS
 62
     0
100
AcDbPoint
 10
-59.06567758927179
 20
166.9373656118738
 30
0.0
  0
POINT
  5
7D0B
330
7CF1
100
AcDbEntity
  8
DEFPOINTS
  6
CONTINUOUS
 62
     0
100
AcDbPoint
 10
-60.93432241072811
 20
153.0626343881259
 30
0.0
  0
ENDBLK
  5
7CFB
330
7CF1
100
AcDbEntity
  8
0
100
AcDbBlockEnd
  0
BLOCK
  5
7D1C
330
7D0D
100
AcDbEntity
  8
0
100
AcDbBlockBegin
  2
A$C549F26BC
 70
     0
 10
0.0
 20
0.0
 30
0.0
  3
A$C549F26BC
  1

  0
LINE
  5
7D0E
330
7D0D
100
AcDbEntity
  8
0
100
AcDbLine
 10
70.0
 20
-8.0
 30
0.0
 11
70.0
 21
-111.0
 31
0.0
  0
LINE
  5
7D0F
330
7D0D
100
AcDbEntity
  8
0
100
AcDbLine
 10
-69.99999999999997
 20
-8.0
 30
0.0
 11
-69.99999999999997
 21
-111.0
 31
0.0
  0
LINE
  5
7D10
330
7D0D
100
AcDbEntity
  8
0
100
AcDbLine
 10
-69.99999999999997
 20
-111.0
 30
0.0
 11
70.0
 21
-111.0
 31
0.0
  0
LINE
  5
7D11
330
7D0D
100
AcDbEntity
  8
0
100
AcDbLine
 10
-57.99999999999997
 20
-4.0
 30
0.0
 11
58.0
 21
-4.0
 31
0.0
  0
LINE
  5
7D12
330
7D0D
100
AcDbEntity
  8
0
100
AcDbLine
 10
-69.99999999999997
 20
-8.0
 30
0.0
 11
70.0
 21
-8.0
 31
0.0
  0
LINE
  5
7D13
330
7D0D
100
AcDbEntity
  8
0
100
AcDbLine
 10
-69.99999999999997
 20
-14.0
 30
0.0
 11
70.0
 21
-14.0
 31
0.0
  0
LINE
  5
7D14
330
7D0D
100
AcDbEntity
  8
0
100
AcDbLine
 10
17.00000000000011
 20
28.5
 30
0.0
 11
17.00000000000011
 21
0.0
 31
0.0
  0
LINE
  5
7D15
330
7D0D
100
AcDbEntity
  8
0
100
AcDbLine
 10
-17.00000000000005
 20
28.5
 30
0.0
 11
-17.00000000000005
 21
0.0
 31
0.0
  0
LINE
  5
7D16
330
7D0D
100
AcDbEntity
  8
0
100
AcDbLine
 10
-57.99999999999997
 20
-4.0
 30
0.0
 11
-57.99999999999997
 21
-8.0
 31
0.0
  0
LINE
  5
7D17
330
7D0D
100
AcDbEntity
  8
0
100
AcDbLine
 10
-18.0
 20
0.0
 30
0.0
 11
17.99999999999994
 21
0.0
 31
0.0
  0
LINE
  5
7D18
330
7D0D
100
AcDbEntity
  8
0
100
AcDbLine
 10
-18.0
 20
0.0
 30
0.0
 11
-18.0
 21
-4.0
 31
0.0
  0
LINE
  5
7D19
330
7D0D
100
AcDbEntity
  8
0
100
AcDbLine
 10
17.99999999999994
 20
0.0
 30
0.0
 11
17.99999999999994
 21
-4.0
 31
0.0
  0
LINE
  5
7D1A
330
7D0D
100
AcDbEntity
  8
0
100
AcDbLine
 10
-17.00000000000005
 20
28.5
 30
0.0
 11
17.00000000000011
 21
28.5
 31
0.0
  0
LINE
  5
7D1B
330
7D0D
100
AcDbEntity
  8
0
100
AcDbLine
 10
58.0
 20
-4.0
 30
0.0
 11
58.0
 21
-8.0
 31
0.0
  0
ENDBLK
  5
7D1D
330
7D0D
100
AcDbEntity
  8
0
100
AcDbBlockEnd
  0
BLOCK
  5
7D29
330
7D1F
100
AcDbEntity
  8
0
100
AcDbBlockBegin
  2
*D37
 70
     1
 10
0.0
 20
0.0
 30
0.0
  3
*D37
  1

  0
LINE
  5
7D20
330
7D1F
100
AcDbEntity
  8
30
  6
CONTINUOUS
 62
     0
100
AcDbLine
 10
70.99993896483986
 20
390.4369478956378
 30
0.0
 11
94.07756810706727
 21
390.4369478956378
 31
0.0
  0
LINE
  5
7D21
330
7D1F
100
AcDbEntity
  8
30
  6
CONTINUOUS
 62
     0
100
AcDbLine
 10
59.86574955133993
 20
354.4369478956378
 30
0.0
 11
94.07756810706727
 21
354.4369478956378
 31
0.0
  0
LINE
  5
7D22
330
7D1F
100
AcDbEntity
  8
30
  6
CONTINUOUS
 62
     0
100
AcDbLine
 10
93.5775681070673
 20
388.4369478956378
 30
0.0
 11
93.5775681070673
 21
356.4369478956378
 31
0.0
  0
MTEXT
  5
7D23
330
7D1F
100
AcDbEntity
  8
30
  6
CONTINUOUS
 62
     0
100
AcDbMText
 10
115.0397314126011
 20
371.7474129077194
 30
0.0
 40
4.0
 41
0.0
 71
     5
 72
     1
  1
\A1;ON SIDE 36\POFF SIDE 35
1001
ACAD
1000
MTEXTBEGIN
1070
    73
1070
     1
1070
    44
1040
1.0
1070
    74
1070
     0
1000
MTEXTEND
1000
MTEXTBEGIN
1070
    73
1070
     1
1070
    44
1040
1.0
1070
    74
1070
     0
1000
MTEXTEND
  0
INSERT
  5
7D24
330
7D1F
100
AcDbEntity
  8
30
  6
CONTINUOUS
 62
     0
100
AcDbBlockReference
  2
_OPEN
 10
93.5775681070673
 20
390.4369478956378
 30
0.0
 41
2.0
 42
2.0
 43
2.0
 50
90.0
  0
INSERT
  5
7D25
330
7D1F
100
AcDbEntity
  8
30
  6
CONTINUOUS
 62
     0
100
AcDbBlockReference
  2
_OPEN
 10
93.5775681070673
 20
354.4369478956378
 30
0.0
 41
2.0
 42
2.0
 43
2.0
 50
270.0
  0
POINT
  5
7D26
330
7D1F
100
AcDbEntity
  8
DEFPOINTS
  6
CONTINUOUS
 62
     0
100
AcDbPoint
 10
69.99993896483985
 20
390.4369478956378
 30
0.0
  0
POINT
  5
7D27
330
7D1F
100
AcDbEntity
  8
DEFPOINTS
  6
CONTINUOUS
 62
     0
100
AcDbPoint
 10
58.86574955133993
 20
354.4369478956378
 30
0.0
  0
POINT
  5
7D28
330
7D1F
100
AcDbEntity
  8
DEFPOINTS
  6
CONTINUOUS
 62
     0
100
AcDbPoint
 10
93.5775681070673
 20
354.4369478956378
 30
0.0
  0
ENDBLK
  5
7D2A
330
7D1F
100
AcDbEntity
  8
0
100
AcDbBlockEnd
  0
BLOCK
  5
7D9F
330
7D95
100
AcDbEntity
  8
0
100
AcDbBlockBegin
  2
*D38
 70
     1
 10
0.0
 20
0.0
 30
0.0
  3
*D38
  1

  0
LINE
  5
7E8D
330
7D95
100
AcDbEntity
  8
30
  6
CONTINUOUS
 62
     0
100
AcDbLine
 10
70.99993896483986
 20
390.4369478956378
 30
0.0
 11
94.07756810706729
 21
390.4369478956378
 31
0.0
  0
LINE
  5
7E8E
330
7D95
100
AcDbEntity
  8
30
  6
CONTINUOUS
 62
     0
100
AcDbLine
 10
59.86574955133993
 20
354.4369478956378
 30
0.0
 11
94.07756810706729
 21
354.4369478956378
 31
0.0
  0
LINE
  5
7E8F
330
7D95
100
AcDbEntity
  8
30
  6
CONTINUOUS
 62
     0
100
AcDbLine
 10
93.5775681070673
 20
388.4369478956378
 30
0.0
 11
93.5775681070673
 21
356.4369478956378
 31
0.0
  0
MTEXT
  5
7E90
330
7D95
100
AcDbEntity
  8
30
  6
CONTINUOUS
 62
     0
100
AcDbMText
 10
115.0397314126011
 20
371.7474129077194
 30
0.0
 40
4.0
 41
0.0
 71
     5
 72
     1
  1
\A1;ON SIDE 36\POFF SIDE 35
  0
INSERT
  5
7E91
330
7D95
100
AcDbEntity
  8
30
  6
CONTINUOUS
 62
     0
100
AcDbBlockReference
  2
_OPEN
 10
93.5775681070673
 20
390.4369478956378
 30
0.0
 41
2.0
 42
2.0
 43
2.0
 50
90.0
  0
INSERT
  5
7E92
330
7D95
100
AcDbEntity
  8
30
  6
CONTINUOUS
 62
     0
100
AcDbBlockReference
  2
_OPEN
 10
93.5775681070673
 20
354.4369478956378
 30
0.0
 41
2.0
 42
2.0
 43
2.0
 50
270.0
  0
POINT
  5
7E93
330
7D95
100
AcDbEntity
  8
DEFPOINTS
  6
CONTINUOUS
 62
     0
100
AcDbPoint
 10
69.99993896483985
 20
390.4369478956378
 30
0.0
  0
POINT
  5
7E94
330
7D95
100
AcDbEntity
  8
DEFPOINTS
  6
CONTINUOUS
 62
     0
100
AcDbPoint
 10
58.86574955133993
 20
354.4369478956378
 30
0.0
  0
POINT
  5
7E95
330
7D95
100
AcDbEntity
  8
DEFPOINTS
  6
CONTINUOUS
 62
     0
100
AcDbPoint
 10
93.5775681070673
 20
354.4369478956378
 30
0.0
  0
ENDBLK
  5
7DA0
330
7D95
100
AcDbEntity
  8
0
100
AcDbBlockEnd
  0
ENDSEC
  0
SECTION
  2
ENTITIES
  0
LINE
  5
B4
330
1E
100
AcDbEntity
  8
16
100
AcDbLine
 10
0.0
 20
-101.8246001220914
 30
0.0
 11
0.0
 21
105.6073578546832
 31
0.0
  0
LINE
  5
B5
330
1E
100
AcDbEntity
  8
16
100
AcDbLine
 10
71.77465564206305
 20
-0.0000000000000027
 30
0.0
 11
-83.90588178115756
 21
-0.0000000000000027
 31
0.0
  0
MTEXT
  5
BF3
330
1E
100
AcDbEntity
  8
24
  6
CONTINUOUS
100
AcDbMText
 10
140.9820964648285
 20
176.3476821548369
 30
0.0
 40
3.0
 41
0.0
 71
     1
 72
     5
  1
\A1;
1001
ACAD
1000
MTEXTBEGIN
1070
    73
1070
     1
1070
    44
1040
1.0
1070
    74
1070
     0
1000
MTEXTEND
1000
MTEXTBEGIN
1070
    73
1070
     1
1070
    44
1040
1.0
1070
    74
1070
     0
1000
MTEXTEND
  0
LINE
  5
1C9B
330
1E
100
AcDbEntity
  8
16
100
AcDbLine
 10
302.2681462467816
 20
0.0000000000001137
 30
0.0
 11
118.4871519556749
 21
0.0000000000001137
 31
0.0
  0
TEXT
  5
4D9D
330
1E
100
AcDbEntity
  8
19
  6
CONTINUOUS
100
AcDbText
 10
203.9623141079287
 20
338.6876404023976
 30
0.0
 40
5.0
  1
NS400-NF 3P FC
  7
STANDARD1
100
AcDbText
  0
MTEXT
  5
5C78
330
1E
100
AcDbEntity
  8
30
  6
CONTINUOUS
100
AcDbMText
 10
162.3297648581359
 20
88.99793930010117
 30
0.0
 40
4.0
 41
0.0
 71
     9
 72
     5
  1

1001
ACAD
1000
MTEXTBEGIN
1070
    73
1070
     1
1070
    44
1040
1.0
1070
    74
1070
     0
1000
MTEXTEND
1000
MTEXTBEGIN
1070
    73
1070
     1
1070
    44
1040
1.0
1070
    74
1070
     0
1000
MTEXTEND
  0
MTEXT
  5
6200
330
1E
100
AcDbEntity
  8
30
  6
CONTINUOUS
100
AcDbMText
 10
160.6290066227675
 20
91.2377397662035
 30
0.0
 40
4.0
 41
0.0
 71
     9
 72
     5
  1

1001
ACAD
1000
MTEXTBEGIN
1070
    73
1070
     1
1070
    44
1040
1.0
1070
    74
1070
     0
1000
MTEXTEND
1000
MTEXTBEGIN
1070
    73
1070
     1
1070
    44
1040
1.0
1070
    74
1070
     0
1000
MTEXTEND
  0
LINE
  5
67DB
330
1E
100
AcDbEntity
  8
16
100
AcDbLine
 10
320.0
 20
-360.0
 30
0.0
 11
100.0
 21
-360.0
 31
0.0
  0
LINE
  5
67E2
330
1E
100
AcDbEntity
  8
16
100
AcDbLine
 10
0.0
 20
-506.6279096442683
 30
0.0
 11
0.0
 21
-207.9249011857708
 31
0.0
  0
LINE
  5
67E5
330
1E
100
AcDbEntity
  8
16
100
AcDbLine
 10
87.06681156507483
 20
-360.0
 30
0.0
 11
-118.1067106947925
 21
-360.0
 31
0.0
  0
LINE
  5
67F8
330
1E
100
AcDbEntity
  8
16
100
AcDbLine
 10
220.0
 20
-507.899000675821
 30
0.0
 11
220.0
 21
-209.1959922173233
 31
0.0
  0
LINE
  5
74B1
330
1E
100
AcDbEntity
  8
10
  6
CONTINOUS
100
AcDbLine
 10
46.0
 20
-174.5
 30
0.0
 11
74.0
 21
-174.5
 31
0.0
  0
LINE
  5
74B2
330
1E
100
AcDbEntity
  8
24
  6
CONTINOUS
100
AcDbLine
 10
49.0
 20
-160.0
 30
0.0
 11
71.0
 21
-160.0
 31
0.0
  0
LINE
  5
74B5
330
1E
100
AcDbEntity
  8
10
  6
CONTINOUS
100
AcDbLine
 10
-70.00000000000007
 20
50.99999999999909
 30
0.0
 11
70.0
 21
50.99999999999909
 31
0.0
  0
LINE
  5
74B6
330
1E
100
AcDbEntity
  8
10
  6
CONTINOUS
100
AcDbLine
 10
-53.0
 20
45.0000000000001
 30
0.0
 11
53.0
 21
45.0000000000001
 31
0.0
  0
LINE
  5
74B7
330
1E
100
AcDbEntity
  8
10
  6
CONTINOUS
100
AcDbLine
 10
70.0
 20
130.0
 30
0.0
 11
-70.00000000000007
 21
130.0
 31
0.0
  0
LINE
  5
74B8
330
1E
100
AcDbEntity
  8
10
  6
CONTINOUS
100
AcDbLine
 10
-53.0
 20
-45.0
 30
0.0
 11
53.0
 21
-45.0
 31
0.0
  0
LINE
  5
74BA
330
1E
100
AcDbEntity
  8
10
  6
CONTINOUS
100
AcDbLine
 10
36.0
 20
-114.0
 30
0.0
 11
54.0
 21
-114.0
 31
0.0
  0
LINE
  5
74BB
330
1E
100
AcDbEntity
  8
10
  6
CONTINOUS
100
AcDbLine
 10
36.0
 20
114.0000000000001
 30
0.0
 11
54.0
 21
114.0000000000001
 31
0.0
  0
LINE
  5
74BC
330
1E
100
AcDbEntity
  8
10
  6
CONTINOUS
100
AcDbLine
 10
-70.00000000000007
 20
-130.0
 30
0.0
 11
70.0
 21
-130.0
 31
0.0
  0
LINE
  5
74BD
330
1E
100
AcDbEntity
  8
10
  6
CONTINOUS
100
AcDbLine
 10
-70.00000000000007
 20
-51.0
 30
0.0
 11
70.0
 21
-51.0
 31
0.0
  0
LINE
  5
74BF
330
1E
100
AcDbEntity
  8
10
  6
CONTINOUS
100
AcDbLine
 10
-25.49999999999977
 20
-45.0
 30
0.0
 11
-25.5
 21
45.0000000000001
 31
0.0
  0
LINE
  5
74C0
330
1E
100
AcDbEntity
  8
10
  6
CONTINOUS
100
AcDbLine
 10
25.49999999999977
 20
-45.0
 30
0.0
 11
25.49999999999977
 21
45.0000000000001
 31
0.0
  0
LINE
  5
74C1
330
1E
100
AcDbEntity
  8
10
  6
CONTINOUS
100
AcDbLine
 10
-70.00000000000007
 20
130.0
 30
0.0
 11
-70.00000000000007
 21
-130.0
 31
0.0
  0
ARC
  5
74C2
330
1E
100
AcDbEntity
  8
10
  6
CONTINOUS
100
AcDbCircle
 10
-53.0
 20
-40.0
 30
0.0
 40
5.0
100
AcDbArc
 50
180.0
 51
270.0
  0
LINE
  5
74C3
330
1E
100
AcDbEntity
  8
24
  6
CONTINOUS
100
AcDbLine
 10
-71.00000000000004
 20
-160.0
 30
0.0
 11
-49.0
 21
-160.0
 31
0.0
  0
LINE
  5
74C4
330
1E
100
AcDbEntity
  8
10
  6
CONTINOUS
100
AcDbLine
 10
-74.00000000000004
 20
-150.0000000000003
 30
0.0
 11
-59.0
 21
-130.0000000000003
 31
0.0
  0
LINE
  5
74C5
330
1E
100
AcDbEntity
  8
10
  6
CONTINOUS
100
AcDbLine
 10
-74.00000000000004
 20
-174.5
 30
0.0
 11
-46.0
 21
-174.5
 31
0.0
  0
CIRCLE
  5
74C6
330
1E
100
AcDbEntity
  8
24
  6
CONTINOUS
100
AcDbCircle
 10
60.0
 20
-160.0
 30
0.0
 40
7.0
210
0.0
220
0.0
230
-1.0
  0
LINE
  5
74C7
330
1E
100
AcDbEntity
  8
10
  6
CONTINOUS
100
AcDbLine
 10
-74.00000000000004
 20
-174.5
 30
0.0
 11
-74.00000000000004
 21
-150.0000000000003
 31
0.0
  0
LINE
  5
74C8
330
1E
100
AcDbEntity
  8
10
  6
CONTINOUS
100
AcDbLine
 10
14.0
 20
-174.5
 30
0.0
 11
14.0
 21
-130.0
 31
0.0
  0
LINE
  5
74C9
330
1E
100
AcDbEntity
  8
10
  6
CONTINOUS
100
AcDbLine
 10
31.0
 20
-130.0000000000003
 30
0.0
 11
46.0
 21
-150.0000000000003
 31
0.0
  0
LINE
  5
74CA
330
1E
100
AcDbEntity
  8
10
  6
CONTINOUS
100
AcDbLine
 10
-46.0
 20
-150.0000000000003
 30
0.0
 11
-31.0
 21
-130.0000000000003
 31
0.0
  0
LINE
  5
74CB
330
1E
100
AcDbEntity
  8
10
  6
CONTINOUS
100
AcDbLine
 10
-14.0
 20
-174.5
 30
0.0
 11
-14.0
 21
-130.0
 31
0.0
  0
LINE
  5
74CC
330
1E
100
AcDbEntity
  8
24
  6
CONTINOUS
100
AcDbLine
 10
-11.0
 20
-160.0
 30
0.0
 11
11.0
 21
-160.0
 31
0.0
  0
LINE
  5
74CD
330
1E
100
AcDbEntity
  8
10
  6
CONTINOUS
100
AcDbLine
 10
-14.0
 20
-174.5
 30
0.0
 11
14.0
 21
-174.5
 31
0.0
  0
CIRCLE
  5
74CE
330
1E
100
AcDbEntity
  8
24
  6
CONTINOUS
100
AcDbCircle
 10
0.0
 20
-160.0
 30
0.0
 40
7.0
210
0.0
220
0.0
230
-1.0
  0
LINE
  5
74CF
330
1E
100
AcDbEntity
  8
24
  6
CONTINOUS
100
AcDbLine
 10
-60.0
 20
-149.0
 30
0.0
 11
-60.0
 21
-171.0
 31
0.0
  0
LINE
  5
74D0
330
1E
100
AcDbEntity
  8
10
  6
CONTINOUS
100
AcDbLine
 10
-46.0
 20
-174.5
 30
0.0
 11
-46.0
 21
-150.0000000000003
 31
0.0
  0
LINE
  5
74D1
330
1E
100
AcDbEntity
  8
10
  6
CONTINOUS
100
AcDbLine
 10
46.0
 20
-174.5
 30
0.0
 11
46.0
 21
-150.0000000000003
 31
0.0
  0
LINE
  5
74D2
330
1E
100
AcDbEntity
  8
10
  6
CONTINOUS
100
AcDbLine
 10
-9.0
 20
-114.0
 30
0.0
 11
9.0
 21
-114.0
 31
0.0
  0
LINE
  5
74D3
330
1E
100
AcDbEntity
  8
10
  6
CONTINOUS
100
AcDbLine
 10
-45.0000000000001
 20
-109.3811978464831
 30
0.0
 11
-41.0
 21
-111.6905989232416
 31
0.0
  0
LINE
  5
74D4
330
1E
100
AcDbEntity
  8
10
  6
CONTINOUS
100
AcDbLine
 10
-49.0
 20
-111.6905989232416
 30
0.0
 11
-45.0000000000001
 21
-109.3811978464831
 31
0.0
  0
LINE
  5
74D5
330
1E
100
AcDbEntity
  8
10
  6
CONTINOUS
100
AcDbLine
 10
-45.0
 20
-123.0
 30
0.0
 11
-45.0
 21
-105.0
 31
0.0
  0
ARC
  5
74D6
330
1E
100
AcDbEntity
  8
10
  6
CONTINOUS
100
AcDbCircle
 10
45.0
 20
-114.0
 30
0.0
 40
5.5
210
0.0
220
0.0
230
-1.0
100
AcDbArc
 50
0.0
 51
180.0
  0
LINE
  5
74D7
330
1E
100
AcDbEntity
  8
10
  6
CONTINOUS
100
AcDbLine
 10
-54.0
 20
-114.0
 30
0.0
 11
-36.0
 21
-114.0
 31
0.0
  0
LINE
  5
74D8
330
1E
100
AcDbEntity
  8
10
  6
CONTINOUS
100
AcDbLine
 10
-41.0
 20
-111.6905989232416
 30
0.0
 11
-41.0
 21
-116.3094010767586
 31
0.0
  0
LINE
  5
74D9
330
1E
100
AcDbEntity
  8
10
  6
CONTINOUS
100
AcDbLine
 10
-49.0
 20
-116.3094010767586
 30
0.0
 11
-49.0
 21
-111.6905989232416
 31
0.0
  0
LINE
  5
74DA
330
1E
100
AcDbEntity
  8
10
  6
CONTINOUS
100
AcDbLine
 10
-45.0
 20
-118.6188021535169
 30
0.0
 11
-49.0
 21
-116.3094010767586
 31
0.0
  0
LINE
  5
74DB
330
1E
100
AcDbEntity
  8
10
  6
CONTINOUS
100
AcDbLine
 10
-41.0
 20
-116.3094010767586
 30
0.0
 11
-45.0
 21
-118.6188021535169
 31
0.0
  0
LINE
  5
74DC
330
1E
100
AcDbEntity
  8
10
  6
CONTINOUS
100
AcDbLine
 10
-50.5
 20
-114.0
 30
0.0
 11
-50.5
 21
-130.0
 31
0.0
  0
LINE
  5
74DD
330
1E
100
AcDbEntity
  8
10
  6
CONTINOUS
100
AcDbLine
 10
-39.5
 20
-114.0
 30
0.0
 11
-39.5
 21
-130.0
 31
0.0
  0
ARC
  5
74DE
330
1E
100
AcDbEntity
  8
10
  6
CONTINOUS
100
AcDbCircle
 10
45.0
 20
-114.0
 30
0.0
 40
8.0
210
0.0
220
0.0
230
-1.0
100
AcDbArc
 50
226.5674634422111
 51
313.4325365577887
  0
LINE
  5
74DF
330
1E
100
AcDbEntity
  8
12
  6
DASHED
100
AcDbLine
 10
-22.5
 20
-99.0
 30
0.0
 11
-22.5
 21
-115.0
 31
0.0
  0
CIRCLE
  5
74E0
330
1E
100
AcDbEntity
  8
12
  6
DASHED
100
AcDbCircle
 10
-22.5
 20
-107.0
 30
0.0
 40
4.0
  0
LINE
  5
74E1
330
1E
100
AcDbEntity
  8
12
  6
DASHED
100
AcDbLine
 10
-14.5
 20
-107.0
 30
0.0
 11
-30.5
 21
-107.0
 31
0.0
  0
LINE
  5
74E2
330
1E
100
AcDbEntity
  8
12
  6
DASHED
100
AcDbLine
 10
30.5
 20
-107.0
 30
0.0
 11
14.5
 21
-107.0
 31
0.0
  0
CIRCLE
  5
74E3
330
1E
100
AcDbEntity
  8
12
  6
DASHED
100
AcDbCircle
 10
22.5
 20
-107.0
 30
0.0
 40
4.0
  0
LINE
  5
74E4
330
1E
100
AcDbEntity
  8
10
  6
CONTINOUS
100
AcDbLine
 10
-0.0000000000001137
 20
-109.3811978464831
 30
0.0
 11
4.0
 21
-111.6905989232416
 31
0.0
  0
LINE
  5
74E5
330
1E
100
AcDbEntity
  8
10
  6
CONTINOUS
100
AcDbLine
 10
-4.0
 20
-111.6905989232416
 30
0.0
 11
-0.0000000000001137
 21
-109.3811978464831
 31
0.0
  0
LINE
  5
74E6
330
1E
100
AcDbEntity
  8
12
  6
DASHED
100
AcDbLine
 10
22.5
 20
-99.0
 30
0.0
 11
22.5
 21
-115.0
 31
0.0
  0
LINE
  5
74E7
330
1E
100
AcDbEntity
  8
10
  6
CONTINOUS
100
AcDbLine
 10
0.0
 20
-123.0
 30
0.0
 11
0.0
 21
-105.0
 31
0.0
  0
ARC
  5
74E8
330
1E
100
AcDbEntity
  8
10
  6
CONTINOUS
100
AcDbCircle
 10
0.0
 20
-114.0
 30
0.0
 40
5.5
210
0.0
220
0.0
230
-1.0
100
AcDbArc
 50
0.0
 51
180.0
  0
LINE
  5
74E9
330
1E
100
AcDbEntity
  8
10
  6
CONTINOUS
100
AcDbLine
 10
4.0
 20
-111.6905989232416
 30
0.0
 11
4.0
 21
-116.3094010767586
 31
0.0
  0
LINE
  5
74EA
330
1E
100
AcDbEntity
  8
10
  6
CONTINOUS
100
AcDbLine
 10
-4.0
 20
-116.3094010767586
 30
0.0
 11
-4.0
 21
-111.6905989232416
 31
0.0
  0
LINE
  5
74EB
330
1E
100
AcDbEntity
  8
10
  6
CONTINOUS
100
AcDbLine
 10
0.0
 20
-118.6188021535169
 30
0.0
 11
-4.0
 21
-116.3094010767586
 31
0.0
  0
LINE
  5
74EC
330
1E
100
AcDbEntity
  8
10
  6
CONTINOUS
100
AcDbLine
 10
4.0
 20
-116.3094010767586
 30
0.0
 11
0.0
 21
-118.6188021535169
 31
0.0
  0
LINE
  5
74ED
330
1E
100
AcDbEntity
  8
10
  6
CONTINOUS
100
AcDbLine
 10
-5.5
 20
-114.0
 30
0.0
 11
-5.5
 21
-130.0
 31
0.0
  0
LINE
  5
74EE
330
1E
100
AcDbEntity
  8
10
  6
CONTINOUS
100
AcDbLine
 10
5.5
 20
-114.0
 30
0.0
 11
5.5
 21
-130.0
 31
0.0
  0
ARC
  5
74EF
330
1E
100
AcDbEntity
  8
10
  6
CONTINOUS
100
AcDbCircle
 10
0.0
 20
-114.0
 30
0.0
 40
8.0
210
0.0
220
0.0
230
-1.0
100
AcDbArc
 50
226.5674634422111
 51
313.4325365577887
  0
LINE
  5
74F0
330
1E
100
AcDbEntity
  8
10
  6
CONTINOUS
100
AcDbLine
 10
44.99999999999988
 20
-109.3811978464831
 30
0.0
 11
49.0
 21
-111.6905989232416
 31
0.0
  0
LINE
  5
74F1
330
1E
100
AcDbEntity
  8
10
  6
CONTINOUS
100
AcDbLine
 10
41.0
 20
-111.6905989232416
 30
0.0
 11
44.99999999999988
 21
-109.3811978464831
 31
0.0
  0
LINE
  5
74F2
330
1E
100
AcDbEntity
  8
10
  6
CONTINOUS
100
AcDbLine
 10
45.0
 20
-123.0
 30
0.0
 11
45.0
 21
-105.0
 31
0.0
  0
ARC
  5
74F3
330
1E
100
AcDbEntity
  8
10
  6
CONTINOUS
100
AcDbCircle
 10
-45.0
 20
-114.0
 30
0.0
 40
5.5
210
0.0
220
0.0
230
-1.0
100
AcDbArc
 50
0.0
 51
180.0
  0
LINE
  5
74F4
330
1E
100
AcDbEntity
  8
10
  6
CONTINOUS
100
AcDbLine
 10
49.0
 20
-111.6905989232416
 30
0.0
 11
49.0
 21
-116.3094010767586
 31
0.0
  0
LINE
  5
74F5
330
1E
100
AcDbEntity
  8
10
  6
CONTINOUS
100
AcDbLine
 10
41.0
 20
-116.3094010767586
 30
0.0
 11
41.0
 21
-111.6905989232416
 31
0.0
  0
LINE
  5
74F6
330
1E
100
AcDbEntity
  8
10
  6
CONTINOUS
100
AcDbLine
 10
45.0
 20
-118.6188021535169
 30
0.0
 11
41.0
 21
-116.3094010767586
 31
0.0
  0
LINE
  5
74F7
330
1E
100
AcDbEntity
  8
10
  6
CONTINOUS
100
AcDbLine
 10
49.0
 20
-116.3094010767586
 30
0.0
 11
45.0
 21
-118.6188021535169
 31
0.0
  0
LINE
  5
74F8
330
1E
100
AcDbEntity
  8
10
  6
CONTINOUS
100
AcDbLine
 10
39.5
 20
-114.0
 30
0.0
 11
39.5
 21
-130.0
 31
0.0
  0
LINE
  5
74F9
330
1E
100
AcDbEntity
  8
10
  6
CONTINOUS
100
AcDbLine
 10
50.5
 20
-114.0
 30
0.0
 11
50.5
 21
-130.0
 31
0.0
  0
ARC
  5
74FA
330
1E
100
AcDbEntity
  8
10
  6
CONTINOUS
100
AcDbCircle
 10
-45.0
 20
-114.0
 30
0.0
 40
8.0
210
0.0
220
0.0
230
-1.0
100
AcDbArc
 50
226.5674634422111
 51
313.4325365577887
  0
LINE
  5
7500
330
1E
100
AcDbEntity
  8
10
  6
CONTINOUS
100
AcDbLine
 10
17.99999999999988
 20
-31.0
 30
0.0
 11
-18.0
 21
-31.0
 31
0.0
  0
LINE
  5
7501
330
1E
100
AcDbEntity
  8
10
  6
CONTINOUS
100
AcDbLine
 10
17.0
 20
17.0337027253521
 30
0.0
 11
-17.0
 21
17.0337027253521
 31
0.0
  0
LINE
  5
7502
330
1E
100
AcDbEntity
  8
10
  6
CONTINOUS
100
AcDbLine
 10
17.0
 20
28.03853193396571
 30
0.0
 11
-17.00000000000011
 21
28.03853193396571
 31
0.0
  0
LINE
  5
7503
330
1E
100
AcDbEntity
  8
10
  6
CONTINOUS
100
AcDbLine
 10
17.0
 20
39.33264411704204
 30
0.0
 11
-17.00000000000011
 21
39.33264411704204
 31
0.0
  0
LINE
  5
7504
330
1E
100
AcDbEntity
  8
10
  6
CONTINOUS
100
AcDbLine
 10
-18.0
 20
-31.0
 30
0.0
 11
-18.00000000000011
 21
31.00000000000011
 31
0.0
  0
LINE
  5
7505
330
1E
100
AcDbEntity
  8
10
  6
CONTINOUS
100
AcDbLine
 10
-58.0
 20
40.0000000000001
 30
0.0
 11
-58.0
 21
-40.0
 31
0.0
  0
ARC
  5
7506
330
1E
100
AcDbEntity
  8
10
  6
CONTINOUS
100
AcDbCircle
 10
-53.0
 20
40.0000000000001
 30
0.0
 40
5.0
100
AcDbArc
 50
90.0
 51
180.0
  0
LINE
  5
7507
330
1E
100
AcDbEntity
  8
10
  6
CONTINOUS
100
AcDbLine
 10
-17.00000000000011
 20
17.0337027253521
 30
0.0
 11
-17.00000000000011
 21
39.33264411704204
 31
0.0
  0
LINE
  5
7508
330
1E
100
AcDbEntity
  8
10
  6
CONTINOUS
100
AcDbLine
 10
-17.00000000000011
 20
31.00000000000011
 30
0.0
 11
-18.00000000000011
 21
31.00000000000011
 31
0.0
  0
LINE
  5
7509
330
1E
100
AcDbEntity
  8
10
  6
CONTINOUS
100
AcDbLine
 10
17.99999999999988
 20
-31.0
 30
0.0
 11
18.0
 21
31.00000000000011
 31
0.0
  0
CIRCLE
  5
750A
330
1E
100
AcDbEntity
  8
10
  6
CONTINOUS
100
AcDbCircle
 10
40.94999999999993
 20
5.0
 30
0.0
 40
5.5
  0
CIRCLE
  5
750B
330
1E
100
AcDbEntity
  8
10
  6
CONTINOUS
100
AcDbCircle
 10
40.94999999999993
 20
5.0
 30
0.0
 40
3.5
  0
LINE
  5
750C
330
1E
100
AcDbEntity
  8
10
  6
CONTINOUS
100
AcDbLine
 10
19.0
 20
-40.45000000000015
 30
0.0
 11
24.29999999999994
 21
-40.45000000000015
 31
0.0
  0
LINE
  5
750D
330
1E
100
AcDbEntity
  8
10
  6
CONTINOUS
100
AcDbLine
 10
19.0
 20
-33.85000000000013
 30
0.0
 11
24.29999999999994
 21
-33.85000000000013
 31
0.0
  0
LINE
  5
750E
330
1E
100
AcDbEntity
  8
10
  6
CONTINOUS
100
AcDbLine
 10
19.0
 20
-33.85000000000013
 30
0.0
 11
19.0
 21
-40.45000000000015
 31
0.0
  0
LINE
  5
7515
330
1E
100
AcDbEntity
  8
10
  6
CONTINOUS
100
AcDbLine
 10
24.29999999999994
 20
-33.85000000000013
 30
0.0
 11
24.29999999999994
 21
-40.45000000000015
 31
0.0
  0
CIRCLE
  5
7518
330
1E
100
AcDbEntity
  8
10
  6
CONTINOUS
100
AcDbCircle
 10
40.94999999999993
 20
-10.0
 30
0.0
 40
3.5
  0
LINE
  5
7519
330
1E
100
AcDbEntity
  8
10
  6
CONTINOUS
100
AcDbLine
 10
17.0
 20
17.0337027253521
 30
0.0
 11
17.0
 21
39.33264411704204
 31
0.0
  0
LINE
  5
751A
330
1E
100
AcDbEntity
  8
10
  6
CONTINOUS
100
AcDbLine
 10
18.0
 20
31.00000000000011
 30
0.0
 11
17.0
 21
31.00000000000011
 31
0.0
  0
LINE
  5
751B
330
1E
100
AcDbEntity
  8
10
  6
CONTINOUS
100
AcDbLine
 10
-9.0
 20
114.0000000000001
 30
0.0
 11
9.0
 21
114.0000000000001
 31
0.0
  0
LINE
  5
751C
330
1E
100
AcDbEntity
  8
10
  6
CONTINOUS
100
AcDbLine
 10
-50.5
 20
114.0000000000001
 30
0.0
 11
-50.5
 21
130.0
 31
0.0
  0
LINE
  5
751D
330
1E
100
AcDbEntity
  8
10
  6
CONTINOUS
100
AcDbLine
 10
-39.5
 20
114.0000000000001
 30
0.0
 11
-39.5
 21
130.0
 31
0.0
  0
LINE
  5
751E
330
1E
100
AcDbEntity
  8
10
  6
CONTINOUS
100
AcDbLine
 10
-45.0
 20
105.0
 30
0.0
 11
-45.0
 21
123.0000000000001
 31
0.0
  0
ARC
  5
751F
330
1E
100
AcDbEntity
  8
10
  6
CONTINOUS
100
AcDbCircle
 10
-45.0
 20
114.0000000000001
 30
0.0
 40
5.5
100
AcDbArc
 50
180.0
 51
0.0
  0
LINE
  5
7520
330
1E
100
AcDbEntity
  8
10
  6
CONTINOUS
100
AcDbLine
 10
-54.0
 20
114.0000000000001
 30
0.0
 11
-36.0
 21
114.0000000000001
 31
0.0
  0
LINE
  5
7521
330
1E
100
AcDbEntity
  8
10
  6
CONTINOUS
100
AcDbLine
 10
-41.0
 20
111.6905989232412
 30
0.0
 11
-41.0
 21
116.3094010767582
 31
0.0
  0
LINE
  5
7522
330
1E
100
AcDbEntity
  8
10
  6
CONTINOUS
100
AcDbLine
 10
-45.0000000000001
 20
109.3811978464827
 30
0.0
 11
-41.0
 21
111.6905989232412
 31
0.0
  0
LINE
  5
7523
330
1E
100
AcDbEntity
  8
10
  6
CONTINOUS
100
AcDbLine
 10
-49.0
 20
111.6905989232412
 30
0.0
 11
-45.0000000000001
 21
109.3811978464827
 31
0.0
  0
LINE
  5
7524
330
1E
100
AcDbEntity
  8
10
  6
CONTINOUS
100
AcDbLine
 10
-49.0
 20
116.3094010767582
 30
0.0
 11
-49.0
 21
111.6905989232412
 31
0.0
  0
LINE
  5
7525
330
1E
100
AcDbEntity
  8
10
  6
CONTINOUS
100
AcDbLine
 10
-45.0
 20
118.6188021535167
 30
0.0
 11
-49.0
 21
116.3094010767582
 31
0.0
  0
LINE
  5
7526
330
1E
100
AcDbEntity
  8
10
  6
CONTINOUS
100
AcDbLine
 10
-41.0
 20
116.3094010767582
 30
0.0
 11
-45.0
 21
118.6188021535167
 31
0.0
  0
ARC
  5
7527
330
1E
100
AcDbEntity
  8
10
  6
CONTINOUS
100
AcDbCircle
 10
-45.0
 20
114.0000000000001
 30
0.0
 40
8.0
100
AcDbArc
 50
46.5674634422112
 51
133.4325365577887
  0
CIRCLE
  5
7528
330
1E
100
AcDbEntity
  8
12
  6
DASHED
100
AcDbCircle
 10
22.50000000000011
 20
107.0
 30
0.0
 40
4.0
210
0.0
220
0.0
230
-1.0
  0
LINE
  5
7529
330
1E
100
AcDbEntity
  8
12
  6
DASHED
100
AcDbLine
 10
-14.5
 20
107.0
 30
0.0
 11
-30.5
 21
107.0
 31
0.0
  0
LINE
  5
752A
330
1E
100
AcDbEntity
  8
12
  6
DASHED
100
AcDbLine
 10
-22.5
 20
115.0000000000001
 30
0.0
 11
-22.5
 21
99.00000000000012
 31
0.0
  0
LINE
  5
752B
330
1E
100
AcDbEntity
  8
12
  6
DASHED
100
AcDbLine
 10
30.5
 20
107.0
 30
0.0
 11
14.5
 21
107.0
 31
0.0
  0
CIRCLE
  5
752C
330
1E
100
AcDbEntity
  8
12
  6
DASHED
100
AcDbCircle
 10
-22.49999999999988
 20
107.0
 30
0.0
 40
4.0
210
0.0
220
0.0
230
-1.0
  0
LINE
  5
752D
330
1E
100
AcDbEntity
  8
10
  6
CONTINOUS
100
AcDbLine
 10
-5.5
 20
114.0000000000001
 30
0.0
 11
-5.5
 21
130.0
 31
0.0
  0
LINE
  5
752E
330
1E
100
AcDbEntity
  8
10
  6
CONTINOUS
100
AcDbLine
 10
5.5
 20
114.0000000000001
 30
0.0
 11
5.5
 21
130.0
 31
0.0
  0
LINE
  5
752F
330
1E
100
AcDbEntity
  8
10
  6
CONTINOUS
100
AcDbLine
 10
0.0
 20
105.0
 30
0.0
 11
0.0
 21
123.0000000000001
 31
0.0
  0
ARC
  5
7530
330
1E
100
AcDbEntity
  8
10
  6
CONTINOUS
100
AcDbCircle
 10
0.0
 20
114.0000000000001
 30
0.0
 40
5.5
100
AcDbArc
 50
180.0
 51
0.0
  0
LINE
  5
7531
330
1E
100
AcDbEntity
  8
10
  6
CONTINOUS
100
AcDbLine
 10
4.0
 20
111.6905989232412
 30
0.0
 11
4.0
 21
116.3094010767582
 31
0.0
  0
LINE
  5
7532
330
1E
100
AcDbEntity
  8
10
  6
CONTINOUS
100
AcDbLine
 10
-0.0000000000001137
 20
109.3811978464827
 30
0.0
 11
4.0
 21
111.6905989232412
 31
0.0
  0
LINE
  5
7533
330
1E
100
AcDbEntity
  8
10
  6
CONTINOUS
100
AcDbLine
 10
-4.0
 20
111.6905989232412
 30
0.0
 11
-0.0000000000001137
 21
109.3811978464827
 31
0.0
  0
LINE
  5
7534
330
1E
100
AcDbEntity
  8
10
  6
CONTINOUS
100
AcDbLine
 10
-4.0
 20
116.3094010767582
 30
0.0
 11
-4.0
 21
111.6905989232412
 31
0.0
  0
LINE
  5
7535
330
1E
100
AcDbEntity
  8
10
  6
CONTINOUS
100
AcDbLine
 10
0.0
 20
118.6188021535167
 30
0.0
 11
-4.0
 21
116.3094010767582
 31
0.0
  0
LINE
  5
7536
330
1E
100
AcDbEntity
  8
10
  6
CONTINOUS
100
AcDbLine
 10
4.0
 20
116.3094010767582
 30
0.0
 11
0.0
 21
118.6188021535167
 31
0.0
  0
LINE
  5
7537
330
1E
100
AcDbEntity
  8
12
  6
DASHED
100
AcDbLine
 10
22.5
 20
115.0000000000001
 30
0.0
 11
22.5
 21
99.00000000000012
 31
0.0
  0
ARC
  5
7538
330
1E
100
AcDbEntity
  8
10
  6
CONTINOUS
100
AcDbCircle
 10
0.0
 20
114.0000000000001
 30
0.0
 40
8.0
100
AcDbArc
 50
46.5674634422112
 51
133.4325365577887
  0
LINE
  5
7539
330
1E
100
AcDbEntity
  8
10
  6
CONTINOUS
100
AcDbLine
 10
39.5
 20
114.0000000000001
 30
0.0
 11
39.5
 21
130.0
 31
0.0
  0
LINE
  5
753A
330
1E
100
AcDbEntity
  8
10
  6
CONTINOUS
100
AcDbLine
 10
50.5
 20
114.0000000000001
 30
0.0
 11
50.5
 21
130.0
 31
0.0
  0
LINE
  5
753B
330
1E
100
AcDbEntity
  8
10
  6
CONTINOUS
100
AcDbLine
 10
45.0
 20
105.0
 30
0.0
 11
45.0
 21
123.0000000000001
 31
0.0
  0
ARC
  5
753C
330
1E
100
AcDbEntity
  8
10
  6
CONTINOUS
100
AcDbCircle
 10
45.0
 20
114.0000000000001
 30
0.0
 40
5.5
100
AcDbArc
 50
180.0
 51
0.0
  0
LINE
  5
753D
330
1E
100
AcDbEntity
  8
10
  6
CONTINOUS
100
AcDbLine
 10
49.0
 20
111.6905989232412
 30
0.0
 11
49.0
 21
116.3094010767582
 31
0.0
  0
LINE
  5
753E
330
1E
100
AcDbEntity
  8
10
  6
CONTINOUS
100
AcDbLine
 10
44.99999999999988
 20
109.3811978464827
 30
0.0
 11
49.0
 21
111.6905989232412
 31
0.0
  0
LINE
  5
753F
330
1E
100
AcDbEntity
  8
10
  6
CONTINOUS
100
AcDbLine
 10
41.0
 20
111.6905989232412
 30
0.0
 11
44.99999999999988
 21
109.3811978464827
 31
0.0
  0
LINE
  5
7540
330
1E
100
AcDbEntity
  8
10
  6
CONTINOUS
100
AcDbLine
 10
41.0
 20
116.3094010767582
 30
0.0
 11
41.0
 21
111.6905989232412
 31
0.0
  0
LINE
  5
7541
330
1E
100
AcDbEntity
  8
10
  6
CONTINOUS
100
AcDbLine
 10
45.0
 20
118.6188021535167
 30
0.0
 11
41.0
 21
116.3094010767582
 31
0.0
  0
LINE
  5
7542
330
1E
100
AcDbEntity
  8
10
  6
CONTINOUS
100
AcDbLine
 10
49.0
 20
116.3094010767582
 30
0.0
 11
45.0
 21
118.6188021535167
 31
0.0
  0
ARC
  5
7543
330
1E
100
AcDbEntity
  8
10
  6
CONTINOUS
100
AcDbCircle
 10
45.0
 20
114.0000000000001
 30
0.0
 40
8.0
100
AcDbArc
 50
46.5674634422112
 51
133.4325365577887
  0
ARC
  5
754E
330
1E
100
AcDbEntity
  8
10
  6
CONTINOUS
100
AcDbCircle
 10
53.0
 20
-40.0
 30
0.0
 40
5.0
100
AcDbArc
 50
270.0
 51
0.0
  0
LINE
  5
754F
330
1E
100
AcDbEntity
  8
10
  6
CONTINOUS
100
AcDbLine
 10
70.0
 20
130.0
 30
0.0
 11
70.0
 21
-130.0
 31
0.0
  0
LINE
  5
7550
330
1E
100
AcDbEntity
  8
18
100
AcDbLine
 10
101.2499999999999
 20
-220.0727983283795
 30
0.0
 11
101.2499999999999
 21
-245.0
 31
0.0
  0
LINE
  5
7551
330
1E
100
AcDbEntity
  8
18
100
AcDbLine
 10
99.25
 20
-218.6397501985154
 30
0.0
 11
99.25
 21
-245.0
 31
0.0
  0
LINE
  5
7552
330
1E
100
AcDbEntity
  8
18
100
AcDbLine
 10
98.54999999999996
 20
-245.0
 30
0.0
 11
98.54999999999996
 21
-249.946911919693
 31
0.0
  0
LINE
  5
7553
330
1E
100
AcDbEntity
  8
18
100
AcDbLine
 10
101.9499999999998
 20
-245.0
 30
0.0
 11
101.9499999999998
 21
-249.946911919693
 31
0.0
  0
LINE
  5
7554
330
1E
100
AcDbEntity
  8
18
100
AcDbLine
 10
98.20195134105155
 20
-251.5788590397281
 30
0.0
 11
96.59804865894841
 21
-255.1680528799646
 31
0.0
  0
ARC
  5
7555
330
1E
100
AcDbEntity
  8
18
100
AcDbCircle
 10
100.2499999999999
 20
-256.8
 30
0.0
 40
4.0
100
AcDbArc
 50
155.9215699388889
 51
24.07843006111111
  0
LINE
  5
7556
330
1E
100
AcDbEntity
  8
18
100
AcDbLine
 10
98.54999999999996
 20
-249.8
 30
0.0
 11
101.9499999999998
 21
-249.8
 31
0.0
  0
LINE
  5
7557
330
1E
100
AcDbEntity
  8
18
100
AcDbLine
 10
102.2980486589484
 20
-251.5788590397281
 30
0.0
 11
103.9019513410514
 21
-255.1680528799646
 31
0.0
  0
ARC
  5
7558
330
1E
100
AcDbEntity
  8
18
100
AcDbCircle
 10
94.54999999999996
 20
-249.946911919693
 30
0.0
 40
4.0
100
AcDbArc
 50
335.9215699388887
 51
0.0
  0
CIRCLE
  5
7559
330
1E
100
AcDbEntity
  8
18
100
AcDbCircle
 10
100.2499999999999
 20
-256.8
 30
0.0
 40
2.149999999999999
  0
ARC
  5
755A
330
1E
100
AcDbEntity
  8
18
100
AcDbCircle
 10
105.9499999999998
 20
-249.946911919693
 30
0.0
 40
4.0
100
AcDbArc
 50
180.0
 51
204.0784300611111
  0
LINE
  5
755B
330
1E
100
AcDbEntity
  8
18
100
AcDbLine
 10
98.54999999999996
 20
-245.0
 30
0.0
 11
101.9499999999998
 21
-245.0
 31
0.0
  0
LINE
  5
755C
330
1E
100
AcDbEntity
  8
18
100
AcDbLine
 10
59.25
 20
-130.0
 30
0.0
 11
59.25
 21
-175.0
 31
0.0
  0
LINE
  5
755D
330
1E
100
AcDbEntity
  8
18
100
AcDbLine
 10
61.25
 20
-130.0
 30
0.0
 11
61.25
 21
-175.0
 31
0.0
  0
LINE
  5
755E
330
1E
100
AcDbEntity
  8
10
  6
CONTINOUS
100
AcDbLine
 10
74.0
 20
-150.0000000000003
 30
0.0
 11
59.0
 21
-130.0000000000003
 31
0.0
  0
ARC
  5
755F
330
1E
100
AcDbEntity
  8
18
100
AcDbCircle
 10
71.25
 20
-175.0
 30
0.0
 40
10.0
100
AcDbArc
 50
180.0
 51
270.0
  0
ARC
  5
7560
330
1E
100
AcDbEntity
  8
18
100
AcDbCircle
 10
71.25
 20
-175.0
 30
0.0
 40
12.0
100
AcDbArc
 50
180.0
 51
270.0
  0
LINE
  5
7561
330
1E
100
AcDbEntity
  8
18
100
AcDbLine
 10
71.25
 20
-185.0
 30
0.0
 11
89.25
 21
-185.0
 31
0.0
  0
LINE
  5
7562
330
1E
100
AcDbEntity
  8
18
100
AcDbLine
 10
71.25
 20
-187.0
 30
0.0
 11
89.25
 21
-187.0
 31
0.0
  0
LINE
  5
7563
330
1E
100
AcDbEntity
  8
18
100
AcDbLine
 10
101.2499999999999
 20
-197.0
 30
0.0
 11
101.2499999999999
 21
-218.0727983283795
 31
0.0
  0
LINE
  5
7564
330
1E
100
AcDbEntity
  8
18
100
AcDbLine
 10
99.25
 20
-197.0
 30
0.0
 11
99.25
 21
-216.6397501985156
 31
0.0
  0
SPLINE
  5
7565
330
1E
100
AcDbEntity
  8
18
100
AcDbSpline
210
0.0
220
0.0
230
1.0
 70
     8
 71
     3
 72
     8
 73
     4
 74
     0
 42
0.0000000001
 43
0.0000000001
 40
0.0
 40
0.0
 40
0.0
 40
0.0
 40
1.0
 40
1.0
 40
1.0
 40
1.0
 10
96.25
 20
-219.0
 30
0.0
 10
98.25000000000001
 20
-215.0
 30
0.0
 10
102.2499999999999
 20
-224.0
 30
0.0
 10
104.2499999999999
 20
-219.0
 30
0.0
  0
SPLINE
  5
7566
330
1E
100
AcDbEntity
  8
18
100
AcDbSpline
210
0.0
220
0.0
230
1.0
 70
     8
 71
     3
 72
     8
 73
     4
 74
     0
 42
0.0000000001
 43
0.0000000001
 40
0.0
 40
0.0
 40
0.0
 40
0.0
 40
1.0
 40
1.0
 40
1.0
 40
1.0
 10
96.25
 20
-217.0
 30
0.0
 10
98.25000000000001
 20
-213.0
 30
0.0
 10
102.2499999999999
 20
-222.0
 30
0.0
 10
104.2499999999999
 20
-217.0
 30
0.0
  0
ARC
  5
7567
330
1E
100
AcDbEntity
  8
18
100
AcDbCircle
 10
89.25
 20
-197.0
 30
0.0
 40
12.0
100
AcDbArc
 50
0.0
 51
90.0
  0
ARC
  5
7568
330
1E
100
AcDbEntity
  8
18
100
AcDbCircle
 10
89.25
 20
-197.0
 30
0.0
 40
10.0
100
AcDbArc
 50
0.0
 51
90.0
  0
LINE
  5
7569
330
1E
100
AcDbEntity
  8
24
  6
CONTINOUS
100
AcDbLine
 10
60.0
 20
-149.0
 30
0.0
 11
60.0
 21
-171.0
 31
0.0
  0
LINE
  5
756A
330
1E
100
AcDbEntity
  8
10
  6
CONTINOUS
100
AcDbLine
 10
74.0
 20
-174.5
 30
0.0
 11
74.0
 21
-150.0000000000003
 31
0.0
  0
CIRCLE
  5
756B
330
1E
100
AcDbEntity
  8
24
  6
CONTINOUS
100
AcDbCircle
 10
-60.0
 20
-160.0
 30
0.0
 40
7.0
210
0.0
220
0.0
230
-1.0
  0
LINE
  5
756D
330
1E
100
AcDbEntity
  8
10
  6
CONTINOUS
100
AcDbLine
 10
58.0
 20
40.0000000000001
 30
0.0
 11
58.0
 21
-40.0
 31
0.0
  0
ARC
  5
756E
330
1E
100
AcDbEntity
  8
10
  6
CONTINOUS
100
AcDbCircle
 10
53.0
 20
40.0000000000001
 30
0.0
 40
5.0
100
AcDbArc
 50
0.0
 51
90.0
  0
LINE
  5
7598
330
1E
100
AcDbEntity
  8
10
  6
CONTINOUS
100
AcDbLine
 10
163.2585283399446
 20
1.500000000000112
 30
0.0
 11
163.2585283399446
 21
-44.99999999999988
 31
0.0
  0
LINE
  5
7599
330
1E
100
AcDbEntity
  8
10
  6
CONTINOUS
100
AcDbLine
 10
274.2585283399446
 20
130.0000000000002
 30
0.0
 11
274.2585283399446
 21
-129.9999999999998
 31
0.0
  0
LINE
  5
759A
330
1E
100
AcDbEntity
  8
10
  6
CONTINOUS
100
AcDbLine
 10
167.2585283399446
 20
45.00000000000023
 30
0.0
 11
167.2585283399446
 21
-44.99999999999988
 31
0.0
  0
LINE
  5
759B
330
1E
100
AcDbEntity
  8
10
  6
CONTINOUS
100
AcDbLine
 10
171.2585283399446
 20
51.00000000000022
 30
0.0
 11
171.2585283399446
 21
-50.99999999999988
 31
0.0
  0
LINE
  5
759C
330
1E
100
AcDbEntity
  8
24
  6
CONTINOUS
100
AcDbLine
 10
222.2585283399446
 20
-159.9999999999998
 30
0.0
 11
246.2585283399445
 21
-159.9999999999998
 31
0.0
  0
LINE
  5
759D
330
1E
100
AcDbEntity
  8
10
  6
CONTINOUS
100
AcDbLine
 10
231.2585283399446
 20
-174.4999999999999
 30
0.0
 11
239.2585283399446
 21
-174.4999999999999
 31
0.0
  0
LINE
  5
759E
330
1E
100
AcDbEntity
  8
10
  6
CONTINOUS
100
AcDbLine
 10
177.2585283399445
 20
-129.9999999999998
 30
0.0
 11
274.2585283399446
 21
-129.9999999999998
 31
0.0
  0
LINE
  5
759F
330
1E
100
AcDbEntity
  8
10
  6
CONTINOUS
100
AcDbLine
 10
231.2585283399446
 20
-174.4999999999999
 30
0.0
 11
231.2585283399446
 21
-129.9999999999998
 31
0.0
  0
LINE
  5
75A0
330
1E
100
AcDbEntity
  8
10
  6
CONTINOUS
100
AcDbLine
 10
171.2585283399446
 20
-50.99999999999988
 30
0.0
 11
177.2585283399445
 21
-50.99999999999988
 31
0.0
  0
LINE
  5
75A1
330
1E
100
AcDbEntity
  8
10
  6
CONTINOUS
100
AcDbLine
 10
163.2585283399446
 20
-44.99999999999988
 30
0.0
 11
171.2585283399446
 21
-44.99999999999988
 31
0.0
  0
LINE
  5
75A2
330
1E
100
AcDbEntity
  8
10
  6
CONTINOUS
100
AcDbLine
 10
177.2585283399445
 20
-50.99999999999988
 30
0.0
 11
177.2585283399445
 21
-129.9999999999998
 31
0.0
  0
LINE
  5
75A3
330
1E
100
AcDbEntity
  8
10
  6
CONTINOUS
100
AcDbLine
 10
239.2585283399446
 20
-174.4999999999999
 30
0.0
 11
239.2585283399446
 21
-129.9999999999998
 31
0.0
  0
LINE
  5
75A7
330
1E
100
AcDbEntity
  8
10
  6
CONTINOUS
100
AcDbLine
 10
274.2585283399446
 20
130.0000000000002
 30
0.0
 11
177.2585283399445
 21
130.0000000000002
 31
0.0
  0
LINE
  5
75A8
330
1E
100
AcDbEntity
  8
10
  6
CONTINOUS
100
AcDbLine
 10
161.7585283399446
 20
8.500000000000111
 30
0.0
 11
161.7585283399446
 21
1.500000000000112
 31
0.0
  0
LINE
  5
75A9
330
1E
100
AcDbEntity
  8
10
  6
CONTINOUS
100
AcDbLine
 10
163.7585283399445
 20
10.50000000000011
 30
0.0
 11
163.7585283399445
 21
-0.4999999999998864
 31
0.0
  0
LINE
  5
75AA
330
1E
100
AcDbEntity
  8
10
  6
CONTINOUS
100
AcDbLine
 10
161.7585283399446
 20
1.500000000000112
 30
0.0
 11
163.7585283399445
 21
1.500000000000112
 31
0.0
  0
LINE
  5
75AB
330
1E
100
AcDbEntity
  8
10
  6
CONTINOUS
100
AcDbLine
 10
163.7585283399445
 20
-0.4999999999998864
 30
0.0
 11
167.2585283399446
 21
-0.4999999999998864
 31
0.0
  0
LINE
  5
75AC
330
1E
100
AcDbEntity
  8
10
  6
CONTINOUS
100
AcDbLine
 10
163.2585283399446
 20
17.03370272535221
 30
0.0
 11
132.6075402374925
 21
28.03853193396617
 31
0.0
  0
LINE
  5
75AD
330
1E
100
AcDbEntity
  8
10
  6
CONTINOUS
100
AcDbLine
 10
163.2585283399446
 20
29.78370889367932
 30
0.0
 11
136.662540853532
 21
39.33264411704215
 31
0.0
  0
LINE
  5
75AE
330
1E
100
AcDbEntity
  8
10
  6
CONTINOUS
100
AcDbLine
 10
136.662540853532
 20
39.33264411704215
 30
0.0
 11
132.6075402374921
 21
28.03853193396582
 31
0.0
  0
LINE
  5
75AF
330
1E
100
AcDbEntity
  8
10
  6
CONTINOUS
100
AcDbLine
 10
152.457287684512
 20
31.53674952147162
 30
0.0
 11
149.7539539404854
 21
24.0073413994205
 31
0.0
  0
LINE
  5
75B0
330
1E
100
AcDbEntity
  8
10
  6
CONTINOUS
100
AcDbLine
 10
163.2585283399446
 20
45.00000000000023
 30
0.0
 11
163.2585283399446
 21
8.500000000000111
 31
0.0
  0
LINE
  5
75B1
330
1E
100
AcDbEntity
  8
10
  6
CONTINOUS
100
AcDbLine
 10
163.2585283399446
 20
19.15870375340692
 30
0.0
 11
149.7539539404854
 21
24.00734139942028
 31
0.0
  0
LINE
  5
75B2
330
1E
100
AcDbEntity
  8
10
  6
CONTINOUS
100
AcDbLine
 10
161.7585283399446
 20
8.500000000000111
 30
0.0
 11
163.7585283399445
 21
8.500000000000111
 31
0.0
  0
LINE
  5
75B3
330
1E
100
AcDbEntity
  8
10
  6
CONTINOUS
100
AcDbLine
 10
163.7585283399445
 20
10.50000000000011
 30
0.0
 11
167.2585283399446
 21
10.50000000000011
 31
0.0
  0
LINE
  5
75B4
330
1E
100
AcDbEntity
  8
10
  6
CONTINOUS
100
AcDbLine
 10
163.2585283399446
 20
27.65870786562482
 30
0.0
 11
152.457287684512
 21
31.53674952147105
 31
0.0
  0
LINE
  5
75B5
330
1E
100
AcDbEntity
  8
10
  6
CONTINOUS
100
AcDbLine
 10
163.2585283399446
 20
45.00000000000023
 30
0.0
 11
171.2585283399446
 21
45.00000000000023
 31
0.0
  0
LINE
  5
75B6
330
1E
100
AcDbEntity
  8
10
  6
CONTINOUS
100
AcDbLine
 10
171.2585283399446
 20
51.00000000000022
 30
0.0
 11
177.2585283399445
 21
51.00000000000022
 31
0.0
  0
LINE
  5
75B7
330
1E
100
AcDbEntity
  8
10
  6
CONTINOUS
100
AcDbLine
 10
177.2585283399445
 20
130.0000000000002
 30
0.0
 11
177.2585283399445
 21
51.00000000000022
 31
0.0
  0
LINE
  5
75D4
330
1E
100
AcDbEntity
  8
18
100
AcDbLine
 10
24.5
 20
130.0
 30
0.0
 11
24.5
 21
240.0000000000002
 31
0.0
  0
LINE
  5
75D5
330
1E
100
AcDbEntity
  8
18
100
AcDbLine
 10
20.5
 20
130.0
 30
0.0
 11
20.5
 21
240.0000000000002
 31
0.0
  0
LINE
  5
75D6
330
1E
100
AcDbEntity
  8
18
100
AcDbLine
 10
20.5
 20
240.0000000000002
 30
0.0
 11
24.5
 21
240.0000000000002
 31
0.0
  0
LINE
  5
75D7
330
1E
100
AcDbEntity
  8
18
100
AcDbLine
 10
-22.5
 20
130.0
 30
0.0
 11
-22.5
 21
240.0000000000002
 31
0.0
  0
LINE
  5
75D8
330
1E
100
AcDbEntity
  8
18
100
AcDbLine
 10
-26.5
 20
130.0
 30
0.0
 11
-26.5
 21
240.0000000000002
 31
0.0
  0
LINE
  5
75D9
330
1E
100
AcDbEntity
  8
18
100
AcDbLine
 10
-26.5
 20
240.0000000000002
 30
0.0
 11
-22.5
 21
240.0000000000002
 31
0.0
  0
LINE
  5
75EA
330
1E
100
AcDbEntity
  8
12
  6
DASHED
100
AcDbLine
 10
188.9585283399441
 20
-109.2499999999997
 30
0.0
 11
274.2585283399446
 21
-109.2499999999997
 31
0.0
  0
LINE
  5
75EB
330
1E
100
AcDbEntity
  8
12
  6
DASHED
100
AcDbLine
 10
188.9585283399441
 20
-104.7499999999997
 30
0.0
 11
274.2585283399446
 21
-104.7499999999997
 31
0.0
  0
LINE
  5
75EC
330
1E
100
AcDbEntity
  8
12
  6
DASHED
100
AcDbLine
 10
173.2585283399446
 20
-106.9999999999997
 30
0.0
 11
298.2585283399446
 21
-106.9999999999997
 31
0.0
  0
LINE
  5
75ED
330
1E
100
AcDbEntity
  8
12
  6
DASHED
100
AcDbLine
 10
177.2585283399444
 20
-111.2499999999997
 30
0.0
 11
188.9585283399441
 21
-111.2499999999997
 31
0.0
  0
LINE
  5
75EE
330
1E
100
AcDbEntity
  8
12
  6
DASHED
100
AcDbLine
 10
177.2585283399444
 20
-102.7499999999997
 30
0.0
 11
188.9585283399441
 21
-102.7499999999997
 31
0.0
  0
LINE
  5
75EF
330
1E
100
AcDbEntity
  8
12
  6
DASHED
100
AcDbLine
 10
182.9585283399442
 20
-102.7499999999997
 30
0.0
 11
182.9585283399442
 21
-111.2499999999997
 31
0.0
  0
LINE
  5
75F0
330
1E
100
AcDbEntity
  8
12
  6
DASHED
100
AcDbLine
 10
188.9585283399441
 20
-102.7499999999997
 30
0.0
 11
188.9585283399441
 21
-111.2499999999997
 31
0.0
  0
LINE
  5
75F1
330
1E
100
AcDbEntity
  8
12
  6
DASHED
100
AcDbLine
 10
188.9585283399441
 20
-109.2499999999997
 30
0.0
 11
188.9585283399441
 21
-111.2499999999997
 31
0.0
  0
LINE
  5
75F2
330
1E
100
AcDbEntity
  8
12
  6
DASHED
100
AcDbLine
 10
188.9585283399441
 20
-102.7499999999997
 30
0.0
 11
188.9585283399441
 21
-104.7499999999997
 31
0.0
  0
LINE
  5
75F3
330
1E
100
AcDbEntity
  8
12
  6
DASHED
100
AcDbLine
 10
274.2585283399446
 20
-109.2499999999997
 30
0.0
 11
288.9585283399446
 21
-109.2499999999997
 31
0.0
  0
LINE
  5
75F4
330
1E
100
AcDbEntity
  8
12
  6
DASHED
100
AcDbLine
 10
274.2585283399446
 20
-104.7499999999997
 30
0.0
 11
288.9585283399446
 21
-104.7499999999997
 31
0.0
  0
LINE
  5
75F5
330
1E
100
AcDbEntity
  8
12
  6
DASHED
100
AcDbLine
 10
288.9585283399446
 20
-104.7499999999997
 30
0.0
 11
288.9585283399446
 21
-109.2499999999997
 31
0.0
  0
LINE
  5
7604
330
1E
100
AcDbEntity
  8
24
  6
CONTINOUS
100
AcDbLine
 10
320.2699465681196
 20
164.7621828604461
 30
0.0
 11
320.2699465681198
 21
149.7621828604461
 31
0.0
  0
LINE
  5
7605
330
1E
100
AcDbEntity
  8
24
  6
CONTINOUS
100
AcDbLine
 10
332.7699465681198
 20
172.9120863596155
 30
0.0
 11
332.7699465681198
 21
145.2621828604461
 31
0.0
  0
LINE
  5
7606
330
1E
100
AcDbEntity
  8
24
  6
CONTINOUS
100
AcDbLine
 10
307.7699465681198
 20
174.403465051346
 30
0.0
 11
307.7699465681198
 21
145.2621828604461
 31
0.0
  0
LINE
  5
7607
330
1E
100
AcDbEntity
  8
24
  6
CONTINOUS
100
AcDbLine
 10
307.7699465681198
 20
145.2621828604461
 30
0.0
 11
332.7699465681198
 21
145.2621828604461
 31
0.0
  0
LINE
  5
7608
330
1E
100
AcDbEntity
  8
24
  6
CONTINOUS
100
AcDbLine
 10
312.7699465681196
 20
157.2621828604461
 30
0.0
 11
327.7699465681196
 21
157.2621828604461
 31
0.0
  0
CIRCLE
  5
7609
330
1E
100
AcDbEntity
  8
24
  6
CONTINOUS
100
AcDbCircle
 10
320.2699465681196
 20
157.2621828604461
 30
0.0
 40
5.5
  0
ARC
  5
760A
330
1E
100
AcDbEntity
  8
24
  6
CONTINOUS
100
AcDbCircle
 10
325.2575283890661
 20
177.7581008892939
 30
0.0
 40
7.5
100
AcDbArc
 50
251.3586110284597
 51
294.2039969225343
  0
LINE
  5
760B
330
1E
100
AcDbEntity
  8
24
  6
CONTINOUS
100
AcDbLine
 10
311.4520975210171
 20
173.487969964126
 30
0.0
 11
322.8601993707253
 21
170.6515677276307
 31
0.0
  0
ARC
  5
760C
330
1E
100
AcDbEntity
  8
24
  6
CONTINOUS
100
AcDbCircle
 10
308.8949465681197
 20
165.9076679250185
 30
0.0
 40
8.0
100
AcDbArc
 50
71.35861102845979
 51
97.5431319679577
  0
LINE
  5
760D
330
1E
100
AcDbEntity
  8
24
  6
CONTINOUS
100
AcDbLine
 10
328.3324283529356
 20
170.9174145047126
 30
0.0
 11
332.7699465681198
 21
172.9120863596155
 31
0.0
  0
CIRCLE
  5
7624
330
1E
100
AcDbEntity
  8
12
  6
CONTINUOUS
 62
     3
100
AcDbCircle
 10
-22.5
 20
-253.0
 30
0.0
 40
3.0
210
0.0
220
0.0
230
-1.0
  0
CIRCLE
  5
7625
330
1E
100
AcDbEntity
  8
12
  6
CONTINUOUS
 62
     3
100
AcDbCircle
 10
-22.5
 20
-253.0
 30
0.0
 40
3.0
  0
LINE
  5
7627
330
1E
100
AcDbEntity
  8
18
  6
DIVIDE
100
AcDbLine
 10
-70.0
 20
-230.0
 30
0.0
 11
-70.0
 21
-489.9999999999998
 31
0.0
  0
LINE
  5
7628
330
1E
100
AcDbEntity
  8
18
  6
DIVIDE
100
AcDbLine
 10
70.0
 20
-489.9999999999998
 30
0.0
 11
70.0
 21
-230.0
 31
0.0
  0
LINE
  5
7629
330
1E
100
AcDbEntity
  8
12
  6
CONTINUOUS
 62
     3
100
AcDbLine
 10
22.5
 20
-246.0
 30
0.0
 11
22.5
 21
-260.0
 31
0.0
  0
LINE
  5
762A
330
1E
100
AcDbEntity
  8
12
  6
CONTINUOUS
 62
     3
100
AcDbLine
 10
-22.5
 20
-246.0
 30
0.0
 11
-22.5
 21
-260.0
 31
0.0
  0
LINE
  5
762C
330
1E
100
AcDbEntity
  8
18
  6
DIVIDE
100
AcDbLine
 10
-70.0
 20
-489.9999999999998
 30
0.0
 11
70.0
 21
-489.9999999999998
 31
0.0
  0
LINE
  5
762D
330
1E
100
AcDbEntity
  8
12
  6
CONTINUOUS
 62
     3
100
AcDbLine
 10
-29.5
 20
-466.9999999999998
 30
0.0
 11
-15.5
 21
-466.9999999999998
 31
0.0
  0
CIRCLE
  5
762E
330
1E
100
AcDbEntity
  8
12
  6
CONTINUOUS
 62
     3
100
AcDbCircle
 10
22.5
 20
-466.9999999999998
 30
0.0
 40
3.0
210
0.0
220
0.0
230
-1.0
  0
LINE
  5
762F
330
1E
100
AcDbEntity
  8
12
  6
CONTINUOUS
 62
     3
100
AcDbLine
 10
-22.5
 20
-459.9999999999998
 30
0.0
 11
-22.5
 21
-473.9999999999998
 31
0.0
  0
LINE
  5
7630
330
1E
100
AcDbEntity
  8
12
  6
CONTINUOUS
 62
     3
100
AcDbLine
 10
15.5
 20
-466.9999999999998
 30
0.0
 11
29.5
 21
-466.9999999999998
 31
0.0
  0
CIRCLE
  5
7631
330
1E
100
AcDbEntity
  8
12
  6
CONTINUOUS
 62
     3
100
AcDbCircle
 10
22.5
 20
-466.9999999999998
 30
0.0
 40
3.0
  0
LINE
  5
7632
330
1E
100
AcDbEntity
  8
12
  6
CONTINUOUS
 62
     3
100
AcDbLine
 10
22.5
 20
-459.9999999999998
 30
0.0
 11
22.5
 21
-473.9999999999998
 31
0.0
  0
LINE
  5
7633
330
1E
100
AcDbEntity
  8
18
  6
DIVIDE
100
AcDbLine
 10
70.0
 20
-230.0
 30
0.0
 11
-70.0
 21
-230.0
 31
0.0
  0
LINE
  5
7634
330
1E
100
AcDbEntity
  8
12
  6
CONTINUOUS
 62
     3
100
AcDbLine
 10
-29.5
 20
-253.0
 30
0.0
 11
-15.5
 21
-253.0
 31
0.0
  0
LINE
  5
7635
330
1E
100
AcDbEntity
  8
12
  6
CONTINUOUS
 62
     3
100
AcDbLine
 10
15.5
 20
-253.0
 30
0.0
 11
29.5
 21
-253.0
 31
0.0
  0
ARC
  5
7648
330
1E
100
AcDbEntity
  8
11
 48
2.0
100
AcDbCircle
 10
273.0
 20
-400.0
 30
0.0
 40
6.0
100
AcDbArc
 50
270.0
 51
0.0
  0
ARC
  5
7649
330
1E
100
AcDbEntity
  8
11
 48
2.0
100
AcDbCircle
 10
167.0
 20
-400.0
 30
0.0
 40
6.0
100
AcDbArc
 50
180.0
 51
270.0
  0
LINE
  5
764B
330
1E
100
AcDbEntity
  8
18
  6
DIVIDE
100
AcDbLine
 10
150.0
 20
-229.9999999999998
 30
0.0
 11
150.0
 21
-490.0
 31
0.0
  0
LINE
  5
764C
330
1E
100
AcDbEntity
  8
18
  6
DIVIDE
100
AcDbLine
 10
290.0
 20
-490.0
 30
0.0
 11
290.0
 21
-229.9999999999998
 31
0.0
  0
LINE
  5
764D
330
1E
100
AcDbEntity
  8
11
 48
2.0
100
AcDbLine
 10
167.0
 20
-406.0
 30
0.0
 11
273.0
 21
-406.0
 31
0.0
  0
LINE
  5
764E
330
1E
100
AcDbEntity
  8
18
  6
DIVIDE
100
AcDbLine
 10
150.0
 20
-490.0
 30
0.0
 11
290.0
 21
-490.0
 31
0.0
  0
LINE
  5
764F
330
1E
100
AcDbEntity
  8
11
 48
2.0
100
AcDbLine
 10
167.0
 20
-313.9999999999998
 30
0.0
 11
273.0
 21
-313.9999999999998
 31
0.0
  0
LINE
  5
7651
330
1E
100
AcDbEntity
  8
18
  6
DIVIDE
100
AcDbLine
 10
290.0
 20
-229.9999999999998
 30
0.0
 11
150.0
 21
-229.9999999999998
 31
0.0
  0
LINE
  5
7652
330
1E
100
AcDbEntity
  8
11
 48
2.0
100
AcDbLine
 10
161.0
 20
-319.9999999999998
 30
0.0
 11
161.0
 21
-400.0
 31
0.0
  0
ARC
  5
7653
330
1E
100
AcDbEntity
  8
11
 48
2.0
100
AcDbCircle
 10
167.0
 20
-319.9999999999998
 30
0.0
 40
6.0
100
AcDbArc
 50
90.0
 51
180.0
  0
LINE
  5
7654
330
1E
100
AcDbEntity
  8
11
 48
2.0
100
AcDbLine
 10
279.0
 20
-319.9999999999998
 30
0.0
 11
279.0
 21
-400.0
 31
0.0
  0
ARC
  5
7655
330
1E
100
AcDbEntity
  8
11
 48
2.0
100
AcDbCircle
 10
273.0
 20
-319.9999999999998
 30
0.0
 40
6.0
100
AcDbArc
 50
0.0
 51
90.0
  0
TEXT
  5
7670
330
1E
100
AcDbEntity
  8
19
  6
CONTINUOUS
100
AcDbText
 10
203.9623141079287
 20
352.5477191279844
 30
0.0
 40
5.0
  1
NE400-NF 3P FC
  7
STANDARD1
100
AcDbText
  0
DIMENSION
  5
7671
330
1E
100
AcDbEntity
  8
30
  6
CONTINUOUS
100
AcDbDimension
  2
*D4
 10
-97.09969543092029
 20
-466.9999999999998
 30
0.0
 11
-100.0996954309202
 21
-360.0
 31
0.0
 70
    32
  3
STANDARD
100
AcDbAlignedDimension
 13
-34.04569613739295
 23
-253.0
 33
0.0
 14
-34.04569613739295
 24
-466.9999999999998
 34
0.0
 50
90.0
100
AcDbRotatedDimension
1001
ACAD
1000
DSTYLE
1002
{
1070
    79
1070
     3
1002
}
  0
DIMENSION
  5
767E
330
1E
100
AcDbEntity
  8
30
  6
CONTINUOUS
100
AcDbDimension
  2
*D5
 10
22.49999999999999
 20
-518.7040664304706
 30
0.0
 11
-0.0000000000000034
 21
-515.7040664304705
 31
0.0
 70
    32
  3
STANDARD
100
AcDbAlignedDimension
 13
-22.5
 23
-473.9999999999998
 33
0.0
 14
22.5
 24
-473.9999999999998
 34
0.0
100
AcDbRotatedDimension
1001
ACAD
1000
DSTYLE
1002
{
1070
    79
1070
     3
1002
}
  0
DIMENSION
  5
7694
330
1E
100
AcDbEntity
  8
30
  6
CONTINUOUS
100
AcDbDimension
  2
*D6
 10
273.0
 20
-320.0000000000001
 30
0.0
 11
308.3264163067303
 21
-306.031299459585
 31
0.0
 70
   164
  3
STANDARD
100
AcDbRadialDimension
 15
278.4700873851313
 25
-317.5346107814319
 35
0.0
 40
0.0
1001
ACAD
1000
DSTYLE
1002
{
1070
    79
1070
     3
1070
   288
1070
     1
1002
}
  0
DIMENSION
  5
76A8
330
1E
100
AcDbEntity
  8
30
  6
CONTINUOUS
100
AcDbDimension
  2
*D7
 10
279.0
 20
-430.9055588177363
 30
0.0
 11
220.0
 21
-427.9055588177363
 31
0.0
 70
    32
  3
STANDARD
100
AcDbAlignedDimension
 13
161.0
 23
-400.0
 33
0.0
 14
279.0
 24
-400.0
 34
0.0
100
AcDbRotatedDimension
1001
ACAD
1000
DSTYLE
1002
{
1070
    79
1070
     3
1002
}
  0
DIMENSION
  5
76B5
330
1E
100
AcDbEntity
  8
30
  6
CONTINUOUS
100
AcDbDimension
  2
*D8
 10
313.0844752481832
 20
-406.0
 30
0.0
 11
310.0844752481833
 21
-359.9999999999998
 31
0.0
 70
    32
  3
STANDARD
100
AcDbAlignedDimension
 13
273.0
 23
-313.9999999999998
 33
0.0
 14
273.0
 24
-406.0
 34
0.0
 50
90.0
100
AcDbRotatedDimension
1001
ACAD
1000
DSTYLE
1002
{
1070
    79
1070
     3
1002
}
  0
DIMENSION
  5
76C3
330
1E
100
AcDbEntity
  8
30
  6
CONTINUOUS
100
AcDbDimension
  2
*D9
 10
332.7699465681198
 20
129.6759028429517
 30
0.0
 11
320.2699465681198
 21
132.6759028429517
 31
0.0
 70
    32
  3
STANDARD
100
AcDbAlignedDimension
 13
307.7699465681198
 23
145.2621828604461
 33
0.0
 14
332.7699465681198
 24
145.2621828604461
 34
0.0
100
AcDbRotatedDimension
1001
ACAD
1000
DSTYLE
1002
{
1070
    79
1070
     3
1002
}
  0
DIMENSION
  5
76D0
330
1E
100
AcDbEntity
  8
30
  6
CONTINUOUS
100
AcDbDimension
  2
*D10
 10
349.2122762463086
 20
157.2621828604461
 30
0.0
 11
346.2122762463085
 21
151.2621828604461
 31
0.0
 70
    32
  3
STANDARD
100
AcDbAlignedDimension
 13
332.7699465681198
 23
145.2621828604461
 33
0.0
 14
327.7699465681196
 24
157.2621828604461
 34
0.0
 50
90.0
100
AcDbRotatedDimension
1001
ACAD
1000
DSTYLE
1002
{
1070
    79
1070
     3
1002
}
  0
DIMENSION
  5
76DD
330
1E
100
AcDbEntity
  8
30
  6
CONTINUOUS
100
AcDbDimension
  2
*D11
 10
316.8268734197178
 20
152.9732147683805
 30
0.0
 11
343.7347867019194
 21
180.2634688469851
 31
0.0
 70
   163
  3
STANDARD
100
AcDbDiametricDimension
 15
323.713019716521
 25
161.5511509525116
 35
0.0
 40
0.0
1001
ACAD
1000
DSTYLE
1002
{
1070
    79
1070
     3
1070
   288
1070
     1
1002
}
  0
DIMENSION
  5
770C
330
1E
100
AcDbEntity
  8
30
  6
CONTINUOUS
100
AcDbDimension
  2
*D12
 10
256.823276649664
 20
-159.9999999999998
 30
0.0
 11
253.8232766496641
 21
-144.9999999999997
 31
0.0
 70
    32
  3
STANDARD
100
AcDbAlignedDimension
 13
274.2585283399446
 23
-129.9999999999998
 33
0.0
 14
239.2585283399446
 24
-159.9999999999998
 34
0.0
 50
90.0
100
AcDbRotatedDimension
1001
ACAD
1000
DSTYLE
1002
{
1070
    79
1070
     3
1002
}
  0
DIMENSION
  5
7722
330
1E
100
AcDbEntity
  8
30
  6
CONTINUOUS
100
AcDbDimension
  2
*D13
 10
257.3232766496642
 20
-174.4999999999999
 30
0.0
 11
254.3232766496641
 21
-167.2499999999998
 31
0.0
 70
    32
  3
STANDARD
100
AcDbAlignedDimension
 13
239.2585283399446
 23
-159.9999999999998
 33
0.0
 14
239.2585283399446
 24
-174.4999999999999
 34
0.0
 50
90.0
100
AcDbRotatedDimension
1001
ACAD
1000
DSTYLE
1002
{
1070
    79
1070
     3
1002
}
  0
DIMENSION
  5
772F
330
1E
100
AcDbEntity
  8
30
  6
CONTINUOUS
100
AcDbDimension
  2
*D14
 10
-91.39860450474341
 20
-44.99999999999999
 30
0.0
 11
-94.39860450474336
 21
0.0000000000000486
 31
0.0
 70
    32
  3
STANDARD
100
AcDbAlignedDimension
 13
-53.0
 23
45.0000000000001
 33
0.0
 14
-53.0
 24
-45.0
 34
0.0
 50
90.0
100
AcDbRotatedDimension
1001
ACAD
1000
DSTYLE
1002
{
1070
    79
1070
     3
1002
}
  0
DIMENSION
  5
773C
330
1E
100
AcDbEntity
  8
30
  6
CONTINUOUS
100
AcDbDimension
  2
*D15
 10
-103.8479123954377
 20
-50.99999999999999
 30
0.0
 11
-106.8479123954377
 21
-0.0000000000004622
 31
0.0
 70
    32
  3
STANDARD
100
AcDbAlignedDimension
 13
-70.00000000000007
 23
50.99999999999909
 33
0.0
 14
-70.00000000000007
 24
-51.0
 34
0.0
 50
90.0
100
AcDbRotatedDimension
1001
ACAD
1000
DSTYLE
1002
{
1070
    79
1070
     3
1002
}
  0
DIMENSION
  5
7749
330
1E
100
AcDbEntity
  8
30
  6
CONTINUOUS
100
AcDbDimension
  2
*D16
 10
-115.5191388944172
 20
-130.0
 30
0.0
 11
-118.519138894417
 21
0.0000000000000359
 31
0.0
 70
    32
  3
STANDARD
100
AcDbAlignedDimension
 13
-70.00000000000007
 23
130.0
 33
0.0
 14
-70.00000000000007
 24
-130.0
 34
0.0
 50
90.0
100
AcDbRotatedDimension
1001
ACAD
1000
DSTYLE
1002
{
1070
    79
1070
     3
1002
}
  0
LINE
  5
7756
330
1E
100
AcDbEntity
  8
24
  6
CONTINOUS
100
AcDbLine
 10
0.0
 20
-149.0
 30
0.0
 11
0.0
 21
-171.0
 31
0.0
  0
DIMENSION
  5
7757
330
1E
100
AcDbEntity
  8
30
  6
CONTINUOUS
100
AcDbDimension
  2
*D17
 10
-0.000000000000001
 20
-187.4375309206458
 30
0.0
 11
-30.0
 21
-184.4375309206458
 31
0.0
 70
    32
  3
STANDARD
100
AcDbAlignedDimension
 13
-60.0
 23
-171.0
 33
0.0
 14
0.0
 24
-171.0
 34
0.0
100
AcDbRotatedDimension
1001
ACAD
1000
DSTYLE
1002
{
1070
    79
1070
     3
1002
}
  0
DIMENSION
  5
7764
330
1E
100
AcDbEntity
  8
30
  6
CONTINUOUS
100
AcDbDimension
  2
*D18
 10
60.0
 20
-187.4375309206458
 30
0.0
 11
30.0
 21
-184.4375309206458
 31
0.0
 70
    32
  3
STANDARD
100
AcDbAlignedDimension
 13
0.0
 23
-171.0
 33
0.0
 14
60.0
 24
-171.0
 34
0.0
100
AcDbRotatedDimension
1001
ACAD
1000
DSTYLE
1002
{
1070
   287
1070
     4
1070
   287
1070
     4
1070
   287
1070
     4
1070
   279
1070
     1
1070
    79
1070
     3
1002
}
  0
DIMENSION
  5
7771
330
1E
100
AcDbEntity
  8
30
  6
CONTINUOUS
100
AcDbDimension
  2
*D19
 10
70.0
 20
-199.1004021123758
 30
0.0
 11
-0.0000000000000282
 21
-196.1004021123758
 31
0.0
 70
    32
  3
STANDARD
100
AcDbAlignedDimension
 13
-70.00000000000007
 23
-130.0
 33
0.0
 14
70.0
 24
-130.0
 34
0.0
100
AcDbRotatedDimension
1001
ACAD
1000
DSTYLE
1002
{
1070
    79
1070
     3
1002
}
  0
LINE
  5
778F
330
1E
100
AcDbEntity
  8
10
  6
CONTINOUS
100
AcDbLine
 10
31.0
 20
130.0000000000003
 30
0.0
 11
46.0
 21
150.0000000000003
 31
0.0
  0
LINE
  5
7790
330
1E
100
AcDbEntity
  8
10
  6
CONTINOUS
100
AcDbLine
 10
74.0
 20
150.0000000000003
 30
0.0
 11
59.0
 21
130.0000000000003
 31
0.0
  0
LINE
  5
7791
330
1E
100
AcDbEntity
  8
10
  6
CONTINOUS
100
AcDbLine
 10
74.0
 20
174.5
 30
0.0
 11
74.0
 21
150.0000000000003
 31
0.0
  0
LINE
  5
7792
330
1E
100
AcDbEntity
  8
10
  6
CONTINOUS
100
AcDbLine
 10
14.0
 20
174.5
 30
0.0
 11
14.0
 21
130.0
 31
0.0
  0
LINE
  5
7793
330
1E
100
AcDbEntity
  8
10
  6
CONTINOUS
100
AcDbLine
 10
-14.0
 20
174.5
 30
0.0
 11
-14.0
 21
130.0
 31
0.0
  0
LINE
  5
7794
330
1E
100
AcDbEntity
  8
10
  6
CONTINOUS
100
AcDbLine
 10
-46.0
 20
150.0000000000003
 30
0.0
 11
-31.0
 21
130.0000000000003
 31
0.0
  0
LINE
  5
7795
330
1E
100
AcDbEntity
  8
10
  6
CONTINOUS
100
AcDbLine
 10
-74.00000000000004
 20
150.0000000000003
 30
0.0
 11
-59.0
 21
130.0000000000003
 31
0.0
  0
LINE
  5
7796
330
1E
100
AcDbEntity
  8
24
  6
CONTINOUS
100
AcDbLine
 10
-71.00000000000004
 20
160.0
 30
0.0
 11
-49.0
 21
160.0
 31
0.0
  0
LINE
  5
7797
330
1E
100
AcDbEntity
  8
10
  6
CONTINOUS
100
AcDbLine
 10
-74.00000000000004
 20
174.5
 30
0.0
 11
-46.0
 21
174.5
 31
0.0
  0
CIRCLE
  5
7798
330
1E
100
AcDbEntity
  8
24
  6
CONTINOUS
100
AcDbCircle
 10
60.0
 20
160.0
 30
0.0
 40
7.0
210
0.0
220
0.0
230
-1.0
  0
LINE
  5
7799
330
1E
100
AcDbEntity
  8
24
  6
CONTINOUS
100
AcDbLine
 10
-60.0
 20
149.0
 30
0.0
 11
-60.0
 21
171.0
 31
0.0
  0
LINE
  5
779A
330
1E
100
AcDbEntity
  8
10
  6
CONTINOUS
100
AcDbLine
 10
-74.00000000000004
 20
174.5
 30
0.0
 11
-74.00000000000004
 21
150.0000000000003
 31
0.0
  0
LINE
  5
779B
330
1E
100
AcDbEntity
  8
10
  6
CONTINOUS
100
AcDbLine
 10
-46.0
 20
174.5
 30
0.0
 11
-46.0
 21
150.0000000000003
 31
0.0
  0
LINE
  5
779C
330
1E
100
AcDbEntity
  8
24
  6
CONTINOUS
100
AcDbLine
 10
0.0
 20
149.0
 30
0.0
 11
0.0
 21
171.0
 31
0.0
  0
CIRCLE
  5
779D
330
1E
100
AcDbEntity
  8
24
  6
CONTINOUS
100
AcDbCircle
 10
0.0
 20
160.0
 30
0.0
 40
7.0
210
0.0
220
0.0
230
-1.0
  0
LINE
  5
779E
330
1E
100
AcDbEntity
  8
10
  6
CONTINOUS
100
AcDbLine
 10
-14.0
 20
174.5
 30
0.0
 11
14.0
 21
174.5
 31
0.0
  0
LINE
  5
779F
330
1E
100
AcDbEntity
  8
24
  6
CONTINOUS
100
AcDbLine
 10
-11.0
 20
160.0
 30
0.0
 11
11.0
 21
160.0
 31
0.0
  0
CIRCLE
  5
77A0
330
1E
100
AcDbEntity
  8
24
  6
CONTINOUS
100
AcDbCircle
 10
-60.0
 20
160.0
 30
0.0
 40
7.0
210
0.0
220
0.0
230
-1.0
  0
LINE
  5
77A1
330
1E
100
AcDbEntity
  8
24
  6
CONTINOUS
100
AcDbLine
 10
60.0
 20
149.0
 30
0.0
 11
60.0
 21
171.0
 31
0.0
  0
LINE
  5
77A2
330
1E
100
AcDbEntity
  8
10
  6
CONTINOUS
100
AcDbLine
 10
46.0
 20
174.5
 30
0.0
 11
46.0
 21
150.0000000000003
 31
0.0
  0
LINE
  5
77A3
330
1E
100
AcDbEntity
  8
10
  6
CONTINOUS
100
AcDbLine
 10
46.0
 20
174.5
 30
0.0
 11
74.0
 21
174.5
 31
0.0
  0
LINE
  5
77A4
330
1E
100
AcDbEntity
  8
24
  6
CONTINOUS
100
AcDbLine
 10
49.0
 20
160.0
 30
0.0
 11
71.0
 21
160.0
 31
0.0
  0
LINE
  5
77A5
330
1E
100
AcDbEntity
  8
10
  6
CONTINOUS
100
AcDbLine
 10
230.2585283399446
 20
174.5
 30
0.0
 11
238.2585283399446
 21
174.5
 31
0.0
  0
LINE
  5
77A6
330
1E
100
AcDbEntity
  8
24
  6
CONTINOUS
100
AcDbLine
 10
221.2585283399445
 20
160.0
 30
0.0
 11
245.2585283399446
 21
160.0
 31
0.0
  0
LINE
  5
77A7
330
1E
100
AcDbEntity
  8
10
  6
CONTINOUS
100
AcDbLine
 10
230.2585283399446
 20
174.5
 30
0.0
 11
230.2585283399446
 21
130.0
 31
0.0
  0
LINE
  5
77A9
330
1E
100
AcDbEntity
  8
10
  6
CONTINOUS
100
AcDbLine
 10
238.2585283399446
 20
174.5
 30
0.0
 11
238.2585283399446
 21
130.0
 31
0.0
  0
DIMENSION
  5
77D5
330
1E
100
AcDbEntity
  8
30
  6
CONTINUOUS
100
AcDbDimension
  2
*D20
 10
274.2585283399446
 20
184.2587842897581
 30
0.0
 11
256.2585283399446
 21
187.2587842897583
 31
0.0
 70
    32
  3
STANDARD
100
AcDbAlignedDimension
 13
238.2585283399446
 23
174.5
 33
0.0
 14
274.2585283399446
 24
130.0000000000002
 34
0.0
100
AcDbRotatedDimension
1001
ACAD
1000
DSTYLE
1002
{
1070
    79
1070
     3
1002
}
  0
DIMENSION
  5
77EB
330
1E
100
AcDbEntity
  8
30
  6
CONTINUOUS
100
AcDbDimension
  2
*D21
 10
230.2585283399446
 20
184.2587842897581
 30
0.0
 11
234.2585283399446
 21
187.2587842897583
 31
0.0
 70
    32
  3
STANDARD
100
AcDbAlignedDimension
 13
238.2585283399446
 23
174.5
 33
0.0
 14
230.2585283399446
 24
174.5
 34
0.0
100
AcDbRotatedDimension
1001
ACAD
1000
DSTYLE
1002
{
1070
    79
1070
     3
1002
}
  0
DIMENSION
  5
780A
330
1E
100
AcDbEntity
  8
30
  6
CONTINUOUS
100
AcDbDimension
  2
*D22
 10
239.2585283399446
 20
-186.9743266923104
 30
0.0
 11
256.7585283399446
 21
-183.9743266923104
 31
0.0
 70
    32
  3
STANDARD
100
AcDbAlignedDimension
 13
274.2585283399446
 23
-129.9999999999998
 33
0.0
 14
239.2585283399446
 24
-174.4999999999999
 34
0.0
100
AcDbRotatedDimension
1001
ACAD
1000
DSTYLE
1002
{
1070
    79
1070
     3
1002
}
  0
DIMENSION
  5
7817
330
1E
100
AcDbEntity
  8
30
  6
CONTINUOUS
100
AcDbDimension
  2
*D23
 10
231.2585283399446
 20
-186.9743266923104
 30
0.0
 11
235.2585283399446
 21
-183.9743266923104
 31
0.0
 70
    32
  3
STANDARD
100
AcDbAlignedDimension
 13
239.2585283399446
 23
-174.4999999999999
 33
0.0
 14
231.2585283399446
 24
-174.4999999999999
 34
0.0
100
AcDbRotatedDimension
1001
ACAD
1000
DSTYLE
1002
{
1070
   287
1070
     4
1070
   287
1070
     4
1070
   287
1070
     4
1070
   279
1070
     1
1070
    79
1070
     3
1002
}
  0
LINE
  5
7868
330
1E
100
AcDbEntity
  8
16
100
AcDbLine
 10
-0.0000610351601154
 20
236.9323399985109
 30
0.0
 11
0.0
 21
407.913551891159
 31
0.0
  0
DIMENSION
  5
7895
330
1E
100
AcDbEntity
  8
30
  6
CONTINUOUS
100
AcDbDimension
  2
*D24
 10
274.2585283399446
 20
-200.5942601669822
 30
0.0
 11
222.7585283399446
 21
-197.5942601669824
 31
0.0
 70
    32
  3
STANDARD
100
AcDbAlignedDimension
 13
171.2585283399446
 23
-201.0942601669824
 33
0.0
 14
274.2585283399446
 24
-130.9999999999998
 34
0.0
100
AcDbRotatedDimension
1001
ACAD
1000
DSTYLE
1002
{
1070
    79
1070
     3
1002
}
  0
DIMENSION
  5
78B0
330
1E
100
AcDbEntity
  8
30
  6
CONTINUOUS
100
AcDbDimension
  2
*D25
 10
171.2585283399446
 20
-201.0942601669824
 30
0.0
 11
167.2585283399446
 21
-198.0942601669823
 31
0.0
 70
    32
  3
STANDARD
100
AcDbAlignedDimension
 13
163.2585283399446
 23
-44.99999999999988
 33
0.0
 14
171.2585283399446
 24
-44.99999999999988
 34
0.0
100
AcDbRotatedDimension
1001
ACAD
1000
DSTYLE
1002
{
1070
    79
1070
     3
1002
}
  0
DIMENSION
  5
78C5
330
1E
100
AcDbEntity
  8
30
  6
CONTINUOUS
100
AcDbDimension
  2
*D26
 10
274.2585283399446
 20
-215.7420353336827
 30
0.0
 11
201.7830342887184
 21
-212.7420353336825
 31
0.0
 70
    32
  3
STANDARD
100
AcDbAlignedDimension
 13
129.3075402374922
 23
0.0000000000001137
 33
0.0
 14
274.2585283399446
 24
-201.0942601669824
 34
0.0
100
AcDbRotatedDimension
1001
ACAD
1000
DSTYLE
1002
{
1070
    79
1070
     3
1002
}
  0
ARC
  5
78ED
330
1E
100
AcDbEntity
  8
30
  6
CONTINUOUS
100
AcDbCircle
 10
-390.1255382537819
 20
70.43203742776923
 30
0.0
 40
524.4493118090802
100
AcDbArc
 50
352.0614673474756
 51
355.3634757060098
  0
DIMENSION
  5
7B72
330
1E
100
AcDbEntity
  8
30
  6
CONTINUOUS
100
AcDbDimension
  2
*D28
 10
74.0
 20
-208.9738795776014
 30
0.0
 11
-0.0000000000000282
 21
-205.9738795776015
 31
0.0
 70
    32
  3
STANDARD
100
AcDbAlignedDimension
 13
-74.00000000000004
 23
-174.5
 33
0.0
 14
74.0
 24
-174.5
 34
0.0
100
AcDbRotatedDimension
1001
ACAD
1000
DSTYLE
1002
{
1070
    79
1070
     3
1002
}
  0
DIMENSION
  5
7BA7
330
1E
100
AcDbEntity
  8
30
  6
CONTINUOUS
100
AcDbDimension
  2
*D29
 10
-87.61492830650333
 20
160.0
 30
0.0
 11
-90.61492830650335
 21
167.2499999999999
 31
0.0
 70
    32
  3
STANDARD
100
AcDbAlignedDimension
 13
-74.00000000000004
 23
174.5
 33
0.0
 14
-71.00000000000004
 24
160.0
 34
0.0
 50
90.0
100
AcDbRotatedDimension
1001
ACAD
1000
DSTYLE
1002
{
1070
    79
1070
     3
1002
}
  0
DIMENSION
  5
7BB4
330
1E
100
AcDbEntity
  8
30
  6
CONTINUOUS
100
AcDbDimension
  2
*D30
 10
-87.61492830650336
 20
130.0
 30
0.0
 11
-90.61492830650337
 21
145.0
 31
0.0
 70
    32
  3
STANDARD
100
AcDbAlignedDimension
 13
-71.00000000000004
 23
160.0
 33
0.0
 14
-70.00000000000007
 24
130.0
 34
0.0
 50
90.0
100
AcDbRotatedDimension
1001
ACAD
1000
DSTYLE
1002
{
1070
   287
1070
     4
1070
   287
1070
     4
1070
   287
1070
     4
1070
   279
1070
     1
1070
    79
1070
     3
1002
}
  0
DIMENSION
  5
7BC1
330
1E
100
AcDbEntity
  8
30
  6
CONTINUOUS
100
AcDbDimension
  2
*D31
 10
-115.519138894417
 20
174.5
 30
0.0
 11
-118.519138894417
 21
152.2499999999999
 31
0.0
 70
    32
  3
STANDARD
100
AcDbAlignedDimension
 13
-88.11492830650335
 23
130.0
 33
0.0
 14
-87.61492830650331
 24
174.5
 34
0.0
 50
90.0
100
AcDbRotatedDimension
1001
ACAD
1000
DSTYLE
1002
{
1070
    79
1070
     3
1002
}
  0
DIMENSION
  5
7CE4
330
1E
100
AcDbEntity
  8
30
  6
CONTINUOUS
100
AcDbDimension
  2
*D34
 10
-20.69592979943676
 20
-255.3969419499519
 30
0.0
 11
-57.49244820641722
 21
-220.6800347238195
 31
0.0
 70
   163
  1
M6
  3
STANDARD
100
AcDbDiametricDimension
 15
-24.30407020056323
 25
-250.6030580500479
 35
0.0
 40
0.0
1001
ACAD
1000
DSTYLE
1002
{
1070
    79
1070
     3
1070
   288
1070
     1
1002
}
  0
DIMENSION
  5
7CE5
330
1E
100
AcDbEntity
  8
30
  6
CONTINUOUS
100
AcDbDimension
  2
*D35
 10
-60.93432241072811
 20
153.0626343881259
 30
0.0
 11
-51.03630463015019
 21
184.4805147390161
 31
0.0
 70
   163
  3
STANDARD
100
AcDbDiametricDimension
 15
-59.06567758927179
 25
166.9373656118738
 35
0.0
 40
0.0
1001
ACAD
1000
DSTYLE
1002
{
1070
    79
1070
     3
1070
   288
1070
     1
1002
}
  0
LINE
  5
7D62
330
1E
100
AcDbEntity
  8
10
  6
CONTINOUS
100
AcDbLine
 10
69.999993761377
 20
390.4369478956378
 30
0.0
 11
-70.00000623862297
 21
390.4369478956378
 31
0.0
  0
LINE
  5
7D63
330
1E
100
AcDbEntity
  8
10
  6
CONTINOUS
100
AcDbLine
 10
57.99999376137697
 20
283.4369478956378
 30
0.0
 11
-58.000006238623
 21
283.4369478956378
 31
0.0
  0
LINE
  5
7D64
330
1E
100
AcDbEntity
  8
10
  6
CONTINOUS
100
AcDbLine
 10
69.99999376137697
 20
287.4369478956378
 30
0.0
 11
-70.000006238623
 21
287.4369478956378
 31
0.0
  0
LINE
  5
7D65
330
1E
100
AcDbEntity
  8
10
  6
CONTINOUS
100
AcDbLine
 10
69.99999376137697
 20
293.4369478956378
 30
0.0
 11
-70.000006238623
 21
293.4369478956378
 31
0.0
  0
LINE
  5
7D66
330
1E
100
AcDbEntity
  8
10
  6
CONTINOUS
100
AcDbLine
 10
-70.000006238623
 20
287.4369478956378
 30
0.0
 11
-70.00000623862297
 21
390.4369478956378
 31
0.0
  0
LWPOLYLINE
  5
7D67
330
1E
100
AcDbEntity
  8
10
  6
CONTINOUS
100
AcDbPolyline
 90
        4
 70
     0
 43
0.0
 10
-59.13425044866007
 20
355.5035127281199
 10
-59.13425044866007
 20
299.4369478956378
 10
-31.13425044866008
 20
299.4369478956378
 10
-31.13425044866007
 20
355.5035127281199
  0
LWPOLYLINE
  5
7D68
330
1E
100
AcDbEntity
  8
24
  6
CONTINOUS
100
AcDbPolyline
 90
        4
 70
     1
 43
0.0
 10
-31.13425044866007
 20
354.4369478956378
 10
-74.00000000000003
 20
354.4369478956378
 10
-74.00000000000003
 20
346.4369478956378
 10
-31.13425044866007
 20
346.4369478956378
  0
LWPOLYLINE
  5
7D69
330
1E
100
AcDbEntity
  8
24
  6
CONTINOUS
100
AcDbPolyline
 90
        2
 70
     0
 43
0.001
 10
-59.13425044866007
 20
354.4369478956378
 10
-31.13425044866007
 20
354.4369478956378
  0
LINE
  5
7D6A
330
1E
100
AcDbEntity
  8
24
  6
CONTINOUS
100
AcDbLine
 10
-59.13425044866006
 20
357.5035127281199
 30
0.0
 11
-31.13425044866005
 21
357.5035127281199
 31
0.0
  0
LINE
  5
7D6B
330
1E
100
AcDbEntity
  8
17
  6
DASHDOT
100
AcDbLine
 10
-32.33420162056006
 20
357.5035127281199
 30
0.0
 11
-57.33420162056006
 21
357.5035127281199
 31
0.0
  0
LINE
  5
7D6C
330
1E
100
AcDbEntity
  8
17
  6
DASHDOT
100
AcDbLine
 10
-32.640625
 20
357.5035127281199
 30
0.0
 11
-57.359375
 21
357.5035127281199
 31
0.0
  0
LINE
  5
7D6D
330
1E
100
AcDbEntity
  8
10
  6
CONTINOUS
100
AcDbLine
 10
-58.000006238623
 20
283.4369478956378
 30
0.0
 11
-58.000006238623
 21
287.4369478956378
 31
0.0
  0
LWPOLYLINE
  5
7D6E
330
1E
100
AcDbEntity
  8
24
  6
CONTINOUS
100
AcDbPolyline
 90
        2
 70
     0
 43
0.001
 10
-59.13425044866007
 20
357.5035127281199
 10
-59.13425044866007
 20
354.4369478956378
  0
LWPOLYLINE
  5
7D6F
330
1E
100
AcDbEntity
  8
10
  6
CONTINOUS
100
AcDbPolyline
 90
        4
 70
     0
 43
0.0
 10
-14.13425044866007
 20
355.5035127281199
 10
-14.13425044866008
 20
299.4369478956378
 10
13.8657495513399
 20
299.4369478956378
 10
13.86574955133992
 20
355.5035127281199
  0
LINE
  5
7D70
330
1E
100
AcDbEntity
  8
17
  6
DASHDOT
100
AcDbLine
 10
0.0
 20
366.8703830631556
 30
0.0
 11
-0.0000000000000142
 21
292.5369234815379
 31
0.0
  0
LINE
  5
7D71
330
1E
100
AcDbEntity
  8
17
  6
DASHDOT
100
AcDbLine
 10
-45.0
 20
366.8703830631556
 30
0.0
 11
-45.0
 21
292.5369234815379
 31
0.0
  0
LINE
  5
7D72
330
1E
100
AcDbEntity
  8
10
  6
CONTINOUS
100
AcDbLine
 10
17.999993761377
 20
279.4369478956378
 30
0.0
 11
-18.00000623862294
 21
279.4369478956378
 31
0.0
  0
LINE
  5
7D73
330
1E
100
AcDbEntity
  8
10
  6
CONTINOUS
100
AcDbLine
 10
16.99999376137705
 20
250.9369478956378
 30
0.0
 11
-17.0000062386231
 21
250.9369478956378
 31
0.0
  0
LINE
  5
7D74
330
1E
100
AcDbEntity
  8
10
  6
CONTINOUS
100
AcDbLine
 10
-17.0000062386231
 20
250.9369478956378
 30
0.0
 11
-17.0000062386231
 21
279.4369478956378
 31
0.0
  0
LINE
  5
7D75
330
1E
100
AcDbEntity
  8
10
  6
CONTINOUS
100
AcDbLine
 10
-18.00000623862294
 20
279.4369478956378
 30
0.0
 11
-18.00000623862294
 21
283.4369478956378
 31
0.0
  0
LINE
  5
7D76
330
1E
100
AcDbEntity
  8
10
  6
CONTINOUS
100
AcDbLine
 10
16.99999376137705
 20
250.9369478956378
 30
0.0
 11
16.99999376137705
 21
279.4369478956378
 31
0.0
  0
LINE
  5
7D77
330
1E
100
AcDbEntity
  8
10
  6
CONTINOUS
100
AcDbLine
 10
17.999993761377
 20
279.4369478956378
 30
0.0
 11
17.999993761377
 21
283.4369478956378
 31
0.0
  0
LINE
  5
7D78
330
1E
100
AcDbEntity
  8
24
  6
CONTINOUS
100
AcDbLine
 10
-35.09795162056002
 20
357.5035127281199
 30
0.0
 11
-48.5704516205601
 21
357.5035127281199
 31
0.0
  0
LINE
  5
7D79
330
1E
100
AcDbEntity
  8
24
  6
CONTINOUS
100
AcDbLine
 10
-50.81726057798277
 20
357.5035127281199
 30
0.0
 11
-50.81726057798277
 21
354.4369478956378
 31
0.0
  0
LINE
  5
7D7A
330
1E
100
AcDbEntity
  8
24
  6
CONTINOUS
100
AcDbLine
 10
-39.18273942201721
 20
357.5035127281199
 30
0.0
 11
-39.18273942201721
 21
354.4369478956378
 31
0.0
  0
LWPOLYLINE
  5
7D7B
330
1E
100
AcDbEntity
  8
24
  6
CONTINOUS
100
AcDbPolyline
 90
        2
 70
     0
 43
0.001
 10
-31.13425044866007
 20
357.5035127281199
 10
-31.13425044866007
 20
354.4369478956378
  0
LWPOLYLINE
  5
7D7C
330
1E
100
AcDbEntity
  8
24
  6
CONTINOUS
100
AcDbPolyline
 90
        4
 70
     1
 43
0.0
 10
13.86574955133992
 20
354.4369478956378
 10
-14.13425044866007
 20
354.4369478956378
 10
-14.13425044866007
 20
346.4369478956378
 10
13.86574955133992
 20
346.4369478956378
  0
LINE
  5
7D7D
330
1E
100
AcDbEntity
  8
24
  6
CONTINOUS
100
AcDbLine
 10
3.902048379439975
 20
357.5035127281199
 30
0.0
 11
-9.570451620560106
 21
357.5035127281199
 31
0.0
  0
LWPOLYLINE
  5
7D7E
330
1E
100
AcDbEntity
  8
24
  6
CONTINOUS
100
AcDbPolyline
 90
        2
 70
     0
 43
0.001
 10
-14.13425044866007
 20
354.4369478956378
 10
13.86574955133992
 20
354.4369478956378
  0
LINE
  5
7D7F
330
1E
100
AcDbEntity
  8
24
  6
CONTINOUS
100
AcDbLine
 10
-14.13425044866005
 20
357.5035127281199
 30
0.0
 11
13.86574955133993
 21
357.5035127281199
 31
0.0
  0
LINE
  5
7D80
330
1E
100
AcDbEntity
  8
17
  6
DASHDOT
100
AcDbLine
 10
6.665798379439933
 20
357.5035127281199
 30
0.0
 11
-12.33420162056006
 21
357.5035127281199
 31
0.0
  0
LINE
  5
7D81
330
1E
100
AcDbEntity
  8
17
  6
DASHDOT
100
AcDbLine
 10
6.359375
 20
357.5035127281199
 30
0.0
 11
-12.359375
 21
357.5035127281199
 31
0.0
  0
LWPOLYLINE
  5
7D82
330
1E
100
AcDbEntity
  8
24
  6
CONTINOUS
100
AcDbPolyline
 90
        2
 70
     0
 43
0.001
 10
-14.13425044866007
 20
357.5035127281199
 10
-14.13425044866007
 20
354.4369478956378
  0
LINE
  5
7D83
330
1E
100
AcDbEntity
  8
24
  6
CONTINOUS
100
AcDbLine
 10
-5.817260577982778
 20
357.5035127281199
 30
0.0
 11
-5.817260577982778
 21
354.4369478956378
 31
0.0
  0
LINE
  5
7D84
330
1E
100
AcDbEntity
  8
24
  6
CONTINOUS
100
AcDbLine
 10
5.817260577982778
 20
357.5035127281199
 30
0.0
 11
5.817260577982778
 21
354.4369478956378
 31
0.0
  0
LWPOLYLINE
  5
7D85
330
1E
100
AcDbEntity
  8
24
  6
CONTINOUS
100
AcDbPolyline
 90
        2
 70
     0
 43
0.001
 10
13.86574955133992
 20
357.5035127281199
 10
13.86574955133992
 20
354.4369478956378
  0
LINE
  5
7D86
330
1E
100
AcDbEntity
  8
10
  6
CONTINOUS
100
AcDbLine
 10
69.99999376137697
 20
287.4369478956378
 30
0.0
 11
69.999993761377
 21
390.4369478956378
 31
0.0
  0
DIMENSION
  5
7D87
330
1E
100
AcDbEntity
  8
30
  6
CONTINUOUS
100
AcDbDimension
  2
*D38
 10
93.5775681070673
 20
354.4369478956378
 30
0.0
 11
115.0397314126011
 21
371.7474129077194
 31
0.0
 70
   160
  1
ON SIDE 36\POFF SIDE 35
  3
STANDARD
100
AcDbAlignedDimension
 13
69.99993896483985
 23
390.4369478956378
 33
0.0
 14
58.86574955133993
 24
354.4369478956378
 34
0.0
 50
90.0
100
AcDbRotatedDimension
1001
ACAD
1000
DSTYLE
1002
{
1070
   287
1070
     5
1070
   287
1070
     5
1070
   279
1070
     2
1070
    79
1070
     3
1002
}
  0
LWPOLYLINE
  5
7D88
330
1E
100
AcDbEntity
  8
10
  6
CONTINOUS
100
AcDbPolyline
 90
        4
 70
     0
 43
0.0
 10
30.86574955133993
 20
355.5035127281199
 10
30.86574955133992
 20
299.4369478956378
 10
58.8657495513399
 20
299.4369478956378
 10
58.86574955133993
 20
355.5035127281199
  0
LINE
  5
7D89
330
1E
100
AcDbEntity
  8
17
  6
DASHDOT
100
AcDbLine
 10
45.0
 20
366.8703830631556
 30
0.0
 11
44.99999999999999
 21
292.5369234815379
 31
0.0
  0
LINE
  5
7D8A
330
1E
100
AcDbEntity
  8
10
  6
CONTINOUS
100
AcDbLine
 10
57.99999376137697
 20
283.4369478956378
 30
0.0
 11
57.99999376137697
 21
287.4369478956378
 31
0.0
  0
LWPOLYLINE
  5
7D8B
330
1E
100
AcDbEntity
  8
24
  6
CONTINOUS
100
AcDbPolyline
 90
        4
 70
     1
 43
0.0
 10
73.73149910267989
 20
354.4369478956378
 10
30.86574955133993
 20
354.4369478956378
 10
30.86574955133993
 20
346.4369478956378
 10
73.73149910267989
 20
346.4369478956378
  0
LINE
  5
7D8C
330
1E
100
AcDbEntity
  8
17
  6
DASHDOT
100
AcDbLine
 10
57.66579837943993
 20
357.5035127281199
 30
0.0
 11
32.66579837943993
 21
357.5035127281199
 31
0.0
  0
LINE
  5
7D8D
330
1E
100
AcDbEntity
  8
17
  6
DASHDOT
100
AcDbLine
 10
57.359375
 20
357.5035127281199
 30
0.0
 11
32.640625
 21
357.5035127281199
 31
0.0
  0
LWPOLYLINE
  5
7D8E
330
1E
100
AcDbEntity
  8
24
  6
CONTINOUS
100
AcDbPolyline
 90
        2
 70
     0
 43
0.001
 10
30.86574955133993
 20
354.4369478956378
 10
58.86574955133993
 20
354.4369478956378
  0
LINE
  5
7D8F
330
1E
100
AcDbEntity
  8
24
  6
CONTINOUS
100
AcDbLine
 10
30.86574955133994
 20
357.5035127281199
 30
0.0
 11
58.86574955133994
 21
357.5035127281199
 31
0.0
  0
LWPOLYLINE
  5
7D90
330
1E
100
AcDbEntity
  8
24
  6
CONTINOUS
100
AcDbPolyline
 90
        2
 70
     0
 43
0.001
 10
30.86574955133993
 20
357.5035127281199
 10
30.86574955133993
 20
354.4369478956378
  0
LINE
  5
7D91
330
1E
100
AcDbEntity
  8
24
  6
CONTINOUS
100
AcDbLine
 10
48.90204837943996
 20
357.5035127281199
 30
0.0
 11
41.42954837943989
 21
357.5035127281199
 31
0.0
  0
LINE
  5
7D92
330
1E
100
AcDbEntity
  8
24
  6
CONTINOUS
100
AcDbLine
 10
39.1827394220172
 20
357.5035127281199
 30
0.0
 11
39.1827394220172
 21
354.4369478956378
 31
0.0
  0
LINE
  5
7D93
330
1E
100
AcDbEntity
  8
24
  6
CONTINOUS
100
AcDbLine
 10
50.81726057798277
 20
357.5035127281199
 30
0.0
 11
50.81726057798277
 21
354.4369478956378
 31
0.0
  0
LWPOLYLINE
  5
7D94
330
1E
100
AcDbEntity
  8
24
  6
CONTINOUS
100
AcDbPolyline
 90
        2
 70
     0
 43
0.001
 10
58.86574955133993
 20
357.5035127281199
 10
58.86574955133993
 20
354.4369478956378
  0
VIEWPORT
  5
9AC
330
1A
100
AcDbEntity
 67
     1
  8
0
  6
CONTINUOUS
100
AcDbViewport
 10
171.999535
 20
144.1384739999999
 30
0.0
 40
488.867686
 41
292.351491
 68
    -1
 69
     1
1001
ACAD
1000
MVIEW
1002
{
1070
    16
1010
0.0
1020
0.0
1030
0.0
1010
0.0
1020
0.0
1030
1.0
1040
0.0
1040
292.351491
1040
171.999535
1040
144.1384739999999
1040
50.0
1040
0.0
1040
0.0
1070
     0
1070
   100
1070
     1
1070
     1
1070
     0
1070
     0
1070
     0
1070
     0
1040
0.0
1040
0.0
1040
0.0
1040
10.0
1040
10.0
1040
10.0
1040
10.0
1070
     0
1002
{
1002
}
1002
}
  0
ENDSEC
  0
SECTION
  2
OBJECTS
  0
DICTIONARY
  5
C
330
0
100
AcDbDictionary
  3
ACAD_GROUP
350
D
  3
ACAD_LAYOUT
350
19
  3
ACAD_MLINESTYLE
350
16
  3
ACAD_PLOTSETTINGS
350
18
  3
ACAD_PLOTSTYLENAME
350
E
  3
ACADDIM
350
6D5E
  3
ACDBHEADERROUNDTRIPXREC
350
7E4F
  3
ACDBVARIABLEDICTIONARY
350
5697
  0
DICTIONARY
  5
178
330
1E
100
AcDbDictionary
280
     1
  3
ACAD_LAYOUTSELFREF
360
7E71
  0
DICTIONARY
  5
17A
330
1A
100
AcDbDictionary
280
     1
  3
ACAD_LAYOUTSELFREF
360
7E70
  0
DICTIONARY
  5
D
102
{ACAD_REACTORS
330
C
102
}
330
C
100
AcDbDictionary
  0
DICTIONARY
  5
19
102
{ACAD_REACTORS
330
C
102
}
330
C
100
AcDbDictionary
  0
DICTIONARY
  5
16
102
{ACAD_REACTORS
330
C
102
}
330
C
100
AcDbDictionary
  3
STANDARD
350
17
  0
DICTIONARY
  5
18
102
{ACAD_REACTORS
330
C
102
}
330
C
100
AcDbDictionary
  0
ACDBDICTIONARYWDFLT
  5
E
102
{ACAD_REACTORS
330
C
102
}
330
C
100
AcDbDictionary
281
     1
  3
Normal
350
F
100
AcDbDictionaryWithDefault
340
F
1001
ACAD
1000
TREAT_AS_HARD
1070
     0
  0
XRECORD
  5
6D5E
102
{ACAD_REACTORS
330
C
102
}
330
C
100
AcDbXrecord
 90
   990106
  3

 60
     0
 61
     0
 62
     1
 63
     3
 64
     0
 65
     0
 66
     0
 67
     3
 68
     1
 69
     0
 70
     0
 71
     0
 72
     0
 40
0.0
170
     0
340
6200
  0
DICTIONARY
  5
7E4F
102
{ACAD_REACTORS
330
C
102
}
330
C
100
AcDbDictionary
  3
CEPSNTYPE
350
7E59
  3
DIMSTYLEDATA
350
7E5D
  3
FINGERPRINTGUID
350
7E5A
  3
HYPERLINKBASE
350
7E52
  3
INSUNITS
350
7E58
  3
LAYOUTDICT
350
7E54
  3
LWETCUNION
350
7E57
  3
PLOTSETDICT
350
7E55
  3
PLOTSTYLNAMDICT
350
7E56
  3
PSVPSCALE
350
7E5C
  3
PUCSBASE
350
7E60
  3
PUCSORGBACK
350
7E66
  3
PUCSORGBOTTOM
350
7E62
  3
PUCSORGFRONT
350
7E65
  3
PUCSORGLEFT
350
7E63
  3
PUCSORGRIGHT
350
7E64
  3
PUCSORGTOP
350
7E61
  3
PUCSORTHOREF
350
7E5E
  3
PUCSORTHOVIEW
350
7E5F
  3
STYLESHEET
350
7E53
  3
TSTACKALIGN
350
7E50
  3
TSTACKSIZE
350
7E51
  3
UCSBASE
350
7E69
  3
UCSORGBACK
350
7E6F
  3
UCSORGBOTTOM
350
7E6B
  3
UCSORGFRONT
350
7E6E
  3
UCSORGLEFT
350
7E6C
  3
UCSORGRIGHT
350
7E6D
  3
UCSORGTOP
350
7E6A
  3
UCSORTHOREF
350
7E67
  3
UCSORTHOVIEW
350
7E68
  3
VERSIONGUID
350
7E5B
  0
DICTIONARY
  5
5697
102
{ACAD_REACTORS
330
C
102
}
330
C
100
AcDbDictionary
  3
DIMASSOC
350
5698
  0
XRECORD
  5
7E71
102
{ACAD_REACTORS
330
178
102
}
330
178
100
AcDbXrecord
340
1E
  0
XRECORD
  5
7E70
102
{ACAD_REACTORS
330
17A
102
}
330
17A
100
AcDbXrecord
340
1A
  0
MLINESTYLE
  5
17
102
{ACAD_REACTORS
330
16
102
}
330
16
100
AcDbMlineStyle
  2
STANDARD
 70
     0
  3

 62
   256
 51
90.0
 52
90.0
 71
     2
 49
0.5
 62
   256
  6
BYLAYER
 49
-0.5
 62
   256
  6
BYLAYER
  0
ACDBPLACEHOLDER
  5
F
102
{ACAD_REACTORS
330
E
102
}
330
E
100
AcDbPlaceHolder
280
     0
  0
XRECORD
  5
7E59
102
{ACAD_REACTORS
330
7E4F
102
}
330
7E4F
100
AcDbXrecord
 90
        0
  0
XRECORD
  5
7E5D
102
{ACAD_REACTORS
330
7E4F
102
}
330
7E4F
100
AcDbXrecord
1000
DSTYLE
1002
{
1070
    79
 70
     3
1070
   341
340
3B2
1070
   342
340
3B2
1002
}
  0
XRECORD
  5
7E5A
102
{ACAD_REACTORS
330
7E4F
102
}
330
7E4F
100
AcDbXrecord
  1

  0
XRECORD
  5
7E52
102
{ACAD_REACTORS
330
7E4F
102
}
330
7E4F
100
AcDbXrecord
  1

  0
XRECORD
  5
7E58
102
{ACAD_REACTORS
330
7E4F
102
}
330
7E4F
100
AcDbXrecord
 90
        0
  0
XRECORD
  5
7E54
102
{ACAD_REACTORS
330
7E4F
102
}
330
7E4F
100
AcDbXrecord
340
19
  0
XRECORD
  5
7E57
102
{ACAD_REACTORS
330
7E4F
102
}
330
7E4F
100
AcDbXrecord
 90
    10781
  0
XRECORD
  5
7E55
102
{ACAD_REACTORS
330
7E4F
102
}
330
7E4F
100
AcDbXrecord
340
18
  0
XRECORD
  5
7E56
102
{ACAD_REACTORS
330
7E4F
102
}
330
7E4F
100
AcDbXrecord
340
E
  0
XRECORD
  5
7E5C
102
{ACAD_REACTORS
330
7E4F
102
}
330
7E4F
100
AcDbXrecord
 40
0.0
  0
XRECORD
  5
7E60
102
{ACAD_REACTORS
330
7E4F
102
}
330
7E4F
100
AcDbXrecord
340
0
  0
XRECORD
  5
7E66
102
{ACAD_REACTORS
330
7E4F
102
}
330
7E4F
100
AcDbXrecord
 10
0.0
 20
0.0
 30
0.0
  0
XRECORD
  5
7E62
102
{ACAD_REACTORS
330
7E4F
102
}
330
7E4F
100
AcDbXrecord
 10
0.0
 20
0.0
 30
0.0
  0
XRECORD
  5
7E65
102
{ACAD_REACTORS
330
7E4F
102
}
330
7E4F
100
AcDbXrecord
 10
0.0
 20
0.0
 30
0.0
  0
XRECORD
  5
7E63
102
{ACAD_REACTORS
330
7E4F
102
}
330
7E4F
100
AcDbXrecord
 10
0.0
 20
0.0
 30
0.0
  0
XRECORD
  5
7E64
102
{ACAD_REACTORS
330
7E4F
102
}
330
7E4F
100
AcDbXrecord
 10
0.0
 20
0.0
 30
0.0
  0
XRECORD
  5
7E61
102
{ACAD_REACTORS
330
7E4F
102
}
330
7E4F
100
AcDbXrecord
 10
0.0
 20
0.0
 30
0.0
  0
XRECORD
  5
7E5E
102
{ACAD_REACTORS
330
7E4F
102
}
330
7E4F
100
AcDbXrecord
340
0
  0
XRECORD
  5
7E5F
102
{ACAD_REACTORS
330
7E4F
102
}
330
7E4F
100
AcDbXrecord
 70
     0
  0
XRECORD
  5
7E53
102
{ACAD_REACTORS
330
7E4F
102
}
330
7E4F
100
AcDbXrecord
  1
monochrome.ctb
  0
XRECORD
  5
7E50
102
{ACAD_REACTORS
330
7E4F
102
}
330
7E4F
100
AcDbXrecord
 90
        1
  0
XRECORD
  5
7E51
102
{ACAD_REACTORS
330
7E4F
102
}
330
7E4F
100
AcDbXrecord
 90
       70
  0
XRECORD
  5
7E69
102
{ACAD_REACTORS
330
7E4F
102
}
330
7E4F
100
AcDbXrecord
340
0
  0
XRECORD
  5
7E6F
102
{ACAD_REACTORS
330
7E4F
102
}
330
7E4F
100
AcDbXrecord
 10
0.0
 20
0.0
 30
0.0
  0
XRECORD
  5
7E6B
102
{ACAD_REACTORS
330
7E4F
102
}
330
7E4F
100
AcDbXrecord
 10
0.0
 20
0.0
 30
0.0
  0
XRECORD
  5
7E6E
102
{ACAD_REACTORS
330
7E4F
102
}
330
7E4F
100
AcDbXrecord
 10
0.0
 20
0.0
 30
0.0
  0
XRECORD
  5
7E6C
102
{ACAD_REACTORS
330
7E4F
102
}
330
7E4F
100
AcDbXrecord
 10
0.0
 20
0.0
 30
0.0
  0
XRECORD
  5
7E6D
102
{ACAD_REACTORS
330
7E4F
102
}
330
7E4F
100
AcDbXrecord
 10
0.0
 20
0.0
 30
0.0
  0
XRECORD
  5
7E6A
102
{ACAD_REACTORS
330
7E4F
102
}
330
7E4F
100
AcDbXrecord
 10
0.0
 20
0.0
 30
0.0
  0
XRECORD
  5
7E67
102
{ACAD_REACTORS
330
7E4F
102
}
330
7E4F
100
AcDbXrecord
340
0
  0
XRECORD
  5
7E68
102
{ACAD_REACTORS
330
7E4F
102
}
330
7E4F
100
AcDbXrecord
 70
     0
  0
XRECORD
  5
7E5B
102
{ACAD_REACTORS
330
7E4F
102
}
330
7E4F
100
AcDbXrecord
  1
{0923D128-03A2-4713-8C9F-169A01051E68}
  0
DICTIONARYVAR
  5
5698
102
{ACAD_REACTORS
330
5697
102
}
330
5697
100
DictionaryVariables
280
     0
  1
1
  0
ENDSEC
  0
EOF
