  0
SECTION
  2
HEADER
  9
$ACADVER
  1
AC1015
  9
$ACADMAINTVER
 70
    20
  9
$DWGCODEPAGE
  3
ANSI_932
  9
$INSBASE
 10
0.0
 20
0.0
 30
0.0
  9
$EXTMIN
 10
-169.0586189742416
 20
-210.5190989520861
 30
-0.000000000000013
  9
$EXTMAX
 10
234.3067053625209
 20
478.0670202710507
 30
0.0000000000000023
  9
$LIMMIN
 10
-1176.0
 20
-798.0
  9
$LIMMAX
 10
594.0
 20
1078.0
  9
$ORTHOMODE
 70
     0
  9
$REGENMODE
 70
     1
  9
$FILLMODE
 70
     1
  9
$QTEXTMODE
 70
     0
  9
$MIRRTEXT
 70
     1
  9
$LTSCALE
 40
10.0
  9
$ATTMODE
 70
     1
  9
$TEXTSIZE
 40
0.2
  9
$TRACEWID
 40
0.05
  9
$TEXTSTYLE
  7
blockfont
  9
$CLAYER
  8
30
  9
$CELTYPE
  6
BYLAYER
  9
$CECOLOR
 62
   256
  9
$CELTSCALE
 40
1.0
  9
$DISPSILH
 70
     0
  9
$DIMSCALE
 40
1.0
  9
$DIMASZ
 40
2.0
  9
$DIMEXO
 40
3.0
  9
$DIMDLI
 40
0.5
  9
$DIMRND
 40
0.0
  9
$DIMDLE
 40
0.0
  9
$DIMEXE
 40
0.5
  9
$DIMTP
 40
0.0
  9
$DIMTM
 40
0.0
  9
$DIMTXT
 40
6.0
  9
$DIMCEN
 40
0.09
  9
$DIMTSZ
 40
0.0
  9
$DIMTOL
 70
     0
  9
$DIMLIM
 70
     0
  9
$DIMTIH
 70
     0
  9
$DIMTOH
 70
     0
  9
$DIMSE1
 70
     0
  9
$DIMSE2
 70
     0
  9
$DIMTAD
 70
     3
  9
$DIMZIN
 70
    12
  9
$DIMBLK
  1
OPEN
  9
$DIMASO
 70
     1
  9
$DIMSHO
 70
     1
  9
$DIMPOST
  1

  9
$DIMAPOST
  1

  9
$DIMALT
 70
     0
  9
$DIMALTD
 70
     2
  9
$DIMALTF
 40
25.4
  9
$DIMLFAC
 40
1.0
  9
$DIMTOFL
 70
     1
  9
$DIMTVP
 40
0.0
  9
$DIMTIX
 70
     0
  9
$DIMSOXD
 70
     0
  9
$DIMSAH
 70
     0
  9
$DIMBLK1
  1

  9
$DIMBLK2
  1

  9
$DIMSTYLE
  2
STANDARD1
  9
$DIMCLRD
 70
     0
  9
$DIMCLRE
 70
     0
  9
$DIMCLRT
 70
     0
  9
$DIMTFAC
 40
1.0
  9
$DIMGAP
 40
2.0
  9
$DIMJUST
 70
     0
  9
$DIMSD1
 70
     0
  9
$DIMSD2
 70
     0
  9
$DIMTOLJ
 70
     1
  9
$DIMTZIN
 70
     0
  9
$DIMALTZ
 70
     0
  9
$DIMALTTZ
 70
     0
  9
$DIMUPT
 70
     0
  9
$DIMDEC
 70
     8
  9
$DIMTDEC
 70
     8
  9
$DIMALTU
 70
     2
  9
$DIMALTTD
 70
     2
  9
$DIMTXSTY
  7
STANDARD
  9
$DIMAUNIT
 70
     0
  9
$DIMADEC
 70
     0
  9
$DIMALTRND
 40
0.0
  9
$DIMAZIN
 70
     0
  9
$DIMDSEP
 70
    46
  9
$DIMATFIT
 70
     2
  9
$DIMFRAC
 70
     0
  9
$DIMLDRBLK
  1
OPEN
  9
$DIMLUNIT
 70
     2
  9
$DIMLWD
 70
    -2
  9
$DIMLWE
 70
    -2
  9
$DIMTMOVE
 70
     0
  9
$LUNITS
 70
     2
  9
$LUPREC
 70
     8
  9
$SKETCHINC
 40
0.1
  9
$FILLETRAD
 40
0.0
  9
$AUNITS
 70
     0
  9
$AUPREC
 70
     0
  9
$MENU
  1
.
  9
$ELEVATION
 40
0.0
  9
$PELEVATION
 40
0.0
  9
$THICKNESS
 40
0.0
  9
$LIMCHECK
 70
     0
  9
$CHAMFERA
 40
0.0
  9
$CHAMFERB
 40
0.0
  9
$CHAMFERC
 40
0.0
  9
$CHAMFERD
 40
0.0
  9
$SKPOLY
 70
     0
  9
$TDCREATE
 40
2452286.555658658
  9
$TDUCREATE
 40
2452286.180658658
  9
$TDUPDATE
 40
2455827.505005417
  9
$TDUUPDATE
 40
2455827.130005416
  9
$TDINDWG
 40
2.0072511458
  9
$TDUSRTIMER
 40
2.0072478819
  9
$USRTIMER
 70
     1
  9
$ANGBASE
 50
0.0
  9
$ANGDIR
 70
     0
  9
$PDMODE
 70
     0
  9
$PDSIZE
 40
0.0
  9
$PLINEWID
 40
0.0
  9
$SPLFRAME
 70
     0
  9
$SPLINETYPE
 70
     6
  9
$SPLINESEGS
 70
     8
  9
$HANDSEED
  5
EC3A
  9
$SURFTAB1
 70
     6
  9
$SURFTAB2
 70
     6
  9
$SURFTYPE
 70
     6
  9
$SURFU
 70
     6
  9
$SURFV
 70
     6
  9
$UCSBASE
  2

  9
$UCSNAME
  2

  9
$UCSORG
 10
0.0
 20
0.0
 30
0.0
  9
$UCSXDIR
 10
1.0
 20
0.0
 30
0.0
  9
$UCSYDIR
 10
0.0
 20
1.0
 30
0.0
  9
$UCSORTHOREF
  2

  9
$UCSORTHOVIEW
 70
     0
  9
$UCSORGTOP
 10
0.0
 20
0.0
 30
0.0
  9
$UCSORGBOTTOM
 10
0.0
 20
0.0
 30
0.0
  9
$UCSORGLEFT
 10
0.0
 20
0.0
 30
0.0
  9
$UCSORGRIGHT
 10
0.0
 20
0.0
 30
0.0
  9
$UCSORGFRONT
 10
0.0
 20
0.0
 30
0.0
  9
$UCSORGBACK
 10
0.0
 20
0.0
 30
0.0
  9
$PUCSBASE
  2

  9
$PUCSNAME
  2

  9
$PUCSORG
 10
0.0
 20
0.0
 30
0.0
  9
$PUCSXDIR
 10
1.0
 20
0.0
 30
0.0
  9
$PUCSYDIR
 10
0.0
 20
1.0
 30
0.0
  9
$PUCSORTHOREF
  2

  9
$PUCSORTHOVIEW
 70
     0
  9
$PUCSORGTOP
 10
0.0
 20
0.0
 30
0.0
  9
$PUCSORGBOTTOM
 10
0.0
 20
0.0
 30
0.0
  9
$PUCSORGLEFT
 10
0.0
 20
0.0
 30
0.0
  9
$PUCSORGRIGHT
 10
0.0
 20
0.0
 30
0.0
  9
$PUCSORGFRONT
 10
0.0
 20
0.0
 30
0.0
  9
$PUCSORGBACK
 10
0.0
 20
0.0
 30
0.0
  9
$USERI1
 70
     0
  9
$USERI2
 70
     0
  9
$USERI3
 70
     0
  9
$USERI4
 70
     0
  9
$USERI5
 70
     0
  9
$USERR1
 40
0.0
  9
$USERR2
 40
0.0
  9
$USERR3
 40
0.0
  9
$USERR4
 40
0.0
  9
$USERR5
 40
0.0
  9
$WORLDVIEW
 70
     1
  9
$SHADEDGE
 70
     3
  9
$SHADEDIF
 70
    70
  9
$TILEMODE
 70
     1
  9
$MAXACTVP
 70
    48
  9
$PINSBASE
 10
0.0
 20
0.0
 30
0.0
  9
$PLIMCHECK
 70
     0
  9
$PEXTMIN
 10
0.0
 20
0.0
 30
0.0
  9
$PEXTMAX
 10
0.0
 20
0.0
 30
0.0
  9
$PLIMMIN
 10
0.0
 20
0.0
  9
$PLIMMAX
 10
0.0
 20
0.0
  9
$UNITMODE
 70
     0
  9
$VISRETAIN
 70
     1
  9
$PLINEGEN
 70
     0
  9
$PSLTSCALE
 70
     1
  9
$TREEDEPTH
 70
  3020
  9
$CMLSTYLE
  2
STANDARD
  9
$CMLJUST
 70
     0
  9
$CMLSCALE
 40
1.0
  9
$PROXYGRAPHICS
 70
     1
  9
$MEASUREMENT
 70
     0
  9
$CELWEIGHT
370
    -1
  9
$ENDCAPS
280
     0
  9
$JOINSTYLE
280
     0
  9
$LWDISPLAY
290
     0
  9
$INSUNITS
 70
     0
  9
$HYPERLINKBASE
  1

  9
$STYLESHEET
  1
MONOCHROME.CTB
  9
$XEDIT
290
     1
  9
$CEPSNTYPE
380
     0
  9
$PSTYLEMODE
290
     1
  9
$FINGERPRINTGUID
  2

  9
$VERSIONGUID
  2
{69B8B9FE-9E2C-4603-812C-D4093BE41606}
  9
$EXTNAMES
290
     1
  9
$PSVPSCALE
 40
0.0
  9
$OLESTARTUP
290
     0
  0
ENDSEC
  0
SECTION
  2
CLASSES
  0
CLASS
  1
ACDBDICTIONARYWDFLT
  2
AcDbDictionaryWithDefault
  3
ObjectDBX Classes
 90
        0
280
     0
281
     0
  0
CLASS
  1
ACDBPLACEHOLDER
  2
AcDbPlaceHolder
  3
ObjectDBX Classes
 90
        0
280
     0
281
     0
  0
CLASS
  1
LAYOUT
  2
AcDbLayout
  3
ObjectDBX Classes
 90
        0
280
     0
281
     0
  0
CLASS
  1
LONG_TRANSACTION
  2
AcDbLongTransaction
  3
ObjectDBX Classes
 90
    32768
280
     0
281
     0
  0
CLASS
  1
LWPOLYLINE
  2
AcDbPolyline
  3
ObjectDBX Classes
 90
        0
280
     0
281
     1
  0
CLASS
  1
HATCH
  2
AcDbHatch
  3
ObjectDBX Classes
 90
    32768
280
     0
281
     1
  0
CLASS
  1
XRECORD
  2
AcDbXrecord
  3
ObjectDBX Classes
 90
        0
280
     0
281
     0
  0
CLASS
  1
LONG_TRANSACTION
  2
AcDbLongTransaction
  3
ObjectDBX Classes
 90
    32768
280
     0
281
     0
  0
CLASS
  1
LWPOLYLINE
  2
AcDbPolyline
  3
ObjectDBX Classes
 90
        0
280
     0
281
     1
  0
CLASS
  1
HATCH
  2
AcDbHatch
  3
ObjectDBX Classes
 90
    32768
280
     0
281
     1
  0
CLASS
  1
XRECORD
  2
AcDbXrecord
  3
ObjectDBX Classes
 90
        0
280
     0
281
     0
  0
CLASS
  1
LONG_TRANSACTION
  2
AcDbLongTransaction
  3
ObjectDBX Classes
 90
    32768
280
     0
281
     0
  0
CLASS
  1
LWPOLYLINE
  2
AcDbPolyline
  3
ObjectDBX Classes
 90
        0
280
     0
281
     1
  0
CLASS
  1
HATCH
  2
AcDbHatch
  3
ObjectDBX Classes
 90
    32768
280
     0
281
     1
  0
CLASS
  1
XRECORD
  2
AcDbXrecord
  3
ObjectDBX Classes
 90
        0
280
     0
281
     0
  0
CLASS
  1
LONG_TRANSACTION
  2
AcDbLongTransaction
  3
ObjectDBX Classes
 90
    32768
280
     0
281
     0
  0
CLASS
  1
LWPOLYLINE
  2
AcDbPolyline
  3
ObjectDBX Classes
 90
        0
280
     0
281
     1
  0
CLASS
  1
HATCH
  2
AcDbHatch
  3
ObjectDBX Classes
 90
    32768
280
     0
281
     1
  0
CLASS
  1
XRECORD
  2
AcDbXrecord
  3
ObjectDBX Classes
 90
        0
280
     0
281
     0
  0
CLASS
  1
LONG_TRANSACTION
  2
AcDbLongTransaction
  3
ObjectDBX Classes
 90
    32768
280
     0
281
     0
  0
CLASS
  1
LWPOLYLINE
  2
AcDbPolyline
  3
ObjectDBX Classes
 90
        0
280
     0
281
     1
  0
CLASS
  1
HATCH
  2
AcDbHatch
  3
ObjectDBX Classes
 90
    32768
280
     0
281
     1
  0
CLASS
  1
XRECORD
  2
AcDbXrecord
  3
ObjectDBX Classes
 90
        0
280
     0
281
     0
  0
CLASS
  1
LONG_TRANSACTION
  2
AcDbLongTransaction
  3
ObjectDBX Classes
 90
    32768
280
     0
281
     0
  0
CLASS
  1
LWPOLYLINE
  2
AcDbPolyline
  3
ObjectDBX Classes
 90
        0
280
     0
281
     1
  0
CLASS
  1
HATCH
  2
AcDbHatch
  3
ObjectDBX Classes
 90
    32768
280
     0
281
     1
  0
CLASS
  1
XRECORD
  2
AcDbXrecord
  3
ObjectDBX Classes
 90
        0
280
     0
281
     0
  0
CLASS
  1
LONG_TRANSACTION
  2
AcDbLongTransaction
  3
ObjectDBX Classes
 90
    32768
280
     0
281
     0
  0
CLASS
  1
LWPOLYLINE
  2
AcDbPolyline
  3
ObjectDBX Classes
 90
        0
280
     0
281
     1
  0
CLASS
  1
HATCH
  2
AcDbHatch
  3
ObjectDBX Classes
 90
    32768
280
     0
281
     1
  0
CLASS
  1
XRECORD
  2
AcDbXrecord
  3
ObjectDBX Classes
 90
        0
280
     0
281
     0
  0
CLASS
  1
LONG_TRANSACTION
  2
AcDbLongTransaction
  3
ObjectDBX Classes
 90
    32768
280
     0
281
     0
  0
CLASS
  1
LWPOLYLINE
  2
AcDbPolyline
  3
ObjectDBX Classes
 90
        0
280
     0
281
     1
  0
CLASS
  1
HATCH
  2
AcDbHatch
  3
ObjectDBX Classes
 90
    32768
280
     0
281
     1
  0
CLASS
  1
XRECORD
  2
AcDbXrecord
  3
ObjectDBX Classes
 90
        0
280
     0
281
     0
  0
CLASS
  1
LONG_TRANSACTION
  2
AcDbLongTransaction
  3
ObjectDBX Classes
 90
    32768
280
     0
281
     0
  0
CLASS
  1
LWPOLYLINE
  2
AcDbPolyline
  3
ObjectDBX Classes
 90
        0
280
     0
281
     1
  0
CLASS
  1
HATCH
  2
AcDbHatch
  3
ObjectDBX Classes
 90
    32768
280
     0
281
     1
  0
CLASS
  1
XRECORD
  2
AcDbXrecord
  3
ObjectDBX Classes
 90
        0
280
     0
281
     0
  0
CLASS
  1
LONG_TRANSACTION
  2
AcDbLongTransaction
  3
ObjectDBX Classes
 90
    32768
280
     0
281
     0
  0
CLASS
  1
LWPOLYLINE
  2
AcDbPolyline
  3
ObjectDBX Classes
 90
        0
280
     0
281
     1
  0
CLASS
  1
HATCH
  2
AcDbHatch
  3
ObjectDBX Classes
 90
    32768
280
     0
281
     1
  0
CLASS
  1
XRECORD
  2
AcDbXrecord
  3
ObjectDBX Classes
 90
        0
280
     0
281
     0
  0
CLASS
  1
LONG_TRANSACTION
  2
AcDbLongTransaction
  3
ObjectDBX Classes
 90
    32768
280
     0
281
     0
  0
CLASS
  1
LWPOLYLINE
  2
AcDbPolyline
  3
ObjectDBX Classes
 90
        0
280
     0
281
     1
  0
CLASS
  1
HATCH
  2
AcDbHatch
  3
ObjectDBX Classes
 90
    32768
280
     0
281
     1
  0
CLASS
  1
XRECORD
  2
AcDbXrecord
  3
ObjectDBX Classes
 90
        0
280
     0
281
     0
  0
CLASS
  1
LONG_TRANSACTION
  2
AcDbLongTransaction
  3
ObjectDBX Classes
 90
    32768
280
     0
281
     0
  0
CLASS
  1
LWPOLYLINE
  2
AcDbPolyline
  3
ObjectDBX Classes
 90
        0
280
     0
281
     1
  0
CLASS
  1
HATCH
  2
AcDbHatch
  3
ObjectDBX Classes
 90
    32768
280
     0
281
     1
  0
CLASS
  1
XRECORD
  2
AcDbXrecord
  3
ObjectDBX Classes
 90
        0
280
     0
281
     0
  0
CLASS
  1
LONG_TRANSACTION
  2
AcDbLongTransaction
  3
ObjectDBX Classes
 90
    32768
280
     0
281
     0
  0
CLASS
  1
LWPOLYLINE
  2
AcDbPolyline
  3
ObjectDBX Classes
 90
        0
280
     0
281
     1
  0
CLASS
  1
HATCH
  2
AcDbHatch
  3
ObjectDBX Classes
 90
    32768
280
     0
281
     1
  0
CLASS
  1
XRECORD
  2
AcDbXrecord
  3
ObjectDBX Classes
 90
        0
280
     0
281
     0
  0
CLASS
  1
LONG_TRANSACTION
  2
AcDbLongTransaction
  3
ObjectDBX Classes
 90
    32768
280
     0
281
     0
  0
CLASS
  1
LWPOLYLINE
  2
AcDbPolyline
  3
ObjectDBX Classes
 90
        0
280
     0
281
     1
  0
CLASS
  1
HATCH
  2
AcDbHatch
  3
ObjectDBX Classes
 90
    32768
280
     0
281
     1
  0
CLASS
  1
XRECORD
  2
AcDbXrecord
  3
ObjectDBX Classes
 90
        0
280
     0
281
     0
  0
CLASS
  1
LONG_TRANSACTION
  2
AcDbLongTransaction
  3
ObjectDBX Classes
 90
    32768
280
     0
281
     0
  0
CLASS
  1
LWPOLYLINE
  2
AcDbPolyline
  3
ObjectDBX Classes
 90
        0
280
     0
281
     1
  0
CLASS
  1
HATCH
  2
AcDbHatch
  3
ObjectDBX Classes
 90
    32768
280
     0
281
     1
  0
CLASS
  1
XRECORD
  2
AcDbXrecord
  3
ObjectDBX Classes
 90
        0
280
     0
281
     0
  0
CLASS
  1
LONG_TRANSACTION
  2
AcDbLongTransaction
  3
ObjectDBX Classes
 90
    32768
280
     0
281
     0
  0
CLASS
  1
LWPOLYLINE
  2
AcDbPolyline
  3
ObjectDBX Classes
 90
        0
280
     0
281
     1
  0
CLASS
  1
HATCH
  2
AcDbHatch
  3
ObjectDBX Classes
 90
    32768
280
     0
281
     1
  0
CLASS
  1
XRECORD
  2
AcDbXrecord
  3
ObjectDBX Classes
 90
        0
280
     0
281
     0
  0
CLASS
  1
LONG_TRANSACTION
  2
AcDbLongTransaction
  3
ObjectDBX Classes
 90
    32768
280
     0
281
     0
  0
CLASS
  1
LWPOLYLINE
  2
AcDbPolyline
  3
ObjectDBX Classes
 90
        0
280
     0
281
     1
  0
CLASS
  1
HATCH
  2
AcDbHatch
  3
ObjectDBX Classes
 90
    32768
280
     0
281
     1
  0
CLASS
  1
XRECORD
  2
AcDbXrecord
  3
ObjectDBX Classes
 90
        0
280
     0
281
     0
  0
CLASS
  1
LONG_TRANSACTION
  2
AcDbLongTransaction
  3
ObjectDBX Classes
 90
    32768
280
     0
281
     0
  0
CLASS
  1
LWPOLYLINE
  2
AcDbPolyline
  3
ObjectDBX Classes
 90
        0
280
     0
281
     1
  0
CLASS
  1
HATCH
  2
AcDbHatch
  3
ObjectDBX Classes
 90
    32768
280
     0
281
     1
  0
CLASS
  1
XRECORD
  2
AcDbXrecord
  3
ObjectDBX Classes
 90
        0
280
     0
281
     0
  0
CLASS
  1
LONG_TRANSACTION
  2
AcDbLongTransaction
  3
ObjectDBX Classes
 90
    32768
280
     0
281
     0
  0
CLASS
  1
LWPOLYLINE
  2
AcDbPolyline
  3
ObjectDBX Classes
 90
        0
280
     0
281
     1
  0
CLASS
  1
HATCH
  2
AcDbHatch
  3
ObjectDBX Classes
 90
    32768
280
     0
281
     1
  0
CLASS
  1
XRECORD
  2
AcDbXrecord
  3
ObjectDBX Classes
 90
        0
280
     0
281
     0
  0
CLASS
  1
LONG_TRANSACTION
  2
AcDbLongTransaction
  3
ObjectDBX Classes
 90
    32768
280
     0
281
     0
  0
CLASS
  1
LWPOLYLINE
  2
AcDbPolyline
  3
ObjectDBX Classes
 90
        0
280
     0
281
     1
  0
CLASS
  1
HATCH
  2
AcDbHatch
  3
ObjectDBX Classes
 90
    32768
280
     0
281
     1
  0
CLASS
  1
XRECORD
  2
AcDbXrecord
  3
ObjectDBX Classes
 90
        0
280
     0
281
     0
  0
CLASS
  1
LONG_TRANSACTION
  2
AcDbLongTransaction
  3
ObjectDBX Classes
 90
    32768
280
     0
281
     0
  0
CLASS
  1
LWPOLYLINE
  2
AcDbPolyline
  3
ObjectDBX Classes
 90
        0
280
     0
281
     1
  0
CLASS
  1
HATCH
  2
AcDbHatch
  3
ObjectDBX Classes
 90
    32768
280
     0
281
     1
  0
CLASS
  1
XRECORD
  2
AcDbXrecord
  3
ObjectDBX Classes
 90
        0
280
     0
281
     0
  0
CLASS
  1
LONG_TRANSACTION
  2
AcDbLongTransaction
  3
ObjectDBX Classes
 90
    32768
280
     0
281
     0
  0
CLASS
  1
LWPOLYLINE
  2
AcDbPolyline
  3
ObjectDBX Classes
 90
        0
280
     0
281
     1
  0
CLASS
  1
HATCH
  2
AcDbHatch
  3
ObjectDBX Classes
 90
    32768
280
     0
281
     1
  0
CLASS
  1
XRECORD
  2
AcDbXrecord
  3
ObjectDBX Classes
 90
        0
280
     0
281
     0
  0
CLASS
  1
LONG_TRANSACTION
  2
AcDbLongTransaction
  3
ObjectDBX Classes
 90
    32768
280
     0
281
     0
  0
CLASS
  1
LWPOLYLINE
  2
AcDbPolyline
  3
ObjectDBX Classes
 90
        0
280
     0
281
     1
  0
CLASS
  1
HATCH
  2
AcDbHatch
  3
ObjectDBX Classes
 90
    32768
280
     0
281
     1
  0
CLASS
  1
XRECORD
  2
AcDbXrecord
  3
ObjectDBX Classes
 90
        0
280
     0
281
     0
  0
CLASS
  1
LONG_TRANSACTION
  2
AcDbLongTransaction
  3
ObjectDBX Classes
 90
    32768
280
     0
281
     0
  0
CLASS
  1
LWPOLYLINE
  2
AcDbPolyline
  3
ObjectDBX Classes
 90
        0
280
     0
281
     1
  0
CLASS
  1
HATCH
  2
AcDbHatch
  3
ObjectDBX Classes
 90
    32768
280
     0
281
     1
  0
CLASS
  1
XRECORD
  2
AcDbXrecord
  3
ObjectDBX Classes
 90
        0
280
     0
281
     0
  0
CLASS
  1
LONG_TRANSACTION
  2
AcDbLongTransaction
  3
ObjectDBX Classes
 90
    32768
280
     0
281
     0
  0
CLASS
  1
LWPOLYLINE
  2
AcDbPolyline
  3
ObjectDBX Classes
 90
        0
280
     0
281
     1
  0
CLASS
  1
HATCH
  2
AcDbHatch
  3
ObjectDBX Classes
 90
    32768
280
     0
281
     1
  0
CLASS
  1
XRECORD
  2
AcDbXrecord
  3
ObjectDBX Classes
 90
        0
280
     0
281
     0
  0
CLASS
  1
LONG_TRANSACTION
  2
AcDbLongTransaction
  3
ObjectDBX Classes
 90
    32768
280
     0
281
     0
  0
CLASS
  1
LWPOLYLINE
  2
AcDbPolyline
  3
ObjectDBX Classes
 90
        0
280
     0
281
     1
  0
CLASS
  1
HATCH
  2
AcDbHatch
  3
ObjectDBX Classes
 90
    32768
280
     0
281
     1
  0
CLASS
  1
XRECORD
  2
AcDbXrecord
  3
ObjectDBX Classes
 90
        0
280
     0
281
     0
  0
CLASS
  1
LONG_TRANSACTION
  2
AcDbLongTransaction
  3
ObjectDBX Classes
 90
    32768
280
     0
281
     0
  0
CLASS
  1
LWPOLYLINE
  2
AcDbPolyline
  3
ObjectDBX Classes
 90
        0
280
     0
281
     1
  0
CLASS
  1
HATCH
  2
AcDbHatch
  3
ObjectDBX Classes
 90
    32768
280
     0
281
     1
  0
CLASS
  1
XRECORD
  2
AcDbXrecord
  3
ObjectDBX Classes
 90
        0
280
     0
281
     0
  0
CLASS
  1
LONG_TRANSACTION
  2
AcDbLongTransaction
  3
ObjectDBX Classes
 90
    32768
280
     0
281
     0
  0
CLASS
  1
LWPOLYLINE
  2
AcDbPolyline
  3
ObjectDBX Classes
 90
        0
280
     0
281
     1
  0
CLASS
  1
HATCH
  2
AcDbHatch
  3
ObjectDBX Classes
 90
    32768
280
     0
281
     1
  0
CLASS
  1
XRECORD
  2
AcDbXrecord
  3
ObjectDBX Classes
 90
        0
280
     0
281
     0
  0
CLASS
  1
LONG_TRANSACTION
  2
AcDbLongTransaction
  3
ObjectDBX Classes
 90
    32768
280
     0
281
     0
  0
CLASS
  1
LWPOLYLINE
  2
AcDbPolyline
  3
ObjectDBX Classes
 90
        0
280
     0
281
     1
  0
CLASS
  1
HATCH
  2
AcDbHatch
  3
ObjectDBX Classes
 90
    32768
280
     0
281
     1
  0
CLASS
  1
XRECORD
  2
AcDbXrecord
  3
ObjectDBX Classes
 90
        0
280
     0
281
     0
  0
CLASS
  1
LONG_TRANSACTION
  2
AcDbLongTransaction
  3
ObjectDBX Classes
 90
    32768
280
     0
281
     0
  0
CLASS
  1
LWPOLYLINE
  2
AcDbPolyline
  3
ObjectDBX Classes
 90
        0
280
     0
281
     1
  0
CLASS
  1
HATCH
  2
AcDbHatch
  3
ObjectDBX Classes
 90
    32768
280
     0
281
     1
  0
CLASS
  1
XRECORD
  2
AcDbXrecord
  3
ObjectDBX Classes
 90
        0
280
     0
281
     0
  0
CLASS
  1
LONG_TRANSACTION
  2
AcDbLongTransaction
  3
ObjectDBX Classes
 90
    32768
280
     0
281
     0
  0
CLASS
  1
LWPOLYLINE
  2
AcDbPolyline
  3
ObjectDBX Classes
 90
        0
280
     0
281
     1
  0
CLASS
  1
HATCH
  2
AcDbHatch
  3
ObjectDBX Classes
 90
    32768
280
     0
281
     1
  0
CLASS
  1
XRECORD
  2
AcDbXrecord
  3
ObjectDBX Classes
 90
        0
280
     0
281
     0
  0
CLASS
  1
LONG_TRANSACTION
  2
AcDbLongTransaction
  3
ObjectDBX Classes
 90
    32768
280
     0
281
     0
  0
CLASS
  1
LWPOLYLINE
  2
AcDbPolyline
  3
ObjectDBX Classes
 90
        0
280
     0
281
     1
  0
CLASS
  1
HATCH
  2
AcDbHatch
  3
ObjectDBX Classes
 90
    32768
280
     0
281
     1
  0
CLASS
  1
XRECORD
  2
AcDbXrecord
  3
ObjectDBX Classes
 90
        0
280
     0
281
     0
  0
CLASS
  1
LONG_TRANSACTION
  2
AcDbLongTransaction
  3
ObjectDBX Classes
 90
    32768
280
     0
281
     0
  0
CLASS
  1
LWPOLYLINE
  2
AcDbPolyline
  3
ObjectDBX Classes
 90
        0
280
     0
281
     1
  0
CLASS
  1
HATCH
  2
AcDbHatch
  3
ObjectDBX Classes
 90
    32768
280
     0
281
     1
  0
CLASS
  1
XRECORD
  2
AcDbXrecord
  3
ObjectDBX Classes
 90
        0
280
     0
281
     0
  0
CLASS
  1
DICTIONARYVAR
  2
AcDbDictionaryVar
  3
ObjectDBX Classes
 90
        0
280
     0
281
     0
  0
CLASS
  1
LONG_TRANSACTION
  2
AcDbLongTransaction
  3
ObjectDBX Classes
 90
    32768
280
     0
281
     0
  0
CLASS
  1
LWPOLYLINE
  2
AcDbPolyline
  3
ObjectDBX Classes
 90
        0
280
     0
281
     1
  0
CLASS
  1
HATCH
  2
AcDbHatch
  3
ObjectDBX Classes
 90
    32768
280
     0
281
     1
  0
CLASS
  1
XRECORD
  2
AcDbXrecord
  3
ObjectDBX Classes
 90
        0
280
     0
281
     0
  0
CLASS
  1
LONG_TRANSACTION
  2
AcDbLongTransaction
  3
ObjectDBX Classes
 90
    32768
280
     0
281
     0
  0
CLASS
  1
LWPOLYLINE
  2
AcDbPolyline
  3
ObjectDBX Classes
 90
        0
280
     0
281
     1
  0
CLASS
  1
HATCH
  2
AcDbHatch
  3
ObjectDBX Classes
 90
    32768
280
     0
281
     1
  0
CLASS
  1
XRECORD
  2
AcDbXrecord
  3
ObjectDBX Classes
 90
        0
280
     0
281
     0
  0
CLASS
  1
LONG_TRANSACTION
  2
AcDbLongTransaction
  3
ObjectDBX Classes
 90
    32768
280
     0
281
     0
  0
CLASS
  1
LWPOLYLINE
  2
AcDbPolyline
  3
ObjectDBX Classes
 90
        0
280
     0
281
     1
  0
CLASS
  1
HATCH
  2
AcDbHatch
  3
ObjectDBX Classes
 90
    32768
280
     0
281
     1
  0
CLASS
  1
XRECORD
  2
AcDbXrecord
  3
ObjectDBX Classes
 90
        0
280
     0
281
     0
  0
CLASS
  1
LONG_TRANSACTION
  2
AcDbLongTransaction
  3
ObjectDBX Classes
 90
    32768
280
     0
281
     0
  0
CLASS
  1
LWPOLYLINE
  2
AcDbPolyline
  3
ObjectDBX Classes
 90
        0
280
     0
281
     1
  0
CLASS
  1
HATCH
  2
AcDbHatch
  3
ObjectDBX Classes
 90
    32768
280
     0
281
     1
  0
CLASS
  1
XRECORD
  2
AcDbXrecord
  3
ObjectDBX Classes
 90
        0
280
     0
281
     0
  0
CLASS
  1
LONG_TRANSACTION
  2
AcDbLongTransaction
  3
ObjectDBX Classes
 90
    32768
280
     0
281
     0
  0
CLASS
  1
LWPOLYLINE
  2
AcDbPolyline
  3
ObjectDBX Classes
 90
        0
280
     0
281
     1
  0
CLASS
  1
HATCH
  2
AcDbHatch
  3
ObjectDBX Classes
 90
    32768
280
     0
281
     1
  0
CLASS
  1
XRECORD
  2
AcDbXrecord
  3
ObjectDBX Classes
 90
        0
280
     0
281
     0
  0
CLASS
  1
LONG_TRANSACTION
  2
AcDbLongTransaction
  3
ObjectDBX Classes
 90
    32768
280
     0
281
     0
  0
CLASS
  1
LWPOLYLINE
  2
AcDbPolyline
  3
ObjectDBX Classes
 90
        0
280
     0
281
     1
  0
CLASS
  1
HATCH
  2
AcDbHatch
  3
ObjectDBX Classes
 90
    32768
280
     0
281
     1
  0
CLASS
  1
XRECORD
  2
AcDbXrecord
  3
ObjectDBX Classes
 90
        0
280
     0
281
     0
  0
CLASS
  1
LONG_TRANSACTION
  2
AcDbLongTransaction
  3
ObjectDBX Classes
 90
    32768
280
     0
281
     0
  0
CLASS
  1
LWPOLYLINE
  2
AcDbPolyline
  3
ObjectDBX Classes
 90
        0
280
     0
281
     1
  0
CLASS
  1
HATCH
  2
AcDbHatch
  3
ObjectDBX Classes
 90
    32768
280
     0
281
     1
  0
CLASS
  1
XRECORD
  2
AcDbXrecord
  3
ObjectDBX Classes
 90
        0
280
     0
281
     0
  0
CLASS
  1
LONG_TRANSACTION
  2
AcDbLongTransaction
  3
ObjectDBX Classes
 90
    32768
280
     0
281
     0
  0
CLASS
  1
LWPOLYLINE
  2
AcDbPolyline
  3
ObjectDBX Classes
 90
        0
280
     0
281
     1
  0
CLASS
  1
HATCH
  2
AcDbHatch
  3
ObjectDBX Classes
 90
    32768
280
     0
281
     1
  0
CLASS
  1
XRECORD
  2
AcDbXrecord
  3
ObjectDBX Classes
 90
        0
280
     0
281
     0
  0
CLASS
  1
LONG_TRANSACTION
  2
AcDbLongTransaction
  3
ObjectDBX Classes
 90
    32768
280
     0
281
     0
  0
CLASS
  1
LWPOLYLINE
  2
AcDbPolyline
  3
ObjectDBX Classes
 90
        0
280
     0
281
     1
  0
CLASS
  1
HATCH
  2
AcDbHatch
  3
ObjectDBX Classes
 90
    32768
280
     0
281
     1
  0
CLASS
  1
XRECORD
  2
AcDbXrecord
  3
ObjectDBX Classes
 90
        0
280
     0
281
     0
  0
CLASS
  1
LONG_TRANSACTION
  2
AcDbLongTransaction
  3
ObjectDBX Classes
 90
    32768
280
     0
281
     0
  0
CLASS
  1
LWPOLYLINE
  2
AcDbPolyline
  3
ObjectDBX Classes
 90
        0
280
     0
281
     1
  0
CLASS
  1
HATCH
  2
AcDbHatch
  3
ObjectDBX Classes
 90
    32768
280
     0
281
     1
  0
CLASS
  1
XRECORD
  2
AcDbXrecord
  3
ObjectDBX Classes
 90
        0
280
     0
281
     0
  0
CLASS
  1
LONG_TRANSACTION
  2
AcDbLongTransaction
  3
ObjectDBX Classes
 90
    32768
280
     0
281
     0
  0
CLASS
  1
LWPOLYLINE
  2
AcDbPolyline
  3
ObjectDBX Classes
 90
        0
280
     0
281
     1
  0
CLASS
  1
HATCH
  2
AcDbHatch
  3
ObjectDBX Classes
 90
    32768
280
     0
281
     1
  0
CLASS
  1
XRECORD
  2
AcDbXrecord
  3
ObjectDBX Classes
 90
        0
280
     0
281
     0
  0
CLASS
  1
LONG_TRANSACTION
  2
AcDbLongTransaction
  3
ObjectDBX Classes
 90
    32768
280
     0
281
     0
  0
CLASS
  1
LWPOLYLINE
  2
AcDbPolyline
  3
ObjectDBX Classes
 90
        0
280
     0
281
     1
  0
CLASS
  1
HATCH
  2
AcDbHatch
  3
ObjectDBX Classes
 90
    32768
280
     0
281
     1
  0
CLASS
  1
XRECORD
  2
AcDbXrecord
  3
ObjectDBX Classes
 90
        0
280
     0
281
     0
  0
CLASS
  1
LONG_TRANSACTION
  2
AcDbLongTransaction
  3
ObjectDBX Classes
 90
    32768
280
     0
281
     0
  0
CLASS
  1
LWPOLYLINE
  2
AcDbPolyline
  3
ObjectDBX Classes
 90
        0
280
     0
281
     1
  0
CLASS
  1
HATCH
  2
AcDbHatch
  3
ObjectDBX Classes
 90
    32768
280
     0
281
     1
  0
CLASS
  1
XRECORD
  2
AcDbXrecord
  3
ObjectDBX Classes
 90
        0
280
     0
281
     0
  0
CLASS
  1
LONG_TRANSACTION
  2
AcDbLongTransaction
  3
ObjectDBX Classes
 90
    32768
280
     0
281
     0
  0
CLASS
  1
LWPOLYLINE
  2
AcDbPolyline
  3
ObjectDBX Classes
 90
        0
280
     0
281
     1
  0
CLASS
  1
HATCH
  2
AcDbHatch
  3
ObjectDBX Classes
 90
    32768
280
     0
281
     1
  0
CLASS
  1
XRECORD
  2
AcDbXrecord
  3
ObjectDBX Classes
 90
        0
280
     0
281
     0
  0
CLASS
  1
LONG_TRANSACTION
  2
AcDbLongTransaction
  3
ObjectDBX Classes
 90
    32768
280
     0
281
     0
  0
CLASS
  1
LWPOLYLINE
  2
AcDbPolyline
  3
ObjectDBX Classes
 90
        0
280
     0
281
     1
  0
CLASS
  1
HATCH
  2
AcDbHatch
  3
ObjectDBX Classes
 90
    32768
280
     0
281
     1
  0
CLASS
  1
XRECORD
  2
AcDbXrecord
  3
ObjectDBX Classes
 90
        0
280
     0
281
     0
  0
CLASS
  1
MATERIAL
  2
AcDbMaterial
  3
ObjectDBX Classes
 90
     1153
280
     0
281
     0
  0
CLASS
  1
VISUALSTYLE
  2
AcDbVisualStyle
  3
ObjectDBX Classes
 90
     4095
280
     0
281
     0
  0
CLASS
  1
TABLESTYLE
  2
AcDbTableStyle
  3
ObjectDBX Classes
 90
     4095
280
     0
281
     0
  0
CLASS
  1
SCALE
  2
AcDbScale
  3
ObjectDBX Classes
 90
     1153
280
     0
281
     0
  0
CLASS
  1
MLEADERSTYLE
  2
AcDbMLeaderStyle
  3
ACDB_MLEADERSTYLE_CLASS
 90
     4095
280
     0
281
     0
  0
CLASS
  1
CELLSTYLEMAP
  2
AcDbCellStyleMap
  3
ObjectDBX Classes
 90
     1152
280
     0
281
     0
  0
CLASS
  1
SORTENTSTABLE
  2
AcDbSortentsTable
  3
ObjectDBX Classes
 90
        0
280
     0
281
     0
  0
CLASS
  1
AEC_REFEDIT_STATUS_TRACKER
  2
AecDbRefEditStatusTracker
  3
AecArchBase60|Product Desc: Autodesk Architectural Desktop 2007 |Company: Autodesk,Inc. |WEB Address: www.autodesk.com
 90
      129
280
     0
281
     0
  0
CLASS
  1
NPOCOLLECTION
  2
AcDbImpNonPersistentObjectsCollection
  3
ObjectDBX Classes
 90
     1153
280
     0
281
     0
  0
ENDSEC
  0
SECTION
  2
TABLES
  0
TABLE
  2
VPORT
  5
8
330
0
100
AcDbSymbolTable
 70
     1
  0
VPORT
  5
EB91
330
8
100
AcDbSymbolTableRecord
100
AcDbViewportTableRecord
  2
*Active
 70
     0
 10
0.0
 20
0.0
 11
1.0
 21
1.0
 12
32.6240431941396
 22
133.7739606594823
 13
0.0
 23
0.0
 14
1.0
 24
1.0
 15
10.0
 25
10.0
 16
0.0
 26
0.0
 36
1.0
 17
0.0
 27
0.0
 37
0.0
 40
692.8808351434475
 41
1.243496357960457
 42
50.0
 43
0.0
 44
0.0
 50
0.0
 51
0.0
 71
     0
 72
   100
 73
     1
 74
     1
 75
     1
 76
     1
 77
     0
 78
     1
281
     0
 65
     1
110
0.0
120
0.0
130
0.0
111
1.0
121
0.0
131
0.0
112
0.0
122
1.0
132
0.0
 79
     0
146
0.0
  0
ENDTAB
  0
TABLE
  2
LTYPE
  5
5
330
0
100
AcDbSymbolTable
 70
     9
  0
LTYPE
  5
13
330
5
100
AcDbSymbolTableRecord
100
AcDbLinetypeTableRecord
  2
BYBLOCK
 70
     0
  3

 72
    65
 73
     0
 40
0.0
  0
LTYPE
  5
14
330
5
100
AcDbSymbolTableRecord
100
AcDbLinetypeTableRecord
  2
BYLAYER
 70
     0
  3

 72
    65
 73
     0
 40
0.0
  0
LTYPE
  5
15
330
5
100
AcDbSymbolTableRecord
100
AcDbLinetypeTableRecord
  2
CONTINUOUS
 70
     0
  3
Solid line
 72
    65
 73
     0
 40
0.0
  0
LTYPE
  5
22
330
5
100
AcDbSymbolTableRecord
100
AcDbLinetypeTableRecord
  2
CONTINOUS
 70
     0
  3
Solid line
 72
    65
 73
     0
 40
0.0
  0
LTYPE
  5
23
330
5
100
AcDbSymbolTableRecord
100
AcDbLinetypeTableRecord
  2
DASHED
 70
     0
  3
__ __ __ __ __ __ __ __ __ __ __ __ __ __ __
 72
    65
 73
     2
 40
0.75
 49
0.5
 74
     0
 49
-0.25
 74
     0
  0
LTYPE
  5
24
330
5
100
AcDbSymbolTableRecord
100
AcDbLinetypeTableRecord
  2
DASHDOT
 70
     0
  3
__ . __ . __ . __ . __ . __ . __ . __ . __ . __
 72
    65
 73
     4
 40
1.0
 49
0.5
 74
     0
 49
-0.25
 74
     0
 49
0.0
 74
     0
 49
-0.25
 74
     0
  0
LTYPE
  5
4C47
330
5
100
AcDbSymbolTableRecord
100
AcDbLinetypeTableRecord
  2
DIVIDE
 70
     0
  3
Divide ____ . . ____ . . ____ . . ____ . . ____
 72
    65
 73
     6
 40
1.25
 49
0.5
 74
     0
 49
-0.25
 74
     0
 49
0.0
 74
     0
 49
-0.25
 74
     0
 49
0.0
 74
     0
 49
-0.25
 74
     0
  0
LTYPE
  5
6265
330
5
100
AcDbSymbolTableRecord
100
AcDbLinetypeTableRecord
  2
CENTER
 70
     0
  3
Center ____ _ ____ _ ____ _ ____ _ ____ _ ____
 72
    65
 73
     4
 40
50.8
 49
31.75
 74
     0
 49
-6.349999999999997
 74
     0
 49
6.349999999999997
 74
     0
 49
-6.349999999999997
 74
     0
  0
LTYPE
  5
685F
330
5
100
AcDbSymbolTableRecord
100
AcDbLinetypeTableRecord
  2
PHANTOM
 70
     0
  3
Phantom ______  __  __  ______  __  __  ______
 72
    65
 73
     6
 40
63.5
 49
31.75
 74
     0
 49
-6.349999999999997
 74
     0
 49
6.349999999999997
 74
     0
 49
-6.349999999999997
 74
     0
 49
6.349999999999997
 74
     0
 49
-6.349999999999997
 74
     0
  0
LTYPE
  5
6FA1
330
5
100
AcDbSymbolTableRecord
100
AcDbLinetypeTableRecord
  2
HIDDEN
 70
     0
  3
_ _ _ _ _ _ _ _ _ _ _ _ _ _ _ _ _ _ _ _ _ _ _
 72
    65
 73
     2
 40
0.5
 49
0.25
 74
     0
 49
-0.25
 74
     0
  0
ENDTAB
  0
TABLE
  2
LAYER
  5
2
330
0
100
AcDbSymbolTable
 70
    19
  0
LAYER
  5
10
102
{ACAD_XDICTIONARY
360
E512
102
}
330
2
100
AcDbSymbolTableRecord
100
AcDbLayerTableRecord
  2
0
 70
     0
 62
     7
  6
CONTINOUS
370
    -3
390
F
  0
LAYER
  5
2F
102
{ACAD_XDICTIONARY
360
E514
102
}
330
2
100
AcDbSymbolTableRecord
100
AcDbLayerTableRecord
  2
10
 70
     0
 62
     1
  6
CONTINOUS
370
    -3
390
F
  0
LAYER
  5
31
102
{ACAD_XDICTIONARY
360
E516
102
}
330
2
100
AcDbSymbolTableRecord
100
AcDbLayerTableRecord
  2
12
 70
     0
 62
     3
  6
DASHED
370
    -3
390
F
  0
LAYER
  5
35
102
{ACAD_XDICTIONARY
360
E518
102
}
330
2
100
AcDbSymbolTableRecord
100
AcDbLayerTableRecord
  2
16
 70
     0
 62
     6
  6
DASHDOT
370
    -3
390
F
  0
LAYER
  5
38
102
{ACAD_XDICTIONARY
360
E51A
102
}
330
2
100
AcDbSymbolTableRecord
100
AcDbLayerTableRecord
  2
19
 70
     0
 62
     7
  6
CONTINOUS
370
    -3
390
F
  0
LAYER
  5
3D
102
{ACAD_XDICTIONARY
360
E51C
102
}
330
2
100
AcDbSymbolTableRecord
100
AcDbLayerTableRecord
  2
24
 70
     0
 62
     2
  6
CONTINOUS
370
    -3
390
F
  0
LAYER
  5
3A2
102
{ACAD_XDICTIONARY
360
E51E
102
}
330
2
100
AcDbSymbolTableRecord
100
AcDbLayerTableRecord
  2
30
 70
     0
 62
     9
  6
CONTINUOUS
370
    -3
390
F
  0
LAYER
  5
3A4
330
2
100
AcDbSymbolTableRecord
100
AcDbLayerTableRecord
  2
DEFPOINTS
 70
     0
 62
     7
  6
CONTINUOUS
290
     0
370
    -3
390
F
  0
LAYER
  5
3BBA
102
{ACAD_XDICTIONARY
360
E520
102
}
330
2
100
AcDbSymbolTableRecord
100
AcDbLayerTableRecord
  2
18
 70
     0
 62
     5
  6
DIVIDE
370
    -3
390
F
  0
LAYER
  5
67A8
102
{ACAD_XDICTIONARY
360
E522
102
}
330
2
100
AcDbSymbolTableRecord
100
AcDbLayerTableRecord
  2
11
 70
     0
 62
    11
  6
CONTINOUS
370
    -3
390
F
  0
LAYER
  5
7837
102
{ACAD_XDICTIONARY
360
E524
102
}
330
2
100
AcDbSymbolTableRecord
100
AcDbLayerTableRecord
  2
17
 70
     0
 62
     2
  6
DASHDOT
370
    -3
390
F
  0
LAYER
  5
7BC8
102
{ACAD_XDICTIONARY
360
E526
102
}
330
2
100
AcDbSymbolTableRecord
100
AcDbLayerTableRecord
  2
1
 70
     0
 62
     7
  6
CONTINUOUS
370
    -3
390
F
  0
LAYER
  5
C4FD
102
{ACAD_XDICTIONARY
360
E528
102
}
330
2
100
AcDbSymbolTableRecord
100
AcDbLayerTableRecord
  2
4
 70
     0
 62
     7
  6
CONTINUOUS
370
    -3
390
F
  0
LAYER
  5
C4FE
102
{ACAD_XDICTIONARY
360
E52A
102
}
330
2
100
AcDbSymbolTableRecord
100
AcDbLayerTableRecord
  2
2
 70
     0
 62
     7
  6
CONTINUOUS
370
    -3
390
F
  0
LAYER
  5
C4FF
102
{ACAD_XDICTIONARY
360
E52C
102
}
330
2
100
AcDbSymbolTableRecord
100
AcDbLayerTableRecord
  2
3
 70
     0
 62
     7
  6
CONTINUOUS
370
    -3
390
F
  0
LAYER
  5
C500
102
{ACAD_XDICTIONARY
360
E52E
102
}
330
2
100
AcDbSymbolTableRecord
100
AcDbLayerTableRecord
  2
240
 70
     0
 62
     7
  6
CONTINUOUS
370
    -3
390
F
  0
LAYER
  5
C501
102
{ACAD_XDICTIONARY
360
E530
102
}
330
2
100
AcDbSymbolTableRecord
100
AcDbLayerTableRecord
  2
5
 70
     0
 62
     7
  6
CONTINUOUS
370
    -3
390
F
  0
LAYER
  5
C502
102
{ACAD_XDICTIONARY
360
E532
102
}
330
2
100
AcDbSymbolTableRecord
100
AcDbLayerTableRecord
  2
6
 70
     0
 62
     7
  6
CONTINUOUS
370
    -3
390
F
  0
LAYER
  5
E473
102
{ACAD_XDICTIONARY
360
E534
102
}
330
2
100
AcDbSymbolTableRecord
100
AcDbLayerTableRecord
  2
130
 70
     0
 62
     4
  6
CONTINUOUS
370
    -3
390
F
  0
ENDTAB
  0
TABLE
  2
STYLE
  5
3
330
0
100
AcDbSymbolTable
 70
     3
  0
STYLE
  5
11
330
3
100
AcDbSymbolTableRecord
100
AcDbTextStyleTableRecord
  2
STANDARD
 70
     0
 40
0.0
 41
1.0
 50
0.0
 71
     0
 42
2.0
  3
txt.shx
  4
bigfont.shx
  0
STYLE
  5
C503
330
3
100
AcDbSymbolTableRecord
100
AcDbTextStyleTableRecord
  2
blockfont
 70
     0
 40
0.0
 41
1.0
 50
0.0
 71
     0
 42
0.2
  3
simplex.shx
  4
bigfont
  0
STYLE
  5
EBD5
330
3
100
AcDbSymbolTableRecord
100
AcDbTextStyleTableRecord
  2
STANDARD1
 70
     0
 40
0.0
 41
1.0
 50
0.0
 71
     0
 42
5.0
  3
MONOTXT
  4
BIGFONT
  0
ENDTAB
  0
TABLE
  2
VIEW
  5
6
330
0
100
AcDbSymbolTable
 70
     3
  0
VIEW
  5
230C
330
6
100
AcDbSymbolTableRecord
100
AcDbViewTableRecord
  2
OLE1
 70
     0
 40
148.912488
 10
429.497628
 20
2.560627
 41
103.145806
 11
0.0
 21
0.0
 31
1.0
 12
0.0
 22
0.0
 32
0.0
 42
50.0
 43
0.0
 44
0.0
 50
0.0
 71
     0
281
     0
 72
     0
  0
VIEW
  5
230E
330
6
100
AcDbSymbolTableRecord
100
AcDbViewTableRecord
  2
OLE2
 70
     0
 40
170.778692
 10
322.66497
 20
-5.978304
 41
102.467215
 11
0.0
 21
0.0
 31
1.0
 12
0.0
 22
0.0
 32
0.0
 42
50.0
 43
0.0
 44
0.0
 50
0.0
 71
     0
281
     0
 72
     0
  0
VIEW
  5
23AA
330
6
100
AcDbSymbolTableRecord
100
AcDbViewTableRecord
  2
OLE3
 70
     0
 40
591.7897389999998
 10
84.79698199999999
 20
-46.09335999999998
 41
388.792096
 11
0.0
 21
0.0
 31
1.0
 12
0.0
 22
0.0
 32
0.0
 42
50.0
 43
0.0
 44
0.0
 50
0.0
 71
     0
281
     0
 72
     0
  0
ENDTAB
  0
TABLE
  2
UCS
  5
7
330
0
100
AcDbSymbolTable
 70
     0
  0
ENDTAB
  0
TABLE
  2
APPID
  5
9
330
0
100
AcDbSymbolTable
 70
     6
  0
APPID
  5
12
330
9
100
AcDbSymbolTableRecord
100
AcDbRegAppTableRecord
  2
ACAD
 70
     0
  0
APPID
  5
ECD
330
9
100
AcDbSymbolTableRecord
100
AcDbRegAppTableRecord
  2
CONTENTBLOCKICON
 70
     0
  0
APPID
  5
E538
330
9
100
AcDbSymbolTableRecord
100
AcDbRegAppTableRecord
  2
DCO15
 70
     0
  0
APPID
  5
E57E
330
9
100
AcDbSymbolTableRecord
100
AcDbRegAppTableRecord
  2
ACAD_MLEADERVER
 70
     0
  0
APPID
  5
E595
330
9
100
AcDbSymbolTableRecord
100
AcDbRegAppTableRecord
  2
ACAD_PSEXT
 70
     0
  0
APPID
  5
E7CC
330
9
100
AcDbSymbolTableRecord
100
AcDbRegAppTableRecord
  2
ACAD_EXEMPT_FROM_CAD_STANDARDS
 70
     0
  0
ENDTAB
  0
TABLE
  2
DIMSTYLE
  5
A
330
0
100
AcDbSymbolTable
 70
     2
100
AcDbDimStyleTable
 71
     2
340
C24A
340
175
  0
DIMSTYLE
105
175
330
A
100
AcDbSymbolTableRecord
100
AcDbDimStyleTableRecord
  2
STANDARD
 70
     0
 41
2.0
 42
1.0
 43
0.5
 44
0.5
 73
     0
 77
     3
 78
    12
140
4.0
147
1.0
271
     1
272
     1
340
11
341
3B2
342
3B2
  0
DIMSTYLE
105
C24A
102
{ACAD_REACTORS
330
D010
330
D02F
330
D045
330
D05B
330
D071
330
D07E
330
D678
330
D6B1
330
D6BF
330
D6CC
330
D6D9
330
D6E6
330
D6F3
330
D91F
330
DB42
330
DB58
330
E143
330
E15A
330
E1E7
330
E22E
330
E22F
330
E230
330
E1C7
330
E1E5
330
E5A0
330
E8C4
330
EB50
330
EB51
330
EB52
330
E1D5
330
EB21
330
EB22
330
EB23
102
}
330
A
100
AcDbSymbolTableRecord
100
AcDbDimStyleTableRecord
  2
STANDARD1
 70
     0
 41
2.0
 42
3.0
 43
0.5
 44
0.5
 73
     0
 74
     0
 77
     3
 78
    12
140
6.0
147
2.0
172
     1
271
     8
272
     8
289
     2
340
11
341
3B2
342
3B2
  0
ENDTAB
  0
TABLE
  2
BLOCK_RECORD
  5
1
330
0
100
AcDbSymbolTable
 70
    91
  0
BLOCK_RECORD
  5
1E
102
{ACAD_XDICTIONARY
360
178
102
}
330
1
100
AcDbSymbolTableRecord
100
AcDbBlockTableRecord
  2
*MODEL_SPACE
340
904E
  0
BLOCK_RECORD
  5
1A
102
{ACAD_XDICTIONARY
360
17A
102
}
330
1
100
AcDbSymbolTableRecord
100
AcDbBlockTableRecord
  2
*PAPER_SPACE
340
904F
  0
BLOCK_RECORD
  5
3B2
330
1
100
AcDbSymbolTableRecord
100
AcDbBlockTableRecord
  2
_OPEN
340
0
102
{BLKREFS
331
E1CD
331
E1CE
331
E3AD
331
E3AE
331
E3BF
331
E3C0
331
E3C8
331
E3C9
331
E3D1
331
E3D2
331
E3DA
331
E3DB
331
E3E3
331
E3E4
331
E3EF
331
E3F0
331
E3F7
331
E3F8
331
E43C
331
E43D
331
E445
331
E446
331
E44E
331
E44F
331
E457
331
E458
331
E5B0
331
E5B1
331
E8D4
331
E8D5
331
EA0C
331
EA0D
331
EA15
331
EA16
331
EA1E
331
EA1F
331
EA27
331
EA28
331
EA30
331
EA31
331
EA39
331
EA3A
331
EA42
331
EA43
331
EA4B
331
EA4C
331
EA54
331
EA55
331
EA5D
331
EA5E
331
EB01
331
EB0B
331
EB0C
331
EB17
331
EB18
331
EB76
331
EB7D
331
EB7E
331
EB86
331
EB87
102
}
  0
BLOCK_RECORD
  5
905D
330
1
100
AcDbSymbolTableRecord
100
AcDbBlockTableRecord
  2
_D0
340
0
  0
BLOCK_RECORD
  5
9069
330
1
100
AcDbSymbolTableRecord
100
AcDbBlockTableRecord
  2
_D1
340
0
  0
BLOCK_RECORD
  5
9075
330
1
100
AcDbSymbolTableRecord
100
AcDbBlockTableRecord
  2
_D2
340
0
  0
BLOCK_RECORD
  5
9081
330
1
100
AcDbSymbolTableRecord
100
AcDbBlockTableRecord
  2
_D3
340
0
  0
BLOCK_RECORD
  5
908D
330
1
100
AcDbSymbolTableRecord
100
AcDbBlockTableRecord
  2
_D4
340
0
  0
BLOCK_RECORD
  5
9099
330
1
100
AcDbSymbolTableRecord
100
AcDbBlockTableRecord
  2
_D5
340
0
  0
BLOCK_RECORD
  5
90A5
330
1
100
AcDbSymbolTableRecord
100
AcDbBlockTableRecord
  2
_D6
340
0
  0
BLOCK_RECORD
  5
90B1
330
1
100
AcDbSymbolTableRecord
100
AcDbBlockTableRecord
  2
_D7
340
0
  0
BLOCK_RECORD
  5
90BD
330
1
100
AcDbSymbolTableRecord
100
AcDbBlockTableRecord
  2
_D8
340
0
  0
BLOCK_RECORD
  5
90CA
330
1
100
AcDbSymbolTableRecord
100
AcDbBlockTableRecord
  2
_D9
340
0
  0
BLOCK_RECORD
  5
90D6
330
1
100
AcDbSymbolTableRecord
100
AcDbBlockTableRecord
  2
_D10
340
0
  0
BLOCK_RECORD
  5
90E3
330
1
100
AcDbSymbolTableRecord
100
AcDbBlockTableRecord
  2
_D11
340
0
  0
BLOCK_RECORD
  5
90EF
330
1
100
AcDbSymbolTableRecord
100
AcDbBlockTableRecord
  2
_D12
340
0
  0
BLOCK_RECORD
  5
90FB
330
1
100
AcDbSymbolTableRecord
100
AcDbBlockTableRecord
  2
_D13
340
0
  0
BLOCK_RECORD
  5
9107
330
1
100
AcDbSymbolTableRecord
100
AcDbBlockTableRecord
  2
_D14
340
0
  0
BLOCK_RECORD
  5
9113
330
1
100
AcDbSymbolTableRecord
100
AcDbBlockTableRecord
  2
_D15
340
0
  0
BLOCK_RECORD
  5
911F
330
1
100
AcDbSymbolTableRecord
100
AcDbBlockTableRecord
  2
_D16
340
0
  0
BLOCK_RECORD
  5
912B
330
1
100
AcDbSymbolTableRecord
100
AcDbBlockTableRecord
  2
_D17
340
0
  0
BLOCK_RECORD
  5
9137
330
1
100
AcDbSymbolTableRecord
100
AcDbBlockTableRecord
  2
_D18
340
0
  0
BLOCK_RECORD
  5
9143
330
1
100
AcDbSymbolTableRecord
100
AcDbBlockTableRecord
  2
_D19
340
0
  0
BLOCK_RECORD
  5
914F
330
1
100
AcDbSymbolTableRecord
100
AcDbBlockTableRecord
  2
_D20
340
0
  0
BLOCK_RECORD
  5
915B
330
1
100
AcDbSymbolTableRecord
100
AcDbBlockTableRecord
  2
_D21
340
0
  0
BLOCK_RECORD
  5
9168
330
1
100
AcDbSymbolTableRecord
100
AcDbBlockTableRecord
  2
_D22
340
0
  0
BLOCK_RECORD
  5
9174
330
1
100
AcDbSymbolTableRecord
100
AcDbBlockTableRecord
  2
_D23
340
0
  0
BLOCK_RECORD
  5
9180
330
1
100
AcDbSymbolTableRecord
100
AcDbBlockTableRecord
  2
_D24
340
0
  0
BLOCK_RECORD
  5
918C
330
1
100
AcDbSymbolTableRecord
100
AcDbBlockTableRecord
  2
_D25
340
0
  0
BLOCK_RECORD
  5
9198
330
1
100
AcDbSymbolTableRecord
100
AcDbBlockTableRecord
  2
_D26
340
0
  0
BLOCK_RECORD
  5
91A4
330
1
100
AcDbSymbolTableRecord
100
AcDbBlockTableRecord
  2
_D27
340
0
  0
BLOCK_RECORD
  5
91B0
330
1
100
AcDbSymbolTableRecord
100
AcDbBlockTableRecord
  2
_D28
340
0
  0
BLOCK_RECORD
  5
91BC
330
1
100
AcDbSymbolTableRecord
100
AcDbBlockTableRecord
  2
_D29
340
0
  0
BLOCK_RECORD
  5
91C9
330
1
100
AcDbSymbolTableRecord
100
AcDbBlockTableRecord
  2
_D30
340
0
  0
BLOCK_RECORD
  5
91D5
330
1
100
AcDbSymbolTableRecord
100
AcDbBlockTableRecord
  2
_D31
340
0
  0
BLOCK_RECORD
  5
91E1
330
1
100
AcDbSymbolTableRecord
100
AcDbBlockTableRecord
  2
_D32
340
0
  0
BLOCK_RECORD
  5
91ED
330
1
100
AcDbSymbolTableRecord
100
AcDbBlockTableRecord
  2
_D33
340
0
  0
BLOCK_RECORD
  5
91FA
330
1
100
AcDbSymbolTableRecord
100
AcDbBlockTableRecord
  2
_D34
340
0
  0
BLOCK_RECORD
  5
9207
330
1
100
AcDbSymbolTableRecord
100
AcDbBlockTableRecord
  2
_D35
340
0
  0
BLOCK_RECORD
  5
9214
330
1
100
AcDbSymbolTableRecord
100
AcDbBlockTableRecord
  2
_D36
340
0
  0
BLOCK_RECORD
  5
9221
330
1
100
AcDbSymbolTableRecord
100
AcDbBlockTableRecord
  2
_D37
340
0
  0
BLOCK_RECORD
  5
922F
330
1
100
AcDbSymbolTableRecord
100
AcDbBlockTableRecord
  2
_D38
340
0
  0
BLOCK_RECORD
  5
923C
330
1
100
AcDbSymbolTableRecord
100
AcDbBlockTableRecord
  2
_D39
340
0
  0
BLOCK_RECORD
  5
924A
330
1
100
AcDbSymbolTableRecord
100
AcDbBlockTableRecord
  2
_D40
340
0
  0
BLOCK_RECORD
  5
9257
330
1
100
AcDbSymbolTableRecord
100
AcDbBlockTableRecord
  2
_D41
340
0
  0
BLOCK_RECORD
  5
9264
330
1
100
AcDbSymbolTableRecord
100
AcDbBlockTableRecord
  2
_D42
340
0
  0
BLOCK_RECORD
  5
9271
330
1
100
AcDbSymbolTableRecord
100
AcDbBlockTableRecord
  2
_D43
340
0
  0
BLOCK_RECORD
  5
927E
330
1
100
AcDbSymbolTableRecord
100
AcDbBlockTableRecord
  2
_D44
340
0
  0
BLOCK_RECORD
  5
928B
330
1
100
AcDbSymbolTableRecord
100
AcDbBlockTableRecord
  2
_D45
340
0
  0
BLOCK_RECORD
  5
9298
330
1
100
AcDbSymbolTableRecord
100
AcDbBlockTableRecord
  2
_D46
340
0
  0
BLOCK_RECORD
  5
92A5
330
1
100
AcDbSymbolTableRecord
100
AcDbBlockTableRecord
  2
_D47
340
0
  0
BLOCK_RECORD
  5
92B2
330
1
100
AcDbSymbolTableRecord
100
AcDbBlockTableRecord
  2
_D48
340
0
  0
BLOCK_RECORD
  5
92BF
330
1
100
AcDbSymbolTableRecord
100
AcDbBlockTableRecord
  2
_D49
340
0
  0
BLOCK_RECORD
  5
92CC
330
1
100
AcDbSymbolTableRecord
100
AcDbBlockTableRecord
  2
_D50
340
0
  0
BLOCK_RECORD
  5
92D4
330
1
100
AcDbSymbolTableRecord
100
AcDbBlockTableRecord
  2
_D51
340
0
  0
BLOCK_RECORD
  5
92DF
330
1
100
AcDbSymbolTableRecord
100
AcDbBlockTableRecord
  2
_D52
340
0
  0
BLOCK_RECORD
  5
92EA
330
1
100
AcDbSymbolTableRecord
100
AcDbBlockTableRecord
  2
_D53
340
0
  0
BLOCK_RECORD
  5
C4F9
330
1
100
AcDbSymbolTableRecord
100
AcDbBlockTableRecord
  2
ASSORTED_DRAFT1
340
0
  0
BLOCK_RECORD
  5
D011
330
1
100
AcDbSymbolTableRecord
100
AcDbBlockTableRecord
  2
*D56
340
0
  0
BLOCK_RECORD
  5
D030
330
1
100
AcDbSymbolTableRecord
100
AcDbBlockTableRecord
  2
*D57
340
0
  0
BLOCK_RECORD
  5
D046
330
1
100
AcDbSymbolTableRecord
100
AcDbBlockTableRecord
  2
*D58
340
0
  0
BLOCK_RECORD
  5
D05C
330
1
100
AcDbSymbolTableRecord
100
AcDbBlockTableRecord
  2
*D59
340
0
  0
BLOCK_RECORD
  5
D072
330
1
100
AcDbSymbolTableRecord
100
AcDbBlockTableRecord
  2
*D60
340
0
  0
BLOCK_RECORD
  5
D07F
330
1
100
AcDbSymbolTableRecord
100
AcDbBlockTableRecord
  2
*D61
340
0
  0
BLOCK_RECORD
  5
D679
330
1
100
AcDbSymbolTableRecord
100
AcDbBlockTableRecord
  2
*D62
340
0
  0
BLOCK_RECORD
  5
D6B2
330
1
100
AcDbSymbolTableRecord
100
AcDbBlockTableRecord
  2
*D63
340
0
  0
BLOCK_RECORD
  5
D6C0
330
1
100
AcDbSymbolTableRecord
100
AcDbBlockTableRecord
  2
*D64
340
0
  0
BLOCK_RECORD
  5
D6CD
330
1
100
AcDbSymbolTableRecord
100
AcDbBlockTableRecord
  2
*D65
340
0
  0
BLOCK_RECORD
  5
D6DA
330
1
100
AcDbSymbolTableRecord
100
AcDbBlockTableRecord
  2
*D66
340
0
  0
BLOCK_RECORD
  5
D6E7
330
1
100
AcDbSymbolTableRecord
100
AcDbBlockTableRecord
  2
*D67
340
0
  0
BLOCK_RECORD
  5
D6F4
330
1
100
AcDbSymbolTableRecord
100
AcDbBlockTableRecord
  2
*D68
340
0
  0
BLOCK_RECORD
  5
D920
330
1
100
AcDbSymbolTableRecord
100
AcDbBlockTableRecord
  2
*D69
340
0
  0
BLOCK_RECORD
  5
DB43
330
1
100
AcDbSymbolTableRecord
100
AcDbBlockTableRecord
  2
*D70
340
0
  0
BLOCK_RECORD
  5
DB59
330
1
100
AcDbSymbolTableRecord
100
AcDbBlockTableRecord
  2
*D71
340
0
  0
BLOCK_RECORD
  5
E144
330
1
100
AcDbSymbolTableRecord
100
AcDbBlockTableRecord
  2
*D72
340
0
  0
BLOCK_RECORD
  5
E15B
330
1
100
AcDbSymbolTableRecord
100
AcDbBlockTableRecord
  2
*D73
340
0
  0
BLOCK_RECORD
  5
E1C9
330
1
100
AcDbSymbolTableRecord
100
AcDbBlockTableRecord
  2
*D74
340
0
  0
BLOCK_RECORD
  5
E1D4
330
1
100
AcDbSymbolTableRecord
100
AcDbBlockTableRecord
  2
A$C30553972
340
0
  0
BLOCK_RECORD
  5
E1E8
330
1
100
AcDbSymbolTableRecord
100
AcDbBlockTableRecord
  2
*D76
340
0
  0
BLOCK_RECORD
  5
E231
330
1
100
AcDbSymbolTableRecord
100
AcDbBlockTableRecord
  2
*D77
340
0
  0
BLOCK_RECORD
  5
E23D
330
1
100
AcDbSymbolTableRecord
100
AcDbBlockTableRecord
  2
*D78
340
0
  0
BLOCK_RECORD
  5
E249
330
1
100
AcDbSymbolTableRecord
100
AcDbBlockTableRecord
  2
*D79
340
0
  0
BLOCK_RECORD
  5
E5A1
330
1
100
AcDbSymbolTableRecord
100
AcDbBlockTableRecord
  2
*D80
340
0
  0
BLOCK_RECORD
  5
E5FD
102
{ACAD_XDICTIONARY
360
E5FF
102
}
330
1
100
AcDbSymbolTableRecord
100
AcDbBlockTableRecord
  2
A$C09A314A1
340
0
  0
BLOCK_RECORD
  5
E8C5
330
1
100
AcDbSymbolTableRecord
100
AcDbBlockTableRecord
  2
*D82
340
0
  0
BLOCK_RECORD
  5
EAFE
330
1
100
AcDbSymbolTableRecord
100
AcDbBlockTableRecord
  2
*D83
340
0
  0
BLOCK_RECORD
  5
EB07
330
1
100
AcDbSymbolTableRecord
100
AcDbBlockTableRecord
  2
*D84
340
0
  0
BLOCK_RECORD
  5
EB13
330
1
100
AcDbSymbolTableRecord
100
AcDbBlockTableRecord
  2
*D85
340
0
  0
BLOCK_RECORD
  5
EB1F
330
1
100
AcDbSymbolTableRecord
100
AcDbBlockTableRecord
  2
A$C633A549A
340
0
  0
BLOCK_RECORD
  5
EB53
330
1
100
AcDbSymbolTableRecord
100
AcDbBlockTableRecord
  2
*D87
340
0
  0
BLOCK_RECORD
  5
EB5C
330
1
100
AcDbSymbolTableRecord
100
AcDbBlockTableRecord
  2
*D88
340
0
  0
BLOCK_RECORD
  5
EB68
330
1
100
AcDbSymbolTableRecord
100
AcDbBlockTableRecord
  2
*D89
340
0
  0
ENDTAB
  0
ENDSEC
  0
SECTION
  2
BLOCKS
  0
BLOCK
  5
1F
330
1E
100
AcDbEntity
  8
0
100
AcDbBlockBegin
  2
*MODEL_SPACE
 70
     0
 10
0.0
 20
0.0
 30
0.0
  3
*MODEL_SPACE
  1

  0
ENDBLK
  5
20
330
1E
100
AcDbEntity
  8
0
100
AcDbBlockEnd
  0
BLOCK
  5
1B
330
1A
100
AcDbEntity
 67
     1
  8
0
100
AcDbBlockBegin
  2
*PAPER_SPACE
 70
     0
 10
0.0
 20
0.0
 30
0.0
  3
*PAPER_SPACE
  1

  0
ENDBLK
  5
1C
330
1A
100
AcDbEntity
 67
     1
  8
0
100
AcDbBlockEnd
  0
BLOCK
  5
3B6
330
3B2
100
AcDbEntity
  8
0
100
AcDbBlockBegin
  2
_OPEN
 70
     0
 10
0.0
 20
0.0
 30
0.0
  3
_OPEN
  1

  0
LINE
  5
3B3
330
3B2
100
AcDbEntity
  8
30
  6
Continuous
 62
     0
100
AcDbLine
 10
-1.0
 20
0.166667
 30
0.0
 11
0.0
 21
0.0
 31
0.0
  0
LINE
  5
3B4
330
3B2
100
AcDbEntity
  8
30
  6
Continuous
 62
     0
100
AcDbLine
 10
-1.0
 20
-0.166667
 30
0.0
 11
0.0
 21
0.0
 31
0.0
  0
LINE
  5
3B5
330
3B2
100
AcDbEntity
  8
30
  6
Continuous
 62
     0
100
AcDbLine
 10
0.0
 20
0.0
 30
0.0
 11
-1.0
 21
0.0
 31
0.0
  0
ENDBLK
  5
3B7
330
3B2
100
AcDbEntity
  8
0
100
AcDbBlockEnd
  0
BLOCK
  5
9067
330
905D
100
AcDbEntity
  8
0
100
AcDbBlockBegin
  2
_D0
 70
     0
 10
0.0
 20
0.0
 30
0.0
  3
_D0
  1

  0
LINE
  5
905E
330
905D
100
AcDbEntity
  8
1
  6
Continuous
 62
     4
370
    -2
100
AcDbLine
 10
80.95525053435109
 20
322.4419549141221
 30
0.0
 11
80.95525053435109
 21
182.0787213740458
 31
0.0
  0
LINE
  5
905F
330
905D
100
AcDbEntity
  8
1
  6
Continuous
 62
     4
370
    -2
100
AcDbLine
 10
221.4228077862594
 20
202.2129472805342
 30
0.0
 11
221.4228077862594
 21
182.0787213740458
 31
0.0
  0
LINE
  5
9060
330
905D
100
AcDbEntity
  8
1
  6
Continuous
 62
     4
370
    -2
100
AcDbLine
 10
82.9552505343511
 20
183.0787213740458
 30
0.0
 11
219.4228077862594
 21
183.0787213740458
 31
0.0
  0
SOLID
  5
9061
330
905D
100
AcDbEntity
  8
1
  6
Continuous
 62
     4
370
     0
100
AcDbTrace
 10
82.9552505343511
 20
183.4120547073791
 30
0.0
 11
82.9552505343511
 21
182.7453880407124
 31
0.0
 12
80.95525053435109
 22
183.0787213740458
 32
0.0
 13
80.95525053435109
 23
183.0787213740458
 33
0.0
  0
SOLID
  5
9062
330
905D
100
AcDbEntity
  8
1
  6
Continuous
 62
     4
370
     0
100
AcDbTrace
 10
219.4228077862594
 20
183.4120547073791
 30
0.0
 11
219.4228077862594
 21
182.7453880407124
 31
0.0
 12
221.4228077862594
 22
183.0787213740458
 32
0.0
 13
221.4228077862594
 23
183.0787213740458
 33
0.0
  0
MTEXT
  5
9063
330
905D
100
AcDbEntity
  8
1
  6
Continuous
 62
     2
100
AcDbMText
 10
151.1890291603052
 20
184.3287213740458
 30
0.0
 40
2.5
 41
0.0
 71
     5
 72
     1
  1
\A1; 140 
 73
     1
 44
1.0
1001
ACAD
1000
MTEXTBEGIN
1070
    73
1070
     1
1070
    44
1040
1.0
1070
    74
1070
     0
1000
MTEXTEND
  0
POINT
  5
9064
330
905D
100
AcDbEntity
  8
DEFPOINTS
  6
Continuous
 62
     0
370
     0
100
AcDbPoint
 10
80.95525053435109
 20
323.4419549141221
 30
0.0
  0
POINT
  5
9065
330
905D
100
AcDbEntity
  8
DEFPOINTS
  6
Continuous
 62
     0
370
     0
100
AcDbPoint
 10
221.4228077862594
 20
203.2129472805344
 30
0.0
  0
POINT
  5
9066
330
905D
100
AcDbEntity
  8
DEFPOINTS
  6
Continuous
 62
     0
370
     0
100
AcDbPoint
 10
221.4228077862594
 20
183.0787213740458
 30
0.0
  0
ENDBLK
  5
9068
330
905D
100
AcDbEntity
  8
0
100
AcDbBlockEnd
  0
BLOCK
  5
9073
330
9069
100
AcDbEntity
  8
0
100
AcDbBlockBegin
  2
_D1
 70
     0
 10
0.0
 20
0.0
 30
0.0
  3
_D1
  1

  0
LINE
  5
906A
330
9069
100
AcDbEntity
  8
1
  6
Continuous
 62
     4
370
    -2
100
AcDbLine
 10
46.28922
 20
317.4324129293893
 30
0.0
 11
46.28921999999999
 21
147.011927480916
 31
0.0
  0
LINE
  5
906B
330
9069
100
AcDbEntity
  8
1
  6
Continuous
 62
     4
370
    -2
100
AcDbLine
 10
256.2892199999999
 20
317.4324129293893
 30
0.0
 11
256.2892199999999
 21
147.011927480916
 31
0.0
  0
LINE
  5
906C
330
9069
100
AcDbEntity
  8
1
  6
Continuous
 62
     4
370
    -2
100
AcDbLine
 10
48.28921999999999
 20
148.011927480916
 30
0.0
 11
254.28922
 21
148.011927480916
 31
0.0
  0
SOLID
  5
906D
330
9069
100
AcDbEntity
  8
1
  6
Continuous
 62
     4
370
     0
100
AcDbTrace
 10
48.28921999999999
 20
148.3452608142493
 30
0.0
 11
48.28921999999999
 21
147.6785941475826
 31
0.0
 12
46.28921999999999
 22
148.011927480916
 32
0.0
 13
46.28921999999999
 23
148.011927480916
 33
0.0
  0
SOLID
  5
906E
330
9069
100
AcDbEntity
  8
1
  6
Continuous
 62
     4
370
     0
100
AcDbTrace
 10
254.28922
 20
148.3452608142493
 30
0.0
 11
254.28922
 21
147.6785941475826
 31
0.0
 12
256.2892199999999
 22
148.011927480916
 32
0.0
 13
256.2892199999999
 23
148.011927480916
 33
0.0
  0
MTEXT
  5
906F
330
9069
100
AcDbEntity
  8
1
  6
Continuous
 62
     2
100
AcDbMText
 10
151.28922
 20
149.261927480916
 30
0.0
 40
2.5
 41
0.0
 71
     5
 72
     1
  1
\A1; 210 
 73
     1
 44
1.0
1001
ACAD
1000
MTEXTBEGIN
1070
    73
1070
     1
1070
    44
1040
1.0
1070
    74
1070
     0
1000
MTEXTEND
  0
POINT
  5
9070
330
9069
100
AcDbEntity
  8
DEFPOINTS
  6
Continuous
 62
     0
370
     0
100
AcDbPoint
 10
46.28922
 20
318.4324129293893
 30
0.0
  0
POINT
  5
9071
330
9069
100
AcDbEntity
  8
DEFPOINTS
  6
Continuous
 62
     0
370
     0
100
AcDbPoint
 10
256.2892199999999
 20
318.4324129293893
 30
0.0
  0
POINT
  5
9072
330
9069
100
AcDbEntity
  8
DEFPOINTS
  6
Continuous
 62
     0
370
     0
100
AcDbPoint
 10
256.2892199999999
 20
148.011927480916
 30
0.0
  0
ENDBLK
  5
9074
330
9069
100
AcDbEntity
  8
0
100
AcDbBlockEnd
  0
BLOCK
  5
907F
330
9075
100
AcDbEntity
  8
0
100
AcDbBlockBegin
  2
_D2
 70
     0
 10
0.0
 20
0.0
 30
0.0
  3
_D2
  1

  0
LINE
  5
9076
330
9075
100
AcDbEntity
  8
1
  6
Continuous
 62
     4
370
    -2
100
AcDbLine
 10
411.7854032061067
 20
322.4419549141221
 30
0.0
 11
411.7854032061067
 21
207.1264312977099
 31
0.0
  0
LINE
  5
9077
330
9075
100
AcDbEntity
  8
1
  6
Continuous
 62
     4
370
    -2
100
AcDbLine
 10
481.9189909923665
 20
322.4419549141221
 30
0.0
 11
481.9189909923665
 21
207.1264312977099
 31
0.0
  0
LINE
  5
9078
330
9075
100
AcDbEntity
  8
1
  6
Continuous
 62
     4
370
    -2
100
AcDbLine
 10
413.7854032061068
 20
208.1264312977099
 30
0.0
 11
479.9189909923665
 21
208.1264312977099
 31
0.0
  0
SOLID
  5
9079
330
9075
100
AcDbEntity
  8
1
  6
Continuous
 62
     4
370
     0
100
AcDbTrace
 10
413.7854032061068
 20
208.4597646310432
 30
0.0
 11
413.7854032061068
 21
207.7930979643765
 31
0.0
 12
411.7854032061067
 22
208.1264312977099
 32
0.0
 13
411.7854032061067
 23
208.1264312977099
 33
0.0
  0
SOLID
  5
907A
330
9075
100
AcDbEntity
  8
1
  6
Continuous
 62
     4
370
     0
100
AcDbTrace
 10
479.9189909923665
 20
208.4597646310432
 30
0.0
 11
479.9189909923665
 21
207.7930979643765
 31
0.0
 12
481.9189909923665
 22
208.1264312977099
 32
0.0
 13
481.9189909923665
 23
208.1264312977099
 33
0.0
  0
MTEXT
  5
907B
330
9075
100
AcDbEntity
  8
1
  6
Continuous
 62
     2
100
AcDbMText
 10
446.8521970992366
 20
209.3764312977099
 30
0.0
 40
2.5
 41
0.0
 71
     5
 72
     1
  1
\A1; 70.133588 
 73
     1
 44
1.0
1001
ACAD
1000
MTEXTBEGIN
1070
    73
1070
     1
1070
    44
1040
1.0
1070
    74
1070
     0
1000
MTEXTEND
  0
POINT
  5
907C
330
9075
100
AcDbEntity
  8
DEFPOINTS
  6
Continuous
 62
     0
370
     0
100
AcDbPoint
 10
411.7854032061067
 20
323.4419549141221
 30
0.0
  0
POINT
  5
907D
330
9075
100
AcDbEntity
  8
DEFPOINTS
  6
Continuous
 62
     0
370
     0
100
AcDbPoint
 10
481.9189909923665
 20
323.4419549141221
 30
0.0
  0
POINT
  5
907E
330
9075
100
AcDbEntity
  8
DEFPOINTS
  6
Continuous
 62
     0
370
     0
100
AcDbPoint
 10
481.9189909923665
 20
208.1264312977099
 30
0.0
  0
ENDBLK
  5
9080
330
9075
100
AcDbEntity
  8
0
100
AcDbBlockEnd
  0
BLOCK
  5
908B
330
9081
100
AcDbEntity
  8
0
100
AcDbBlockBegin
  2
_D3
 70
     0
 10
0.0
 20
0.0
 30
0.0
  3
_D3
  1

  0
LINE
  5
9082
330
9081
100
AcDbEntity
  8
1
  6
Continuous
 62
     4
370
    -2
100
AcDbLine
 10
481.9189909923665
 20
322.4419549141221
 30
0.0
 11
481.9189909923665
 21
207.1264312977099
 31
0.0
  0
LINE
  5
9083
330
9081
100
AcDbEntity
  8
1
  6
Continuous
 62
     4
370
    -2
100
AcDbLine
 10
552.0525787786261
 20
322.4419549141221
 30
0.0
 11
552.0525787786261
 21
207.1264312977099
 31
0.0
  0
LINE
  5
9084
330
9081
100
AcDbEntity
  8
1
  6
Continuous
 62
     4
370
    -2
100
AcDbLine
 10
483.9189909923665
 20
208.1264312977099
 30
0.0
 11
550.052578778626
 21
208.1264312977099
 31
0.0
  0
SOLID
  5
9085
330
9081
100
AcDbEntity
  8
1
  6
Continuous
 62
     4
370
     0
100
AcDbTrace
 10
483.9189909923665
 20
208.4597646310432
 30
0.0
 11
483.9189909923665
 21
207.7930979643765
 31
0.0
 12
481.9189909923665
 22
208.1264312977099
 32
0.0
 13
481.9189909923665
 23
208.1264312977099
 33
0.0
  0
SOLID
  5
9086
330
9081
100
AcDbEntity
  8
1
  6
Continuous
 62
     4
370
     0
100
AcDbTrace
 10
550.052578778626
 20
208.4597646310432
 30
0.0
 11
550.052578778626
 21
207.7930979643765
 31
0.0
 12
552.0525787786261
 22
208.1264312977099
 32
0.0
 13
552.0525787786261
 23
208.1264312977099
 33
0.0
  0
MTEXT
  5
9087
330
9081
100
AcDbEntity
  8
1
  6
Continuous
 62
     2
100
AcDbMText
 10
516.9857848854961
 20
209.3764312977099
 30
0.0
 40
2.5
 41
0.0
 71
     5
 72
     1
  1
\A1; 70.133588 
 73
     1
 44
1.0
1001
ACAD
1000
MTEXTBEGIN
1070
    73
1070
     1
1070
    44
1040
1.0
1070
    74
1070
     0
1000
MTEXTEND
  0
POINT
  5
9088
330
9081
100
AcDbEntity
  8
DEFPOINTS
  6
Continuous
 62
     0
370
     0
100
AcDbPoint
 10
481.9189909923665
 20
323.4419549141221
 30
0.0
  0
POINT
  5
9089
330
9081
100
AcDbEntity
  8
DEFPOINTS
  6
Continuous
 62
     0
370
     0
100
AcDbPoint
 10
552.0525787786261
 20
323.4419549141221
 30
0.0
  0
POINT
  5
908A
330
9081
100
AcDbEntity
  8
DEFPOINTS
  6
Continuous
 62
     0
370
     0
100
AcDbPoint
 10
552.0525787786261
 20
208.1264312977099
 30
0.0
  0
ENDBLK
  5
908C
330
9081
100
AcDbEntity
  8
0
100
AcDbBlockEnd
  0
BLOCK
  5
9097
330
908D
100
AcDbEntity
  8
0
100
AcDbBlockBegin
  2
_D4
 70
     0
 10
0.0
 20
0.0
 30
0.0
  3
_D4
  1

  0
LINE
  5
908E
330
908D
100
AcDbEntity
  8
1
  6
Continuous
 62
     4
370
    -2
100
AcDbLine
 10
552.0525787786261
 20
322.4419549141221
 30
0.0
 11
552.0525787786261
 21
207.1264312977099
 31
0.0
  0
LINE
  5
908F
330
908D
100
AcDbEntity
  8
1
  6
Continuous
 62
     4
370
    -2
100
AcDbLine
 10
622.1861665648855
 20
322.4419549141221
 30
0.0
 11
622.1861665648855
 21
207.1264312977099
 31
0.0
  0
LINE
  5
9090
330
908D
100
AcDbEntity
  8
1
  6
Continuous
 62
     4
370
    -2
100
AcDbLine
 10
554.052578778626
 20
208.1264312977099
 30
0.0
 11
620.1861665648855
 21
208.1264312977099
 31
0.0
  0
SOLID
  5
9091
330
908D
100
AcDbEntity
  8
1
  6
Continuous
 62
     4
370
     0
100
AcDbTrace
 10
554.052578778626
 20
208.4597646310432
 30
0.0
 11
554.052578778626
 21
207.7930979643765
 31
0.0
 12
552.0525787786261
 22
208.1264312977099
 32
0.0
 13
552.0525787786261
 23
208.1264312977099
 33
0.0
  0
SOLID
  5
9092
330
908D
100
AcDbEntity
  8
1
  6
Continuous
 62
     4
370
     0
100
AcDbTrace
 10
620.1861665648855
 20
208.4597646310432
 30
0.0
 11
620.1861665648855
 21
207.7930979643765
 31
0.0
 12
622.1861665648855
 22
208.1264312977099
 32
0.0
 13
622.1861665648855
 23
208.1264312977099
 33
0.0
  0
MTEXT
  5
9093
330
908D
100
AcDbEntity
  8
1
  6
Continuous
 62
     2
100
AcDbMText
 10
587.1193726717557
 20
209.3764312977099
 30
0.0
 40
2.5
 41
0.0
 71
     5
 72
     1
  1
\A1; 70.133588 
 73
     1
 44
1.0
1001
ACAD
1000
MTEXTBEGIN
1070
    73
1070
     1
1070
    44
1040
1.0
1070
    74
1070
     0
1000
MTEXTEND
  0
POINT
  5
9094
330
908D
100
AcDbEntity
  8
DEFPOINTS
  6
Continuous
 62
     0
370
     0
100
AcDbPoint
 10
552.0525787786261
 20
323.4419549141221
 30
0.0
  0
POINT
  5
9095
330
908D
100
AcDbEntity
  8
DEFPOINTS
  6
Continuous
 62
     0
370
     0
100
AcDbPoint
 10
622.1861665648855
 20
323.4419549141221
 30
0.0
  0
POINT
  5
9096
330
908D
100
AcDbEntity
  8
DEFPOINTS
  6
Continuous
 62
     0
370
     0
100
AcDbPoint
 10
622.1861665648855
 20
208.1264312977099
 30
0.0
  0
ENDBLK
  5
9098
330
908D
100
AcDbEntity
  8
0
100
AcDbBlockEnd
  0
BLOCK
  5
90A3
330
9099
100
AcDbEntity
  8
0
100
AcDbBlockBegin
  2
_D5
 70
     0
 10
0.0
 20
0.0
 30
0.0
  3
_D5
  1

  0
LINE
  5
909A
330
9099
100
AcDbEntity
  8
1
  6
Continuous
 62
     4
370
    -2
100
AcDbLine
 10
376.9189909923663
 20
317.4324129293893
 30
0.0
 11
376.9189909923663
 21
177.069179389313
 31
0.0
  0
LINE
  5
909B
330
9099
100
AcDbEntity
  8
1
  6
Continuous
 62
     4
370
    -2
100
AcDbLine
 10
481.9189909923665
 20
322.4419549141221
 30
0.0
 11
481.9189909923665
 21
177.069179389313
 31
0.0
  0
LINE
  5
909C
330
9099
100
AcDbEntity
  8
1
  6
Continuous
 62
     4
370
    -2
100
AcDbLine
 10
378.9189909923663
 20
178.069179389313
 30
0.0
 11
479.9189909923665
 21
178.069179389313
 31
0.0
  0
SOLID
  5
909D
330
9099
100
AcDbEntity
  8
1
  6
Continuous
 62
     4
370
     0
100
AcDbTrace
 10
378.9189909923663
 20
178.4025127226463
 30
0.0
 11
378.9189909923663
 21
177.7358460559796
 31
0.0
 12
376.9189909923663
 22
178.069179389313
 32
0.0
 13
376.9189909923663
 23
178.069179389313
 33
0.0
  0
SOLID
  5
909E
330
9099
100
AcDbEntity
  8
1
  6
Continuous
 62
     4
370
     0
100
AcDbTrace
 10
479.9189909923665
 20
178.4025127226463
 30
0.0
 11
479.9189909923665
 21
177.7358460559796
 31
0.0
 12
481.9189909923665
 22
178.069179389313
 32
0.0
 13
481.9189909923665
 23
178.069179389313
 33
0.0
  0
MTEXT
  5
909F
330
9099
100
AcDbEntity
  8
1
  6
Continuous
 62
     2
100
AcDbMText
 10
429.4189909923663
 20
179.319179389313
 30
0.0
 40
2.5
 41
0.0
 71
     5
 72
     1
  1
\A1; 105 
 73
     1
 44
1.0
1001
ACAD
1000
MTEXTBEGIN
1070
    73
1070
     1
1070
    44
1040
1.0
1070
    74
1070
     0
1000
MTEXTEND
  0
POINT
  5
90A0
330
9099
100
AcDbEntity
  8
DEFPOINTS
  6
Continuous
 62
     0
370
     0
100
AcDbPoint
 10
376.9189909923663
 20
318.4324129293893
 30
0.0
  0
POINT
  5
90A1
330
9099
100
AcDbEntity
  8
DEFPOINTS
  6
Continuous
 62
     0
370
     0
100
AcDbPoint
 10
481.9189909923665
 20
323.4419549141221
 30
0.0
  0
POINT
  5
90A2
330
9099
100
AcDbEntity
  8
DEFPOINTS
  6
Continuous
 62
     0
370
     0
100
AcDbPoint
 10
481.9189909923665
 20
178.069179389313
 30
0.0
  0
ENDBLK
  5
90A4
330
9099
100
AcDbEntity
  8
0
100
AcDbBlockEnd
  0
BLOCK
  5
90AF
330
90A5
100
AcDbEntity
  8
0
100
AcDbBlockBegin
  2
_D6
 70
     0
 10
0.0
 20
0.0
 30
0.0
  3
_D6
  1

  0
LINE
  5
90A6
330
90A5
100
AcDbEntity
  8
1
  6
Continuous
 62
     4
370
    -2
100
AcDbLine
 10
481.718609312977
 20
322.4419549141221
 30
0.0
 11
481.718609312977
 21
177.069179389313
 31
0.0
  0
LINE
  5
90A7
330
90A5
100
AcDbEntity
  8
1
  6
Continuous
 62
     4
370
    -2
100
AcDbLine
 10
657.0525787786258
 20
317.4324129293893
 30
0.0
 11
657.0525787786258
 21
177.069179389313
 31
0.0
  0
LINE
  5
90A8
330
90A5
100
AcDbEntity
  8
1
  6
Continuous
 62
     4
370
    -2
100
AcDbLine
 10
483.7186093129769
 20
178.069179389313
 30
0.0
 11
655.0525787786258
 21
178.069179389313
 31
0.0
  0
SOLID
  5
90A9
330
90A5
100
AcDbEntity
  8
1
  6
Continuous
 62
     4
370
     0
100
AcDbTrace
 10
483.7186093129769
 20
178.4025127226463
 30
0.0
 11
483.7186093129769
 21
177.7358460559796
 31
0.0
 12
481.718609312977
 22
178.069179389313
 32
0.0
 13
481.718609312977
 23
178.069179389313
 33
0.0
  0
SOLID
  5
90AA
330
90A5
100
AcDbEntity
  8
1
  6
Continuous
 62
     4
370
     0
100
AcDbTrace
 10
655.0525787786258
 20
178.4025127226463
 30
0.0
 11
655.0525787786258
 21
177.7358460559796
 31
0.0
 12
657.0525787786258
 22
178.069179389313
 32
0.0
 13
657.0525787786258
 23
178.069179389313
 33
0.0
  0
MTEXT
  5
90AB
330
90A5
100
AcDbEntity
  8
1
  6
Continuous
 62
     2
100
AcDbMText
 10
569.3855940458014
 20
179.319179389313
 30
0.0
 40
2.5
 41
0.0
 71
     5
 72
     1
  1
\A1; 175.333969 
 73
     1
 44
1.0
1001
ACAD
1000
MTEXTBEGIN
1070
    73
1070
     1
1070
    44
1040
1.0
1070
    74
1070
     0
1000
MTEXTEND
  0
POINT
  5
90AC
330
90A5
100
AcDbEntity
  8
DEFPOINTS
  6
Continuous
 62
     0
370
     0
100
AcDbPoint
 10
481.718609312977
 20
323.4419549141221
 30
0.0
  0
POINT
  5
90AD
330
90A5
100
AcDbEntity
  8
DEFPOINTS
  6
Continuous
 62
     0
370
     0
100
AcDbPoint
 10
657.0525787786258
 20
318.4324129293893
 30
0.0
  0
POINT
  5
90AE
330
90A5
100
AcDbEntity
  8
DEFPOINTS
  6
Continuous
 62
     0
370
     0
100
AcDbPoint
 10
657.0525787786258
 20
178.069179389313
 30
0.0
  0
ENDBLK
  5
90B0
330
90A5
100
AcDbEntity
  8
0
100
AcDbBlockEnd
  0
BLOCK
  5
90BB
330
90B1
100
AcDbEntity
  8
0
100
AcDbBlockBegin
  2
_D7
 70
     0
 10
0.0
 20
0.0
 30
0.0
  3
_D7
  1

  0
LINE
  5
90B2
330
90B1
100
AcDbEntity
  8
1
  6
Continuous
 62
     4
370
    -2
100
AcDbLine
 10
376.9189909923663
 20
317.4324129293893
 30
0.0
 11
376.9189909923663
 21
147.011927480916
 31
0.0
  0
LINE
  5
90B3
330
90B1
100
AcDbEntity
  8
1
  6
Continuous
 62
     4
370
    -2
100
AcDbLine
 10
657.0525787786258
 20
317.4324129293893
 30
0.0
 11
657.0525787786258
 21
147.011927480916
 31
0.0
  0
LINE
  5
90B4
330
90B1
100
AcDbEntity
  8
1
  6
Continuous
 62
     4
370
    -2
100
AcDbLine
 10
378.9189909923663
 20
148.011927480916
 30
0.0
 11
655.0525787786258
 21
148.011927480916
 31
0.0
  0
SOLID
  5
90B5
330
90B1
100
AcDbEntity
  8
1
  6
Continuous
 62
     4
370
     0
100
AcDbTrace
 10
378.9189909923663
 20
148.3452608142493
 30
0.0
 11
378.9189909923663
 21
147.6785941475826
 31
0.0
 12
376.9189909923663
 22
148.011927480916
 32
0.0
 13
376.9189909923663
 23
148.011927480916
 33
0.0
  0
SOLID
  5
90B6
330
90B1
100
AcDbEntity
  8
1
  6
Continuous
 62
     4
370
     0
100
AcDbTrace
 10
655.0525787786258
 20
148.3452608142493
 30
0.0
 11
655.0525787786258
 21
147.6785941475826
 31
0.0
 12
657.0525787786258
 22
148.011927480916
 32
0.0
 13
657.0525787786258
 23
148.011927480916
 33
0.0
  0
MTEXT
  5
90B7
330
90B1
100
AcDbEntity
  8
1
  6
Continuous
 62
     2
100
AcDbMText
 10
516.9857848854961
 20
149.261927480916
 30
0.0
 40
2.5
 41
0.0
 71
     5
 72
     1
  1
\A1; 280 
 73
     1
 44
1.0
1001
ACAD
1000
MTEXTBEGIN
1070
    73
1070
     1
1070
    44
1040
1.0
1070
    74
1070
     0
1000
MTEXTEND
  0
POINT
  5
90B8
330
90B1
100
AcDbEntity
  8
DEFPOINTS
  6
Continuous
 62
     0
370
     0
100
AcDbPoint
 10
376.9189909923663
 20
318.4324129293893
 30
0.0
  0
POINT
  5
90B9
330
90B1
100
AcDbEntity
  8
DEFPOINTS
  6
Continuous
 62
     0
370
     0
100
AcDbPoint
 10
657.0525787786258
 20
318.4324129293893
 30
0.0
  0
POINT
  5
90BA
330
90B1
100
AcDbEntity
  8
DEFPOINTS
  6
Continuous
 62
     0
370
     0
100
AcDbPoint
 10
657.0525787786258
 20
148.011927480916
 30
0.0
  0
ENDBLK
  5
90BC
330
90B1
100
AcDbEntity
  8
0
100
AcDbBlockEnd
  0
BLOCK
  5
90C8
330
90BD
100
AcDbEntity
  8
0
100
AcDbBlockBegin
  2
_D8
 70
     0
 10
0.0
 20
0.0
 30
0.0
  3
_D8
  1

  0
LINE
  5
90BE
330
90BD
100
AcDbEntity
  8
1
  6
Continuous
 62
     4
370
    -2
100
AcDbLine
 10
1021.146090229007
 20
237.2797411736641
 30
0.0
 11
1021.146090229007
 21
212.1359732824428
 31
0.0
  0
LINE
  5
90BF
330
90BD
100
AcDbEntity
  8
1
  6
Continuous
 62
     4
370
    -2
100
AcDbLine
 10
1029.16135740458
 20
237.2797411736641
 30
0.0
 11
1029.16135740458
 21
212.1359732824428
 31
0.0
  0
LINE
  5
90C0
330
90BD
100
AcDbEntity
  8
1
  6
Continuous
 62
     4
370
    -2
100
AcDbLine
 10
1023.146090229007
 20
213.1359732824428
 30
0.0
 11
1027.16135740458
 21
213.1359732824428
 31
0.0
  0
LINE
  5
90C1
330
90BD
100
AcDbEntity
  8
1
  6
Continuous
 62
     4
370
    -2
100
AcDbLine
 10
1029.16135740458
 20
213.1359732824428
 30
0.0
 11
1049.91135740458
 21
213.1359732824428
 31
0.0
  0
SOLID
  5
90C2
330
90BD
100
AcDbEntity
  8
1
  6
Continuous
 62
     4
370
     0
100
AcDbTrace
 10
1023.146090229007
 20
213.4693066157761
 30
0.0
 11
1023.146090229007
 21
212.8026399491094
 31
0.0
 12
1021.146090229007
 22
213.1359732824428
 32
0.0
 13
1021.146090229007
 23
213.1359732824428
 33
0.0
  0
SOLID
  5
90C3
330
90BD
100
AcDbEntity
  8
1
  6
Continuous
 62
     4
370
     0
100
AcDbTrace
 10
1027.16135740458
 20
213.4693066157761
 30
0.0
 11
1027.16135740458
 21
212.8026399491094
 31
0.0
 12
1029.16135740458
 22
213.1359732824428
 32
0.0
 13
1029.16135740458
 23
213.1359732824428
 33
0.0
  0
MTEXT
  5
90C4
330
90BD
100
AcDbEntity
  8
1
  6
Continuous
 62
     2
100
AcDbMText
 10
1040.53635740458
 20
214.3859732824428
 30
0.0
 40
2.5
 41
0.0
 71
     5
 72
     1
  1
\A1; 8.015267 
 73
     1
 44
1.0
1001
ACAD
1000
MTEXTBEGIN
1070
    73
1070
     1
1070
    44
1040
1.0
1070
    74
1070
     0
1000
MTEXTEND
  0
POINT
  5
90C5
330
90BD
100
AcDbEntity
  8
DEFPOINTS
  6
Continuous
 62
     0
370
     0
100
AcDbPoint
 10
1021.146090229007
 20
238.279741173664
 30
0.0
  0
POINT
  5
90C6
330
90BD
100
AcDbEntity
  8
DEFPOINTS
  6
Continuous
 62
     0
370
     0
100
AcDbPoint
 10
1029.16135740458
 20
238.279741173664
 30
0.0
  0
POINT
  5
90C7
330
90BD
100
AcDbEntity
  8
DEFPOINTS
  6
Continuous
 62
     0
370
     0
100
AcDbPoint
 10
1029.16135740458
 20
213.1359732824428
 30
0.0
  0
ENDBLK
  5
90C9
330
90BD
100
AcDbEntity
  8
0
100
AcDbBlockEnd
  0
BLOCK
  5
90D4
330
90CA
100
AcDbEntity
  8
0
100
AcDbBlockBegin
  2
_D9
 70
     0
 10
0.0
 20
0.0
 30
0.0
  3
_D9
  1

  0
LINE
  5
90CB
330
90CA
100
AcDbEntity
  8
1
  6
Continuous
 62
     4
370
    -2
100
AcDbLine
 10
1029.16135740458
 20
237.2797411736641
 30
0.0
 11
1029.16135740458
 21
212.1359732824428
 31
0.0
  0
LINE
  5
90CC
330
90CA
100
AcDbEntity
  8
1
  6
Continuous
 62
     4
370
    -2
100
AcDbLine
 10
1065.230059694656
 20
317.4324129293893
 30
0.0
 11
1065.230059694656
 21
212.1359732824428
 31
0.0
  0
LINE
  5
90CD
330
90CA
100
AcDbEntity
  8
1
  6
Continuous
 62
     4
370
    -2
100
AcDbLine
 10
1031.16135740458
 20
213.1359732824428
 30
0.0
 11
1063.230059694656
 21
213.1359732824428
 31
0.0
  0
SOLID
  5
90CE
330
90CA
100
AcDbEntity
  8
1
  6
Continuous
 62
     4
370
     0
100
AcDbTrace
 10
1031.16135740458
 20
213.4693066157761
 30
0.0
 11
1031.16135740458
 21
212.8026399491094
 31
0.0
 12
1029.16135740458
 22
213.1359732824428
 32
0.0
 13
1029.16135740458
 23
213.1359732824428
 33
0.0
  0
SOLID
  5
90CF
330
90CA
100
AcDbEntity
  8
1
  6
Continuous
 62
     4
370
     0
100
AcDbTrace
 10
1063.230059694656
 20
213.4693066157761
 30
0.0
 11
1063.230059694656
 21
212.8026399491094
 31
0.0
 12
1065.230059694656
 22
213.1359732824428
 32
0.0
 13
1065.230059694656
 23
213.1359732824428
 33
0.0
  0
MTEXT
  5
90D0
330
90CA
100
AcDbEntity
  8
1
  6
Continuous
 62
     2
100
AcDbMText
 10
1047.195708549618
 20
214.3859732824428
 30
0.0
 40
2.5
 41
0.0
 71
     5
 72
     1
  1
\A1; 36.068702 
 73
     1
 44
1.0
1001
ACAD
1000
MTEXTBEGIN
1070
    73
1070
     1
1070
    44
1040
1.0
1070
    74
1070
     0
1000
MTEXTEND
  0
POINT
  5
90D1
330
90CA
100
AcDbEntity
  8
DEFPOINTS
  6
Continuous
 62
     0
370
     0
100
AcDbPoint
 10
1029.16135740458
 20
238.279741173664
 30
0.0
  0
POINT
  5
90D2
330
90CA
100
AcDbEntity
  8
DEFPOINTS
  6
Continuous
 62
     0
370
     0
100
AcDbPoint
 10
1065.230059694656
 20
318.4324129293893
 30
0.0
  0
POINT
  5
90D3
330
90CA
100
AcDbEntity
  8
DEFPOINTS
  6
Continuous
 62
     0
370
     0
100
AcDbPoint
 10
1065.230059694656
 20
213.1359732824428
 30
0.0
  0
ENDBLK
  5
90D5
330
90CA
100
AcDbEntity
  8
0
100
AcDbBlockEnd
  0
BLOCK
  5
90E1
330
90D6
100
AcDbEntity
  8
0
100
AcDbBlockBegin
  2
_D10
 70
     0
 10
0.0
 20
0.0
 30
0.0
  3
_D10
  1

  0
LINE
  5
90D7
330
90D6
100
AcDbEntity
  8
1
  6
Continuous
 62
     4
370
    -2
100
AcDbLine
 10
1025.153723816794
 20
683.1251610209925
 30
0.0
 11
1025.153723816794
 21
710.0806297709924
 31
0.0
  0
LINE
  5
90D8
330
90D6
100
AcDbEntity
  8
1
  6
Continuous
 62
     4
370
    -2
100
AcDbLine
 10
1033.168990992366
 20
683.1251610209925
 30
0.0
 11
1033.168990992366
 21
710.0806297709924
 31
0.0
  0
LINE
  5
90D9
330
90D6
100
AcDbEntity
  8
1
  6
Continuous
 62
     4
370
    -2
100
AcDbLine
 10
1027.153723816794
 20
709.0806297709924
 30
0.0
 11
1031.168990992366
 21
709.0806297709924
 31
0.0
  0
LINE
  5
90DA
330
90D6
100
AcDbEntity
  8
1
  6
Continuous
 62
     4
370
    -2
100
AcDbLine
 10
1033.168990992366
 20
709.0806297709924
 30
0.0
 11
1053.918990992366
 21
709.0806297709924
 31
0.0
  0
SOLID
  5
90DB
330
90D6
100
AcDbEntity
  8
1
  6
Continuous
 62
     4
370
     0
100
AcDbTrace
 10
1027.153723816794
 20
709.4139631043256
 30
0.0
 11
1027.153723816794
 21
708.7472964376591
 31
0.0
 12
1025.153723816794
 22
709.0806297709924
 32
0.0
 13
1025.153723816794
 23
709.0806297709924
 33
0.0
  0
SOLID
  5
90DC
330
90D6
100
AcDbEntity
  8
1
  6
Continuous
 62
     4
370
     0
100
AcDbTrace
 10
1031.168990992366
 20
709.4139631043256
 30
0.0
 11
1031.168990992366
 21
708.7472964376591
 31
0.0
 12
1033.168990992366
 22
709.0806297709924
 32
0.0
 13
1033.168990992366
 23
709.0806297709924
 33
0.0
  0
MTEXT
  5
90DD
330
90D6
100
AcDbEntity
  8
1
  6
Continuous
 62
     2
100
AcDbMText
 10
1044.543990992366
 20
710.3306297709925
 30
0.0
 40
2.5
 41
0.0
 71
     5
 72
     1
  1
\A1; 8.015267 
 73
     1
 44
1.0
1001
ACAD
1000
MTEXTBEGIN
1070
    73
1070
     1
1070
    44
1040
1.0
1070
    74
1070
     0
1000
MTEXTEND
  0
POINT
  5
90DE
330
90D6
100
AcDbEntity
  8
DEFPOINTS
  6
Continuous
 62
     0
370
     0
100
AcDbPoint
 10
1025.153723816794
 20
682.1251610209925
 30
0.0
  0
POINT
  5
90DF
330
90D6
100
AcDbEntity
  8
DEFPOINTS
  6
Continuous
 62
     0
370
     0
100
AcDbPoint
 10
1033.168990992366
 20
682.1251610209925
 30
0.0
  0
POINT
  5
90E0
330
90D6
100
AcDbEntity
  8
DEFPOINTS
  6
Continuous
 62
     0
370
     0
100
AcDbPoint
 10
1033.168990992366
 20
709.0806297709924
 30
0.0
  0
ENDBLK
  5
90E2
330
90D6
100
AcDbEntity
  8
0
100
AcDbBlockEnd
  0
BLOCK
  5
90ED
330
90E3
100
AcDbEntity
  8
0
100
AcDbBlockBegin
  2
_D11
 70
     0
 10
0.0
 20
0.0
 30
0.0
  3
_D11
  1

  0
LINE
  5
90E4
330
90E3
100
AcDbEntity
  8
1
  6
Continuous
 62
     4
370
    -2
100
AcDbLine
 10
1033.168990992366
 20
683.1251610209925
 30
0.0
 11
1033.168990992366
 21
710.0806297709924
 31
0.0
  0
LINE
  5
90E5
330
90E3
100
AcDbEntity
  8
1
  6
Continuous
 62
     4
370
    -2
100
AcDbLine
 10
1065.230059694656
 20
602.9724892652673
 30
0.0
 11
1065.230059694656
 21
710.0806297709924
 31
0.0
  0
LINE
  5
90E6
330
90E3
100
AcDbEntity
  8
1
  6
Continuous
 62
     4
370
    -2
100
AcDbLine
 10
1035.168990992366
 20
709.0806297709924
 30
0.0
 11
1063.230059694656
 21
709.0806297709924
 31
0.0
  0
SOLID
  5
90E7
330
90E3
100
AcDbEntity
  8
1
  6
Continuous
 62
     4
370
     0
100
AcDbTrace
 10
1035.168990992366
 20
709.4139631043256
 30
0.0
 11
1035.168990992366
 21
708.7472964376591
 31
0.0
 12
1033.168990992366
 22
709.0806297709924
 32
0.0
 13
1033.168990992366
 23
709.0806297709924
 33
0.0
  0
SOLID
  5
90E8
330
90E3
100
AcDbEntity
  8
1
  6
Continuous
 62
     4
370
     0
100
AcDbTrace
 10
1063.230059694656
 20
709.4139631043256
 30
0.0
 11
1063.230059694656
 21
708.7472964376591
 31
0.0
 12
1065.230059694656
 22
709.0806297709924
 32
0.0
 13
1065.230059694656
 23
709.0806297709924
 33
0.0
  0
MTEXT
  5
90E9
330
90E3
100
AcDbEntity
  8
1
  6
Continuous
 62
     2
100
AcDbMText
 10
1049.199525343511
 20
710.3306297709925
 30
0.0
 40
2.5
 41
0.0
 71
     5
 72
     1
  1
\A1; 32.061069 
 73
     1
 44
1.0
1001
ACAD
1000
MTEXTBEGIN
1070
    73
1070
     1
1070
    44
1040
1.0
1070
    74
1070
     0
1000
MTEXTEND
  0
POINT
  5
90EA
330
90E3
100
AcDbEntity
  8
DEFPOINTS
  6
Continuous
 62
     0
370
     0
100
AcDbPoint
 10
1033.168990992366
 20
682.1251610209925
 30
0.0
  0
POINT
  5
90EB
330
90E3
100
AcDbEntity
  8
DEFPOINTS
  6
Continuous
 62
     0
370
     0
100
AcDbPoint
 10
1065.230059694656
 20
601.972489265267
 30
0.0
  0
POINT
  5
90EC
330
90E3
100
AcDbEntity
  8
DEFPOINTS
  6
Continuous
 62
     0
370
     0
100
AcDbPoint
 10
1065.230059694656
 20
709.0806297709924
 30
0.0
  0
ENDBLK
  5
90EE
330
90E3
100
AcDbEntity
  8
0
100
AcDbBlockEnd
  0
BLOCK
  5
90F9
330
90EF
100
AcDbEntity
  8
0
100
AcDbBlockBegin
  2
_D12
 70
     0
 10
0.0
 20
0.0
 30
0.0
  3
_D12
  1

  0
LINE
  5
90F0
330
90EF
100
AcDbEntity
  8
1
  6
Continuous
 62
     4
370
    -2
100
AcDbLine
 10
1208.703342137404
 20
602.9724892652673
 30
0.0
 11
1208.703342137404
 21
659.9852099236642
 31
0.0
  0
LINE
  5
90F1
330
90EF
100
AcDbEntity
  8
1
  6
Continuous
 62
     4
370
    -2
100
AcDbLine
 10
1418.703342137404
 20
602.9724892652673
 30
0.0
 11
1418.703342137404
 21
659.9852099236642
 31
0.0
  0
LINE
  5
90F2
330
90EF
100
AcDbEntity
  8
1
  6
Continuous
 62
     4
370
    -2
100
AcDbLine
 10
1210.703342137404
 20
658.9852099236642
 30
0.0
 11
1416.703342137404
 21
658.9852099236642
 31
0.0
  0
SOLID
  5
90F3
330
90EF
100
AcDbEntity
  8
1
  6
Continuous
 62
     4
370
     0
100
AcDbTrace
 10
1210.703342137404
 20
659.3185432569976
 30
0.0
 11
1210.703342137404
 21
658.6518765903307
 31
0.0
 12
1208.703342137404
 22
658.9852099236642
 32
0.0
 13
1208.703342137404
 23
658.9852099236642
 33
0.0
  0
SOLID
  5
90F4
330
90EF
100
AcDbEntity
  8
1
  6
Continuous
 62
     4
370
     0
100
AcDbTrace
 10
1416.703342137404
 20
659.3185432569976
 30
0.0
 11
1416.703342137404
 21
658.6518765903307
 31
0.0
 12
1418.703342137404
 22
658.9852099236642
 32
0.0
 13
1418.703342137404
 23
658.9852099236642
 33
0.0
  0
MTEXT
  5
90F5
330
90EF
100
AcDbEntity
  8
1
  6
Continuous
 62
     2
100
AcDbMText
 10
1313.703342137404
 20
660.2352099236642
 30
0.0
 40
2.5
 41
0.0
 71
     5
 72
     1
  1
\A1; 210 
 73
     1
 44
1.0
1001
ACAD
1000
MTEXTBEGIN
1070
    73
1070
     1
1070
    44
1040
1.0
1070
    74
1070
     0
1000
MTEXTEND
  0
POINT
  5
90F6
330
90EF
100
AcDbEntity
  8
DEFPOINTS
  6
Continuous
 62
     0
370
     0
100
AcDbPoint
 10
1208.703342137404
 20
601.972489265267
 30
0.0
  0
POINT
  5
90F7
330
90EF
100
AcDbEntity
  8
DEFPOINTS
  6
Continuous
 62
     0
370
     0
100
AcDbPoint
 10
1418.703342137404
 20
601.972489265267
 30
0.0
  0
POINT
  5
90F8
330
90EF
100
AcDbEntity
  8
DEFPOINTS
  6
Continuous
 62
     0
370
     0
100
AcDbPoint
 10
1418.703342137404
 20
658.9852099236642
 30
0.0
  0
ENDBLK
  5
90FA
330
90EF
100
AcDbEntity
  8
0
100
AcDbBlockEnd
  0
BLOCK
  5
9105
330
90FB
100
AcDbEntity
  8
0
100
AcDbBlockBegin
  2
_D13
 70
     0
 10
0.0
 20
0.0
 30
0.0
  3
_D13
  1

  0
LINE
  5
90FC
330
90FB
100
AcDbEntity
  8
1
  6
Continuous
 62
     4
370
    -2
100
AcDbLine
 10
1208.703342137404
 20
602.9724892652673
 30
0.0
 11
1208.703342137404
 21
695.0520038167938
 31
0.0
  0
LINE
  5
90FD
330
90FB
100
AcDbEntity
  8
1
  6
Continuous
 62
     4
370
    -2
100
AcDbLine
 10
1488.836929923664
 20
602.9724892652673
 30
0.0
 11
1488.836929923664
 21
695.0520038167938
 31
0.0
  0
LINE
  5
90FE
330
90FB
100
AcDbEntity
  8
1
  6
Continuous
 62
     4
370
    -2
100
AcDbLine
 10
1210.703342137404
 20
694.0520038167938
 30
0.0
 11
1486.836929923664
 21
694.0520038167938
 31
0.0
  0
SOLID
  5
90FF
330
90FB
100
AcDbEntity
  8
1
  6
Continuous
 62
     4
370
     0
100
AcDbTrace
 10
1210.703342137404
 20
694.3853371501273
 30
0.0
 11
1210.703342137404
 21
693.7186704834605
 31
0.0
 12
1208.703342137404
 22
694.0520038167938
 32
0.0
 13
1208.703342137404
 23
694.0520038167938
 33
0.0
  0
SOLID
  5
9100
330
90FB
100
AcDbEntity
  8
1
  6
Continuous
 62
     4
370
     0
100
AcDbTrace
 10
1486.836929923664
 20
694.3853371501273
 30
0.0
 11
1486.836929923664
 21
693.7186704834605
 31
0.0
 12
1488.836929923664
 22
694.0520038167938
 32
0.0
 13
1488.836929923664
 23
694.0520038167938
 33
0.0
  0
MTEXT
  5
9101
330
90FB
100
AcDbEntity
  8
1
  6
Continuous
 62
     2
100
AcDbMText
 10
1348.770136030534
 20
695.3020038167937
 30
0.0
 40
2.5
 41
0.0
 71
     5
 72
     1
  1
\A1; 280.133588 
 73
     1
 44
1.0
1001
ACAD
1000
MTEXTBEGIN
1070
    73
1070
     1
1070
    44
1040
1.0
1070
    74
1070
     0
1000
MTEXTEND
  0
POINT
  5
9102
330
90FB
100
AcDbEntity
  8
DEFPOINTS
  6
Continuous
 62
     0
370
     0
100
AcDbPoint
 10
1208.703342137404
 20
601.972489265267
 30
0.0
  0
POINT
  5
9103
330
90FB
100
AcDbEntity
  8
DEFPOINTS
  6
Continuous
 62
     0
370
     0
100
AcDbPoint
 10
1488.836929923664
 20
601.972489265267
 30
0.0
  0
POINT
  5
9104
330
90FB
100
AcDbEntity
  8
DEFPOINTS
  6
Continuous
 62
     0
370
     0
100
AcDbPoint
 10
1488.836929923664
 20
694.0520038167938
 30
0.0
  0
ENDBLK
  5
9106
330
90FB
100
AcDbEntity
  8
0
100
AcDbBlockEnd
  0
BLOCK
  5
9111
330
9107
100
AcDbEntity
  8
0
100
AcDbBlockBegin
  2
_D14
 70
     0
 10
0.0
 20
0.0
 30
0.0
  3
_D14
  1

  0
LINE
  5
9108
330
9107
100
AcDbEntity
  8
1
  6
Continuous
 62
     4
370
    -2
100
AcDbLine
 10
1227.53922
 20
409.6079854484733
 30
0.0
 11
1227.53922
 21
282.2695610687022
 31
0.0
  0
LINE
  5
9109
330
9107
100
AcDbEntity
  8
1
  6
Continuous
 62
     4
370
    -2
100
AcDbLine
 10
1399.867464274809
 20
409.6079854484733
 30
0.0
 11
1399.867464274809
 21
282.2695610687022
 31
0.0
  0
LINE
  5
910A
330
9107
100
AcDbEntity
  8
1
  6
Continuous
 62
     4
370
    -2
100
AcDbLine
 10
1229.53922
 20
283.2695610687022
 30
0.0
 11
1397.867464274809
 21
283.2695610687022
 31
0.0
  0
SOLID
  5
910B
330
9107
100
AcDbEntity
  8
1
  6
Continuous
 62
     4
370
     0
100
AcDbTrace
 10
1229.53922
 20
283.6028944020355
 30
0.0
 11
1229.53922
 21
282.9362277353689
 31
0.0
 12
1227.53922
 22
283.2695610687022
 32
0.0
 13
1227.53922
 23
283.2695610687022
 33
0.0
  0
SOLID
  5
910C
330
9107
100
AcDbEntity
  8
1
  6
Continuous
 62
     4
370
     0
100
AcDbTrace
 10
1397.867464274809
 20
283.6028944020355
 30
0.0
 11
1397.867464274809
 21
282.9362277353689
 31
0.0
 12
1399.867464274809
 22
283.2695610687022
 32
0.0
 13
1399.867464274809
 23
283.2695610687022
 33
0.0
  0
MTEXT
  5
910D
330
9107
100
AcDbEntity
  8
1
  6
Continuous
 62
     2
100
AcDbMText
 10
1313.703342137404
 20
284.5195610687022
 30
0.0
 40
2.5
 41
0.0
 71
     5
 72
     1
  1
\A1; 172.328244 
 73
     1
 44
1.0
1001
ACAD
1000
MTEXTBEGIN
1070
    73
1070
     1
1070
    44
1040
1.0
1070
    74
1070
     0
1000
MTEXTEND
  0
POINT
  5
910E
330
9107
100
AcDbEntity
  8
DEFPOINTS
  6
Continuous
 62
     0
370
     0
100
AcDbPoint
 10
1227.53922
 20
410.6079854484733
 30
0.0
  0
POINT
  5
910F
330
9107
100
AcDbEntity
  8
DEFPOINTS
  6
Continuous
 62
     0
370
     0
100
AcDbPoint
 10
1399.867464274809
 20
410.6079854484733
 30
0.0
  0
POINT
  5
9110
330
9107
100
AcDbEntity
  8
DEFPOINTS
  6
Continuous
 62
     0
370
     0
100
AcDbPoint
 10
1399.867464274809
 20
283.2695610687022
 30
0.0
  0
ENDBLK
  5
9112
330
9107
100
AcDbEntity
  8
0
100
AcDbBlockEnd
  0
BLOCK
  5
911D
330
9113
100
AcDbEntity
  8
0
100
AcDbBlockBegin
  2
_D15
 70
     0
 10
0.0
 20
0.0
 30
0.0
  3
_D15
  1

  0
LINE
  5
9114
330
9113
100
AcDbEntity
  8
1
  6
Continuous
 62
     4
370
    -2
100
AcDbLine
 10
1578.607922290076
 20
-213.57903745229
 30
0.0
 11
1578.607922290076
 21
-253.7514312977099
 31
0.0
  0
LINE
  5
9115
330
9113
100
AcDbEntity
  8
1
  6
Continuous
 62
     4
370
    -2
100
AcDbLine
 10
1648.741510076335
 20
-213.57903745229
 30
0.0
 11
1648.741510076335
 21
-253.7514312977099
 31
0.0
  0
LINE
  5
9116
330
9113
100
AcDbEntity
  8
1
  6
Continuous
 62
     4
370
    -2
100
AcDbLine
 10
1580.607922290076
 20
-252.7514312977099
 30
0.0
 11
1646.741510076335
 21
-252.7514312977099
 31
0.0
  0
SOLID
  5
9117
330
9113
100
AcDbEntity
  8
1
  6
Continuous
 62
     4
370
     0
100
AcDbTrace
 10
1580.607922290076
 20
-252.4180979643765
 30
0.0
 11
1580.607922290076
 21
-253.0847646310432
 31
0.0
 12
1578.607922290076
 22
-252.7514312977099
 32
0.0
 13
1578.607922290076
 23
-252.7514312977099
 33
0.0
  0
SOLID
  5
9118
330
9113
100
AcDbEntity
  8
1
  6
Continuous
 62
     4
370
     0
100
AcDbTrace
 10
1646.741510076335
 20
-252.4180979643765
 30
0.0
 11
1646.741510076335
 21
-253.0847646310432
 31
0.0
 12
1648.741510076335
 22
-252.7514312977099
 32
0.0
 13
1648.741510076335
 23
-252.7514312977099
 33
0.0
  0
MTEXT
  5
9119
330
9113
100
AcDbEntity
  8
1
  6
Continuous
 62
     2
100
AcDbMText
 10
1613.674716183205
 20
-251.5014312977099
 30
0.0
 40
2.5
 41
0.0
 71
     5
 72
     1
  1
\A1; 70.133588 
 73
     1
 44
1.0
1001
ACAD
1000
MTEXTBEGIN
1070
    73
1070
     1
1070
    44
1040
1.0
1070
    74
1070
     0
1000
MTEXTEND
  0
POINT
  5
911A
330
9113
100
AcDbEntity
  8
DEFPOINTS
  6
Continuous
 62
     0
370
     0
100
AcDbPoint
 10
1578.607922290076
 20
-212.57903745229
 30
0.0
  0
POINT
  5
911B
330
9113
100
AcDbEntity
  8
DEFPOINTS
  6
Continuous
 62
     0
370
     0
100
AcDbPoint
 10
1648.741510076335
 20
-212.57903745229
 30
0.0
  0
POINT
  5
911C
330
9113
100
AcDbEntity
  8
DEFPOINTS
  6
Continuous
 62
     0
370
     0
100
AcDbPoint
 10
1648.741510076335
 20
-252.7514312977099
 30
0.0
  0
ENDBLK
  5
911E
330
9113
100
AcDbEntity
  8
0
100
AcDbBlockEnd
  0
BLOCK
  5
9129
330
911F
100
AcDbEntity
  8
0
100
AcDbBlockBegin
  2
_D16
 70
     0
 10
0.0
 20
0.0
 30
0.0
  3
_D16
  1

  0
LINE
  5
9120
330
911F
100
AcDbEntity
  8
1
  6
Continuous
 62
     4
370
    -2
100
AcDbLine
 10
125.7405558778625
 20
404.5984434637404
 30
0.0
 11
125.7405558778625
 21
382.4604007633589
 31
0.0
  0
LINE
  5
9121
330
911F
100
AcDbEntity
  8
1
  6
Continuous
 62
     4
370
    -2
100
AcDbLine
 10
176.8378841221373
 20
404.5984434637404
 30
0.0
 11
176.8378841221373
 21
382.4604007633589
 31
0.0
  0
LINE
  5
9122
330
911F
100
AcDbEntity
  8
1
  6
Continuous
 62
     4
370
    -2
100
AcDbLine
 10
127.7405558778625
 20
383.4604007633588
 30
0.0
 11
174.8378841221373
 21
383.4604007633588
 31
0.0
  0
SOLID
  5
9123
330
911F
100
AcDbEntity
  8
1
  6
Continuous
 62
     4
370
     0
100
AcDbTrace
 10
127.7405558778625
 20
383.7937340966921
 30
0.0
 11
127.7405558778625
 21
383.1270674300255
 31
0.0
 12
125.7405558778625
 22
383.4604007633588
 32
0.0
 13
125.7405558778625
 23
383.4604007633588
 33
0.0
  0
SOLID
  5
9124
330
911F
100
AcDbEntity
  8
1
  6
Continuous
 62
     4
370
     0
100
AcDbTrace
 10
174.8378841221373
 20
383.7937340966921
 30
0.0
 11
174.8378841221373
 21
383.1270674300255
 31
0.0
 12
176.8378841221373
 22
383.4604007633588
 32
0.0
 13
176.8378841221373
 23
383.4604007633588
 33
0.0
  0
MTEXT
  5
9125
330
911F
100
AcDbEntity
  8
1
  6
Continuous
 62
     2
100
AcDbMText
 10
151.2892199999999
 20
384.7104007633589
 30
0.0
 40
2.5
 41
0.0
 71
     5
 72
     1
  1
\A1; 51.097328 
 73
     1
 44
1.0
1001
ACAD
1000
MTEXTBEGIN
1070
    73
1070
     1
1070
    44
1040
1.0
1070
    74
1070
     0
1000
MTEXTEND
  0
POINT
  5
9126
330
911F
100
AcDbEntity
  8
DEFPOINTS
  6
Continuous
 62
     0
370
     0
100
AcDbPoint
 10
125.7405558778625
 20
405.5984434637404
 30
0.0
  0
POINT
  5
9127
330
911F
100
AcDbEntity
  8
DEFPOINTS
  6
Continuous
 62
     0
370
     0
100
AcDbPoint
 10
176.8378841221373
 20
405.5984434637404
 30
0.0
  0
POINT
  5
9128
330
911F
100
AcDbEntity
  8
DEFPOINTS
  6
Continuous
 62
     0
370
     0
100
AcDbPoint
 10
176.8378841221373
 20
383.4604007633588
 30
0.0
  0
ENDBLK
  5
912A
330
911F
100
AcDbEntity
  8
0
100
AcDbBlockEnd
  0
BLOCK
  5
9135
330
912B
100
AcDbEntity
  8
0
100
AcDbBlockBegin
  2
_D17
 70
     0
 10
0.0
 20
0.0
 30
0.0
  3
_D17
  1

  0
LINE
  5
912C
330
912B
100
AcDbEntity
  8
1
  6
Continuous
 62
     4
370
    -2
100
AcDbLine
 10
456.370326870229
 20
404.5984434637404
 30
0.0
 11
456.370326870229
 21
382.4604007633589
 31
0.0
  0
LINE
  5
912D
330
912B
100
AcDbEntity
  8
1
  6
Continuous
 62
     4
370
    -2
100
AcDbLine
 10
507.4676551145038
 20
404.5984434637404
 30
0.0
 11
507.4676551145038
 21
382.4604007633589
 31
0.0
  0
LINE
  5
912E
330
912B
100
AcDbEntity
  8
1
  6
Continuous
 62
     4
370
    -2
100
AcDbLine
 10
458.3703268702288
 20
383.4604007633588
 30
0.0
 11
505.4676551145037
 21
383.4604007633588
 31
0.0
  0
SOLID
  5
912F
330
912B
100
AcDbEntity
  8
1
  6
Continuous
 62
     4
370
     0
100
AcDbTrace
 10
458.3703268702288
 20
383.7937340966921
 30
0.0
 11
458.3703268702288
 21
383.1270674300255
 31
0.0
 12
456.370326870229
 22
383.4604007633588
 32
0.0
 13
456.370326870229
 23
383.4604007633588
 33
0.0
  0
SOLID
  5
9130
330
912B
100
AcDbEntity
  8
1
  6
Continuous
 62
     4
370
     0
100
AcDbTrace
 10
505.4676551145037
 20
383.7937340966921
 30
0.0
 11
505.4676551145037
 21
383.1270674300255
 31
0.0
 12
507.4676551145038
 22
383.4604007633588
 32
0.0
 13
507.4676551145038
 23
383.4604007633588
 33
0.0
  0
MTEXT
  5
9131
330
912B
100
AcDbEntity
  8
1
  6
Continuous
 62
     2
100
AcDbMText
 10
481.9189909923664
 20
384.7104007633589
 30
0.0
 40
2.5
 41
0.0
 71
     5
 72
     1
  1
\A1; 51.097328 
 73
     1
 44
1.0
1001
ACAD
1000
MTEXTBEGIN
1070
    73
1070
     1
1070
    44
1040
1.0
1070
    74
1070
     0
1000
MTEXTEND
  0
POINT
  5
9132
330
912B
100
AcDbEntity
  8
DEFPOINTS
  6
Continuous
 62
     0
370
     0
100
AcDbPoint
 10
456.370326870229
 20
405.5984434637404
 30
0.0
  0
POINT
  5
9133
330
912B
100
AcDbEntity
  8
DEFPOINTS
  6
Continuous
 62
     0
370
     0
100
AcDbPoint
 10
507.4676551145038
 20
405.5984434637404
 30
0.0
  0
POINT
  5
9134
330
912B
100
AcDbEntity
  8
DEFPOINTS
  6
Continuous
 62
     0
370
     0
100
AcDbPoint
 10
507.4676551145038
 20
383.4604007633588
 30
0.0
  0
ENDBLK
  5
9136
330
912B
100
AcDbEntity
  8
0
100
AcDbBlockEnd
  0
BLOCK
  5
9141
330
9137
100
AcDbEntity
  8
0
100
AcDbBlockBegin
  2
_D18
 70
     0
 10
0.0
 20
0.0
 30
0.0
  3
_D18
  1

  0
LINE
  5
9138
330
9137
100
AcDbEntity
  8
1
  6
Continuous
 62
     4
370
    -2
100
AcDbLine
 10
66.12700625954198
 20
501.7797411736641
 30
0.0
 11
66.12700625954198
 21
534.7466603053436
 31
0.0
  0
LINE
  5
9139
330
9137
100
AcDbEntity
  8
1
  6
Continuous
 62
     4
370
    -2
100
AcDbLine
 10
236.451433740458
 20
501.7797411736641
 30
0.0
 11
236.451433740458
 21
534.7466603053436
 31
0.0
  0
LINE
  5
913A
330
9137
100
AcDbEntity
  8
1
  6
Continuous
 62
     4
370
    -2
100
AcDbLine
 10
68.12700625954199
 20
533.7466603053436
 30
0.0
 11
234.451433740458
 21
533.7466603053436
 31
0.0
  0
SOLID
  5
913B
330
9137
100
AcDbEntity
  8
1
  6
Continuous
 62
     4
370
     0
100
AcDbTrace
 10
68.12700625954199
 20
534.079993638677
 30
0.0
 11
68.12700625954199
 21
533.4133269720101
 31
0.0
 12
66.12700625954198
 22
533.7466603053436
 32
0.0
 13
66.12700625954198
 23
533.7466603053436
 33
0.0
  0
SOLID
  5
913C
330
9137
100
AcDbEntity
  8
1
  6
Continuous
 62
     4
370
     0
100
AcDbTrace
 10
234.451433740458
 20
534.079993638677
 30
0.0
 11
234.451433740458
 21
533.4133269720101
 31
0.0
 12
236.451433740458
 22
533.7466603053436
 32
0.0
 13
236.451433740458
 23
533.7466603053436
 33
0.0
  0
MTEXT
  5
913D
330
9137
100
AcDbEntity
  8
1
  6
Continuous
 62
     2
100
AcDbMText
 10
151.28922
 20
534.9966603053436
 30
0.0
 40
2.5
 41
0.0
 71
     5
 72
     1
  1
\A1; 170.324427 
 73
     1
 44
1.0
1001
ACAD
1000
MTEXTBEGIN
1070
    73
1070
     1
1070
    44
1040
1.0
1070
    74
1070
     0
1000
MTEXTEND
  0
POINT
  5
913E
330
9137
100
AcDbEntity
  8
DEFPOINTS
  6
Continuous
 62
     0
370
     0
100
AcDbPoint
 10
66.12700625954198
 20
500.7797411736641
 30
0.0
  0
POINT
  5
913F
330
9137
100
AcDbEntity
  8
DEFPOINTS
  6
Continuous
 62
     0
370
     0
100
AcDbPoint
 10
236.451433740458
 20
500.7797411736641
 30
0.0
  0
POINT
  5
9140
330
9137
100
AcDbEntity
  8
DEFPOINTS
  6
Continuous
 62
     0
370
     0
100
AcDbPoint
 10
236.451433740458
 20
533.7466603053436
 30
0.0
  0
ENDBLK
  5
9142
330
9137
100
AcDbEntity
  8
0
100
AcDbBlockEnd
  0
BLOCK
  5
914D
330
9143
100
AcDbEntity
  8
0
100
AcDbBlockBegin
  2
_D19
 70
     0
 10
0.0
 20
0.0
 30
0.0
  3
_D19
  1

  0
LINE
  5
9144
330
9143
100
AcDbEntity
  8
1
  6
Continuous
 62
     4
370
    -2
100
AcDbLine
 10
396.7567772519083
 20
501.7797411736641
 30
0.0
 11
396.7567772519083
 21
534.7466603053436
 31
0.0
  0
LINE
  5
9145
330
9143
100
AcDbEntity
  8
1
  6
Continuous
 62
     4
370
    -2
100
AcDbLine
 10
567.0812047328245
 20
501.7797411736641
 30
0.0
 11
567.0812047328245
 21
534.7466603053436
 31
0.0
  0
LINE
  5
9146
330
9143
100
AcDbEntity
  8
1
  6
Continuous
 62
     4
370
    -2
100
AcDbLine
 10
398.7567772519083
 20
533.7466603053436
 30
0.0
 11
565.0812047328245
 21
533.7466603053436
 31
0.0
  0
SOLID
  5
9147
330
9143
100
AcDbEntity
  8
1
  6
Continuous
 62
     4
370
     0
100
AcDbTrace
 10
398.7567772519083
 20
534.079993638677
 30
0.0
 11
398.7567772519083
 21
533.4133269720101
 31
0.0
 12
396.7567772519083
 22
533.7466603053436
 32
0.0
 13
396.7567772519083
 23
533.7466603053436
 33
0.0
  0
SOLID
  5
9148
330
9143
100
AcDbEntity
  8
1
  6
Continuous
 62
     4
370
     0
100
AcDbTrace
 10
565.0812047328245
 20
534.079993638677
 30
0.0
 11
565.0812047328245
 21
533.4133269720101
 31
0.0
 12
567.0812047328245
 22
533.7466603053436
 32
0.0
 13
567.0812047328245
 23
533.7466603053436
 33
0.0
  0
MTEXT
  5
9149
330
9143
100
AcDbEntity
  8
1
  6
Continuous
 62
     2
100
AcDbMText
 10
481.9189909923664
 20
534.9966603053436
 30
0.0
 40
2.5
 41
0.0
 71
     5
 72
     1
  1
\A1; 170.324427 
 73
     1
 44
1.0
1001
ACAD
1000
MTEXTBEGIN
1070
    73
1070
     1
1070
    44
1040
1.0
1070
    74
1070
     0
1000
MTEXTEND
  0
POINT
  5
914A
330
9143
100
AcDbEntity
  8
DEFPOINTS
  6
Continuous
 62
     0
370
     0
100
AcDbPoint
 10
396.7567772519083
 20
500.7797411736641
 30
0.0
  0
POINT
  5
914B
330
9143
100
AcDbEntity
  8
DEFPOINTS
  6
Continuous
 62
     0
370
     0
100
AcDbPoint
 10
567.0812047328245
 20
500.7797411736641
 30
0.0
  0
POINT
  5
914C
330
9143
100
AcDbEntity
  8
DEFPOINTS
  6
Continuous
 62
     0
370
     0
100
AcDbPoint
 10
567.0812047328245
 20
533.7466603053436
 30
0.0
  0
ENDBLK
  5
914E
330
9143
100
AcDbEntity
  8
0
100
AcDbBlockEnd
  0
BLOCK
  5
9159
330
914F
100
AcDbEntity
  8
0
100
AcDbBlockBegin
  2
_D20
 70
     0
 10
0.0
 20
0.0
 30
0.0
  3
_D20
  1

  0
LINE
  5
9150
330
914F
100
AcDbEntity
  8
1
  6
Continuous
 62
     4
370
    -2
100
AcDbLine
 10
201.1842581679389
 20
237.2797411736641
 30
0.0
 11
201.1842581679389
 21
212.1359732824428
 31
0.0
  0
LINE
  5
9151
330
914F
100
AcDbEntity
  8
1
  6
Continuous
 62
     4
370
    -2
100
AcDbLine
 10
241.2605940458015
 20
237.2797411736641
 30
0.0
 11
241.2605940458015
 21
212.1359732824428
 31
0.0
  0
LINE
  5
9152
330
914F
100
AcDbEntity
  8
1
  6
Continuous
 62
     4
370
    -2
100
AcDbLine
 10
203.1842581679389
 20
213.1359732824428
 30
0.0
 11
239.2605940458015
 21
213.1359732824428
 31
0.0
  0
SOLID
  5
9153
330
914F
100
AcDbEntity
  8
1
  6
Continuous
 62
     4
370
     0
100
AcDbTrace
 10
203.1842581679389
 20
213.4693066157761
 30
0.0
 11
203.1842581679389
 21
212.8026399491094
 31
0.0
 12
201.1842581679389
 22
213.1359732824428
 32
0.0
 13
201.1842581679389
 23
213.1359732824428
 33
0.0
  0
SOLID
  5
9154
330
914F
100
AcDbEntity
  8
1
  6
Continuous
 62
     4
370
     0
100
AcDbTrace
 10
239.2605940458015
 20
213.4693066157761
 30
0.0
 11
239.2605940458015
 21
212.8026399491094
 31
0.0
 12
241.2605940458015
 22
213.1359732824428
 32
0.0
 13
241.2605940458015
 23
213.1359732824428
 33
0.0
  0
MTEXT
  5
9155
330
914F
100
AcDbEntity
  8
1
  6
Continuous
 62
     2
100
AcDbMText
 10
221.2224261068702
 20
214.3859732824428
 30
0.0
 40
2.5
 41
0.0
 71
     5
 72
     1
  1
\A1; 40.076336 
 73
     1
 44
1.0
1001
ACAD
1000
MTEXTBEGIN
1070
    73
1070
     1
1070
    44
1040
1.0
1070
    74
1070
     0
1000
MTEXTEND
  0
POINT
  5
9156
330
914F
100
AcDbEntity
  8
DEFPOINTS
  6
Continuous
 62
     0
370
     0
100
AcDbPoint
 10
201.1842581679389
 20
238.279741173664
 30
0.0
  0
POINT
  5
9157
330
914F
100
AcDbEntity
  8
DEFPOINTS
  6
Continuous
 62
     0
370
     0
100
AcDbPoint
 10
241.2605940458015
 20
238.279741173664
 30
0.0
  0
POINT
  5
9158
330
914F
100
AcDbEntity
  8
DEFPOINTS
  6
Continuous
 62
     0
370
     0
100
AcDbPoint
 10
241.2605940458015
 20
213.1359732824428
 30
0.0
  0
ENDBLK
  5
915A
330
914F
100
AcDbEntity
  8
0
100
AcDbBlockEnd
  0
BLOCK
  5
9166
330
915B
100
AcDbEntity
  8
0
100
AcDbBlockBegin
  2
_D21
 70
     0
 10
0.0
 20
0.0
 30
0.0
  3
_D21
  1

  0
LINE
  5
915C
330
915B
100
AcDbEntity
  8
1
  6
Continuous
 62
     4
370
    -2
100
AcDbLine
 10
214.7100215267175
 20
632.0278327767177
 30
0.0
 11
214.7100215267175
 21
651.7881164122137
 31
0.0
  0
LINE
  5
915D
330
915B
100
AcDbEntity
  8
1
  6
Continuous
 62
     4
370
    -2
100
AcDbLine
 10
227.7348306870228
 20
632.0278327767177
 30
0.0
 11
227.7348306870228
 21
651.7881164122137
 31
0.0
  0
LINE
  5
915E
330
915B
100
AcDbEntity
  8
1
  6
Continuous
 62
     4
370
    -2
100
AcDbLine
 10
216.7100215267175
 20
650.7881164122137
 30
0.0
 11
225.7348306870228
 21
650.7881164122137
 31
0.0
  0
LINE
  5
915F
330
915B
100
AcDbEntity
  8
1
  6
Continuous
 62
     4
370
    -2
100
AcDbLine
 10
227.7348306870228
 20
650.7881164122137
 30
0.0
 11
250.5681640203561
 21
650.7881164122137
 31
0.0
  0
SOLID
  5
9160
330
915B
100
AcDbEntity
  8
1
  6
Continuous
 62
     4
370
     0
100
AcDbTrace
 10
216.7100215267175
 20
651.1214497455471
 30
0.0
 11
216.7100215267175
 21
650.4547830788802
 31
0.0
 12
214.7100215267175
 22
650.7881164122137
 32
0.0
 13
214.7100215267175
 23
650.7881164122137
 33
0.0
  0
SOLID
  5
9161
330
915B
100
AcDbEntity
  8
1
  6
Continuous
 62
     4
370
     0
100
AcDbTrace
 10
225.7348306870228
 20
651.1214497455471
 30
0.0
 11
225.7348306870228
 21
650.4547830788802
 31
0.0
 12
227.7348306870228
 22
650.7881164122137
 32
0.0
 13
227.7348306870228
 23
650.7881164122137
 33
0.0
  0
MTEXT
  5
9162
330
915B
100
AcDbEntity
  8
1
  6
Continuous
 62
     2
100
AcDbMText
 10
240.1514973536895
 20
652.0381164122137
 30
0.0
 40
2.5
 41
0.0
 71
     5
 72
     1
  1
\A1; 13.024809 
 73
     1
 44
1.0
1001
ACAD
1000
MTEXTBEGIN
1070
    73
1070
     1
1070
    44
1040
1.0
1070
    74
1070
     0
1000
MTEXTEND
  0
POINT
  5
9163
330
915B
100
AcDbEntity
  8
DEFPOINTS
  6
Continuous
 62
     0
370
     0
100
AcDbPoint
 10
214.7100215267175
 20
631.0278327767178
 30
0.0
  0
POINT
  5
9164
330
915B
100
AcDbEntity
  8
DEFPOINTS
  6
Continuous
 62
     0
370
     0
100
AcDbPoint
 10
227.7348306870228
 20
631.0278327767178
 30
0.0
  0
POINT
  5
9165
330
915B
100
AcDbEntity
  8
DEFPOINTS
  6
Continuous
 62
     0
370
     0
100
AcDbPoint
 10
227.7348306870228
 20
650.7881164122137
 30
0.0
  0
ENDBLK
  5
9167
330
915B
100
AcDbEntity
  8
0
100
AcDbBlockEnd
  0
BLOCK
  5
9172
330
9168
100
AcDbEntity
  8
0
100
AcDbBlockBegin
  2
_D22
 70
     0
 10
0.0
 20
0.0
 30
0.0
  3
_D22
  1

  0
LINE
  5
9169
330
9168
100
AcDbEntity
  8
1
  6
Continuous
 62
     4
370
    -2
100
AcDbLine
 10
962.0334948091603
 20
404.5984434637404
 30
0.0
 11
962.0334948091603
 21
157.0310114503817
 31
0.0
  0
LINE
  5
916A
330
9168
100
AcDbEntity
  8
1
  6
Continuous
 62
     4
370
    -2
100
AcDbLine
 10
1065.230059694656
 20
317.4324129293893
 30
0.0
 11
1065.230059694656
 21
157.0310114503817
 31
0.0
  0
LINE
  5
916B
330
9168
100
AcDbEntity
  8
1
  6
Continuous
 62
     4
370
    -2
100
AcDbLine
 10
964.0334948091602
 20
158.0310114503816
 30
0.0
 11
1063.230059694656
 21
158.0310114503816
 31
0.0
  0
SOLID
  5
916C
330
9168
100
AcDbEntity
  8
1
  6
Continuous
 62
     4
370
     0
100
AcDbTrace
 10
964.0334948091602
 20
158.364344783715
 30
0.0
 11
964.0334948091602
 21
157.6976781170483
 31
0.0
 12
962.0334948091603
 22
158.0310114503816
 32
0.0
 13
962.0334948091603
 23
158.0310114503816
 33
0.0
  0
SOLID
  5
916D
330
9168
100
AcDbEntity
  8
1
  6
Continuous
 62
     4
370
     0
100
AcDbTrace
 10
1063.230059694656
 20
158.364344783715
 30
0.0
 11
1063.230059694656
 21
157.6976781170483
 31
0.0
 12
1065.230059694656
 22
158.0310114503816
 32
0.0
 13
1065.230059694656
 23
158.0310114503816
 33
0.0
  0
MTEXT
  5
916E
330
9168
100
AcDbEntity
  8
1
  6
Continuous
 62
     2
100
AcDbMText
 10
1013.631777251908
 20
159.2810114503816
 30
0.0
 40
2.5
 41
0.0
 71
     5
 72
     1
  1
\A1; 103.196565 
 73
     1
 44
1.0
1001
ACAD
1000
MTEXTBEGIN
1070
    73
1070
     1
1070
    44
1040
1.0
1070
    74
1070
     0
1000
MTEXTEND
  0
POINT
  5
916F
330
9168
100
AcDbEntity
  8
DEFPOINTS
  6
Continuous
 62
     0
370
     0
100
AcDbPoint
 10
962.0334948091603
 20
405.5984434637404
 30
0.0
  0
POINT
  5
9170
330
9168
100
AcDbEntity
  8
DEFPOINTS
  6
Continuous
 62
     0
370
     0
100
AcDbPoint
 10
1065.230059694656
 20
318.4324129293893
 30
0.0
  0
POINT
  5
9171
330
9168
100
AcDbEntity
  8
DEFPOINTS
  6
Continuous
 62
     0
370
     0
100
AcDbPoint
 10
1065.230059694656
 20
158.0310114503816
 30
0.0
  0
ENDBLK
  5
9173
330
9168
100
AcDbEntity
  8
0
100
AcDbBlockEnd
  0
BLOCK
  5
917E
330
9174
100
AcDbEntity
  8
0
100
AcDbBlockBegin
  2
_D23
 70
     0
 10
0.0
 20
0.0
 30
0.0
  3
_D23
  1

  0
LINE
  5
9175
330
9174
100
AcDbEntity
  8
1
  6
Continuous
 62
     4
370
    -2
100
AcDbLine
 10
958.0258612213739
 20
404.5984434637404
 30
0.0
 11
958.0258612213739
 21
101.9260496183205
 31
0.0
  0
LINE
  5
9176
330
9174
100
AcDbEntity
  8
1
  6
Continuous
 62
     4
370
    -2
100
AcDbLine
 10
1065.230059694656
 20
317.4324129293893
 30
0.0
 11
1065.230059694656
 21
101.9260496183205
 31
0.0
  0
LINE
  5
9177
330
9174
100
AcDbEntity
  8
1
  6
Continuous
 62
     4
370
    -2
100
AcDbLine
 10
960.0258612213741
 20
102.9260496183205
 30
0.0
 11
1063.230059694656
 21
102.9260496183205
 31
0.0
  0
SOLID
  5
9178
330
9174
100
AcDbEntity
  8
1
  6
Continuous
 62
     4
370
     0
100
AcDbTrace
 10
960.0258612213741
 20
103.2593829516539
 30
0.0
 11
960.0258612213741
 21
102.5927162849872
 31
0.0
 12
958.0258612213739
 22
102.9260496183205
 32
0.0
 13
958.0258612213739
 23
102.9260496183205
 33
0.0
  0
SOLID
  5
9179
330
9174
100
AcDbEntity
  8
1
  6
Continuous
 62
     4
370
     0
100
AcDbTrace
 10
1063.230059694656
 20
103.2593829516539
 30
0.0
 11
1063.230059694656
 21
102.5927162849872
 31
0.0
 12
1065.230059694656
 22
102.9260496183205
 32
0.0
 13
1065.230059694656
 23
102.9260496183205
 33
0.0
  0
MTEXT
  5
917A
330
9174
100
AcDbEntity
  8
1
  6
Continuous
 62
     2
100
AcDbMText
 10
1011.627960458015
 20
104.1760496183205
 30
0.0
 40
2.5
 41
0.0
 71
     5
 72
     1
  1
\A1; 107.204198 
 73
     1
 44
1.0
1001
ACAD
1000
MTEXTBEGIN
1070
    73
1070
     1
1070
    44
1040
1.0
1070
    74
1070
     0
1000
MTEXTEND
  0
POINT
  5
917B
330
9174
100
AcDbEntity
  8
DEFPOINTS
  6
Continuous
 62
     0
370
     0
100
AcDbPoint
 10
958.0258612213739
 20
405.5984434637404
 30
0.0
  0
POINT
  5
917C
330
9174
100
AcDbEntity
  8
DEFPOINTS
  6
Continuous
 62
     0
370
     0
100
AcDbPoint
 10
1065.230059694656
 20
318.4324129293893
 30
0.0
  0
POINT
  5
917D
330
9174
100
AcDbEntity
  8
DEFPOINTS
  6
Continuous
 62
     0
370
     0
100
AcDbPoint
 10
1065.230059694656
 20
102.9260496183205
 30
0.0
  0
ENDBLK
  5
917F
330
9174
100
AcDbEntity
  8
0
100
AcDbBlockEnd
  0
BLOCK
  5
918A
330
9180
100
AcDbEntity
  8
0
100
AcDbBlockBegin
  2
_D24
 70
     0
 10
0.0
 20
0.0
 30
0.0
  3
_D24
  1

  0
LINE
  5
9181
330
9180
100
AcDbEntity
  8
1
  6
Continuous
 62
     4
370
    -2
100
AcDbLine
 10
919.9533421374047
 20
460.7034052958016
 30
0.0
 11
919.9533421374047
 21
-18.30295801526711
 31
0.0
  0
LINE
  5
9182
330
9180
100
AcDbEntity
  8
1
  6
Continuous
 62
     4
370
    -2
100
AcDbLine
 10
1065.230059694656
 20
318.4324129293893
 30
0.0
 11
1065.230059694656
 21
-18.30295801526711
 31
0.0
  0
LINE
  5
9183
330
9180
100
AcDbEntity
  8
1
  6
Continuous
 62
     4
370
    -2
100
AcDbLine
 10
921.9533421374048
 20
-17.3029580152671
 30
0.0
 11
1063.230059694656
 21
-17.3029580152671
 31
0.0
  0
SOLID
  5
9184
330
9180
100
AcDbEntity
  8
1
  6
Continuous
 62
     4
370
     0
100
AcDbTrace
 10
921.9533421374048
 20
-16.96962468193377
 30
0.0
 11
921.9533421374048
 21
-17.63629134860044
 31
0.0
 12
919.9533421374047
 22
-17.3029580152671
 32
0.0
 13
919.9533421374047
 23
-17.3029580152671
 33
0.0
  0
SOLID
  5
9185
330
9180
100
AcDbEntity
  8
1
  6
Continuous
 62
     4
370
     0
100
AcDbTrace
 10
1063.230059694656
 20
-16.96962468193377
 30
0.0
 11
1063.230059694656
 21
-17.63629134860044
 31
0.0
 12
1065.230059694656
 22
-17.3029580152671
 32
0.0
 13
1065.230059694656
 23
-17.3029580152671
 33
0.0
  0
MTEXT
  5
9186
330
9180
100
AcDbEntity
  8
1
  6
Continuous
 62
     2
100
AcDbMText
 10
992.5917009160308
 20
-16.0529580152671
 30
0.0
 40
2.5
 41
0.0
 71
     5
 72
     1
  1
\A1; 145.276718 
 73
     1
 44
1.0
1001
ACAD
1000
MTEXTBEGIN
1070
    73
1070
     1
1070
    44
1040
1.0
1070
    74
1070
     0
1000
MTEXTEND
  0
POINT
  5
9187
330
9180
100
AcDbEntity
  8
DEFPOINTS
  6
Continuous
 62
     0
370
     0
100
AcDbPoint
 10
919.9533421374047
 20
460.7034052958016
 30
0.0
  0
POINT
  5
9188
330
9180
100
AcDbEntity
  8
DEFPOINTS
  6
Continuous
 62
     0
370
     0
100
AcDbPoint
 10
1065.230059694656
 20
318.4324129293893
 30
0.0
  0
POINT
  5
9189
330
9180
100
AcDbEntity
  8
DEFPOINTS
  6
Continuous
 62
     0
370
     0
100
AcDbPoint
 10
1065.230059694656
 20
-17.3029580152671
 30
0.0
  0
ENDBLK
  5
918B
330
9180
100
AcDbEntity
  8
0
100
AcDbBlockEnd
  0
BLOCK
  5
9196
330
918C
100
AcDbEntity
  8
0
100
AcDbBlockBegin
  2
_D25
 70
     0
 10
0.0
 20
0.0
 30
0.0
  3
_D25
  1

  0
LINE
  5
918D
330
918C
100
AcDbEntity
  8
1
  6
Continuous
 62
     4
370
    -2
100
AcDbLine
 10
1318.512502442748
 20
-213.57903745229
 30
0.0
 11
1318.512502442748
 21
-253.7514312977099
 31
0.0
  0
LINE
  5
918E
330
918C
100
AcDbEntity
  8
1
  6
Continuous
 62
     4
370
    -2
100
AcDbLine
 10
1388.646090229007
 20
-213.57903745229
 30
0.0
 11
1388.646090229007
 21
-253.7514312977099
 31
0.0
  0
LINE
  5
918F
330
918C
100
AcDbEntity
  8
1
  6
Continuous
 62
     4
370
    -2
100
AcDbLine
 10
1320.512502442748
 20
-252.7514312977099
 30
0.0
 11
1386.646090229007
 21
-252.7514312977099
 31
0.0
  0
SOLID
  5
9190
330
918C
100
AcDbEntity
  8
1
  6
Continuous
 62
     4
370
     0
100
AcDbTrace
 10
1320.512502442748
 20
-252.4180979643765
 30
0.0
 11
1320.512502442748
 21
-253.0847646310432
 31
0.0
 12
1318.512502442748
 22
-252.7514312977099
 32
0.0
 13
1318.512502442748
 23
-252.7514312977099
 33
0.0
  0
SOLID
  5
9191
330
918C
100
AcDbEntity
  8
1
  6
Continuous
 62
     4
370
     0
100
AcDbTrace
 10
1386.646090229007
 20
-252.4180979643765
 30
0.0
 11
1386.646090229007
 21
-253.0847646310432
 31
0.0
 12
1388.646090229007
 22
-252.7514312977099
 32
0.0
 13
1388.646090229007
 23
-252.7514312977099
 33
0.0
  0
MTEXT
  5
9192
330
918C
100
AcDbEntity
  8
1
  6
Continuous
 62
     2
100
AcDbMText
 10
1353.579296335878
 20
-251.5014312977099
 30
0.0
 40
2.5
 41
0.0
 71
     5
 72
     1
  1
\A1; 70.133588 
 73
     1
 44
1.0
1001
ACAD
1000
MTEXTBEGIN
1070
    73
1070
     1
1070
    44
1040
1.0
1070
    74
1070
     0
1000
MTEXTEND
  0
POINT
  5
9193
330
918C
100
AcDbEntity
  8
DEFPOINTS
  6
Continuous
 62
     0
370
     0
100
AcDbPoint
 10
1318.512502442748
 20
-212.57903745229
 30
0.0
  0
POINT
  5
9194
330
918C
100
AcDbEntity
  8
DEFPOINTS
  6
Continuous
 62
     0
370
     0
100
AcDbPoint
 10
1388.646090229007
 20
-212.57903745229
 30
0.0
  0
POINT
  5
9195
330
918C
100
AcDbEntity
  8
DEFPOINTS
  6
Continuous
 62
     0
370
     0
100
AcDbPoint
 10
1388.646090229007
 20
-252.7514312977099
 30
0.0
  0
ENDBLK
  5
9197
330
918C
100
AcDbEntity
  8
0
100
AcDbBlockEnd
  0
BLOCK
  5
91A2
330
9198
100
AcDbEntity
  8
0
100
AcDbBlockBegin
  2
_D26
 70
     0
 10
0.0
 20
0.0
 30
0.0
  3
_D26
  1

  0
LINE
  5
9199
330
9198
100
AcDbEntity
  8
1
  6
Continuous
 62
     4
370
    -2
100
AcDbLine
 10
1037.176624580152
 20
352.7458671278627
 30
0.0
 11
1037.176624580152
 21
384.4604007633589
 31
0.0
  0
LINE
  5
919A
330
9198
100
AcDbEntity
  8
1
  6
Continuous
 62
     4
370
    -2
100
AcDbLine
 10
1005.866987175572
 20
378.1984732824428
 30
0.0
 11
1005.866987175572
 21
384.4604007633589
 31
0.0
  0
LINE
  5
919B
330
9198
100
AcDbEntity
  8
1
  6
Continuous
 62
     4
370
    -2
100
AcDbLine
 10
1035.176624580152
 20
383.4604007633588
 30
0.0
 11
1007.866987175572
 21
383.4604007633588
 31
0.0
  0
SOLID
  5
919C
330
9198
100
AcDbEntity
  8
1
  6
Continuous
 62
     4
370
     0
100
AcDbTrace
 10
1035.176624580152
 20
383.7937340966921
 30
0.0
 11
1035.176624580152
 21
383.1270674300255
 31
0.0
 12
1037.176624580152
 22
383.4604007633588
 32
0.0
 13
1037.176624580152
 23
383.4604007633588
 33
0.0
  0
SOLID
  5
919D
330
9198
100
AcDbEntity
  8
1
  6
Continuous
 62
     4
370
     0
100
AcDbTrace
 10
1007.866987175572
 20
383.7937340966921
 30
0.0
 11
1007.866987175572
 21
383.1270674300255
 31
0.0
 12
1005.866987175572
 22
383.4604007633588
 32
0.0
 13
1005.866987175572
 23
383.4604007633588
 33
0.0
  0
MTEXT
  5
919E
330
9198
100
AcDbEntity
  8
1
  6
Continuous
 62
     2
100
AcDbMText
 10
1021.521805877862
 20
384.7104007633589
 30
0.0
 40
2.5
 41
0.0
 71
     5
 72
     1
  1
\A1; 31.309637 
 73
     1
 44
1.0
1001
ACAD
1000
MTEXTBEGIN
1070
    73
1070
     1
1070
    44
1040
1.0
1070
    74
1070
     0
1000
MTEXTEND
  0
POINT
  5
919F
330
9198
100
AcDbEntity
  8
DEFPOINTS
  6
Continuous
 62
     0
370
     0
100
AcDbPoint
 10
1037.176624580152
 20
351.7458671278626
 30
0.0
  0
POINT
  5
91A0
330
9198
100
AcDbEntity
  8
DEFPOINTS
  6
Continuous
 62
     0
370
     0
100
AcDbPoint
 10
1005.866987175572
 20
377.1984732824428
 30
0.0
  0
POINT
  5
91A1
330
9198
100
AcDbEntity
  8
DEFPOINTS
  6
Continuous
 62
     0
370
     0
100
AcDbPoint
 10
1005.866987175572
 20
383.4604007633588
 30
0.0
  0
ENDBLK
  5
91A3
330
9198
100
AcDbEntity
  8
0
100
AcDbBlockEnd
  0
BLOCK
  5
91AE
330
91A4
100
AcDbEntity
  8
0
100
AcDbBlockBegin
  2
_D27
 70
     0
 10
0.0
 20
0.0
 30
0.0
  3
_D27
  1

  0
LINE
  5
91A5
330
91A4
100
AcDbEntity
  8
1
  6
Continuous
 62
     4
370
    -2
100
AcDbLine
 10
1078.254868854962
 20
348.4877564408396
 30
0.0
 11
1078.254868854962
 21
384.4604007633589
 31
0.0
  0
LINE
  5
91A6
330
91A4
100
AcDbEntity
  8
1
  6
Continuous
 62
     4
370
    -2
100
AcDbLine
 10
1106.877097385496
 20
378.1984732824428
 30
0.0
 11
1106.877097385496
 21
384.4604007633589
 31
0.0
  0
LINE
  5
91A7
330
91A4
100
AcDbEntity
  8
1
  6
Continuous
 62
     4
370
    -2
100
AcDbLine
 10
1080.254868854962
 20
383.4604007633588
 30
0.0
 11
1104.877097385496
 21
383.4604007633588
 31
0.0
  0
SOLID
  5
91A8
330
91A4
100
AcDbEntity
  8
1
  6
Continuous
 62
     4
370
     0
100
AcDbTrace
 10
1080.254868854962
 20
383.7937340966921
 30
0.0
 11
1080.254868854962
 21
383.1270674300255
 31
0.0
 12
1078.254868854962
 22
383.4604007633588
 32
0.0
 13
1078.254868854962
 23
383.4604007633588
 33
0.0
  0
SOLID
  5
91A9
330
91A4
100
AcDbEntity
  8
1
  6
Continuous
 62
     4
370
     0
100
AcDbTrace
 10
1104.877097385496
 20
383.7937340966921
 30
0.0
 11
1104.877097385496
 21
383.1270674300255
 31
0.0
 12
1106.877097385496
 22
383.4604007633588
 32
0.0
 13
1106.877097385496
 23
383.4604007633588
 33
0.0
  0
MTEXT
  5
91AA
330
91A4
100
AcDbEntity
  8
1
  6
Continuous
 62
     2
100
AcDbMText
 10
1092.565983120229
 20
384.7104007633589
 30
0.0
 40
2.5
 41
0.0
 71
     5
 72
     1
  1
\A1; 28.622229 
 73
     1
 44
1.0
1001
ACAD
1000
MTEXTBEGIN
1070
    73
1070
     1
1070
    44
1040
1.0
1070
    74
1070
     0
1000
MTEXTEND
  0
POINT
  5
91AB
330
91A4
100
AcDbEntity
  8
DEFPOINTS
  6
Continuous
 62
     0
370
     0
100
AcDbPoint
 10
1078.254868854962
 20
347.4877564408397
 30
0.0
  0
POINT
  5
91AC
330
91A4
100
AcDbEntity
  8
DEFPOINTS
  6
Continuous
 62
     0
370
     0
100
AcDbPoint
 10
1106.877097385496
 20
377.1984732824428
 30
0.0
  0
POINT
  5
91AD
330
91A4
100
AcDbEntity
  8
DEFPOINTS
  6
Continuous
 62
     0
370
     0
100
AcDbPoint
 10
1106.877097385496
 20
383.4604007633588
 30
0.0
  0
ENDBLK
  5
91AF
330
91A4
100
AcDbEntity
  8
0
100
AcDbBlockEnd
  0
BLOCK
  5
91BA
330
91B0
100
AcDbEntity
  8
0
100
AcDbBlockBegin
  2
_D28
 70
     0
 10
0.0
 20
0.0
 30
0.0
  3
_D28
  1

  0
LINE
  5
91B1
330
91B0
100
AcDbEntity
  8
1
  6
Continuous
 62
     4
370
    -2
100
AcDbLine
 10
937.4867390839696
 20
460.7034052958016
 30
0.0
 11
937.4867390839696
 21
41.81154580152679
 31
0.0
  0
LINE
  5
91B2
330
91B0
100
AcDbEntity
  8
1
  6
Continuous
 62
     4
370
    -2
100
AcDbLine
 10
1065.230059694656
 20
455.1929091125954
 30
0.0
 11
1065.230059694656
 21
41.81154580152679
 31
0.0
  0
LINE
  5
91B3
330
91B0
100
AcDbEntity
  8
1
  6
Continuous
 62
     4
370
    -2
100
AcDbLine
 10
939.4867390839696
 20
42.81154580152679
 30
0.0
 11
1063.230059694656
 21
42.81154580152679
 31
0.0
  0
SOLID
  5
91B4
330
91B0
100
AcDbEntity
  8
1
  6
Continuous
 62
     4
370
     0
100
AcDbTrace
 10
939.4867390839696
 20
43.14487913486011
 30
0.0
 11
939.4867390839696
 21
42.47821246819345
 31
0.0
 12
937.4867390839696
 22
42.81154580152679
 32
0.0
 13
937.4867390839696
 23
42.81154580152679
 33
0.0
  0
SOLID
  5
91B5
330
91B0
100
AcDbEntity
  8
1
  6
Continuous
 62
     4
370
     0
100
AcDbTrace
 10
1063.230059694656
 20
43.14487913486011
 30
0.0
 11
1063.230059694656
 21
42.47821246819345
 31
0.0
 12
1065.230059694656
 22
42.81154580152679
 32
0.0
 13
1065.230059694656
 23
42.81154580152679
 33
0.0
  0
MTEXT
  5
91B6
330
91B0
100
AcDbEntity
  8
1
  6
Continuous
 62
     2
100
AcDbMText
 10
1001.358399389313
 20
44.06154580152678
 30
0.0
 40
2.5
 41
0.0
 71
     5
 72
     1
  1
\A1; 127.743321 
 73
     1
 44
1.0
1001
ACAD
1000
MTEXTBEGIN
1070
    73
1070
     1
1070
    44
1040
1.0
1070
    74
1070
     0
1000
MTEXTEND
  0
POINT
  5
91B7
330
91B0
100
AcDbEntity
  8
DEFPOINTS
  6
Continuous
 62
     0
370
     0
100
AcDbPoint
 10
937.4867390839696
 20
460.7034052958016
 30
0.0
  0
POINT
  5
91B8
330
91B0
100
AcDbEntity
  8
DEFPOINTS
  6
Continuous
 62
     0
370
     0
100
AcDbPoint
 10
1065.230059694656
 20
455.1929091125954
 30
0.0
  0
POINT
  5
91B9
330
91B0
100
AcDbEntity
  8
DEFPOINTS
  6
Continuous
 62
     0
370
     0
100
AcDbPoint
 10
1065.230059694656
 20
42.81154580152679
 30
0.0
  0
ENDBLK
  5
91BB
330
91B0
100
AcDbEntity
  8
0
100
AcDbBlockEnd
  0
BLOCK
  5
91C7
330
91BC
100
AcDbEntity
  8
0
100
AcDbBlockBegin
  2
_D29
 70
     0
 10
0.0
 20
0.0
 30
0.0
  3
_D29
  1

  0
LINE
  5
91BD
330
91BC
100
AcDbEntity
  8
1
  6
Continuous
 62
     4
370
    -2
100
AcDbLine
 10
954.018227633588
 20
454.1929091125953
 30
0.0
 11
954.018227633588
 21
101.9260496183205
 31
0.0
  0
LINE
  5
91BE
330
91BC
100
AcDbEntity
  8
1
  6
Continuous
 62
     4
370
    -2
100
AcDbLine
 10
958.0258612213739
 20
404.5984434637404
 30
0.0
 11
958.0258612213739
 21
101.9260496183205
 31
0.0
  0
LINE
  5
91BF
330
91BC
100
AcDbEntity
  8
1
  6
Continuous
 62
     4
370
    -2
100
AcDbLine
 10
956.0182276335879
 20
102.9260496183205
 30
0.0
 11
956.0258612213742
 21
102.9260496183205
 31
0.0
  0
LINE
  5
91C0
330
91BC
100
AcDbEntity
  8
1
  6
Continuous
 62
     4
370
    -2
100
AcDbLine
 10
958.0258612213739
 20
102.9260496183205
 30
0.0
 11
979.1925278880407
 21
102.9260496183205
 31
0.0
  0
SOLID
  5
91C1
330
91BC
100
AcDbEntity
  8
1
  6
Continuous
 62
     4
370
     0
100
AcDbTrace
 10
956.0182276335879
 20
103.2593829516539
 30
0.0
 11
956.0182276335879
 21
102.5927162849872
 31
0.0
 12
954.018227633588
 22
102.9260496183205
 32
0.0
 13
954.018227633588
 23
102.9260496183205
 33
0.0
  0
SOLID
  5
91C2
330
91BC
100
AcDbEntity
  8
1
  6
Continuous
 62
     4
370
     0
100
AcDbTrace
 10
956.0258612213742
 20
103.2593829516539
 30
0.0
 11
956.0258612213742
 21
102.5927162849872
 31
0.0
 12
958.0258612213739
 22
102.9260496183205
 32
0.0
 13
958.0258612213739
 23
102.9260496183205
 33
0.0
  0
MTEXT
  5
91C3
330
91BC
100
AcDbEntity
  8
1
  6
Continuous
 62
     2
100
AcDbMText
 10
969.6091945547076
 20
104.1760496183205
 30
0.0
 40
2.5
 41
0.0
 71
     5
 72
     1
  1
\A1; 4.007634 
 73
     1
 44
1.0
1001
ACAD
1000
MTEXTBEGIN
1070
    73
1070
     1
1070
    44
1040
1.0
1070
    74
1070
     0
1000
MTEXTEND
  0
POINT
  5
91C4
330
91BC
100
AcDbEntity
  8
DEFPOINTS
  6
Continuous
 62
     0
370
     0
100
AcDbPoint
 10
954.018227633588
 20
455.1929091125954
 30
0.0
  0
POINT
  5
91C5
330
91BC
100
AcDbEntity
  8
DEFPOINTS
  6
Continuous
 62
     0
370
     0
100
AcDbPoint
 10
958.0258612213739
 20
405.5984434637404
 30
0.0
  0
POINT
  5
91C6
330
91BC
100
AcDbEntity
  8
DEFPOINTS
  6
Continuous
 62
     0
370
     0
100
AcDbPoint
 10
958.0258612213739
 20
102.9260496183205
 30
0.0
  0
ENDBLK
  5
91C8
330
91BC
100
AcDbEntity
  8
0
100
AcDbBlockEnd
  0
BLOCK
  5
91D3
330
91C9
100
AcDbEntity
  8
0
100
AcDbBlockBegin
  2
_D30
 70
     0
 10
0.0
 20
0.0
 30
0.0
  3
_D30
  1

  0
LINE
  5
91CA
330
91C9
100
AcDbEntity
  8
1
  6
Continuous
 62
     4
370
    -2
100
AcDbLine
 10
1627.801624580153
 20
403.596535066794
 30
0.0
 11
1627.801624580153
 21
282.2695610687022
 31
0.0
  0
LINE
  5
91CB
330
91C9
100
AcDbEntity
  8
1
  6
Continuous
 62
     4
370
    -2
100
AcDbLine
 10
1680.90276961832
 20
403.596535066794
 30
0.0
 11
1680.90276961832
 21
282.2695610687022
 31
0.0
  0
LINE
  5
91CC
330
91C9
100
AcDbEntity
  8
1
  6
Continuous
 62
     4
370
    -2
100
AcDbLine
 10
1629.801624580153
 20
283.2695610687022
 30
0.0
 11
1678.90276961832
 21
283.2695610687022
 31
0.0
  0
SOLID
  5
91CD
330
91C9
100
AcDbEntity
  8
1
  6
Continuous
 62
     4
370
     0
100
AcDbTrace
 10
1629.801624580153
 20
283.6028944020355
 30
0.0
 11
1629.801624580153
 21
282.9362277353689
 31
0.0
 12
1627.801624580153
 22
283.2695610687022
 32
0.0
 13
1627.801624580153
 23
283.2695610687022
 33
0.0
  0
SOLID
  5
91CE
330
91C9
100
AcDbEntity
  8
1
  6
Continuous
 62
     4
370
     0
100
AcDbTrace
 10
1678.90276961832
 20
283.6028944020355
 30
0.0
 11
1678.90276961832
 21
282.9362277353689
 31
0.0
 12
1680.90276961832
 22
283.2695610687022
 32
0.0
 13
1680.90276961832
 23
283.2695610687022
 33
0.0
  0
MTEXT
  5
91CF
330
91C9
100
AcDbEntity
  8
1
  6
Continuous
 62
     2
100
AcDbMText
 10
1654.352197099236
 20
284.5195610687022
 30
0.0
 40
2.5
 41
0.0
 71
     5
 72
     1
  1
\A1; 53.101145 
 73
     1
 44
1.0
1001
ACAD
1000
MTEXTBEGIN
1070
    73
1070
     1
1070
    44
1040
1.0
1070
    74
1070
     0
1000
MTEXTEND
  0
POINT
  5
91D0
330
91C9
100
AcDbEntity
  8
DEFPOINTS
  6
Continuous
 62
     0
370
     0
100
AcDbPoint
 10
1627.801624580153
 20
404.5965350667938
 30
0.0
  0
POINT
  5
91D1
330
91C9
100
AcDbEntity
  8
DEFPOINTS
  6
Continuous
 62
     0
370
     0
100
AcDbPoint
 10
1680.90276961832
 20
404.5965350667938
 30
0.0
  0
POINT
  5
91D2
330
91C9
100
AcDbEntity
  8
DEFPOINTS
  6
Continuous
 62
     0
370
     0
100
AcDbPoint
 10
1680.90276961832
 20
283.2695610687022
 30
0.0
  0
ENDBLK
  5
91D4
330
91C9
100
AcDbEntity
  8
0
100
AcDbBlockEnd
  0
BLOCK
  5
91DF
330
91D5
100
AcDbEntity
  8
0
100
AcDbBlockBegin
  2
_D31
 70
     0
 10
0.0
 20
0.0
 30
0.0
  3
_D31
  1

  0
LINE
  5
91D6
330
91D5
100
AcDbEntity
  8
1
  6
Continuous
 62
     4
370
    -2
100
AcDbLine
 10
1549.352197099236
 20
602.9724892652673
 30
0.0
 11
1549.352197099236
 21
659.9852099236642
 31
0.0
  0
LINE
  5
91D7
330
91D5
100
AcDbEntity
  8
1
  6
Continuous
 62
     4
370
    -2
100
AcDbLine
 10
1759.352197099236
 20
602.9724892652673
 30
0.0
 11
1759.352197099236
 21
659.9852099236642
 31
0.0
  0
LINE
  5
91D8
330
91D5
100
AcDbEntity
  8
1
  6
Continuous
 62
     4
370
    -2
100
AcDbLine
 10
1551.352197099236
 20
658.9852099236642
 30
0.0
 11
1757.352197099236
 21
658.9852099236642
 31
0.0
  0
SOLID
  5
91D9
330
91D5
100
AcDbEntity
  8
1
  6
Continuous
 62
     4
370
     0
100
AcDbTrace
 10
1551.352197099236
 20
659.3185432569976
 30
0.0
 11
1551.352197099236
 21
658.6518765903307
 31
0.0
 12
1549.352197099236
 22
658.9852099236642
 32
0.0
 13
1549.352197099236
 23
658.9852099236642
 33
0.0
  0
SOLID
  5
91DA
330
91D5
100
AcDbEntity
  8
1
  6
Continuous
 62
     4
370
     0
100
AcDbTrace
 10
1757.352197099236
 20
659.3185432569976
 30
0.0
 11
1757.352197099236
 21
658.6518765903307
 31
0.0
 12
1759.352197099236
 22
658.9852099236642
 32
0.0
 13
1759.352197099236
 23
658.9852099236642
 33
0.0
  0
MTEXT
  5
91DB
330
91D5
100
AcDbEntity
  8
1
  6
Continuous
 62
     2
100
AcDbMText
 10
1654.352197099236
 20
660.2352099236642
 30
0.0
 40
2.5
 41
0.0
 71
     5
 72
     1
  1
\A1; 210 
 73
     1
 44
1.0
1001
ACAD
1000
MTEXTBEGIN
1070
    73
1070
     1
1070
    44
1040
1.0
1070
    74
1070
     0
1000
MTEXTEND
  0
POINT
  5
91DC
330
91D5
100
AcDbEntity
  8
DEFPOINTS
  6
Continuous
 62
     0
370
     0
100
AcDbPoint
 10
1549.352197099236
 20
601.972489265267
 30
0.0
  0
POINT
  5
91DD
330
91D5
100
AcDbEntity
  8
DEFPOINTS
  6
Continuous
 62
     0
370
     0
100
AcDbPoint
 10
1759.352197099236
 20
601.972489265267
 30
0.0
  0
POINT
  5
91DE
330
91D5
100
AcDbEntity
  8
DEFPOINTS
  6
Continuous
 62
     0
370
     0
100
AcDbPoint
 10
1759.352197099236
 20
658.9852099236642
 30
0.0
  0
ENDBLK
  5
91E0
330
91D5
100
AcDbEntity
  8
0
100
AcDbBlockEnd
  0
BLOCK
  5
91EB
330
91E1
100
AcDbEntity
  8
0
100
AcDbBlockBegin
  2
_D32
 70
     0
 10
0.0
 20
0.0
 30
0.0
  3
_D32
  1

  0
LINE
  5
91E2
330
91E1
100
AcDbEntity
  8
1
  6
Continuous
 62
     4
370
    -2
100
AcDbLine
 10
1549.352197099236
 20
602.9724892652673
 30
0.0
 11
1549.352197099236
 21
695.0520038167938
 31
0.0
  0
LINE
  5
91E3
330
91E1
100
AcDbEntity
  8
1
  6
Continuous
 62
     4
370
    -2
100
AcDbLine
 10
1829.485784885496
 20
602.9724892652673
 30
0.0
 11
1829.485784885496
 21
695.0520038167938
 31
0.0
  0
LINE
  5
91E4
330
91E1
100
AcDbEntity
  8
1
  6
Continuous
 62
     4
370
    -2
100
AcDbLine
 10
1551.352197099236
 20
694.0520038167938
 30
0.0
 11
1827.485784885496
 21
694.0520038167938
 31
0.0
  0
SOLID
  5
91E5
330
91E1
100
AcDbEntity
  8
1
  6
Continuous
 62
     4
370
     0
100
AcDbTrace
 10
1551.352197099236
 20
694.3853371501273
 30
0.0
 11
1551.352197099236
 21
693.7186704834605
 31
0.0
 12
1549.352197099236
 22
694.0520038167938
 32
0.0
 13
1549.352197099236
 23
694.0520038167938
 33
0.0
  0
SOLID
  5
91E6
330
91E1
100
AcDbEntity
  8
1
  6
Continuous
 62
     4
370
     0
100
AcDbTrace
 10
1827.485784885496
 20
694.3853371501273
 30
0.0
 11
1827.485784885496
 21
693.7186704834605
 31
0.0
 12
1829.485784885496
 22
694.0520038167938
 32
0.0
 13
1829.485784885496
 23
694.0520038167938
 33
0.0
  0
MTEXT
  5
91E7
330
91E1
100
AcDbEntity
  8
1
  6
Continuous
 62
     2
100
AcDbMText
 10
1689.418990992366
 20
695.3020038167937
 30
0.0
 40
2.5
 41
0.0
 71
     5
 72
     1
  1
\A1; 280.133588 
 73
     1
 44
1.0
1001
ACAD
1000
MTEXTBEGIN
1070
    73
1070
     1
1070
    44
1040
1.0
1070
    74
1070
     0
1000
MTEXTEND
  0
POINT
  5
91E8
330
91E1
100
AcDbEntity
  8
DEFPOINTS
  6
Continuous
 62
     0
370
     0
100
AcDbPoint
 10
1549.352197099236
 20
601.972489265267
 30
0.0
  0
POINT
  5
91E9
330
91E1
100
AcDbEntity
  8
DEFPOINTS
  6
Continuous
 62
     0
370
     0
100
AcDbPoint
 10
1829.485784885496
 20
601.972489265267
 30
0.0
  0
POINT
  5
91EA
330
91E1
100
AcDbEntity
  8
DEFPOINTS
  6
Continuous
 62
     0
370
     0
100
AcDbPoint
 10
1829.485784885496
 20
694.0520038167938
 30
0.0
  0
ENDBLK
  5
91EC
330
91E1
100
AcDbEntity
  8
0
100
AcDbBlockEnd
  0
BLOCK
  5
91F8
330
91ED
100
AcDbEntity
  8
0
100
AcDbBlockBegin
  2
_D33
 70
     0
 10
0.0
 20
0.0
 30
0.0
  3
_D33
  1

  0
LINE
  5
91EE
330
91ED
100
AcDbEntity
  8
1
  6
Continuous
 62
     4
370
    -2
100
AcDbLine
 10
648.0334948091602
 20
243.2892831583968
 30
0.0
 11
782.2430320229007
 21
243.2892831583968
 31
0.0
  0
LINE
  5
91EF
330
91ED
100
AcDbEntity
  8
1
  6
Continuous
 62
     4
370
    -2
100
AcDbLine
 10
663.0621207633587
 20
323.4419549141221
 30
0.0
 11
782.2430320229007
 21
323.4419549141221
 31
0.0
  0
LINE
  5
91F0
330
91ED
100
AcDbEntity
  8
1
  6
Continuous
 62
     4
370
    -2
100
AcDbLine
 10
781.2430320229006
 20
245.2892831583968
 30
0.0
 11
781.2430320229006
 21
272.7406190362594
 31
0.0
  0
LINE
  5
91F1
330
91ED
100
AcDbEntity
  8
1
  6
Continuous
 62
     4
370
    -2
100
AcDbLine
 10
781.2430320229006
 20
321.4419549141221
 30
0.0
 11
781.2430320229006
 21
293.9906190362595
 31
0.0
  0
SOLID
  5
91F2
330
91ED
100
AcDbEntity
  8
1
  6
Continuous
 62
     4
370
     0
100
AcDbTrace
 10
780.9096986895672
 20
245.2892831583968
 30
0.0
 11
781.5763653562339
 21
245.2892831583968
 31
0.0
 12
781.2430320229006
 22
243.2892831583968
 32
0.0
 13
781.2430320229006
 23
243.2892831583968
 33
0.0
  0
SOLID
  5
91F3
330
91ED
100
AcDbEntity
  8
1
  6
Continuous
 62
     4
370
     0
100
AcDbTrace
 10
780.9096986895674
 20
321.4419549141221
 30
0.0
 11
781.5763653562343
 21
321.4419549141221
 31
0.0
 12
781.2430320229006
 22
323.4419549141221
 32
0.0
 13
781.2430320229006
 23
323.4419549141221
 33
0.0
  0
MTEXT
  5
91F4
330
91ED
100
AcDbEntity
  8
1
  6
Continuous
 62
     2
100
AcDbMText
 10
781.2430320229006
 20
283.3656190362595
 30
0.0
 40
2.5
 41
0.0
 71
     5
 72
     1
  1
\A1; 80.152672 
 11
0.0000000000000001
 21
1.0
 31
0.0
 73
     1
 44
1.0
1001
ACAD
1000
MTEXTBEGIN
1070
    73
1070
     1
1070
    44
1040
1.0
1070
    74
1070
     0
1000
MTEXTEND
  0
POINT
  5
91F5
330
91ED
100
AcDbEntity
  8
DEFPOINTS
  6
Continuous
 62
     0
370
     0
100
AcDbPoint
 10
647.0334948091602
 20
243.2892831583968
 30
0.0
  0
POINT
  5
91F6
330
91ED
100
AcDbEntity
  8
DEFPOINTS
  6
Continuous
 62
     0
370
     0
100
AcDbPoint
 10
662.0621207633587
 20
323.4419549141221
 30
0.0
  0
POINT
  5
91F7
330
91ED
100
AcDbEntity
  8
DEFPOINTS
  6
Continuous
 62
     0
370
     0
100
AcDbPoint
 10
781.2430320229006
 20
323.4419549141221
 30
0.0
  0
ENDBLK
  5
91F9
330
91ED
100
AcDbEntity
  8
0
100
AcDbBlockEnd
  0
BLOCK
  5
9205
330
91FA
100
AcDbEntity
  8
0
100
AcDbBlockBegin
  2
_D34
 70
     0
 10
0.0
 20
0.0
 30
0.0
  3
_D34
  1

  0
LINE
  5
91FB
330
91FA
100
AcDbEntity
  8
1
  6
Continuous
 62
     4
370
    -2
100
AcDbLine
 10
663.0621207633587
 20
323.4419549141221
 30
0.0
 11
782.2430320229007
 21
323.4419549141221
 31
0.0
  0
LINE
  5
91FC
330
91FA
100
AcDbEntity
  8
1
  6
Continuous
 62
     4
370
    -2
100
AcDbLine
 10
663.0621207633587
 20
596.9629472805343
 30
0.0
 11
782.2430320229007
 21
596.9629472805343
 31
0.0
  0
LINE
  5
91FD
330
91FA
100
AcDbEntity
  8
1
  6
Continuous
 62
     4
370
    -2
100
AcDbLine
 10
781.2430320229006
 20
325.4419549141221
 30
0.0
 11
781.2430320229006
 21
447.9107844306614
 31
0.0
  0
LINE
  5
91FE
330
91FA
100
AcDbEntity
  8
1
  6
Continuous
 62
     4
370
    -2
100
AcDbLine
 10
781.2430320229006
 20
594.9629472805343
 30
0.0
 11
781.2430320229006
 21
472.4941177639949
 31
0.0
  0
SOLID
  5
91FF
330
91FA
100
AcDbEntity
  8
1
  6
Continuous
 62
     4
370
     0
100
AcDbTrace
 10
780.9096986895674
 20
325.4419549141221
 30
0.0
 11
781.5763653562343
 21
325.4419549141221
 31
0.0
 12
781.2430320229006
 22
323.4419549141221
 32
0.0
 13
781.2430320229006
 23
323.4419549141221
 33
0.0
  0
SOLID
  5
9200
330
91FA
100
AcDbEntity
  8
1
  6
Continuous
 62
     4
370
     0
100
AcDbTrace
 10
780.9096986895674
 20
594.9629472805343
 30
0.0
 11
781.5763653562343
 21
594.9629472805343
 31
0.0
 12
781.2430320229006
 22
596.9629472805343
 32
0.0
 13
781.2430320229006
 23
596.9629472805343
 33
0.0
  0
MTEXT
  5
9201
330
91FA
100
AcDbEntity
  8
1
  6
Continuous
 62
     2
100
AcDbMText
 10
781.2430320229006
 20
460.2024510973283
 30
0.0
 40
2.5
 41
0.0
 71
     5
 72
     1
  1
\A1; 273.520992 
 11
0.0000000000000001
 21
1.0
 31
0.0
 73
     1
 44
1.0
1001
ACAD
1000
MTEXTBEGIN
1070
    73
1070
     1
1070
    44
1040
1.0
1070
    74
1070
     0
1000
MTEXTEND
  0
POINT
  5
9202
330
91FA
100
AcDbEntity
  8
DEFPOINTS
  6
Continuous
 62
     0
370
     0
100
AcDbPoint
 10
662.0621207633587
 20
323.4419549141221
 30
0.0
  0
POINT
  5
9203
330
91FA
100
AcDbEntity
  8
DEFPOINTS
  6
Continuous
 62
     0
370
     0
100
AcDbPoint
 10
662.0621207633587
 20
596.9629472805343
 30
0.0
  0
POINT
  5
9204
330
91FA
100
AcDbEntity
  8
DEFPOINTS
  6
Continuous
 62
     0
370
     0
100
AcDbPoint
 10
781.2430320229006
 20
596.9629472805343
 30
0.0
  0
ENDBLK
  5
9206
330
91FA
100
AcDbEntity
  8
0
100
AcDbBlockEnd
  0
BLOCK
  5
9212
330
9207
100
AcDbEntity
  8
0
100
AcDbBlockBegin
  2
_D35
 70
     0
 10
0.0
 20
0.0
 30
0.0
  3
_D35
  1

  0
LINE
  5
9208
330
9207
100
AcDbEntity
  8
1
  6
Continuous
 62
     4
370
    -2
100
AcDbLine
 10
663.0621207633587
 20
596.9629472805343
 30
0.0
 11
782.2430320229007
 21
596.9629472805343
 31
0.0
  0
LINE
  5
9209
330
9207
100
AcDbEntity
  8
1
  6
Continuous
 62
     4
370
    -2
100
AcDbLine
 10
648.0334948091602
 20
677.1156190362595
 30
0.0
 11
782.2430320229007
 21
677.1156190362594
 31
0.0
  0
LINE
  5
920A
330
9207
100
AcDbEntity
  8
1
  6
Continuous
 62
     4
370
    -2
100
AcDbLine
 10
781.2430320229006
 20
598.9629472805343
 30
0.0
 11
781.2430320229006
 21
626.4142831583967
 31
0.0
  0
LINE
  5
920B
330
9207
100
AcDbEntity
  8
1
  6
Continuous
 62
     4
370
    -2
100
AcDbLine
 10
781.2430320229006
 20
675.1156190362594
 30
0.0
 11
781.2430320229006
 21
647.6642831583967
 31
0.0
  0
SOLID
  5
920C
330
9207
100
AcDbEntity
  8
1
  6
Continuous
 62
     4
370
     0
100
AcDbTrace
 10
780.9096986895674
 20
598.9629472805343
 30
0.0
 11
781.5763653562343
 21
598.9629472805343
 31
0.0
 12
781.2430320229006
 22
596.9629472805343
 32
0.0
 13
781.2430320229006
 23
596.9629472805343
 33
0.0
  0
SOLID
  5
920D
330
9207
100
AcDbEntity
  8
1
  6
Continuous
 62
     4
370
     0
100
AcDbTrace
 10
780.9096986895674
 20
675.1156190362594
 30
0.0
 11
781.5763653562343
 21
675.1156190362594
 31
0.0
 12
781.2430320229006
 22
677.1156190362594
 32
0.0
 13
781.2430320229006
 23
677.1156190362594
 33
0.0
  0
MTEXT
  5
920E
330
9207
100
AcDbEntity
  8
1
  6
Continuous
 62
     2
100
AcDbMText
 10
781.2430320229006
 20
637.0392831583971
 30
0.0
 40
2.5
 41
0.0
 71
     5
 72
     1
  1
\A1; 80.152672 
 11
0.0000000000000001
 21
1.0
 31
0.0
 73
     1
 44
1.0
1001
ACAD
1000
MTEXTBEGIN
1070
    73
1070
     1
1070
    44
1040
1.0
1070
    74
1070
     0
1000
MTEXTEND
  0
POINT
  5
920F
330
9207
100
AcDbEntity
  8
DEFPOINTS
  6
Continuous
 62
     0
370
     0
100
AcDbPoint
 10
662.0621207633587
 20
596.9629472805343
 30
0.0
  0
POINT
  5
9210
330
9207
100
AcDbEntity
  8
DEFPOINTS
  6
Continuous
 62
     0
370
     0
100
AcDbPoint
 10
647.0334948091602
 20
677.1156190362595
 30
0.0
  0
POINT
  5
9211
330
9207
100
AcDbEntity
  8
DEFPOINTS
  6
Continuous
 62
     0
370
     0
100
AcDbPoint
 10
781.2430320229006
 20
677.1156190362594
 30
0.0
  0
ENDBLK
  5
9213
330
9207
100
AcDbEntity
  8
0
100
AcDbBlockEnd
  0
BLOCK
  5
921F
330
9214
100
AcDbEntity
  8
0
100
AcDbBlockBegin
  2
_D36
 70
     0
 10
0.0
 20
0.0
 30
0.0
  3
_D36
  1

  0
LINE
  5
9215
330
9214
100
AcDbEntity
  8
1
  6
Continuous
 62
     4
370
    -2
100
AcDbLine
 10
1399.865555877862
 20
409.6060770515268
 30
0.0
 11
1518.645703778625
 21
409.6060770515267
 31
0.0
  0
LINE
  5
9216
330
9214
100
AcDbEntity
  8
1
  6
Continuous
 62
     4
370
    -2
100
AcDbLine
 10
1399.865555877862
 20
501.7816495706107
 30
0.0
 11
1518.645703778625
 21
501.7816495706107
 31
0.0
  0
LINE
  5
9217
330
9214
100
AcDbEntity
  8
1
  6
Continuous
 62
     4
370
    -2
100
AcDbLine
 10
1517.645703778625
 20
411.6060770515266
 30
0.0
 11
1517.645703778625
 21
444.8605299777352
 31
0.0
  0
LINE
  5
9218
330
9214
100
AcDbEntity
  8
1
  6
Continuous
 62
     4
370
    -2
100
AcDbLine
 10
1517.645703778625
 20
499.7816495706106
 30
0.0
 11
1517.645703778625
 21
466.527196644402
 31
0.0
  0
SOLID
  5
9219
330
9214
100
AcDbEntity
  8
1
  6
Continuous
 62
     4
370
     0
100
AcDbTrace
 10
1517.312370445292
 20
411.6060770515266
 30
0.0
 11
1517.979037111959
 21
411.6060770515266
 31
0.0
 12
1517.645703778625
 22
409.6060770515267
 32
0.0
 13
1517.645703778625
 23
409.6060770515267
 33
0.0
  0
SOLID
  5
921A
330
9214
100
AcDbEntity
  8
1
  6
Continuous
 62
     4
370
     0
100
AcDbTrace
 10
1517.312370445292
 20
499.7816495706106
 30
0.0
 11
1517.979037111959
 21
499.7816495706106
 31
0.0
 12
1517.645703778625
 22
501.7816495706107
 32
0.0
 13
1517.645703778625
 23
501.7816495706107
 33
0.0
  0
MTEXT
  5
921B
330
9214
100
AcDbEntity
  8
1
  6
Continuous
 62
     2
100
AcDbMText
 10
1517.645703778625
 20
455.6938633110688
 30
0.0
 40
2.5
 41
0.0
 71
     5
 72
     1
  1
\A1; 92.175573 
 11
0.0000000000000001
 21
1.0
 31
0.0
 73
     1
 44
1.0
1001
ACAD
1000
MTEXTBEGIN
1070
    73
1070
     1
1070
    44
1040
1.0
1070
    74
1070
     0
1000
MTEXTEND
  0
POINT
  5
921C
330
9214
100
AcDbEntity
  8
DEFPOINTS
  6
Continuous
 62
     0
370
     0
100
AcDbPoint
 10
1398.865555877862
 20
409.6060770515268
 30
0.0
  0
POINT
  5
921D
330
9214
100
AcDbEntity
  8
DEFPOINTS
  6
Continuous
 62
     0
370
     0
100
AcDbPoint
 10
1398.865555877862
 20
501.7816495706107
 30
0.0
  0
POINT
  5
921E
330
9214
100
AcDbEntity
  8
DEFPOINTS
  6
Continuous
 62
     0
370
     0
100
AcDbPoint
 10
1517.645703778625
 20
501.7816495706107
 30
0.0
  0
ENDBLK
  5
9220
330
9214
100
AcDbEntity
  8
0
100
AcDbBlockEnd
  0
BLOCK
  5
922D
330
9221
100
AcDbEntity
  8
0
100
AcDbBlockBegin
  2
_D37
 70
     0
 10
0.0
 20
0.0
 30
0.0
  3
_D37
  1

  0
LINE
  5
9222
330
9221
100
AcDbEntity
  8
1
  6
Continuous
 62
     4
370
    -2
100
AcDbLine
 10
648.0334948091602
 20
243.2892831583968
 30
0.0
 11
692.0712762977098
 21
243.2892831583968
 31
0.0
  0
LINE
  5
9223
330
9221
100
AcDbEntity
  8
1
  6
Continuous
 62
     4
370
    -2
100
AcDbLine
 10
627.9953268702288
 20
258.3179091125954
 30
0.0
 11
692.0712762977099
 21
258.3179091125953
 31
0.0
  0
LINE
  5
9224
330
9221
100
AcDbEntity
  8
1
  6
Continuous
 62
     4
370
    -2
100
AcDbLine
 10
691.0712762977098
 20
245.2892831583968
 30
0.0
 11
691.0712762977099
 21
256.3179091125953
 31
0.0
  0
LINE
  5
9225
330
9221
100
AcDbEntity
  8
1
  6
Continuous
 62
     4
370
    -2
100
AcDbLine
 10
691.0712762977099
 20
258.3179091125953
 30
0.0
 11
691.0712762977099
 21
260.3179091125953
 31
0.0
  0
LINE
  5
9226
330
9221
100
AcDbEntity
  8
1
  6
Continuous
 62
     4
370
    -2
100
AcDbLine
 10
691.0712762977099
 20
260.3179091125953
 30
0.0
 11
693.0712762977099
 21
260.3179091125953
 31
0.0
  0
SOLID
  5
9227
330
9221
100
AcDbEntity
  8
1
  6
Continuous
 62
     4
370
     0
100
AcDbTrace
 10
690.7379429643765
 20
245.2892831583968
 30
0.0
 11
691.4046096310433
 21
245.2892831583968
 31
0.0
 12
691.0712762977098
 22
243.2892831583968
 32
0.0
 13
691.0712762977098
 23
243.2892831583968
 33
0.0
  0
SOLID
  5
9228
330
9221
100
AcDbEntity
  8
1
  6
Continuous
 62
     4
370
     0
100
AcDbTrace
 10
690.7379429643766
 20
256.3179091125953
 30
0.0
 11
691.4046096310434
 21
256.3179091125953
 31
0.0
 12
691.0712762977099
 22
258.3179091125953
 32
0.0
 13
691.0712762977099
 23
258.3179091125953
 33
0.0
  0
MTEXT
  5
9229
330
9221
100
AcDbEntity
  8
1
  6
Continuous
 62
     2
100
AcDbMText
 10
694.3212762977098
 20
260.3179091125955
 30
0.0
 40
2.5
 41
0.0
 71
     5
 72
     1
  1
\A1; 15.028626 
 11
0.0000000000000001
 21
1.0
 31
0.0
 73
     1
 44
1.0
1001
ACAD
1000
MTEXTBEGIN
1070
    73
1070
     1
1070
    44
1040
1.0
1070
    74
1070
     0
1000
MTEXTEND
  0
POINT
  5
922A
330
9221
100
AcDbEntity
  8
DEFPOINTS
  6
Continuous
 62
     0
370
     0
100
AcDbPoint
 10
647.0334948091602
 20
243.2892831583968
 30
0.0
  0
POINT
  5
922B
330
9221
100
AcDbEntity
  8
DEFPOINTS
  6
Continuous
 62
     0
370
     0
100
AcDbPoint
 10
626.9953268702288
 20
258.3179091125954
 30
0.0
  0
POINT
  5
922C
330
9221
100
AcDbEntity
  8
DEFPOINTS
  6
Continuous
 62
     0
370
     0
100
AcDbPoint
 10
691.0712762977099
 20
258.3179091125953
 30
0.0
  0
ENDBLK
  5
922E
330
9221
100
AcDbEntity
  8
0
100
AcDbBlockEnd
  0
BLOCK
  5
923A
330
922F
100
AcDbEntity
  8
0
100
AcDbBlockBegin
  2
_D38
 70
     0
 10
0.0
 20
0.0
 30
0.0
  3
_D38
  1

  0
LINE
  5
9230
330
922F
100
AcDbEntity
  8
1
  6
Continuous
 62
     4
370
    -2
100
AcDbLine
 10
627.9953268702288
 20
258.3179091125954
 30
0.0
 11
692.0712762977098
 21
258.3179091125953
 31
0.0
  0
LINE
  5
9231
330
922F
100
AcDbEntity
  8
1
  6
Continuous
 62
     4
370
    -2
100
AcDbLine
 10
627.9953268702288
 20
290.3789778148854
 30
0.0
 11
692.0712762977098
 21
290.3789778148854
 31
0.0
  0
LINE
  5
9232
330
922F
100
AcDbEntity
  8
1
  6
Continuous
 62
     4
370
    -2
100
AcDbLine
 10
691.0712762977098
 20
260.3179091125953
 30
0.0
 11
691.0712762977098
 21
263.9317767970737
 31
0.0
  0
LINE
  5
9233
330
922F
100
AcDbEntity
  8
1
  6
Continuous
 62
     4
370
    -2
100
AcDbLine
 10
691.0712762977098
 20
288.3789778148854
 30
0.0
 11
691.0712762977098
 21
284.765110130407
 31
0.0
  0
SOLID
  5
9234
330
922F
100
AcDbEntity
  8
1
  6
Continuous
 62
     4
370
     0
100
AcDbTrace
 10
690.7379429643765
 20
260.3179091125953
 30
0.0
 11
691.4046096310433
 21
260.3179091125953
 31
0.0
 12
691.0712762977098
 22
258.3179091125953
 32
0.0
 13
691.0712762977098
 23
258.3179091125953
 33
0.0
  0
SOLID
  5
9235
330
922F
100
AcDbEntity
  8
1
  6
Continuous
 62
     4
370
     0
100
AcDbTrace
 10
690.7379429643765
 20
288.3789778148854
 30
0.0
 11
691.4046096310433
 21
288.3789778148854
 31
0.0
 12
691.0712762977098
 22
290.3789778148854
 32
0.0
 13
691.0712762977098
 23
290.3789778148854
 33
0.0
  0
MTEXT
  5
9236
330
922F
100
AcDbEntity
  8
1
  6
Continuous
 62
     2
100
AcDbMText
 10
691.0712762977098
 20
274.3484434637405
 30
0.0
 40
2.5
 41
0.0
 71
     5
 72
     1
  1
\A1; 32.061069 
 11
0.0000000000000001
 21
1.0
 31
0.0
 73
     1
 44
1.0
1001
ACAD
1000
MTEXTBEGIN
1070
    73
1070
     1
1070
    44
1040
1.0
1070
    74
1070
     0
1000
MTEXTEND
  0
POINT
  5
9237
330
922F
100
AcDbEntity
  8
DEFPOINTS
  6
Continuous
 62
     0
370
     0
100
AcDbPoint
 10
626.9953268702288
 20
258.3179091125954
 30
0.0
  0
POINT
  5
9238
330
922F
100
AcDbEntity
  8
DEFPOINTS
  6
Continuous
 62
     0
370
     0
100
AcDbPoint
 10
626.9953268702288
 20
290.3789778148854
 30
0.0
  0
POINT
  5
9239
330
922F
100
AcDbEntity
  8
DEFPOINTS
  6
Continuous
 62
     0
370
     0
100
AcDbPoint
 10
691.0712762977098
 20
290.3789778148854
 30
0.0
  0
ENDBLK
  5
923B
330
922F
100
AcDbEntity
  8
0
100
AcDbBlockEnd
  0
BLOCK
  5
9248
330
923C
100
AcDbEntity
  8
0
100
AcDbBlockBegin
  2
_D39
 70
     0
 10
0.0
 20
0.0
 30
0.0
  3
_D39
  1

  0
LINE
  5
923D
330
923C
100
AcDbEntity
  8
1
  6
Continuous
 62
     4
370
    -2
100
AcDbLine
 10
627.9953268702288
 20
290.3789778148854
 30
0.0
 11
722.1285282061069
 21
290.3789778148854
 31
0.0
  0
LINE
  5
923E
330
923C
100
AcDbEntity
  8
1
  6
Continuous
 62
     4
370
    -2
100
AcDbLine
 10
627.9953268702288
 20
298.394244990458
 30
0.0
 11
722.1285282061069
 21
298.3942449904579
 31
0.0
  0
LINE
  5
923F
330
923C
100
AcDbEntity
  8
1
  6
Continuous
 62
     4
370
    -2
100
AcDbLine
 10
721.1285282061069
 20
292.3789778148854
 30
0.0
 11
721.1285282061069
 21
290.3789778148854
 31
0.0
  0
LINE
  5
9240
330
923C
100
AcDbEntity
  8
1
  6
Continuous
 62
     4
370
    -2
100
AcDbLine
 10
721.1285282061069
 20
298.3942449904579
 30
0.0
 11
721.1285282061069
 21
300.3942449904579
 31
0.0
  0
LINE
  5
9241
330
923C
100
AcDbEntity
  8
1
  6
Continuous
 62
     4
370
    -2
100
AcDbLine
 10
721.1285282061069
 20
300.3942449904579
 30
0.0
 11
723.1285282061069
 21
300.3942449904579
 31
0.0
  0
LINE
  5
9242
330
923C
100
AcDbEntity
  8
1
  6
Continuous
 62
     4
370
    -2
100
AcDbLine
 10
721.1285282061069
 20
290.3789778148854
 30
0.0
 11
721.1285282061069
 21
298.3942449904579
 31
0.0
  0
SOLID
  5
9243
330
923C
100
AcDbEntity
  8
1
  6
Continuous
 62
     4
370
     0
100
AcDbTrace
 10
720.7951948727734
 20
292.3789778148854
 30
0.0
 11
721.4618615394402
 21
292.3789778148854
 31
0.0
 12
721.1285282061069
 22
290.3789778148854
 32
0.0
 13
721.1285282061069
 23
290.3789778148854
 33
0.0
  0
MTEXT
  5
9244
330
923C
100
AcDbEntity
  8
1
  6
Continuous
 62
     2
100
AcDbMText
 10
724.3785282061066
 20
300.394244990458
 30
0.0
 40
2.5
 41
0.0
 71
     5
 72
     1
  1
\A1; 8.015267 
 11
0.0000000000000001
 21
1.0
 31
0.0
 73
     1
 44
1.0
1001
ACAD
1000
MTEXTBEGIN
1070
    73
1070
     1
1070
    44
1040
1.0
1070
    74
1070
     0
1000
MTEXTEND
  0
POINT
  5
9245
330
923C
100
AcDbEntity
  8
DEFPOINTS
  6
Continuous
 62
     0
370
     0
100
AcDbPoint
 10
626.9953268702288
 20
290.3789778148854
 30
0.0
  0
POINT
  5
9246
330
923C
100
AcDbEntity
  8
DEFPOINTS
  6
Continuous
 62
     0
370
     0
100
AcDbPoint
 10
626.9953268702288
 20
298.394244990458
 30
0.0
  0
POINT
  5
9247
330
923C
100
AcDbEntity
  8
DEFPOINTS
  6
Continuous
 62
     0
370
     0
100
AcDbPoint
 10
721.1285282061069
 20
298.3942449904579
 30
0.0
  0
ENDBLK
  5
9249
330
923C
100
AcDbEntity
  8
0
100
AcDbBlockEnd
  0
BLOCK
  5
9255
330
924A
100
AcDbEntity
  8
0
100
AcDbBlockBegin
  2
_D40
 70
     0
 10
0.0
 20
0.0
 30
0.0
  3
_D40
  1

  0
LINE
  5
924B
330
924A
100
AcDbEntity
  8
1
  6
Continuous
 62
     4
370
    -2
100
AcDbLine
 10
627.9953268702288
 20
298.394244990458
 30
0.0
 11
692.0712762977098
 21
298.3942449904579
 31
0.0
  0
LINE
  5
924C
330
924A
100
AcDbEntity
  8
1
  6
Continuous
 62
     4
370
    -2
100
AcDbLine
 10
663.0621207633587
 20
323.4419549141221
 30
0.0
 11
692.0712762977098
 21
323.4419549141221
 31
0.0
  0
LINE
  5
924D
330
924A
100
AcDbEntity
  8
1
  6
Continuous
 62
     4
370
    -2
100
AcDbLine
 10
691.0712762977098
 20
300.3942449904579
 30
0.0
 11
691.0712762977098
 21
301.5430999522899
 31
0.0
  0
LINE
  5
924E
330
924A
100
AcDbEntity
  8
1
  6
Continuous
 62
     4
370
    -2
100
AcDbLine
 10
691.0712762977098
 20
321.4419549141221
 30
0.0
 11
691.0712762977098
 21
320.2930999522899
 31
0.0
  0
SOLID
  5
924F
330
924A
100
AcDbEntity
  8
1
  6
Continuous
 62
     4
370
     0
100
AcDbTrace
 10
690.7379429643765
 20
300.3942449904579
 30
0.0
 11
691.4046096310433
 21
300.3942449904579
 31
0.0
 12
691.0712762977098
 22
298.3942449904579
 32
0.0
 13
691.0712762977098
 23
298.3942449904579
 33
0.0
  0
SOLID
  5
9250
330
924A
100
AcDbEntity
  8
1
  6
Continuous
 62
     4
370
     0
100
AcDbTrace
 10
690.7379429643765
 20
321.4419549141221
 30
0.0
 11
691.4046096310433
 21
321.4419549141221
 31
0.0
 12
691.0712762977098
 22
323.4419549141221
 32
0.0
 13
691.0712762977098
 23
323.4419549141221
 33
0.0
  0
MTEXT
  5
9251
330
924A
100
AcDbEntity
  8
1
  6
Continuous
 62
     2
100
AcDbMText
 10
691.0712762977098
 20
310.9180999522901
 30
0.0
 40
2.5
 41
0.0
 71
     5
 72
     1
  1
\A1; 25.04771 
 11
0.0000000000000001
 21
1.0
 31
0.0
 73
     1
 44
1.0
1001
ACAD
1000
MTEXTBEGIN
1070
    73
1070
     1
1070
    44
1040
1.0
1070
    74
1070
     0
1000
MTEXTEND
  0
POINT
  5
9252
330
924A
100
AcDbEntity
  8
DEFPOINTS
  6
Continuous
 62
     0
370
     0
100
AcDbPoint
 10
626.9953268702288
 20
298.394244990458
 30
0.0
  0
POINT
  5
9253
330
924A
100
AcDbEntity
  8
DEFPOINTS
  6
Continuous
 62
     0
370
     0
100
AcDbPoint
 10
662.0621207633587
 20
323.4419549141221
 30
0.0
  0
POINT
  5
9254
330
924A
100
AcDbEntity
  8
DEFPOINTS
  6
Continuous
 62
     0
370
     0
100
AcDbPoint
 10
691.0712762977098
 20
323.4419549141221
 30
0.0
  0
ENDBLK
  5
9256
330
924A
100
AcDbEntity
  8
0
100
AcDbBlockEnd
  0
BLOCK
  5
9262
330
9257
100
AcDbEntity
  8
0
100
AcDbBlockBegin
  2
_D41
 70
     0
 10
0.0
 20
0.0
 30
0.0
  3
_D41
  1

  0
LINE
  5
9258
330
9257
100
AcDbEntity
  8
1
  6
Continuous
 62
     4
370
    -2
100
AcDbLine
 10
663.0621207633587
 20
511.299779341603
 30
0.0
 11
722.1285282061069
 21
511.299779341603
 31
0.0
  0
LINE
  5
9259
330
9257
100
AcDbEntity
  8
1
  6
Continuous
 62
     4
370
    -2
100
AcDbLine
 10
573.0907467175572
 20
455.6938633110686
 30
0.0
 11
722.1285282061069
 21
455.6938633110686
 31
0.0
  0
LINE
  5
925A
330
9257
100
AcDbEntity
  8
1
  6
Continuous
 62
     4
370
    -2
100
AcDbLine
 10
721.1285282061069
 20
509.2997793416031
 30
0.0
 11
721.1285282061069
 21
494.1218213263358
 31
0.0
  0
LINE
  5
925B
330
9257
100
AcDbEntity
  8
1
  6
Continuous
 62
     4
370
    -2
100
AcDbLine
 10
721.1285282061069
 20
457.6938633110684
 30
0.0
 11
721.1285282061069
 21
472.8718213263356
 31
0.0
  0
SOLID
  5
925C
330
9257
100
AcDbEntity
  8
1
  6
Continuous
 62
     4
370
     0
100
AcDbTrace
 10
720.7951948727734
 20
509.2997793416031
 30
0.0
 11
721.4618615394402
 21
509.2997793416031
 31
0.0
 12
721.1285282061069
 22
511.299779341603
 32
0.0
 13
721.1285282061069
 23
511.299779341603
 33
0.0
  0
SOLID
  5
925D
330
9257
100
AcDbEntity
  8
1
  6
Continuous
 62
     4
370
     0
100
AcDbTrace
 10
720.7951948727734
 20
457.6938633110684
 30
0.0
 11
721.4618615394402
 21
457.6938633110684
 31
0.0
 12
721.1285282061069
 22
455.6938633110686
 32
0.0
 13
721.1285282061069
 23
455.6938633110686
 33
0.0
  0
MTEXT
  5
925E
330
9257
100
AcDbEntity
  8
1
  6
Continuous
 62
     2
100
AcDbMText
 10
721.1285282061067
 20
483.4968213263358
 30
0.0
 40
2.5
 41
0.0
 71
     5
 72
     1
  1
\A1; 55.605916 
 11
0.0000000000000001
 21
1.0
 31
0.0
 73
     1
 44
1.0
1001
ACAD
1000
MTEXTBEGIN
1070
    73
1070
     1
1070
    44
1040
1.0
1070
    74
1070
     0
1000
MTEXTEND
  0
POINT
  5
925F
330
9257
100
AcDbEntity
  8
DEFPOINTS
  6
Continuous
 62
     0
370
     0
100
AcDbPoint
 10
662.0621207633587
 20
511.299779341603
 30
0.0
  0
POINT
  5
9260
330
9257
100
AcDbEntity
  8
DEFPOINTS
  6
Continuous
 62
     0
370
     0
100
AcDbPoint
 10
572.0907467175571
 20
455.6938633110686
 30
0.0
  0
POINT
  5
9261
330
9257
100
AcDbEntity
  8
DEFPOINTS
  6
Continuous
 62
     0
370
     0
100
AcDbPoint
 10
721.1285282061069
 20
455.6938633110686
 30
0.0
  0
ENDBLK
  5
9263
330
9257
100
AcDbEntity
  8
0
100
AcDbBlockEnd
  0
BLOCK
  5
926F
330
9264
100
AcDbEntity
  8
0
100
AcDbBlockBegin
  2
_D42
 70
     0
 10
0.0
 20
0.0
 30
0.0
  3
_D42
  1

  0
LINE
  5
9265
330
9264
100
AcDbEntity
  8
1
  6
Continuous
 62
     4
370
    -2
100
AcDbLine
 10
573.0907467175572
 20
455.6938633110686
 30
0.0
 11
722.1285282061069
 21
455.6938633110686
 31
0.0
  0
LINE
  5
9266
330
9264
100
AcDbEntity
  8
1
  6
Continuous
 62
     4
370
    -2
100
AcDbLine
 10
663.0621207633587
 20
409.1051228530536
 30
0.0
 11
722.1285282061069
 21
409.1051228530536
 31
0.0
  0
LINE
  5
9267
330
9264
100
AcDbEntity
  8
1
  6
Continuous
 62
     4
370
    -2
100
AcDbLine
 10
721.1285282061069
 20
453.6938633110684
 30
0.0
 11
721.1285282061069
 21
442.399493082061
 31
0.0
  0
LINE
  5
9268
330
9264
100
AcDbEntity
  8
1
  6
Continuous
 62
     4
370
    -2
100
AcDbLine
 10
721.1285282061069
 20
411.1051228530534
 30
0.0
 11
721.1285282061069
 21
422.399493082061
 31
0.0
  0
SOLID
  5
9269
330
9264
100
AcDbEntity
  8
1
  6
Continuous
 62
     4
370
     0
100
AcDbTrace
 10
720.7951948727734
 20
453.6938633110684
 30
0.0
 11
721.4618615394402
 21
453.6938633110684
 31
0.0
 12
721.1285282061069
 22
455.6938633110686
 32
0.0
 13
721.1285282061069
 23
455.6938633110686
 33
0.0
  0
SOLID
  5
926A
330
9264
100
AcDbEntity
  8
1
  6
Continuous
 62
     4
370
     0
100
AcDbTrace
 10
720.7951948727734
 20
411.1051228530534
 30
0.0
 11
721.4618615394402
 21
411.1051228530534
 31
0.0
 12
721.1285282061069
 22
409.1051228530536
 32
0.0
 13
721.1285282061069
 23
409.1051228530536
 33
0.0
  0
MTEXT
  5
926B
330
9264
100
AcDbEntity
  8
1
  6
Continuous
 62
     2
100
AcDbMText
 10
721.1285282061067
 20
432.3994930820611
 30
0.0
 40
2.5
 41
0.0
 71
     5
 72
     1
  1
\A1; 46.58874 
 11
0.0000000000000001
 21
1.0
 31
0.0
 73
     1
 44
1.0
1001
ACAD
1000
MTEXTBEGIN
1070
    73
1070
     1
1070
    44
1040
1.0
1070
    74
1070
     0
1000
MTEXTEND
  0
POINT
  5
926C
330
9264
100
AcDbEntity
  8
DEFPOINTS
  6
Continuous
 62
     0
370
     0
100
AcDbPoint
 10
572.0907467175571
 20
455.6938633110686
 30
0.0
  0
POINT
  5
926D
330
9264
100
AcDbEntity
  8
DEFPOINTS
  6
Continuous
 62
     0
370
     0
100
AcDbPoint
 10
662.0621207633587
 20
409.1051228530536
 30
0.0
  0
POINT
  5
926E
330
9264
100
AcDbEntity
  8
DEFPOINTS
  6
Continuous
 62
     0
370
     0
100
AcDbPoint
 10
721.1285282061069
 20
409.1051228530536
 30
0.0
  0
ENDBLK
  5
9270
330
9264
100
AcDbEntity
  8
0
100
AcDbBlockEnd
  0
BLOCK
  5
927C
330
9271
100
AcDbEntity
  8
0
100
AcDbBlockBegin
  2
_D43
 70
     0
 10
0.0
 20
0.0
 30
0.0
  3
_D43
  1

  0
LINE
  5
9272
330
9271
100
AcDbEntity
  8
1
  6
Continuous
 62
     4
370
    -2
100
AcDbLine
 10
568.0812047328243
 20
500.7797411736641
 30
0.0
 11
682.0521923282442
 21
500.779741173664
 31
0.0
  0
LINE
  5
9273
330
9271
100
AcDbEntity
  8
1
  6
Continuous
 62
     4
370
    -2
100
AcDbLine
 10
568.0812047328243
 20
410.6079854484733
 30
0.0
 11
682.0521923282442
 21
410.6079854484732
 31
0.0
  0
LINE
  5
9274
330
9271
100
AcDbEntity
  8
1
  6
Continuous
 62
     4
370
    -2
100
AcDbLine
 10
681.0521923282442
 20
498.779741173664
 30
0.0
 11
681.0521923282442
 21
465.902196644402
 31
0.0
  0
LINE
  5
9275
330
9271
100
AcDbEntity
  8
1
  6
Continuous
 62
     4
370
    -2
100
AcDbLine
 10
681.0521923282442
 20
412.6079854484731
 30
0.0
 11
681.0521923282442
 21
445.4855299777352
 31
0.0
  0
SOLID
  5
9276
330
9271
100
AcDbEntity
  8
1
  6
Continuous
 62
     4
370
     0
100
AcDbTrace
 10
680.718858994911
 20
498.779741173664
 30
0.0
 11
681.3855256615777
 21
498.779741173664
 31
0.0
 12
681.0521923282442
 22
500.779741173664
 32
0.0
 13
681.0521923282442
 23
500.779741173664
 33
0.0
  0
SOLID
  5
9277
330
9271
100
AcDbEntity
  8
1
  6
Continuous
 62
     4
370
     0
100
AcDbTrace
 10
680.718858994911
 20
412.6079854484731
 30
0.0
 11
681.3855256615777
 21
412.6079854484731
 31
0.0
 12
681.0521923282442
 22
410.6079854484732
 32
0.0
 13
681.0521923282442
 23
410.6079854484732
 33
0.0
  0
MTEXT
  5
9278
330
9271
100
AcDbEntity
  8
1
  6
Continuous
 62
     2
100
AcDbMText
 10
681.0521923282442
 20
455.6938633110688
 30
0.0
 40
2.5
 41
0.0
 71
     5
 72
     1
  1
\A1; 90.171756 
 11
0.0000000000000001
 21
1.0
 31
0.0
 73
     1
 44
1.0
1001
ACAD
1000
MTEXTBEGIN
1070
    73
1070
     1
1070
    44
1040
1.0
1070
    74
1070
     0
1000
MTEXTEND
  0
POINT
  5
9279
330
9271
100
AcDbEntity
  8
DEFPOINTS
  6
Continuous
 62
     0
370
     0
100
AcDbPoint
 10
567.0812047328245
 20
500.7797411736641
 30
0.0
  0
POINT
  5
927A
330
9271
100
AcDbEntity
  8
DEFPOINTS
  6
Continuous
 62
     0
370
     0
100
AcDbPoint
 10
567.0812047328245
 20
410.6079854484733
 30
0.0
  0
POINT
  5
927B
330
9271
100
AcDbEntity
  8
DEFPOINTS
  6
Continuous
 62
     0
370
     0
100
AcDbPoint
 10
681.0521923282442
 20
410.6079854484732
 30
0.0
  0
ENDBLK
  5
927D
330
9271
100
AcDbEntity
  8
0
100
AcDbBlockEnd
  0
BLOCK
  5
9289
330
927E
100
AcDbEntity
  8
0
100
AcDbBlockBegin
  2
_D44
 70
     0
 10
0.0
 20
0.0
 30
0.0
  3
_D44
  1

  0
LINE
  5
927F
330
927E
100
AcDbEntity
  8
1
  6
Continuous
 62
     4
370
    -2
100
AcDbLine
 10
370.9094490076336
 20
596.9629472805343
 30
0.0
 11
339.4033373664121
 21
596.9629472805343
 31
0.0
  0
LINE
  5
9280
330
927E
100
AcDbEntity
  8
1
  6
Continuous
 62
     4
370
    -2
100
AcDbLine
 10
438.6384566412214
 20
707.1728709446566
 30
0.0
 11
339.4033373664122
 21
707.1728709446566
 31
0.0
  0
LINE
  5
9281
330
927E
100
AcDbEntity
  8
1
  6
Continuous
 62
     4
370
    -2
100
AcDbLine
 10
340.4033373664121
 20
598.9629472805343
 30
0.0
 11
340.4033373664121
 21
640.8179091125955
 31
0.0
  0
LINE
  5
9282
330
927E
100
AcDbEntity
  8
1
  6
Continuous
 62
     4
370
    -2
100
AcDbLine
 10
340.4033373664121
 20
705.1728709446567
 30
0.0
 11
340.4033373664121
 21
663.3179091125955
 31
0.0
  0
SOLID
  5
9283
330
927E
100
AcDbEntity
  8
1
  6
Continuous
 62
     4
370
     0
100
AcDbTrace
 10
340.0700040330788
 20
598.9629472805343
 30
0.0
 11
340.7366706997454
 21
598.9629472805343
 31
0.0
 12
340.4033373664121
 22
596.9629472805343
 32
0.0
 13
340.4033373664121
 23
596.9629472805343
 33
0.0
  0
SOLID
  5
9284
330
927E
100
AcDbEntity
  8
1
  6
Continuous
 62
     4
370
     0
100
AcDbTrace
 10
340.0700040330788
 20
705.1728709446567
 30
0.0
 11
340.7366706997454
 21
705.1728709446567
 31
0.0
 12
340.4033373664121
 22
707.1728709446566
 32
0.0
 13
340.4033373664121
 23
707.1728709446566
 33
0.0
  0
MTEXT
  5
9285
330
927E
100
AcDbEntity
  8
1
  6
Continuous
 62
     2
100
AcDbMText
 10
340.403337366412
 20
652.0679091125956
 30
0.0
 40
2.5
 41
0.0
 71
     5
 72
     1
  1
\A1; 110.209924 
 11
0.0000000000000001
 21
1.0
 31
0.0
 73
     1
 44
1.0
1001
ACAD
1000
MTEXTBEGIN
1070
    73
1070
     1
1070
    44
1040
1.0
1070
    74
1070
     0
1000
MTEXTEND
  0
POINT
  5
9286
330
927E
100
AcDbEntity
  8
DEFPOINTS
  6
Continuous
 62
     0
370
     0
100
AcDbPoint
 10
371.9094490076336
 20
596.9629472805343
 30
0.0
  0
POINT
  5
9287
330
927E
100
AcDbEntity
  8
DEFPOINTS
  6
Continuous
 62
     0
370
     0
100
AcDbPoint
 10
439.6384566412214
 20
707.1728709446566
 30
0.0
  0
POINT
  5
9288
330
927E
100
AcDbEntity
  8
DEFPOINTS
  6
Continuous
 62
     0
370
     0
100
AcDbPoint
 10
340.4033373664121
 20
707.1728709446566
 30
0.0
  0
ENDBLK
  5
928A
330
927E
100
AcDbEntity
  8
0
100
AcDbBlockEnd
  0
BLOCK
  5
9296
330
928B
100
AcDbEntity
  8
0
100
AcDbBlockBegin
  2
_D45
 70
     0
 10
0.0
 20
0.0
 30
0.0
  3
_D45
  1

  0
LINE
  5
928C
330
928B
100
AcDbEntity
  8
1
  6
Continuous
 62
     4
370
    -2
100
AcDbLine
 10
1654.751052061068
 20
-207.5694954675571
 30
0.0
 11
1819.218222862595
 21
-207.5694954675572
 31
0.0
  0
LINE
  5
928D
330
928B
100
AcDbEntity
  8
1
  6
Continuous
 62
     4
370
    -2
100
AcDbLine
 10
1514.884639847328
 20
-90.34621302480919
 30
0.0
 11
1819.218222862595
 21
-90.34621302480923
 31
0.0
  0
LINE
  5
928E
330
928B
100
AcDbEntity
  8
1
  6
Continuous
 62
     4
370
    -2
100
AcDbLine
 10
1818.218222862595
 20
-205.5694954675572
 30
0.0
 11
1818.218222862595
 21
-160.6245209128499
 31
0.0
  0
LINE
  5
928F
330
928B
100
AcDbEntity
  8
1
  6
Continuous
 62
     4
370
    -2
100
AcDbLine
 10
1818.218222862595
 20
-92.34621302480922
 30
0.0
 11
1818.218222862595
 21
-137.2911875795165
 31
0.0
  0
SOLID
  5
9290
330
928B
100
AcDbEntity
  8
1
  6
Continuous
 62
     4
370
     0
100
AcDbTrace
 10
1817.884889529262
 20
-205.5694954675572
 30
0.0
 11
1818.551556195928
 21
-205.5694954675572
 31
0.0
 12
1818.218222862595
 22
-207.5694954675572
 32
0.0
 13
1818.218222862595
 23
-207.5694954675572
 33
0.0
  0
SOLID
  5
9291
330
928B
100
AcDbEntity
  8
1
  6
Continuous
 62
     4
370
     0
100
AcDbTrace
 10
1817.884889529262
 20
-92.34621302480922
 30
0.0
 11
1818.551556195928
 21
-92.34621302480922
 31
0.0
 12
1818.218222862595
 22
-90.34621302480923
 32
0.0
 13
1818.218222862595
 23
-90.34621302480923
 33
0.0
  0
MTEXT
  5
9292
330
928B
100
AcDbEntity
  8
1
  6
Continuous
 62
     2
100
AcDbMText
 10
1818.218222862595
 20
-148.9578542461829
 30
0.0
 40
2.5
 41
0.0
 71
     5
 72
     1
  1
\A1; 117.223282 
 11
0.0000000000000001
 21
1.0
 31
0.0
 73
     1
 44
1.0
1001
ACAD
1000
MTEXTBEGIN
1070
    73
1070
     1
1070
    44
1040
1.0
1070
    74
1070
     0
1000
MTEXTEND
  0
POINT
  5
9293
330
928B
100
AcDbEntity
  8
DEFPOINTS
  6
Continuous
 62
     0
370
     0
100
AcDbPoint
 10
1653.751052061068
 20
-207.5694954675571
 30
0.0
  0
POINT
  5
9294
330
928B
100
AcDbEntity
  8
DEFPOINTS
  6
Continuous
 62
     0
370
     0
100
AcDbPoint
 10
1513.884639847328
 20
-90.34621302480919
 30
0.0
  0
POINT
  5
9295
330
928B
100
AcDbEntity
  8
DEFPOINTS
  6
Continuous
 62
     0
370
     0
100
AcDbPoint
 10
1818.218222862595
 20
-90.34621302480923
 30
0.0
  0
ENDBLK
  5
9297
330
928B
100
AcDbEntity
  8
0
100
AcDbBlockEnd
  0
BLOCK
  5
92A3
330
9298
100
AcDbEntity
  8
0
100
AcDbBlockBegin
  2
_D46
 70
     0
 10
0.0
 20
0.0
 30
0.0
  3
_D46
  1

  0
LINE
  5
9299
330
9298
100
AcDbEntity
  8
1
  6
Continuous
 62
     4
370
    -2
100
AcDbLine
 10
1805.037311603053
 20
-90.34621302480919
 30
0.0
 11
1819.218222862595
 21
-90.34621302480919
 31
0.0
  0
LINE
  5
929A
330
9298
100
AcDbEntity
  8
1
  6
Continuous
 62
     4
370
    -2
100
AcDbLine
 10
1654.751052061068
 20
35.89424499045799
 30
0.0
 11
1819.218222862595
 21
35.89424499045796
 31
0.0
  0
LINE
  5
929B
330
9298
100
AcDbEntity
  8
1
  6
Continuous
 62
     4
370
    -2
100
AcDbLine
 10
1818.218222862595
 20
-88.34621302480917
 30
0.0
 11
1818.218222862595
 21
-39.10098401717561
 31
0.0
  0
LINE
  5
929C
330
9298
100
AcDbEntity
  8
1
  6
Continuous
 62
     4
370
    -2
100
AcDbLine
 10
1818.218222862595
 20
33.89424499045794
 30
0.0
 11
1818.218222862595
 21
-15.35098401717561
 31
0.0
  0
SOLID
  5
929D
330
9298
100
AcDbEntity
  8
1
  6
Continuous
 62
     4
370
     0
100
AcDbTrace
 10
1817.884889529262
 20
-88.34621302480917
 30
0.0
 11
1818.551556195928
 21
-88.34621302480917
 31
0.0
 12
1818.218222862595
 22
-90.34621302480919
 32
0.0
 13
1818.218222862595
 23
-90.34621302480919
 33
0.0
  0
SOLID
  5
929E
330
9298
100
AcDbEntity
  8
1
  6
Continuous
 62
     4
370
     0
100
AcDbTrace
 10
1817.884889529262
 20
33.89424499045794
 30
0.0
 11
1818.551556195928
 21
33.89424499045794
 31
0.0
 12
1818.218222862595
 22
35.89424499045796
 32
0.0
 13
1818.218222862595
 23
35.89424499045796
 33
0.0
  0
MTEXT
  5
929F
330
9298
100
AcDbEntity
  8
1
  6
Continuous
 62
     2
100
AcDbMText
 10
1818.218222862595
 20
-27.22598401717532
 30
0.0
 40
2.5
 41
0.0
 71
     5
 72
     1
  1
\A1; 126.240458 
 11
0.0000000000000001
 21
1.0
 31
0.0
 73
     1
 44
1.0
1001
ACAD
1000
MTEXTBEGIN
1070
    73
1070
     1
1070
    44
1040
1.0
1070
    74
1070
     0
1000
MTEXTEND
  0
POINT
  5
92A0
330
9298
100
AcDbEntity
  8
DEFPOINTS
  6
Continuous
 62
     0
370
     0
100
AcDbPoint
 10
1804.037311603053
 20
-90.34621302480919
 30
0.0
  0
POINT
  5
92A1
330
9298
100
AcDbEntity
  8
DEFPOINTS
  6
Continuous
 62
     0
370
     0
100
AcDbPoint
 10
1653.751052061068
 20
35.89424499045799
 30
0.0
  0
POINT
  5
92A2
330
9298
100
AcDbEntity
  8
DEFPOINTS
  6
Continuous
 62
     0
370
     0
100
AcDbPoint
 10
1818.218222862595
 20
35.89424499045796
 30
0.0
  0
ENDBLK
  5
92A4
330
9298
100
AcDbEntity
  8
0
100
AcDbBlockEnd
  0
BLOCK
  5
92B0
330
92A5
100
AcDbEntity
  8
0
100
AcDbBlockBegin
  2
_D47
 70
     0
 10
0.0
 20
0.0
 30
0.0
  3
_D47
  1

  0
LINE
  5
92A6
330
92A5
100
AcDbEntity
  8
1
  6
Continuous
 62
     4
370
    -2
100
AcDbLine
 10
663.0621207633587
 20
596.9629472805343
 30
0.0
 11
747.1762381297708
 21
596.9629472805343
 31
0.0
  0
LINE
  5
92A7
330
92A5
100
AcDbEntity
  8
1
  6
Continuous
 62
     4
370
    -2
100
AcDbLine
 10
673.0812047328242
 20
455.6938633110686
 30
0.0
 11
747.1762381297708
 21
455.6938633110686
 31
0.0
  0
LINE
  5
92A8
330
92A5
100
AcDbEntity
  8
1
  6
Continuous
 62
     4
370
    -2
100
AcDbLine
 10
746.1762381297709
 20
594.9629472805343
 30
0.0
 11
746.1762381297709
 21
537.7867386291349
 31
0.0
  0
LINE
  5
92A9
330
92A5
100
AcDbEntity
  8
1
  6
Continuous
 62
     4
370
    -2
100
AcDbLine
 10
746.1762381297709
 20
457.6938633110686
 30
0.0
 11
746.1762381297709
 21
514.8700719624681
 31
0.0
  0
SOLID
  5
92AA
330
92A5
100
AcDbEntity
  8
1
  6
Continuous
 62
     4
370
     0
100
AcDbTrace
 10
745.8429047964377
 20
594.9629472805343
 30
0.0
 11
746.5095714631043
 21
594.9629472805343
 31
0.0
 12
746.1762381297709
 22
596.9629472805343
 32
0.0
 13
746.1762381297709
 23
596.9629472805343
 33
0.0
  0
SOLID
  5
92AB
330
92A5
100
AcDbEntity
  8
1
  6
Continuous
 62
     4
370
     0
100
AcDbTrace
 10
745.8429047964377
 20
457.6938633110686
 30
0.0
 11
746.5095714631043
 21
457.6938633110686
 31
0.0
 12
746.1762381297709
 22
455.6938633110686
 32
0.0
 13
746.1762381297709
 23
455.6938633110686
 33
0.0
  0
MTEXT
  5
92AC
330
92A5
100
AcDbEntity
  8
1
  6
Continuous
 62
     2
100
AcDbMText
 10
746.1762381297708
 20
526.3284052958016
 30
0.0
 40
2.5
 41
0.0
 71
     5
 72
     1
  1
\A1; 141.269084 
 11
0.0000000000000001
 21
1.0
 31
0.0
 73
     1
 44
1.0
1001
ACAD
1000
MTEXTBEGIN
1070
    73
1070
     1
1070
    44
1040
1.0
1070
    74
1070
     0
1000
MTEXTEND
  0
POINT
  5
92AD
330
92A5
100
AcDbEntity
  8
DEFPOINTS
  6
Continuous
 62
     0
370
     0
100
AcDbPoint
 10
662.0621207633587
 20
596.9629472805343
 30
0.0
  0
POINT
  5
92AE
330
92A5
100
AcDbEntity
  8
DEFPOINTS
  6
Continuous
 62
     0
370
     0
100
AcDbPoint
 10
672.0812047328243
 20
455.6938633110686
 30
0.0
  0
POINT
  5
92AF
330
92A5
100
AcDbEntity
  8
DEFPOINTS
  6
Continuous
 62
     0
370
     0
100
AcDbPoint
 10
746.1762381297709
 20
455.6938633110686
 30
0.0
  0
ENDBLK
  5
92B1
330
92A5
100
AcDbEntity
  8
0
100
AcDbBlockEnd
  0
BLOCK
  5
92BD
330
92B2
100
AcDbEntity
  8
0
100
AcDbBlockBegin
  2
_D48
 70
     0
 10
0.0
 20
0.0
 30
0.0
  3
_D48
  1

  0
LINE
  5
92B3
330
92B2
100
AcDbEntity
  8
1
  6
Continuous
 62
     4
370
    -2
100
AcDbLine
 10
673.0812047328242
 20
455.6938633110686
 30
0.0
 11
747.1762381297708
 21
455.6938633110686
 31
0.0
  0
LINE
  5
92B4
330
92B2
100
AcDbEntity
  8
1
  6
Continuous
 62
     4
370
    -2
100
AcDbLine
 10
663.0621207633587
 20
323.4419549141221
 30
0.0
 11
747.1762381297708
 21
323.4419549141221
 31
0.0
  0
LINE
  5
92B5
330
92B2
100
AcDbEntity
  8
1
  6
Continuous
 62
     4
370
    -2
100
AcDbLine
 10
746.1762381297709
 20
453.6938633110686
 30
0.0
 11
746.1762381297709
 21
401.0262424459286
 31
0.0
  0
LINE
  5
92B6
330
92B2
100
AcDbEntity
  8
1
  6
Continuous
 62
     4
370
    -2
100
AcDbLine
 10
746.1762381297709
 20
325.4419549141221
 30
0.0
 11
746.1762381297709
 21
378.109575779262
 31
0.0
  0
SOLID
  5
92B7
330
92B2
100
AcDbEntity
  8
1
  6
Continuous
 62
     4
370
     0
100
AcDbTrace
 10
745.8429047964377
 20
453.6938633110686
 30
0.0
 11
746.5095714631043
 21
453.6938633110686
 31
0.0
 12
746.1762381297709
 22
455.6938633110686
 32
0.0
 13
746.1762381297709
 23
455.6938633110686
 33
0.0
  0
SOLID
  5
92B8
330
92B2
100
AcDbEntity
  8
1
  6
Continuous
 62
     4
370
     0
100
AcDbTrace
 10
745.8429047964377
 20
325.4419549141221
 30
0.0
 11
746.5095714631043
 21
325.4419549141221
 31
0.0
 12
746.1762381297709
 22
323.4419549141221
 32
0.0
 13
746.1762381297709
 23
323.4419549141221
 33
0.0
  0
MTEXT
  5
92B9
330
92B2
100
AcDbEntity
  8
1
  6
Continuous
 62
     2
100
AcDbMText
 10
746.1762381297708
 20
389.5679091125956
 30
0.0
 40
2.5
 41
0.0
 71
     5
 72
     1
  1
\A1; 132.251908 
 11
0.0000000000000001
 21
1.0
 31
0.0
 73
     1
 44
1.0
1001
ACAD
1000
MTEXTBEGIN
1070
    73
1070
     1
1070
    44
1040
1.0
1070
    74
1070
     0
1000
MTEXTEND
  0
POINT
  5
92BA
330
92B2
100
AcDbEntity
  8
DEFPOINTS
  6
Continuous
 62
     0
370
     0
100
AcDbPoint
 10
672.0812047328243
 20
455.6938633110686
 30
0.0
  0
POINT
  5
92BB
330
92B2
100
AcDbEntity
  8
DEFPOINTS
  6
Continuous
 62
     0
370
     0
100
AcDbPoint
 10
662.0621207633587
 20
323.4419549141221
 30
0.0
  0
POINT
  5
92BC
330
92B2
100
AcDbEntity
  8
DEFPOINTS
  6
Continuous
 62
     0
370
     0
100
AcDbPoint
 10
746.1762381297709
 20
323.4419549141221
 30
0.0
  0
ENDBLK
  5
92BE
330
92B2
100
AcDbEntity
  8
0
100
AcDbBlockEnd
  0
BLOCK
  5
92CA
330
92BF
100
AcDbEntity
  8
0
100
AcDbBlockBegin
  2
_D49
 70
     0
 10
0.0
 20
0.0
 30
0.0
  3
_D49
  1

  0
LINE
  5
92C0
330
92BF
100
AcDbEntity
  8
1
  6
Continuous
 62
     4
370
    -2
100
AcDbLine
 10
1686.912311603053
 20
501.7816495706107
 30
0.0
 11
1859.294558740456
 21
501.7816495706107
 31
0.0
  0
LINE
  5
92C1
330
92BF
100
AcDbEntity
  8
1
  6
Continuous
 62
     4
370
    -2
100
AcDbLine
 10
1686.912311603053
 20
409.6060770515268
 30
0.0
 11
1859.294558740456
 21
409.6060770515268
 31
0.0
  0
LINE
  5
92C2
330
92BF
100
AcDbEntity
  8
1
  6
Continuous
 62
     4
370
    -2
100
AcDbLine
 10
1858.294558740458
 20
499.7816495706106
 30
0.0
 11
1858.294558740458
 21
466.527196644402
 31
0.0
  0
LINE
  5
92C3
330
92BF
100
AcDbEntity
  8
1
  6
Continuous
 62
     4
370
    -2
100
AcDbLine
 10
1858.294558740458
 20
411.6060770515266
 30
0.0
 11
1858.294558740458
 21
444.8605299777353
 31
0.0
  0
SOLID
  5
92C4
330
92BF
100
AcDbEntity
  8
1
  6
Continuous
 62
     4
370
     0
100
AcDbTrace
 10
1857.961225407124
 20
499.7816495706106
 30
0.0
 11
1858.627892073791
 21
499.7816495706106
 31
0.0
 12
1858.294558740458
 22
501.7816495706107
 32
0.0
 13
1858.294558740458
 23
501.7816495706107
 33
0.0
  0
SOLID
  5
92C5
330
92BF
100
AcDbEntity
  8
1
  6
Continuous
 62
     4
370
     0
100
AcDbTrace
 10
1857.961225407124
 20
411.6060770515266
 30
0.0
 11
1858.627892073791
 21
411.6060770515266
 31
0.0
 12
1858.294558740458
 22
409.6060770515268
 32
0.0
 13
1858.294558740458
 23
409.6060770515268
 33
0.0
  0
MTEXT
  5
92C6
330
92BF
100
AcDbEntity
  8
1
  6
Continuous
 62
     2
100
AcDbMText
 10
1858.294558740458
 20
455.693863311069
 30
0.0
 40
2.5
 41
0.0
 71
     5
 72
     1
  1
\A1; 92.175573 
 11
0.0000000000000001
 21
1.0
 31
0.0
 73
     1
 44
1.0
1001
ACAD
1000
MTEXTBEGIN
1070
    73
1070
     1
1070
    44
1040
1.0
1070
    74
1070
     0
1000
MTEXTEND
  0
POINT
  5
92C7
330
92BF
100
AcDbEntity
  8
DEFPOINTS
  6
Continuous
 62
     0
370
     0
100
AcDbPoint
 10
1685.912311603053
 20
501.7816495706107
 30
0.0
  0
POINT
  5
92C8
330
92BF
100
AcDbEntity
  8
DEFPOINTS
  6
Continuous
 62
     0
370
     0
100
AcDbPoint
 10
1685.912311603053
 20
409.6060770515268
 30
0.0
  0
POINT
  5
92C9
330
92BF
100
AcDbEntity
  8
DEFPOINTS
  6
Continuous
 62
     0
370
     0
100
AcDbPoint
 10
1858.294558740458
 20
409.6060770515268
 30
0.0
  0
ENDBLK
  5
92CB
330
92BF
100
AcDbEntity
  8
0
100
AcDbBlockEnd
  0
BLOCK
  5
92D2
330
92CC
100
AcDbEntity
  8
0
100
AcDbBlockBegin
  2
_D50
 70
     0
 10
0.0
 20
0.0
 30
0.0
  3
_D50
  1

  0
LINE
  5
92CD
330
92CC
100
AcDbEntity
  8
1
  6
Continuous
 62
     4
370
    -2
100
AcDbLine
 10
1239.623248387404
 20
500.093008110687
 30
0.0
 11
1231.373248387404
 21
500.093008110687
 31
0.0
  0
MTEXT
  5
92CE
330
92CC
100
AcDbEntity
  8
1
  6
Continuous
 62
     2
100
AcDbMText
 10
1236.498248387404
 20
501.343008110687
 30
0.0
 40
2.5
 41
0.0
 71
     5
 72
     1
  1
\A1; R0 
 73
     1
 44
1.0
1001
ACAD
1000
MTEXTBEGIN
1070
    73
1070
     1
1070
    44
1040
1.0
1070
    74
1070
     0
1000
MTEXTEND
  0
SOLID
  5
92CF
330
92CC
100
AcDbEntity
  8
1
  6
Continuous
 62
     4
370
     0
100
AcDbTrace
 10
1227.373248387404
 20
500.4263414440202
 30
0.0
 11
1227.373248387404
 21
499.7596747773537
 31
0.0
 12
1229.373248387404
 22
500.093008110687
 32
0.0
 13
1229.373248387404
 23
500.093008110687
 33
0.0
  0
POINT
  5
92D0
330
92CC
100
AcDbEntity
  8
DEFPOINTS
  6
Continuous
 62
     0
370
     0
100
AcDbPoint
 10
1229.373248387404
 20
500.093008110687
 30
0.0
  0
POINT
  5
92D1
330
92CC
100
AcDbEntity
  8
DEFPOINTS
  6
Continuous
 62
     0
370
     0
100
AcDbPoint
 10
1229.373248387404
 20
500.093008110687
 30
0.0
  0
ENDBLK
  5
92D3
330
92CC
100
AcDbEntity
  8
0
100
AcDbBlockEnd
  0
BLOCK
  5
92DD
330
92D4
100
AcDbEntity
  8
0
100
AcDbBlockBegin
  2
_D51
 70
     0
 10
0.0
 20
0.0
 30
0.0
  3
_D51
  1

  0
LINE
  5
92D5
330
92D4
100
AcDbEntity
  8
1
  6
Continuous
 62
     4
370
    -2
100
AcDbLine
 10
1640.542247160275
 20
-202.5008354710649
 30
0.0
 11
1642.542247160276
 21
-202.5008354710649
 31
0.0
  0
LINE
  5
92D6
330
92D4
100
AcDbEntity
  8
1
  6
Continuous
 62
     4
370
    -2
100
AcDbLine
 10
1642.542247160276
 20
-202.5008354710649
 30
0.0
 11
1644.090586275748
 21
-203.7667920198836
 31
0.0
  0
MTEXT
  5
92D7
102
{ACAD_XDICTIONARY
360
EC0B
102
}
330
92D4
100
AcDbEntity
  8
1
  6
Continuous
 62
     2
100
AcDbMText
 10
1631.167247160275
 20
-202.5008354710649
 30
0.0
 40
2.5
 41
0.0
 71
     5
 72
     1
  1
\A1;\U+22058.015265
 73
     1
 44
1.0
1001
ACAD
1000
MTEXTBEGIN
1070
    73
1070
     1
1070
    44
1040
1.0
1070
    74
1070
     0
1000
MTEXTEND
  0
SOLID
  5
92D8
330
92D4
100
AcDbEntity
  8
1
  6
Continuous
 62
     4
370
     0
100
AcDbTrace
 10
1644.301579033885
 20
-203.508735500638
 30
0.0
 11
1643.879593517612
 21
-204.0248485391291
 31
0.0
 12
1645.638925391221
 22
-205.0327485687023
 32
0.0
 13
1645.638925391221
 23
-205.0327485687023
 33
0.0
  0
LINE
  5
92D9
330
92D4
100
AcDbEntity
  8
1
  6
Continuous
 62
     4
370
    -2
100
AcDbLine
 10
1648.651512581106
 20
-207.5694929627863
 30
0.0
 11
1648.831512581107
 21
-207.5694929627861
 31
0.0
  0
LINE
  5
92DA
330
92D4
100
AcDbEntity
  8
1
  6
Continuous
 62
     4
370
    -2
100
AcDbLine
 10
1648.741512581106
 20
-207.6594929627861
 30
0.0
 11
1648.741512581106
 21
-207.4794929627862
 31
0.0
  0
POINT
  5
92DB
330
92D4
100
AcDbEntity
  8
DEFPOINTS
  6
Continuous
 62
     0
370
     0
100
AcDbPoint
 10
1645.638925391221
 20
-205.0327485687023
 30
0.0
  0
POINT
  5
92DC
330
92D4
100
AcDbEntity
  8
DEFPOINTS
  6
Continuous
 62
     0
370
     0
100
AcDbPoint
 10
1651.844099770992
 20
-210.1062373568703
 30
0.0
  0
ENDBLK
  5
92DE
330
92D4
100
AcDbEntity
  8
0
100
AcDbBlockEnd
  0
BLOCK
  5
92E8
330
92DF
100
AcDbEntity
  8
0
100
AcDbBlockBegin
  2
_D52
 70
     0
 10
0.0
 20
0.0
 30
0.0
  3
_D52
  1

  0
LINE
  5
92E0
330
92DF
100
AcDbEntity
  8
1
  6
Continuous
 62
     4
370
    -2
100
AcDbLine
 10
213.7807022893732
 20
653.0926504547315
 30
0.0
 11
215.7807022893732
 21
653.0926504547315
 31
0.0
  0
LINE
  5
92E1
330
92DF
100
AcDbEntity
  8
1
  6
Continuous
 62
     4
370
    -2
100
AcDbLine
 10
215.7807022893732
 20
653.0926504547315
 30
0.0
 11
216.8159985969766
 21
654.803837631946
 31
0.0
  0
MTEXT
  5
92E2
102
{ACAD_XDICTIONARY
360
EC0D
102
}
330
92DF
100
AcDbEntity
  8
1
  6
Continuous
 62
     2
100
AcDbMText
 10
203.3640356227065
 20
653.0926504547315
 30
0.0
 40
2.5
 41
0.0
 71
     5
 72
     1
  1
\A1;\U+220513.024807
 73
     1
 44
1.0
1001
ACAD
1000
MTEXTBEGIN
1070
    73
1070
     1
1070
    44
1040
1.0
1070
    74
1070
     0
1000
MTEXTEND
  0
SOLID
  5
92E3
330
92DF
100
AcDbEntity
  8
1
  6
Continuous
 62
     4
370
     0
100
AcDbTrace
 10
216.5308007341075
 20
654.9763870165463
 30
0.0
 11
217.1011964598456
 21
654.6312882473452
 31
0.0
 12
217.85129490458
 22
656.5150248091602
 32
0.0
 13
217.85129490458
 23
656.5150248091602
 33
0.0
  0
LINE
  5
92E4
330
92DF
100
AcDbEntity
  8
1
  6
Continuous
 62
     4
370
    -2
100
AcDbLine
 10
221.1324286116411
 20
662.086995586832
 30
0.0
 11
221.3124286116411
 21
662.086995586832
 31
0.0
  0
LINE
  5
92E5
330
92DF
100
AcDbEntity
  8
1
  6
Continuous
 62
     4
370
    -2
100
AcDbLine
 10
221.2224286116411
 20
661.9969955868319
 30
0.0
 11
221.2224286116412
 21
662.1769955868321
 31
0.0
  0
POINT
  5
92E6
330
92DF
100
AcDbEntity
  8
DEFPOINTS
  6
Continuous
 62
     0
370
     0
100
AcDbPoint
 10
217.85129490458
 20
656.5150248091602
 30
0.0
  0
POINT
  5
92E7
330
92DF
100
AcDbEntity
  8
DEFPOINTS
  6
Continuous
 62
     0
370
     0
100
AcDbPoint
 10
224.5935623187023
 20
667.6589663645038
 30
0.0
  0
ENDBLK
  5
92E9
330
92DF
100
AcDbEntity
  8
0
100
AcDbBlockEnd
  0
BLOCK
  5
92F4
330
92EA
100
AcDbEntity
  8
0
100
AcDbBlockBegin
  2
_D53
 70
     0
 10
0.0
 20
0.0
 30
0.0
  3
_D53
  1

  0
LINE
  5
92EB
330
92EA
100
AcDbEntity
  8
1
  6
Continuous
 62
     4
370
    -2
100
AcDbLine
 10
919.9533421374047
 20
454.6938633110686
 30
0.0
 11
919.9533421374047
 21
-29.57442748091603
 31
0.0
  0
LINE
  5
92EC
330
92EA
100
AcDbEntity
  8
1
  6
Continuous
 62
     4
370
    -2
100
AcDbLine
 10
839.5992166603052
 20
454.6938633110686
 30
0.0
 11
839.5992166603052
 21
-29.57442748091603
 31
0.0
  0
LINE
  5
92ED
330
92EA
100
AcDbEntity
  8
1
  6
Continuous
 62
     4
370
    -2
100
AcDbLine
 10
917.9533421374047
 20
-28.57442748091603
 30
0.0
 11
841.5992166603052
 21
-28.57442748091603
 31
0.0
  0
SOLID
  5
92EE
330
92EA
100
AcDbEntity
  8
1
  6
Continuous
 62
     4
370
     0
100
AcDbTrace
 10
917.9533421374047
 20
-28.2410941475827
 30
0.0
 11
917.9533421374047
 21
-28.90776081424936
 31
0.0
 12
919.9533421374047
 22
-28.57442748091603
 32
0.0
 13
919.9533421374047
 23
-28.57442748091603
 33
0.0
  0
SOLID
  5
92EF
330
92EA
100
AcDbEntity
  8
1
  6
Continuous
 62
     4
370
     0
100
AcDbTrace
 10
841.5992166603052
 20
-28.2410941475827
 30
0.0
 11
841.5992166603052
 21
-28.90776081424936
 31
0.0
 12
839.5992166603052
 22
-28.57442748091603
 32
0.0
 13
839.5992166603052
 23
-28.57442748091603
 33
0.0
  0
MTEXT
  5
92F0
330
92EA
100
AcDbEntity
  8
1
  6
Continuous
 62
     2
100
AcDbMText
 10
879.7762793988551
 20
-27.32442748091604
 30
0.0
 40
2.5
 41
0.0
 71
     5
 72
     1
  1
\A1; 80.354125 
 73
     1
 44
1.0
1001
ACAD
1000
MTEXTBEGIN
1070
    73
1070
     1
1070
    44
1040
1.0
1070
    74
1070
     0
1000
MTEXTEND
  0
POINT
  5
92F1
330
92EA
100
AcDbEntity
  8
DEFPOINTS
  6
Continuous
 62
     0
370
     0
100
AcDbPoint
 10
919.9533421374047
 20
455.6938633110686
 30
0.0
  0
POINT
  5
92F2
330
92EA
100
AcDbEntity
  8
DEFPOINTS
  6
Continuous
 62
     0
370
     0
100
AcDbPoint
 10
839.5992166603052
 20
455.6938633110686
 30
0.0
  0
POINT
  5
92F3
330
92EA
100
AcDbEntity
  8
DEFPOINTS
  6
Continuous
 62
     0
370
     0
100
AcDbPoint
 10
839.5992166603052
 20
-28.57442748091603
 30
0.0
  0
ENDBLK
  5
92F5
330
92EA
100
AcDbEntity
  8
0
100
AcDbBlockEnd
  0
BLOCK
  5
C4FB
330
C4F9
100
AcDbEntity
  8
0
100
AcDbBlockBegin
  2
ASSORTED_DRAFT1
 70
     0
 10
0.0
 20
0.0
 30
0.0
  3
ASSORTED_DRAFT1
  1

  0
SOLID
  5
C4FA
330
C4F9
100
AcDbEntity
  8
0
 62
     4
100
AcDbTrace
 10
216.3871959999999
 20
130.0647229999998
 30
0.0
 11
214.925271
 21
131.4699939999999
 31
0.0
 12
215.462429
 22
131.8693909999999
 32
0.0
 13
216.3871959999999
 23
130.0647229999998
 33
0.0
  0
ENDBLK
  5
C4FC
330
C4F9
100
AcDbEntity
  8
0
100
AcDbBlockEnd
  0
BLOCK
  5
D01B
330
D011
100
AcDbEntity
  8
0
100
AcDbBlockBegin
  2
*D56
 70
     1
 10
0.0
 20
0.0
 30
0.0
  3
*D56
  1

  0
LINE
  5
EA09
330
D011
100
AcDbEntity
  8
30
 62
     0
370
    -2
100
AcDbLine
 10
-104.4999999999997
 20
335.9999999999999
 30
0.0
 11
-150.4999999999999
 21
336.0
 31
0.0
  0
LINE
  5
EA0A
330
D011
100
AcDbEntity
  8
30
 62
     0
370
    -2
100
AcDbLine
 10
-138.0
 20
235.0
 30
0.0
 11
-150.5
 21
235.0
 31
0.0
  0
LINE
  5
EA0B
330
D011
100
AcDbEntity
  8
30
 62
     0
370
    -2
100
AcDbLine
 10
-149.9999999999999
 20
334.0
 30
0.0
 11
-150.0
 21
237.0
 31
0.0
  0
INSERT
  5
EA0C
330
D011
100
AcDbEntity
  8
30
 62
     0
370
    -2
100
AcDbBlockReference
  2
_OPEN
 10
-149.9999999999999
 20
336.0
 30
0.0
 41
2.0
 42
2.0
 43
2.0
 50
90.0
  0
INSERT
  5
EA0D
330
D011
100
AcDbEntity
  8
30
 62
     0
370
    -2
100
AcDbBlockReference
  2
_OPEN
 10
-150.0
 20
235.0
 30
0.0
 41
2.0
 42
2.0
 43
2.0
 50
270.0
  0
MTEXT
  5
EA0E
330
D011
100
AcDbEntity
  8
30
 62
     0
100
AcDbMText
 10
-155.0
 20
285.4999999999999
 30
0.0
 40
6.0
 41
0.0
 71
     5
 72
     1
  1
\A1;101
 11
0.0000000000000001
 21
1.0
 31
0.0
 73
     1
 44
1.0
1001
ACAD
1000
MTEXTBEGIN
1070
    73
1070
     1
1070
    44
1040
1.0
1070
    74
1070
     0
1000
MTEXTEND
  0
POINT
  5
EA0F
330
D011
100
AcDbEntity
  8
DEFPOINTS
 62
     0
100
AcDbPoint
 10
-101.4999999999997
 20
335.9999999999999
 30
0.0
  0
POINT
  5
EA10
330
D011
100
AcDbEntity
  8
DEFPOINTS
 62
     0
100
AcDbPoint
 10
-135.0
 20
235.0
 30
0.0
  0
POINT
  5
EA11
330
D011
100
AcDbEntity
  8
DEFPOINTS
 62
     0
100
AcDbPoint
 10
-150.0
 20
235.0
 30
0.0
  0
ENDBLK
  5
D01C
330
D011
100
AcDbEntity
  8
0
100
AcDbBlockEnd
  0
BLOCK
  5
D03A
330
D030
100
AcDbEntity
  8
0
100
AcDbBlockBegin
  2
*D57
 70
     1
 10
0.0
 20
0.0
 30
0.0
  3
*D57
  1

  0
LINE
  5
EA12
330
D030
100
AcDbEntity
  8
30
 62
     0
370
    -2
100
AcDbLine
 10
-138.0
 20
235.0
 30
0.0
 11
-150.4999999999999
 21
235.0
 31
0.0
  0
LINE
  5
EA13
330
D030
100
AcDbEntity
  8
30
 62
     0
370
    -2
100
AcDbLine
 10
-138.0
 20
70.0
 30
0.0
 11
-150.5
 21
70.0
 31
0.0
  0
LINE
  5
EA14
330
D030
100
AcDbEntity
  8
30
 62
     0
370
    -2
100
AcDbLine
 10
-149.9999999999999
 20
233.0
 30
0.0
 11
-150.0
 21
72.0
 31
0.0
  0
INSERT
  5
EA15
330
D030
100
AcDbEntity
  8
30
 62
     0
370
    -2
100
AcDbBlockReference
  2
_OPEN
 10
-149.9999999999999
 20
235.0
 30
0.0
 41
2.0
 42
2.0
 43
2.0
 50
90.0
  0
INSERT
  5
EA16
330
D030
100
AcDbEntity
  8
30
 62
     0
370
    -2
100
AcDbBlockReference
  2
_OPEN
 10
-150.0
 20
70.0
 30
0.0
 41
2.0
 42
2.0
 43
2.0
 50
270.0
  0
MTEXT
  5
EA17
330
D030
100
AcDbEntity
  8
30
 62
     0
100
AcDbMText
 10
-155.0
 20
152.4999999999999
 30
0.0
 40
6.0
 41
0.0
 71
     5
 72
     1
  1
\A1;165
 11
0.0000000000000001
 21
1.0
 31
0.0
 73
     1
 44
1.0
1001
ACAD
1000
MTEXTBEGIN
1070
    73
1070
     1
1070
    44
1040
1.0
1070
    74
1070
     0
1000
MTEXTEND
  0
POINT
  5
EA18
330
D030
100
AcDbEntity
  8
DEFPOINTS
 62
     0
100
AcDbPoint
 10
-135.0
 20
235.0
 30
0.0
  0
POINT
  5
EA19
330
D030
100
AcDbEntity
  8
DEFPOINTS
 62
     0
100
AcDbPoint
 10
-135.0
 20
70.0
 30
0.0
  0
POINT
  5
EA1A
330
D030
100
AcDbEntity
  8
DEFPOINTS
 62
     0
100
AcDbPoint
 10
-150.0
 20
70.0
 30
0.0
  0
ENDBLK
  5
D03B
330
D030
100
AcDbEntity
  8
0
100
AcDbBlockEnd
  0
BLOCK
  5
D050
330
D046
100
AcDbEntity
  8
0
100
AcDbBlockBegin
  2
*D58
 70
     1
 10
0.0
 20
0.0
 30
0.0
  3
*D58
  1

  0
LINE
  5
EA1B
330
D046
100
AcDbEntity
  8
30
 62
     0
370
    -2
100
AcDbLine
 10
-131.4999999999997
 20
180.4999999999999
 30
0.0
 11
-131.4999999999997
 21
188.0
 31
0.0
  0
LINE
  5
EA1C
330
D046
100
AcDbEntity
  8
30
 62
     0
370
    -2
100
AcDbLine
 10
-33.50000000000022
 20
180.4999999999999
 30
0.0
 11
-33.50000000000022
 21
188.0
 31
0.0
  0
LINE
  5
EA1D
330
D046
100
AcDbEntity
  8
30
 62
     0
370
    -2
100
AcDbLine
 10
-129.4999999999997
 20
187.5
 30
0.0
 11
-35.50000000000022
 21
187.5
 31
0.0
  0
INSERT
  5
EA1E
330
D046
100
AcDbEntity
  8
30
 62
     0
370
    -2
100
AcDbBlockReference
  2
_OPEN
 10
-131.4999999999997
 20
187.5
 30
0.0
 41
2.0
 42
2.0
 43
2.0
 50
180.0
  0
INSERT
  5
EA1F
330
D046
100
AcDbEntity
  8
30
 62
     0
370
    -2
100
AcDbBlockReference
  2
_OPEN
 10
-33.50000000000022
 20
187.5
 30
0.0
 41
2.0
 42
2.0
 43
2.0
  0
MTEXT
  5
EA20
330
D046
100
AcDbEntity
  8
30
 62
     0
100
AcDbMText
 10
-82.5
 20
192.5
 30
0.0
 40
6.0
 41
0.0
 71
     5
 72
     1
  1
\A1;98
 73
     1
 44
1.0
1001
ACAD
1000
MTEXTBEGIN
1070
    73
1070
     1
1070
    44
1040
1.0
1070
    74
1070
     0
1000
MTEXTEND
  0
POINT
  5
EA21
330
D046
100
AcDbEntity
  8
DEFPOINTS
 62
     0
100
AcDbPoint
 10
-131.4999999999997
 20
177.5
 30
0.0
  0
POINT
  5
EA22
330
D046
100
AcDbEntity
  8
DEFPOINTS
 62
     0
100
AcDbPoint
 10
-33.50000000000022
 20
177.5
 30
0.0
  0
POINT
  5
EA23
330
D046
100
AcDbEntity
  8
DEFPOINTS
 62
     0
100
AcDbPoint
 10
-33.50000000000022
 20
187.5
 30
0.0
  0
ENDBLK
  5
D051
330
D046
100
AcDbEntity
  8
0
100
AcDbBlockEnd
  0
BLOCK
  5
D066
330
D05C
100
AcDbEntity
  8
0
100
AcDbBlockBegin
  2
*D59
 70
     1
 10
0.0
 20
0.0
 30
0.0
  3
*D59
  1

  0
LINE
  5
EA24
330
D05C
100
AcDbEntity
  8
30
 62
     0
370
    -2
100
AcDbLine
 10
-93.49999999999964
 20
124.5
 30
0.0
 11
-93.49999999999964
 21
117.0
 31
0.0
  0
LINE
  5
EA25
330
D05C
100
AcDbEntity
  8
30
 62
     0
370
    -2
100
AcDbLine
 10
-71.49999999999976
 20
124.5
 30
0.0
 11
-71.49999999999976
 21
117.0
 31
0.0
  0
LINE
  5
EA26
330
D05C
100
AcDbEntity
  8
30
 62
     0
370
    -2
100
AcDbLine
 10
-91.49999999999966
 20
117.5
 30
0.0
 11
-73.49999999999976
 21
117.5
 31
0.0
  0
INSERT
  5
EA27
330
D05C
100
AcDbEntity
  8
30
 62
     0
370
    -2
100
AcDbBlockReference
  2
_OPEN
 10
-93.49999999999964
 20
117.5
 30
0.0
 41
2.0
 42
2.0
 43
2.0
 50
180.0
  0
INSERT
  5
EA28
330
D05C
100
AcDbEntity
  8
30
 62
     0
370
    -2
100
AcDbBlockReference
  2
_OPEN
 10
-71.49999999999976
 20
117.5
 30
0.0
 41
2.0
 42
2.0
 43
2.0
  0
MTEXT
  5
EA29
330
D05C
100
AcDbEntity
  8
30
 62
     0
100
AcDbMText
 10
-82.49999999999969
 20
122.5
 30
0.0
 40
6.0
 41
0.0
 71
     5
 72
     1
  1
\A1;22
 73
     1
 44
1.0
1001
ACAD
1000
MTEXTBEGIN
1070
    73
1070
     1
1070
    44
1040
1.0
1070
    74
1070
     0
1000
MTEXTEND
  0
POINT
  5
EA2A
330
D05C
100
AcDbEntity
  8
DEFPOINTS
 62
     0
100
AcDbPoint
 10
-93.49999999999964
 20
127.5
 30
0.0
  0
POINT
  5
EA2B
330
D05C
100
AcDbEntity
  8
DEFPOINTS
 62
     0
100
AcDbPoint
 10
-71.49999999999976
 20
127.5
 30
0.0
  0
POINT
  5
EA2C
330
D05C
100
AcDbEntity
  8
DEFPOINTS
 62
     0
100
AcDbPoint
 10
-71.49999999999976
 20
117.5
 30
0.0
  0
ENDBLK
  5
D067
330
D05C
100
AcDbEntity
  8
0
100
AcDbBlockEnd
  0
BLOCK
  5
D07C
330
D072
100
AcDbEntity
  8
0
100
AcDbBlockBegin
  2
*D60
 70
     1
 10
0.0
 20
0.0
 30
0.0
  3
*D60
  1

  0
LINE
  5
EA2D
330
D072
100
AcDbEntity
  8
30
 62
     0
370
    -2
100
AcDbLine
 10
-117.5
 20
70.49999999999993
 30
0.0
 11
-117.5
 21
49.5
 31
0.0
  0
LINE
  5
EA2E
330
D072
100
AcDbEntity
  8
30
 62
     0
370
    -2
100
AcDbLine
 10
-47.5
 20
70.49999999999993
 30
0.0
 11
-47.5
 21
49.5
 31
0.0
  0
LINE
  5
EA2F
330
D072
100
AcDbEntity
  8
30
 62
     0
370
    -2
100
AcDbLine
 10
-115.5
 20
50.0
 30
0.0
 11
-49.5
 21
50.0
 31
0.0
  0
INSERT
  5
EA30
330
D072
100
AcDbEntity
  8
30
 62
     0
370
    -2
100
AcDbBlockReference
  2
_OPEN
 10
-117.5
 20
50.0
 30
0.0
 41
2.0
 42
2.0
 43
2.0
 50
180.0
  0
INSERT
  5
EA31
330
D072
100
AcDbEntity
  8
30
 62
     0
370
    -2
100
AcDbBlockReference
  2
_OPEN
 10
-47.5
 20
50.0
 30
0.0
 41
2.0
 42
2.0
 43
2.0
  0
MTEXT
  5
EA32
330
D072
100
AcDbEntity
  8
30
 62
     0
100
AcDbMText
 10
-82.5
 20
55.0
 30
0.0
 40
6.0
 41
0.0
 71
     5
 72
     1
  1
\A1;70
 73
     1
 44
1.0
1001
ACAD
1000
MTEXTBEGIN
1070
    73
1070
     1
1070
    44
1040
1.0
1070
    74
1070
     0
1000
MTEXTEND
  0
POINT
  5
EA33
330
D072
100
AcDbEntity
  8
DEFPOINTS
 62
     0
100
AcDbPoint
 10
-117.5
 20
73.49999999999993
 30
0.0
  0
POINT
  5
EA34
330
D072
100
AcDbEntity
  8
DEFPOINTS
 62
     0
100
AcDbPoint
 10
-47.5
 20
73.49999999999993
 30
0.0
  0
POINT
  5
EA35
330
D072
100
AcDbEntity
  8
DEFPOINTS
 62
     0
100
AcDbPoint
 10
-47.5
 20
50.0
 30
0.0
  0
ENDBLK
  5
D07D
330
D072
100
AcDbEntity
  8
0
100
AcDbBlockEnd
  0
BLOCK
  5
D089
330
D07F
100
AcDbEntity
  8
0
100
AcDbBlockBegin
  2
*D61
 70
     1
 10
0.0
 20
0.0
 30
0.0
  3
*D61
  1

  0
LINE
  5
EA36
330
D07F
100
AcDbEntity
  8
30
 62
     0
370
    -2
100
AcDbLine
 10
-135.0
 20
67.0
 30
0.0
 11
-135.0
 21
39.5
 31
0.0
  0
LINE
  5
EA37
330
D07F
100
AcDbEntity
  8
30
 62
     0
370
    -2
100
AcDbLine
 10
-30.0
 20
67.0
 30
0.0
 11
-30.0
 21
39.5
 31
0.0
  0
LINE
  5
EA38
330
D07F
100
AcDbEntity
  8
30
 62
     0
370
    -2
100
AcDbLine
 10
-133.0
 20
40.0
 30
0.0
 11
-32.0
 21
40.0
 31
0.0
  0
INSERT
  5
EA39
330
D07F
100
AcDbEntity
  8
30
 62
     0
370
    -2
100
AcDbBlockReference
  2
_OPEN
 10
-135.0
 20
40.0
 30
0.0
 41
2.0
 42
2.0
 43
2.0
 50
180.0
  0
INSERT
  5
EA3A
330
D07F
100
AcDbEntity
  8
30
 62
     0
370
    -2
100
AcDbBlockReference
  2
_OPEN
 10
-30.0
 20
40.0
 30
0.0
 41
2.0
 42
2.0
 43
2.0
  0
MTEXT
  5
EA3B
330
D07F
100
AcDbEntity
  8
30
 62
     0
100
AcDbMText
 10
-82.5
 20
45.0
 30
0.0
 40
6.0
 41
0.0
 71
     5
 72
     1
  1
\A1;105
 73
     1
 44
1.0
1001
ACAD
1000
MTEXTBEGIN
1070
    73
1070
     1
1070
    44
1040
1.0
1070
    74
1070
     0
1000
MTEXTEND
  0
POINT
  5
EA3C
330
D07F
100
AcDbEntity
  8
DEFPOINTS
 62
     0
100
AcDbPoint
 10
-135.0
 20
70.0
 30
0.0
  0
POINT
  5
EA3D
330
D07F
100
AcDbEntity
  8
DEFPOINTS
 62
     0
100
AcDbPoint
 10
-30.0
 20
70.0
 30
0.0
  0
POINT
  5
EA3E
330
D07F
100
AcDbEntity
  8
DEFPOINTS
 62
     0
100
AcDbPoint
 10
-30.0
 20
40.0
 30
0.0
  0
ENDBLK
  5
D08A
330
D07F
100
AcDbEntity
  8
0
100
AcDbBlockEnd
  0
BLOCK
  5
D683
330
D679
100
AcDbEntity
  8
0
100
AcDbBlockBegin
  2
*D62
 70
     1
 10
0.0
 20
0.0
 30
0.0
  3
*D62
  1

  0
LINE
  5
E3AA
330
D679
100
AcDbEntity
  8
30
 62
     0
370
    -2
100
AcDbLine
 10
180.0
 20
197.0
 30
0.0
 11
180.0
 21
179.4999999999999
 31
0.0
  0
LINE
  5
E3AB
330
D679
100
AcDbEntity
  8
30
 62
     0
370
    -2
100
AcDbLine
 10
205.0
 20
197.0
 30
0.0
 11
205.0
 21
179.4999999999999
 31
0.0
  0
LINE
  5
E3AC
330
D679
100
AcDbEntity
  8
30
 62
     0
370
    -2
100
AcDbLine
 10
182.0
 20
180.0
 30
0.0
 11
203.0
 21
180.0
 31
0.0
  0
INSERT
  5
E3AD
330
D679
100
AcDbEntity
  8
30
 62
     0
370
    -2
100
AcDbBlockReference
  2
_OPEN
 10
180.0
 20
180.0
 30
0.0
 41
2.0
 42
2.0
 43
2.0
 50
180.0
  0
INSERT
  5
E3AE
330
D679
100
AcDbEntity
  8
30
 62
     0
370
    -2
100
AcDbBlockReference
  2
_OPEN
 10
205.0
 20
180.0
 30
0.0
 41
2.0
 42
2.0
 43
2.0
  0
MTEXT
  5
E3AF
330
D679
100
AcDbEntity
  8
30
 62
     0
100
AcDbMText
 10
192.5
 20
185.0
 30
0.0
 40
6.0
 41
0.0
 71
     5
 72
     1
  1
\A1;25
 73
     1
 44
1.0
1001
ACAD
1000
MTEXTBEGIN
1070
    73
1070
     1
1070
    44
1040
1.0
1070
    74
1070
     0
1000
MTEXTEND
  0
POINT
  5
E3B0
330
D679
100
AcDbEntity
  8
DEFPOINTS
 62
     0
100
AcDbPoint
 10
180.0
 20
200.0
 30
0.0
  0
POINT
  5
E3B1
330
D679
100
AcDbEntity
  8
DEFPOINTS
 62
     0
100
AcDbPoint
 10
205.0
 20
200.0
 30
0.0
  0
POINT
  5
E3B2
330
D679
100
AcDbEntity
  8
DEFPOINTS
 62
     0
100
AcDbPoint
 10
205.0
 20
180.0
 30
0.0
  0
ENDBLK
  5
D684
330
D679
100
AcDbEntity
  8
0
100
AcDbBlockEnd
  0
BLOCK
  5
D6BD
330
D6B2
100
AcDbEntity
  8
0
100
AcDbBlockBegin
  2
*D63
 70
     1
 10
0.0
 20
0.0
 30
0.0
  3
*D63
  1

  0
LINE
  5
E3BA
330
D6B2
100
AcDbEntity
  8
30
 62
     0
370
    -2
100
AcDbLine
 10
147.0
 20
84.24999999999995
 30
0.0
 11
147.0
 21
56.0
 31
0.0
  0
LINE
  5
E3BB
330
D6B2
100
AcDbEntity
  8
30
 62
     0
370
    -2
100
AcDbLine
 10
140.0
 20
67.0
 30
0.0
 11
140.0
 21
56.0
 31
0.0
  0
LINE
  5
E3BC
330
D6B2
100
AcDbEntity
  8
30
 62
     0
370
    -2
100
AcDbLine
 10
138.0
 20
60.0
 30
0.0
 11
136.0
 21
60.0
 31
0.0
  0
LINE
  5
E3BD
330
D6B2
100
AcDbEntity
  8
30
 62
     0
370
    -2
100
AcDbLine
 10
149.0
 20
60.0
 30
0.0
 11
159.0
 21
60.0
 31
0.0
  0
LINE
  5
E3BE
330
D6B2
100
AcDbEntity
  8
30
 62
     0
370
    -2
100
AcDbLine
 10
140.0
 20
60.0
 30
0.0
 11
147.0
 21
60.0
 31
0.0
  0
INSERT
  5
E3BF
330
D6B2
100
AcDbEntity
  8
30
 62
     0
370
    -2
100
AcDbBlockReference
  2
_OPEN
 10
140.0
 20
60.0
 30
0.0
 41
2.0
 42
2.0
 43
2.0
  0
INSERT
  5
E3C0
330
D6B2
100
AcDbEntity
  8
30
 62
     0
370
    -2
100
AcDbBlockReference
  2
_OPEN
 10
147.0
 20
60.0
 30
0.0
 41
2.0
 42
2.0
 43
2.0
 50
180.0
  0
MTEXT
  5
E3C1
330
D6B2
100
AcDbEntity
  8
30
 62
     0
100
AcDbMText
 10
155.0
 20
65.0
 30
0.0
 40
6.0
 41
0.0
 71
     5
 72
     1
  1
\A1;7
 73
     1
 44
1.0
1001
ACAD
1000
MTEXTBEGIN
1070
    73
1070
     1
1070
    44
1040
1.0
1070
    74
1070
     0
1000
MTEXTEND
  0
POINT
  5
E3C2
330
D6B2
100
AcDbEntity
  8
DEFPOINTS
 62
     0
100
AcDbPoint
 10
147.0
 20
87.24999999999994
 30
0.0
  0
POINT
  5
E3C3
330
D6B2
100
AcDbEntity
  8
DEFPOINTS
 62
     0
100
AcDbPoint
 10
140.0
 20
70.0
 30
0.0
  0
POINT
  5
E3C4
330
D6B2
100
AcDbEntity
  8
DEFPOINTS
 62
     0
100
AcDbPoint
 10
140.0
 20
60.0
 30
0.0
  0
ENDBLK
  5
D6BE
330
D6B2
100
AcDbEntity
  8
0
100
AcDbBlockEnd
  0
BLOCK
  5
D6CA
330
D6C0
100
AcDbEntity
  8
0
100
AcDbBlockBegin
  2
*D64
 70
     1
 10
0.0
 20
0.0
 30
0.0
  3
*D64
  1

  0
LINE
  5
E3C5
330
D6C0
100
AcDbEntity
  8
30
 62
     0
370
    -2
100
AcDbLine
 10
140.0
 20
67.0
 30
0.0
 11
140.0
 21
59.5
 31
0.0
  0
LINE
  5
E3C6
330
D6C0
100
AcDbEntity
  8
30
 62
     0
370
    -2
100
AcDbLine
 10
93.99999999999977
 20
82.25000000000006
 30
0.0
 11
93.99999999999977
 21
59.5
 31
0.0
  0
LINE
  5
E3C7
330
D6C0
100
AcDbEntity
  8
30
 62
     0
370
    -2
100
AcDbLine
 10
138.0
 20
60.0
 30
0.0
 11
95.99999999999978
 21
60.0
 31
0.0
  0
INSERT
  5
E3C8
330
D6C0
100
AcDbEntity
  8
30
 62
     0
370
    -2
100
AcDbBlockReference
  2
_OPEN
 10
140.0
 20
60.0
 30
0.0
 41
2.0
 42
2.0
 43
2.0
  0
INSERT
  5
E3C9
330
D6C0
100
AcDbEntity
  8
30
 62
     0
370
    -2
100
AcDbBlockReference
  2
_OPEN
 10
93.99999999999977
 20
60.0
 30
0.0
 41
2.0
 42
2.0
 43
2.0
 50
180.0
  0
MTEXT
  5
E3CA
330
D6C0
100
AcDbEntity
  8
30
 62
     0
100
AcDbMText
 10
116.9999999999998
 20
65.0
 30
0.0
 40
6.0
 41
0.0
 71
     5
 72
     1
  1
\A1;46
 73
     1
 44
1.0
1001
ACAD
1000
MTEXTBEGIN
1070
    73
1070
     1
1070
    44
1040
1.0
1070
    74
1070
     0
1000
MTEXTEND
  0
POINT
  5
E3CB
330
D6C0
100
AcDbEntity
  8
DEFPOINTS
 62
     0
100
AcDbPoint
 10
140.0
 20
70.0
 30
0.0
  0
POINT
  5
E3CC
330
D6C0
100
AcDbEntity
  8
DEFPOINTS
 62
     0
100
AcDbPoint
 10
93.99999999999977
 20
85.25000000000003
 30
0.0
  0
POINT
  5
E3CD
330
D6C0
100
AcDbEntity
  8
DEFPOINTS
 62
     0
100
AcDbPoint
 10
93.99999999999977
 20
60.0
 30
0.0
  0
ENDBLK
  5
D6CB
330
D6C0
100
AcDbEntity
  8
0
100
AcDbBlockEnd
  0
BLOCK
  5
D6D7
330
D6CD
100
AcDbEntity
  8
0
100
AcDbBlockBegin
  2
*D65
 70
     1
 10
0.0
 20
0.0
 30
0.0
  3
*D65
  1

  0
LINE
  5
E3CE
330
D6CD
100
AcDbEntity
  8
30
 62
     0
370
    -2
100
AcDbLine
 10
140.0
 20
67.0
 30
0.0
 11
140.0
 21
49.5
 31
0.0
  0
LINE
  5
E3CF
330
D6CD
100
AcDbEntity
  8
30
 62
     0
370
    -2
100
AcDbLine
 10
80.0
 20
67.0
 30
0.0
 11
80.0
 21
49.5
 31
0.0
  0
LINE
  5
E3D0
330
D6CD
100
AcDbEntity
  8
30
 62
     0
370
    -2
100
AcDbLine
 10
138.0
 20
50.0
 30
0.0
 11
82.0
 21
50.0
 31
0.0
  0
INSERT
  5
E3D1
330
D6CD
100
AcDbEntity
  8
30
 62
     0
370
    -2
100
AcDbBlockReference
  2
_OPEN
 10
140.0
 20
50.0
 30
0.0
 41
2.0
 42
2.0
 43
2.0
  0
INSERT
  5
E3D2
330
D6CD
100
AcDbEntity
  8
30
 62
     0
370
    -2
100
AcDbBlockReference
  2
_OPEN
 10
80.0
 20
50.0
 30
0.0
 41
2.0
 42
2.0
 43
2.0
 50
180.0
  0
MTEXT
  5
E3D3
330
D6CD
100
AcDbEntity
  8
30
 62
     0
100
AcDbMText
 10
110.0
 20
55.0
 30
0.0
 40
6.0
 41
0.0
 71
     5
 72
     1
  1
\A1;60
 73
     1
 44
1.0
1001
ACAD
1000
MTEXTBEGIN
1070
    73
1070
     1
1070
    44
1040
1.0
1070
    74
1070
     0
1000
MTEXTEND
  0
POINT
  5
E3D4
330
D6CD
100
AcDbEntity
  8
DEFPOINTS
 62
     0
100
AcDbPoint
 10
140.0
 20
70.0
 30
0.0
  0
POINT
  5
E3D5
330
D6CD
100
AcDbEntity
  8
DEFPOINTS
 62
     0
100
AcDbPoint
 10
80.0
 20
70.0
 30
0.0
  0
POINT
  5
E3D6
330
D6CD
100
AcDbEntity
  8
DEFPOINTS
 62
     0
100
AcDbPoint
 10
80.0
 20
50.0
 30
0.0
  0
ENDBLK
  5
D6D8
330
D6CD
100
AcDbEntity
  8
0
100
AcDbBlockEnd
  0
BLOCK
  5
D6E4
330
D6DA
100
AcDbEntity
  8
0
100
AcDbBlockBegin
  2
*D66
 70
     1
 10
0.0
 20
0.0
 30
0.0
  3
*D66
  1

  0
LINE
  5
E3D7
330
D6DA
100
AcDbEntity
  8
30
 62
     0
370
    -2
100
AcDbLine
 10
140.0
 20
67.0
 30
0.0
 11
140.0
 21
39.5
 31
0.0
  0
LINE
  5
E3D8
330
D6DA
100
AcDbEntity
  8
30
 62
     0
370
    -2
100
AcDbLine
 10
72.0
 20
98.50000000000006
 30
0.0
 11
72.0
 21
39.5
 31
0.0
  0
LINE
  5
E3D9
330
D6DA
100
AcDbEntity
  8
30
 62
     0
370
    -2
100
AcDbLine
 10
138.0
 20
40.0
 30
0.0
 11
74.0
 21
40.0
 31
0.0
  0
INSERT
  5
E3DA
330
D6DA
100
AcDbEntity
  8
30
 62
     0
370
    -2
100
AcDbBlockReference
  2
_OPEN
 10
140.0
 20
40.0
 30
0.0
 41
2.0
 42
2.0
 43
2.0
  0
INSERT
  5
E3DB
330
D6DA
100
AcDbEntity
  8
30
 62
     0
370
    -2
100
AcDbBlockReference
  2
_OPEN
 10
72.0
 20
40.0
 30
0.0
 41
2.0
 42
2.0
 43
2.0
 50
180.0
  0
MTEXT
  5
E3DC
330
D6DA
100
AcDbEntity
  8
30
 62
     0
100
AcDbMText
 10
106.0
 20
45.0
 30
0.0
 40
6.0
 41
0.0
 71
     5
 72
     1
  1
\A1;68
 73
     1
 44
1.0
1001
ACAD
1000
MTEXTBEGIN
1070
    73
1070
     1
1070
    44
1040
1.0
1070
    74
1070
     0
1000
MTEXTEND
  0
POINT
  5
E3DD
330
D6DA
100
AcDbEntity
  8
DEFPOINTS
 62
     0
100
AcDbPoint
 10
140.0
 20
70.0
 30
0.0
  0
POINT
  5
E3DE
330
D6DA
100
AcDbEntity
  8
DEFPOINTS
 62
     0
100
AcDbPoint
 10
72.0
 20
101.5
 30
0.0
  0
POINT
  5
E3DF
330
D6DA
100
AcDbEntity
  8
DEFPOINTS
 62
     0
100
AcDbPoint
 10
72.0
 20
40.0
 30
0.0
  0
ENDBLK
  5
D6E5
330
D6DA
100
AcDbEntity
  8
0
100
AcDbBlockEnd
  0
BLOCK
  5
D6F1
330
D6E7
100
AcDbEntity
  8
0
100
AcDbBlockBegin
  2
*D67
 70
     1
 10
0.0
 20
0.0
 30
0.0
  3
*D67
  1

  0
LINE
  5
E3E0
330
D6E7
100
AcDbEntity
  8
30
 62
     0
370
    -2
100
AcDbLine
 10
140.0
 20
67.0
 30
0.0
 11
140.0
 21
29.5
 31
0.0
  0
LINE
  5
E3E1
330
D6E7
100
AcDbEntity
  8
30
 62
     0
370
    -2
100
AcDbLine
 10
68.0
 20
124.5
 30
0.0
 11
68.0
 21
29.5
 31
0.0
  0
LINE
  5
E3E2
330
D6E7
100
AcDbEntity
  8
30
 62
     0
370
    -2
100
AcDbLine
 10
138.0
 20
30.0
 30
0.0
 11
70.0
 21
30.0
 31
0.0
  0
INSERT
  5
E3E3
330
D6E7
100
AcDbEntity
  8
30
 62
     0
370
    -2
100
AcDbBlockReference
  2
_OPEN
 10
140.0
 20
30.0
 30
0.0
 41
2.0
 42
2.0
 43
2.0
  0
INSERT
  5
E3E4
330
D6E7
100
AcDbEntity
  8
30
 62
     0
370
    -2
100
AcDbBlockReference
  2
_OPEN
 10
68.0
 20
30.0
 30
0.0
 41
2.0
 42
2.0
 43
2.0
 50
180.0
  0
MTEXT
  5
E3E5
330
D6E7
100
AcDbEntity
  8
30
 62
     0
100
AcDbMText
 10
104.0
 20
35.0
 30
0.0
 40
6.0
 41
0.0
 71
     5
 72
     1
  1
\A1;72
 73
     1
 44
1.0
1001
ACAD
1000
MTEXTBEGIN
1070
    73
1070
     1
1070
    44
1040
1.0
1070
    74
1070
     0
1000
MTEXTEND
  0
POINT
  5
E3E6
330
D6E7
100
AcDbEntity
  8
DEFPOINTS
 62
     0
100
AcDbPoint
 10
140.0
 20
70.0
 30
0.0
  0
POINT
  5
E3E7
330
D6E7
100
AcDbEntity
  8
DEFPOINTS
 62
     0
100
AcDbPoint
 10
68.0
 20
127.5
 30
0.0
  0
POINT
  5
E3E8
330
D6E7
100
AcDbEntity
  8
DEFPOINTS
 62
     0
100
AcDbPoint
 10
68.0
 20
30.0
 30
0.0
  0
ENDBLK
  5
D6F2
330
D6E7
100
AcDbEntity
  8
0
100
AcDbBlockEnd
  0
BLOCK
  5
D6FF
330
D6F4
100
AcDbEntity
  8
0
100
AcDbBlockBegin
  2
*D68
 70
     1
 10
0.0
 20
0.0
 30
0.0
  3
*D68
  1

  0
LINE
  5
E3E9
330
D6F4
100
AcDbEntity
  8
30
 62
     0
370
    -2
100
AcDbLine
 10
61.49999999999977
 20
127.0
 30
0.0
 11
61.49999999999977
 21
29.5
 31
0.0
  0
LINE
  5
E3EA
330
D6F4
100
AcDbEntity
  8
30
 62
     0
370
    -2
100
AcDbLine
 10
68.0
 20
127.0
 30
0.0
 11
68.0
 21
29.5
 31
0.0
  0
LINE
  5
E3EB
330
D6F4
100
AcDbEntity
  8
30
 62
     0
370
    -2
100
AcDbLine
 10
59.49999999999977
 20
30.0
 30
0.0
 11
57.49999999999976
 21
30.0
 31
0.0
  0
LINE
  5
E3EC
330
D6F4
100
AcDbEntity
  8
30
 62
     0
370
    -2
100
AcDbLine
 10
70.0
 20
30.0
 30
0.0
 11
72.0
 21
30.0
 31
0.0
  0
MTEXT
  5
E3ED
330
D6F4
100
AcDbEntity
  8
30
 62
     0
100
AcDbMText
 10
53.0
 20
35.0
 30
0.0
 40
6.0
 41
0.0
 71
     5
 72
     1
  1
\A1;6.5
 73
     1
 44
1.0
1001
ACAD
1000
MTEXTBEGIN
1070
    73
1070
     1
1070
    44
1040
1.0
1070
    74
1070
     0
1000
MTEXTEND
  0
LINE
  5
E3EE
330
D6F4
100
AcDbEntity
  8
30
 62
     0
370
    -2
100
AcDbLine
 10
61.49999999999977
 20
30.0
 30
0.0
 11
68.0
 21
30.0
 31
0.0
  0
INSERT
  5
E3EF
330
D6F4
100
AcDbEntity
  8
30
 62
     0
370
    -2
100
AcDbBlockReference
  2
_OPEN
 10
61.49999999999977
 20
30.0
 30
0.0
 41
2.0
 42
2.0
 43
2.0
  0
INSERT
  5
E3F0
330
D6F4
100
AcDbEntity
  8
30
 62
     0
370
    -2
100
AcDbBlockReference
  2
_OPEN
 10
68.0
 20
30.0
 30
0.0
 41
2.0
 42
2.0
 43
2.0
 50
180.0
  0
POINT
  5
E3F1
330
D6F4
100
AcDbEntity
  8
DEFPOINTS
 62
     0
100
AcDbPoint
 10
61.49999999999977
 20
130.0
 30
0.0
  0
POINT
  5
E3F2
330
D6F4
100
AcDbEntity
  8
DEFPOINTS
 62
     0
100
AcDbPoint
 10
68.0
 20
130.0
 30
0.0
  0
POINT
  5
E3F3
330
D6F4
100
AcDbEntity
  8
DEFPOINTS
 62
     0
100
AcDbPoint
 10
68.0
 20
30.0
 30
0.0
  0
ENDBLK
  5
D700
330
D6F4
100
AcDbEntity
  8
0
100
AcDbBlockEnd
  0
BLOCK
  5
D92A
330
D920
100
AcDbEntity
  8
0
100
AcDbBlockBegin
  2
*D69
 70
     1
 10
0.0
 20
0.0
 30
0.0
  3
*D69
  1

  0
LINE
  5
E3F4
330
D920
100
AcDbEntity
  8
30
 62
     0
370
    -2
100
AcDbLine
 10
140.0
 20
67.0
 30
0.0
 11
140.0
 21
19.5
 31
0.0
  0
LINE
  5
E3F5
330
D920
100
AcDbEntity
  8
30
 62
     0
370
    -2
100
AcDbLine
 10
44.99999999999954
 20
149.5
 30
0.0
 11
44.99999999999952
 21
19.5
 31
0.0
  0
LINE
  5
E3F6
330
D920
100
AcDbEntity
  8
30
 62
     0
370
    -2
100
AcDbLine
 10
138.0
 20
20.0
 30
0.0
 11
46.99999999999953
 21
20.0
 31
0.0
  0
INSERT
  5
E3F7
330
D920
100
AcDbEntity
  8
30
 62
     0
370
    -2
100
AcDbBlockReference
  2
_OPEN
 10
140.0
 20
20.0
 30
0.0
 41
2.0
 42
2.0
 43
2.0
  0
INSERT
  5
E3F8
330
D920
100
AcDbEntity
  8
30
 62
     0
370
    -2
100
AcDbBlockReference
  2
_OPEN
 10
44.99999999999952
 20
20.0
 30
0.0
 41
2.0
 42
2.0
 43
2.0
 50
180.0
  0
MTEXT
  5
E3F9
330
D920
100
AcDbEntity
  8
30
 62
     0
100
AcDbMText
 10
92.49999999999976
 20
25.0
 30
0.0
 40
6.0
 41
0.0
 71
     5
 72
     1
  1
\A1;95
 73
     1
 44
1.0
1001
ACAD
1000
MTEXTBEGIN
1070
    73
1070
     1
1070
    44
1040
1.0
1070
    74
1070
     0
1000
MTEXTEND
  0
POINT
  5
E3FA
330
D920
100
AcDbEntity
  8
DEFPOINTS
 62
     0
100
AcDbPoint
 10
140.0
 20
70.0
 30
0.0
  0
POINT
  5
E3FB
330
D920
100
AcDbEntity
  8
DEFPOINTS
 62
     0
100
AcDbPoint
 10
44.99999999999954
 20
152.5
 30
0.0
  0
POINT
  5
E3FC
330
D920
100
AcDbEntity
  8
DEFPOINTS
 62
     0
100
AcDbPoint
 10
44.99999999999952
 20
20.0
 30
0.0
  0
ENDBLK
  5
D92B
330
D920
100
AcDbEntity
  8
0
100
AcDbBlockEnd
  0
BLOCK
  5
DB4D
330
DB43
100
AcDbEntity
  8
0
100
AcDbBlockBegin
  2
*D70
 70
     1
 10
0.0
 20
0.0
 30
0.0
  3
*D70
  1

  0
LINE
  5
EA3F
330
DB43
100
AcDbEntity
  8
30
 62
     0
370
    -2
100
AcDbLine
 10
-47.49999999999988
 20
462.9999999999998
 30
0.0
 11
-47.49999999999988
 21
470.5
 31
0.0
  0
LINE
  5
EA40
330
DB43
100
AcDbEntity
  8
30
 62
     0
370
    -2
100
AcDbLine
 10
-82.5
 20
467.9999999999998
 30
0.0
 11
-82.5
 21
470.5
 31
0.0
  0
LINE
  5
EA41
330
DB43
100
AcDbEntity
  8
30
 62
     0
370
    -2
100
AcDbLine
 10
-49.49999999999988
 20
470.0
 30
0.0
 11
-80.5
 21
470.0
 31
0.0
  0
INSERT
  5
EA42
330
DB43
100
AcDbEntity
  8
30
 62
     0
370
    -2
100
AcDbBlockReference
  2
_OPEN
 10
-47.49999999999988
 20
470.0
 30
0.0
 41
2.0
 42
2.0
 43
2.0
  0
INSERT
  5
EA43
330
DB43
100
AcDbEntity
  8
30
 62
     0
370
    -2
100
AcDbBlockReference
  2
_OPEN
 10
-82.5
 20
470.0
 30
0.0
 41
2.0
 42
2.0
 43
2.0
 50
180.0
  0
MTEXT
  5
EA44
330
DB43
100
AcDbEntity
  8
30
 62
     0
100
AcDbMText
 10
-64.99999999999992
 20
475.0
 30
0.0
 40
6.0
 41
0.0
 71
     5
 72
     1
  1
\A1;35
 73
     1
 44
1.0
1001
ACAD
1000
MTEXTBEGIN
1070
    73
1070
     1
1070
    44
1040
1.0
1070
    74
1070
     0
1000
MTEXTEND
  0
POINT
  5
EA45
330
DB43
100
AcDbEntity
  8
DEFPOINTS
 62
     0
100
AcDbPoint
 10
-47.49999999999988
 20
459.9999999999998
 30
0.0
  0
POINT
  5
EA46
330
DB43
100
AcDbEntity
  8
DEFPOINTS
 62
     0
100
AcDbPoint
 10
-82.5
 20
464.9999999999998
 30
0.0
  0
POINT
  5
EA47
330
DB43
100
AcDbEntity
  8
DEFPOINTS
 62
     0
100
AcDbPoint
 10
-82.5
 20
470.0
 30
0.0
  0
ENDBLK
  5
DB4E
330
DB43
100
AcDbEntity
  8
0
100
AcDbBlockEnd
  0
BLOCK
  5
DB63
330
DB59
100
AcDbEntity
  8
0
100
AcDbBlockBegin
  2
*D71
 70
     1
 10
0.0
 20
0.0
 30
0.0
  3
*D71
  1

  0
LINE
  5
EA48
330
DB59
100
AcDbEntity
  8
30
 62
     0
370
    -2
100
AcDbLine
 10
-82.5
 20
467.9999999999998
 30
0.0
 11
-82.5
 21
470.5
 31
0.0
  0
LINE
  5
EA49
330
DB59
100
AcDbEntity
  8
30
 62
     0
370
    -2
100
AcDbLine
 10
-117.5
 20
462.9999999999998
 30
0.0
 11
-117.5
 21
470.5
 31
0.0
  0
LINE
  5
EA4A
330
DB59
100
AcDbEntity
  8
30
 62
     0
370
    -2
100
AcDbLine
 10
-84.50000000000001
 20
470.0
 30
0.0
 11
-115.5
 21
470.0
 31
0.0
  0
INSERT
  5
EA4B
330
DB59
100
AcDbEntity
  8
30
 62
     0
370
    -2
100
AcDbBlockReference
  2
_OPEN
 10
-82.5
 20
470.0
 30
0.0
 41
2.0
 42
2.0
 43
2.0
  0
INSERT
  5
EA4C
330
DB59
100
AcDbEntity
  8
30
 62
     0
370
    -2
100
AcDbBlockReference
  2
_OPEN
 10
-117.5
 20
470.0
 30
0.0
 41
2.0
 42
2.0
 43
2.0
 50
180.0
  0
MTEXT
  5
EA4D
330
DB59
100
AcDbEntity
  8
30
 62
     0
100
AcDbMText
 10
-100.0
 20
475.0
 30
0.0
 40
6.0
 41
0.0
 71
     5
 72
     1
  1
\A1;35
 73
     1
 44
1.0
1001
ACAD
1000
MTEXTBEGIN
1070
    73
1070
     1
1070
    44
1040
1.0
1070
    74
1070
     0
1000
MTEXTEND
  0
POINT
  5
EA4E
330
DB59
100
AcDbEntity
  8
DEFPOINTS
 62
     0
100
AcDbPoint
 10
-82.5
 20
464.9999999999998
 30
0.0
  0
POINT
  5
EA4F
330
DB59
100
AcDbEntity
  8
DEFPOINTS
 62
     0
100
AcDbPoint
 10
-117.5
 20
459.9999999999998
 30
0.0
  0
POINT
  5
EA50
330
DB59
100
AcDbEntity
  8
DEFPOINTS
 62
     0
100
AcDbPoint
 10
-117.5
 20
470.0
 30
0.0
  0
ENDBLK
  5
DB64
330
DB59
100
AcDbEntity
  8
0
100
AcDbBlockEnd
  0
BLOCK
  5
E14E
330
E144
100
AcDbEntity
  8
0
100
AcDbBlockBegin
  2
*D72
 70
     1
 10
0.0
 20
0.0
 30
0.0
  3
*D72
  1

  0
LINE
  5
EA51
330
E144
100
AcDbEntity
  8
30
 62
     0
370
    -2
100
AcDbLine
 10
-108.4999999999995
 20
-39.50000000000017
 30
0.0
 11
-150.4999999999999
 21
-39.50000000000015
 31
0.0
  0
LINE
  5
EA52
330
E144
100
AcDbEntity
  8
30
 62
     0
370
    -2
100
AcDbLine
 10
-73.5
 20
-165.5
 30
0.0
 11
-150.5
 21
-165.5
 31
0.0
  0
LINE
  5
EA53
330
E144
100
AcDbEntity
  8
30
 62
     0
370
    -2
100
AcDbLine
 10
-149.9999999999999
 20
-41.50000000000015
 30
0.0
 11
-150.0
 21
-163.5
 31
0.0
  0
INSERT
  5
EA54
330
E144
100
AcDbEntity
  8
30
 62
     0
370
    -2
100
AcDbBlockReference
  2
_OPEN
 10
-149.9999999999999
 20
-39.50000000000015
 30
0.0
 41
2.0
 42
2.0
 43
2.0
 50
90.0
  0
INSERT
  5
EA55
330
E144
100
AcDbEntity
  8
30
 62
     0
370
    -2
100
AcDbBlockReference
  2
_OPEN
 10
-150.0
 20
-165.5
 30
0.0
 41
2.0
 42
2.0
 43
2.0
 50
270.0
  0
MTEXT
  5
EA56
330
E144
100
AcDbEntity
  8
30
 62
     0
100
AcDbMText
 10
-154.9999999999999
 20
-102.5000000000001
 30
0.0
 40
6.0
 41
0.0
 71
     5
 72
     1
  1
\A1;126
 11
0.0000000000000001
 21
1.0
 31
0.0
 73
     1
 44
1.0
1001
ACAD
1000
MTEXTBEGIN
1070
    73
1070
     1
1070
    44
1040
1.0
1070
    74
1070
     0
1000
MTEXTEND
  0
POINT
  5
EA57
330
E144
100
AcDbEntity
  8
DEFPOINTS
 62
     0
100
AcDbPoint
 10
-105.4999999999995
 20
-39.50000000000017
 30
0.0
  0
POINT
  5
EA58
330
E144
100
AcDbEntity
  8
DEFPOINTS
 62
     0
100
AcDbPoint
 10
-70.5
 20
-165.5
 30
0.0
  0
POINT
  5
EA59
330
E144
100
AcDbEntity
  8
DEFPOINTS
 62
     0
100
AcDbPoint
 10
-150.0
 20
-165.5
 30
0.0
  0
ENDBLK
  5
E14F
330
E144
100
AcDbEntity
  8
0
100
AcDbBlockEnd
  0
BLOCK
  5
E165
330
E15B
100
AcDbEntity
  8
0
100
AcDbBlockBegin
  2
*D73
 70
     1
 10
0.0
 20
0.0
 30
0.0
  3
*D73
  1

  0
LINE
  5
EA5A
330
E15B
100
AcDbEntity
  8
30
 62
     0
370
    -2
100
AcDbLine
 10
-100.0
 20
-48.00000000000017
 30
0.0
 11
-100.0
 21
-210.4999999999999
 31
0.0
  0
LINE
  5
EA5B
330
E15B
100
AcDbEntity
  8
30
 62
     0
370
    -2
100
AcDbLine
 10
-65.0
 20
-173.9999999999999
 30
0.0
 11
-65.0
 21
-210.4999999999999
 31
0.0
  0
LINE
  5
EA5C
330
E15B
100
AcDbEntity
  8
30
 62
     0
370
    -2
100
AcDbLine
 10
-98.00000000000002
 20
-210.0
 30
0.0
 11
-67.0
 21
-210.0
 31
0.0
  0
INSERT
  5
EA5D
330
E15B
100
AcDbEntity
  8
30
 62
     0
370
    -2
100
AcDbBlockReference
  2
_OPEN
 10
-100.0
 20
-210.0
 30
0.0
 41
2.0
 42
2.0
 43
2.0
 50
180.0
  0
INSERT
  5
EA5E
330
E15B
100
AcDbEntity
  8
30
 62
     0
370
    -2
100
AcDbBlockReference
  2
_OPEN
 10
-65.0
 20
-210.0
 30
0.0
 41
2.0
 42
2.0
 43
2.0
  0
MTEXT
  5
EA5F
330
E15B
100
AcDbEntity
  8
30
 62
     0
100
AcDbMText
 10
-82.5
 20
-205.0
 30
0.0
 40
6.0
 41
0.0
 71
     5
 72
     1
  1
\A1;35
 73
     1
 44
1.0
1001
ACAD
1000
MTEXTBEGIN
1070
    73
1070
     1
1070
    44
1040
1.0
1070
    74
1070
     0
1000
MTEXTEND
  0
POINT
  5
EA60
330
E15B
100
AcDbEntity
  8
DEFPOINTS
 62
     0
100
AcDbPoint
 10
-100.0
 20
-45.00000000000015
 30
0.0
  0
POINT
  5
EA61
330
E15B
100
AcDbEntity
  8
DEFPOINTS
 62
     0
100
AcDbPoint
 10
-65.0
 20
-170.9999999999999
 30
0.0
  0
POINT
  5
EA62
330
E15B
100
AcDbEntity
  8
DEFPOINTS
 62
     0
100
AcDbPoint
 10
-65.0
 20
-210.0
 30
0.0
  0
ENDBLK
  5
E166
330
E15B
100
AcDbEntity
  8
0
100
AcDbBlockEnd
  0
BLOCK
  5
E1D2
330
E1C9
100
AcDbEntity
  8
0
100
AcDbBlockBegin
  2
*D74
 70
     1
 10
0.0
 20
0.0
 30
0.0
  3
*D74
  1

  0
LINE
  5
E1CA
330
E1C9
100
AcDbEntity
  8
30
  6
Continuous
 62
     0
370
    -2
100
AcDbLine
 10
194.3823944854016
 20
209.573984239175
 30
0.0
 11
190.0849402228293
 21
212.1516110391325
 31
0.0
  0
LINE
  5
E1CB
330
E1C9
100
AcDbEntity
  8
30
  6
Continuous
 62
     0
370
    -2
100
AcDbLine
 10
188.3698054720386
 20
213.1803543436697
 30
0.0
 11
177.0
 21
220.0000000000001
 31
0.0
  0
LINE
  5
E1CC
330
E1C9
100
AcDbEntity
  8
30
  6
Continuous
 62
     0
370
    -2
100
AcDbLine
 10
177.0
 20
220.0000000000001
 30
0.0
 11
165.0
 21
220.0000000000001
 31
0.0
  0
INSERT
  5
E1CD
330
E1C9
100
AcDbEntity
  8
30
  6
Continuous
 62
     0
370
    -2
100
AcDbBlockReference
  2
_OPEN
 10
196.0975292361923
 20
208.5452409346377
 30
0.0
 41
2.0
 42
2.0
 43
2.0
 50
329.0445354063638
  0
INSERT
  5
E1CE
330
E1C9
100
AcDbEntity
  8
30
  6
Continuous
 62
     0
370
    -2
100
AcDbBlockReference
  2
_OPEN
 10
188.3698054720386
 20
213.1803543436697
 30
0.0
 41
2.0
 42
2.0
 43
2.0
 50
149.0445354063638
  0
MTEXT
  5
E1CF
102
{ACAD_XDICTIONARY
360
EC11
102
}
330
E1C9
100
AcDbEntity
  8
30
  6
Continuous
 62
     0
100
AcDbMText
 10
170.0
 20
225.0
 30
0.0
 40
6.0
 41
0.0
 71
     5
 72
     1
  1
\A1;\U+22059
 73
     1
 44
1.0
1001
ACAD
1000
MTEXTBEGIN
1070
    73
1070
     1
1070
    44
1040
1.0
1070
    74
1070
     0
1000
MTEXTEND
  0
POINT
  5
E1D0
330
E1C9
100
AcDbEntity
  8
DEFPOINTS
  6
Continuous
 62
     0
100
AcDbPoint
 10
188.3698054720386
 20
213.1803543436697
 30
0.0
  0
POINT
  5
E1D1
330
E1C9
100
AcDbEntity
  8
DEFPOINTS
  6
Continuous
 62
     0
100
AcDbPoint
 10
196.0975292361923
 20
208.5452409346377
 30
0.0
  0
ENDBLK
  5
E1D3
330
E1C9
100
AcDbEntity
  8
0
100
AcDbBlockEnd
  0
BLOCK
  5
E1D6
330
E1D4
100
AcDbEntity
  8
0
100
AcDbBlockBegin
  2
A$C30553972
 70
     0
 10
0.0
 20
0.0
 30
0.0
  3
A$C30553972
  1

  0
DIMENSION
  5
E1D5
330
E1D4
100
AcDbEntity
  8
30
  6
Continuous
100
AcDbDimension
  2
*D74
 10
3.597529236192315
 20
-2.157809532401926
 30
0.0
 11
-22.49999999999994
 21
9.296949532960383
 31
0.0
 12
-192.5
 22
-210.7030504670396
 32
0.0
 70
   131
 71
     5
 42
9.011214728861633
  3
STANDARD1
100
AcDbDiametricDimension
 15
-4.130194527961349
 25
2.47730387663006
 35
0.0
 40
0.0
  0
ENDBLK
  5
E1D7
330
E1D4
100
AcDbEntity
  8
0
100
AcDbBlockEnd
  0
BLOCK
  5
E1F2
330
E1E8
100
AcDbEntity
  8
0
100
AcDbBlockBegin
  2
*D76
 70
     1
 10
0.0
 20
0.0
 30
0.0
  3
*D76
  1

  0
LINE
  5
E439
330
E1E8
100
AcDbEntity
  8
30
 62
     0
370
    -2
100
AcDbLine
 10
115.9999999999995
 20
238.0
 30
0.0
 11
115.9999999999995
 21
245.5
 31
0.0
  0
LINE
  5
E43A
330
E1E8
100
AcDbEntity
  8
30
 62
     0
370
    -2
100
AcDbLine
 10
140.0
 20
238.0
 30
0.0
 11
140.0
 21
245.5
 31
0.0
  0
LINE
  5
E43B
330
E1E8
100
AcDbEntity
  8
30
 62
     0
370
    -2
100
AcDbLine
 10
117.9999999999995
 20
245.0
 30
0.0
 11
138.0
 21
245.0
 31
0.0
  0
INSERT
  5
E43C
330
E1E8
100
AcDbEntity
  8
30
 62
     0
370
    -2
100
AcDbBlockReference
  2
_OPEN
 10
115.9999999999995
 20
245.0
 30
0.0
 41
2.0
 42
2.0
 43
2.0
 50
180.0
  0
INSERT
  5
E43D
330
E1E8
100
AcDbEntity
  8
30
 62
     0
370
    -2
100
AcDbBlockReference
  2
_OPEN
 10
140.0
 20
245.0
 30
0.0
 41
2.0
 42
2.0
 43
2.0
  0
MTEXT
  5
E43E
330
E1E8
100
AcDbEntity
  8
30
 62
     0
100
AcDbMText
 10
127.9999999999997
 20
250.0
 30
0.0
 40
6.0
 41
0.0
 71
     5
 72
     1
  1
\A1;24
 73
     1
 44
1.0
1001
ACAD
1000
MTEXTBEGIN
1070
    73
1070
     1
1070
    44
1040
1.0
1070
    74
1070
     0
1000
MTEXTEND
  0
POINT
  5
E43F
330
E1E8
100
AcDbEntity
  8
DEFPOINTS
 62
     0
100
AcDbPoint
 10
115.9999999999995
 20
235.0
 30
0.0
  0
POINT
  5
E440
330
E1E8
100
AcDbEntity
  8
DEFPOINTS
 62
     0
100
AcDbPoint
 10
140.0
 20
235.0
 30
0.0
  0
POINT
  5
E441
330
E1E8
100
AcDbEntity
  8
DEFPOINTS
 62
     0
100
AcDbPoint
 10
140.0
 20
245.0
 30
0.0
  0
ENDBLK
  5
E1F3
330
E1E8
100
AcDbEntity
  8
0
100
AcDbBlockEnd
  0
BLOCK
  5
E23B
330
E231
100
AcDbEntity
  8
0
100
AcDbBlockBegin
  2
*D77
 70
     1
 10
0.0
 20
0.0
 30
0.0
  3
*D77
  1

  0
LINE
  5
E442
330
E231
100
AcDbEntity
  8
30
 62
     0
370
    -2
100
AcDbLine
 10
69.0
 20
203.4999999999997
 30
0.0
 11
19.50000000000002
 21
203.4999999999998
 31
0.0
  0
LINE
  5
E443
330
E231
100
AcDbEntity
  8
30
 62
     0
370
    -2
100
AcDbLine
 10
69.0
 20
101.5
 30
0.0
 11
19.5
 21
101.5
 31
0.0
  0
LINE
  5
E444
330
E231
100
AcDbEntity
  8
30
 62
     0
370
    -2
100
AcDbLine
 10
20.00000000000002
 20
201.4999999999998
 30
0.0
 11
20.0
 21
103.5
 31
0.0
  0
INSERT
  5
E445
330
E231
100
AcDbEntity
  8
30
 62
     0
370
    -2
100
AcDbBlockReference
  2
_OPEN
 10
20.00000000000002
 20
203.4999999999998
 30
0.0
 41
2.0
 42
2.0
 43
2.0
 50
90.0
  0
INSERT
  5
E446
330
E231
100
AcDbEntity
  8
30
 62
     0
370
    -2
100
AcDbBlockReference
  2
_OPEN
 10
20.0
 20
101.5
 30
0.0
 41
2.0
 42
2.0
 43
2.0
 50
270.0
  0
MTEXT
  5
E447
330
E231
100
AcDbEntity
  8
30
 62
     0
100
AcDbMText
 10
14.99999999999998
 20
152.4999999999999
 30
0.0
 40
6.0
 41
0.0
 71
     5
 72
     1
  1
\A1;102
 11
0.0000000000000001
 21
1.0
 31
0.0
 73
     1
 44
1.0
1001
ACAD
1000
MTEXTBEGIN
1070
    73
1070
     1
1070
    44
1040
1.0
1070
    74
1070
     0
1000
MTEXTEND
  0
POINT
  5
E448
330
E231
100
AcDbEntity
  8
DEFPOINTS
 62
     0
100
AcDbPoint
 10
72.0
 20
203.4999999999997
 30
0.0
  0
POINT
  5
E449
330
E231
100
AcDbEntity
  8
DEFPOINTS
 62
     0
100
AcDbPoint
 10
72.0
 20
101.5
 30
0.0
  0
POINT
  5
E44A
330
E231
100
AcDbEntity
  8
DEFPOINTS
 62
     0
100
AcDbPoint
 10
20.0
 20
101.5
 30
0.0
  0
ENDBLK
  5
E23C
330
E231
100
AcDbEntity
  8
0
100
AcDbBlockEnd
  0
BLOCK
  5
E247
330
E23D
100
AcDbEntity
  8
0
100
AcDbBlockBegin
  2
*D78
 70
     1
 10
0.0
 20
0.0
 30
0.0
  3
*D78
  1

  0
LINE
  5
E44B
330
E23D
100
AcDbEntity
  8
30
 62
     0
370
    -2
100
AcDbLine
 10
65.0
 20
177.5
 30
0.0
 11
29.50000000000001
 21
177.5
 31
0.0
  0
LINE
  5
E44C
330
E23D
100
AcDbEntity
  8
30
 62
     0
370
    -2
100
AcDbLine
 10
65.0
 20
127.5
 30
0.0
 11
29.5
 21
127.5
 31
0.0
  0
LINE
  5
E44D
330
E23D
100
AcDbEntity
  8
30
 62
     0
370
    -2
100
AcDbLine
 10
30.00000000000001
 20
175.5
 30
0.0
 11
30.0
 21
129.4999999999999
 31
0.0
  0
INSERT
  5
E44E
330
E23D
100
AcDbEntity
  8
30
 62
     0
370
    -2
100
AcDbBlockReference
  2
_OPEN
 10
30.00000000000001
 20
177.5
 30
0.0
 41
2.0
 42
2.0
 43
2.0
 50
90.0
  0
INSERT
  5
E44F
330
E23D
100
AcDbEntity
  8
30
 62
     0
370
    -2
100
AcDbBlockReference
  2
_OPEN
 10
30.0
 20
127.5
 30
0.0
 41
2.0
 42
2.0
 43
2.0
 50
270.0
  0
MTEXT
  5
E450
330
E23D
100
AcDbEntity
  8
30
 62
     0
100
AcDbMText
 10
24.99999999999998
 20
152.5
 30
0.0
 40
6.0
 41
0.0
 71
     5
 72
     1
  1
\A1;50
 11
0.0000000000000001
 21
1.0
 31
0.0
 73
     1
 44
1.0
1001
ACAD
1000
MTEXTBEGIN
1070
    73
1070
     1
1070
    44
1040
1.0
1070
    74
1070
     0
1000
MTEXTEND
  0
POINT
  5
E451
330
E23D
100
AcDbEntity
  8
DEFPOINTS
 62
     0
100
AcDbPoint
 10
68.0
 20
177.5
 30
0.0
  0
POINT
  5
E452
330
E23D
100
AcDbEntity
  8
DEFPOINTS
 62
     0
100
AcDbPoint
 10
68.0
 20
127.5
 30
0.0
  0
POINT
  5
E453
330
E23D
100
AcDbEntity
  8
DEFPOINTS
 62
     0
100
AcDbPoint
 10
30.0
 20
127.5
 30
0.0
  0
ENDBLK
  5
E248
330
E23D
100
AcDbEntity
  8
0
100
AcDbBlockEnd
  0
BLOCK
  5
E253
330
E249
100
AcDbEntity
  8
0
100
AcDbBlockBegin
  2
*D79
 70
     1
 10
0.0
 20
0.0
 30
0.0
  3
*D79
  1

  0
LINE
  5
E454
330
E249
100
AcDbEntity
  8
30
 62
     0
370
    -2
100
AcDbLine
 10
58.49999999999977
 20
175.0
 30
0.0
 11
39.50000000000001
 21
175.0
 31
0.0
  0
LINE
  5
E455
330
E249
100
AcDbEntity
  8
30
 62
     0
370
    -2
100
AcDbLine
 10
58.49999999999977
 20
130.0
 30
0.0
 11
39.5
 21
130.0
 31
0.0
  0
LINE
  5
E456
330
E249
100
AcDbEntity
  8
30
 62
     0
370
    -2
100
AcDbLine
 10
40.0
 20
173.0
 30
0.0
 11
40.0
 21
132.0
 31
0.0
  0
INSERT
  5
E457
330
E249
100
AcDbEntity
  8
30
 62
     0
370
    -2
100
AcDbBlockReference
  2
_OPEN
 10
40.0
 20
175.0
 30
0.0
 41
2.0
 42
2.0
 43
2.0
 50
90.0
  0
INSERT
  5
E458
330
E249
100
AcDbEntity
  8
30
 62
     0
370
    -2
100
AcDbBlockReference
  2
_OPEN
 10
40.0
 20
130.0
 30
0.0
 41
2.0
 42
2.0
 43
2.0
 50
270.0
  0
MTEXT
  5
E459
330
E249
100
AcDbEntity
  8
30
 62
     0
100
AcDbMText
 10
34.99999999999998
 20
152.5
 30
0.0
 40
6.0
 41
0.0
 71
     5
 72
     1
  1
\A1;45
 11
0.0000000000000001
 21
1.0
 31
0.0
 73
     1
 44
1.0
1001
ACAD
1000
MTEXTBEGIN
1070
    73
1070
     1
1070
    44
1040
1.0
1070
    74
1070
     0
1000
MTEXTEND
  0
POINT
  5
E45A
330
E249
100
AcDbEntity
  8
DEFPOINTS
 62
     0
100
AcDbPoint
 10
61.49999999999977
 20
175.0
 30
0.0
  0
POINT
  5
E45B
330
E249
100
AcDbEntity
  8
DEFPOINTS
 62
     0
100
AcDbPoint
 10
61.49999999999977
 20
130.0
 30
0.0
  0
POINT
  5
E45C
330
E249
100
AcDbEntity
  8
DEFPOINTS
 62
     0
100
AcDbPoint
 10
40.0
 20
130.0
 30
0.0
  0
ENDBLK
  5
E254
330
E249
100
AcDbEntity
  8
0
100
AcDbBlockEnd
  0
BLOCK
  5
E5A2
330
E5A1
100
AcDbEntity
  8
0
100
AcDbBlockBegin
  2
*D80
 70
     1
 10
0.0
 20
0.0
 30
0.0
  3
*D80
  1

  0
LINE
  5
E5AD
330
E5A1
100
AcDbEntity
  8
30
 62
     0
370
    -2
100
AcDbLine
 10
102.4999999999999
 20
-7.000000000000007
 30
0.0
 11
102.4999999999999
 21
-9.500000000000008
 31
0.0
  0
LINE
  5
E5AE
330
E5A1
100
AcDbEntity
  8
30
 62
     0
370
    -2
100
AcDbLine
 10
50.0
 20
-17.0
 30
0.0
 11
50.0
 21
-9.500000000000008
 31
0.0
  0
LINE
  5
E5AF
330
E5A1
100
AcDbEntity
  8
30
 62
     0
370
    -2
100
AcDbLine
 10
100.5
 20
-10.0
 30
0.0
 11
52.0
 21
-10.0
 31
0.0
  0
INSERT
  5
E5B0
330
E5A1
100
AcDbEntity
  8
30
 62
     0
370
    -2
100
AcDbBlockReference
  2
_OPEN
 10
102.4999999999999
 20
-10.0
 30
0.0
 41
2.0
 42
2.0
 43
2.0
  0
INSERT
  5
E5B1
330
E5A1
100
AcDbEntity
  8
30
 62
     0
370
    -2
100
AcDbBlockReference
  2
_OPEN
 10
50.0
 20
-10.0
 30
0.0
 41
2.0
 42
2.0
 43
2.0
 50
180.0
  0
MTEXT
  5
E5B2
330
E5A1
100
AcDbEntity
  8
30
 62
     0
100
AcDbMText
 10
76.25
 20
-5.000000000000006
 30
0.0
 40
6.0
 41
0.0
 71
     5
 72
     1
  1
\A1;52.5
 73
     1
 44
1.0
1001
ACAD
1000
MTEXTBEGIN
1070
    73
1070
     1
1070
    44
1040
1.0
1070
    74
1070
     0
1000
MTEXTEND
  0
POINT
  5
E5B3
330
E5A1
100
AcDbEntity
  8
DEFPOINTS
 62
     0
100
AcDbPoint
 10
102.4999999999999
 20
-10.0
 30
0.0
  0
POINT
  5
E5B4
330
E5A1
100
AcDbEntity
  8
DEFPOINTS
 62
     0
100
AcDbPoint
 10
50.0
 20
-20.0
 30
0.0
  0
POINT
  5
E5B5
330
E5A1
100
AcDbEntity
  8
DEFPOINTS
 62
     0
100
AcDbPoint
 10
50.0
 20
-10.0
 30
0.0
  0
ENDBLK
  5
E5A3
330
E5A1
100
AcDbEntity
  8
0
100
AcDbBlockEnd
  0
BLOCK
  5
E600
330
E5FD
100
AcDbEntity
  8
0
100
AcDbBlockBegin
  2
A$C09A314A1
 70
     0
 10
0.0
 20
0.0
 30
0.0
  3
A$C09A314A1
  1

  0
LWPOLYLINE
  5
E5FE
330
E5FD
100
AcDbEntity
  8
10
100
AcDbPolyline
 90
       10
 70
     0
 43
0.0
 10
49.00000312499992
 20
-26.0
 10
-48.99999687500008
 20
-26.00000000000011
 42
-0.4142135623730951
 10
-49.99999687500007
 20
-25.00000000000011
 10
-50.00000312499992
 20
25.00000000000034
 42
-0.4142135623730951
 10
-49.00000312499969
 20
26.00000000000034
 10
48.99999687500008
 20
26.00000000000045
 42
-0.4142135623730951
 10
49.99999687500007
 20
25.00000000000023
 10
50.00000312499992
 20
-25.0
 42
-0.4142135623730951
 10
49.00000312499992
 20
-26.0
 10
49.00000312499992
 20
-26.0
  0
ENDBLK
  5
E601
330
E5FD
100
AcDbEntity
  8
0
100
AcDbBlockEnd
  0
BLOCK
  5
E8C6
330
E8C5
100
AcDbEntity
  8
0
100
AcDbBlockBegin
  2
*D82
 70
     1
 10
0.0
 20
0.0
 30
0.0
  3
*D82
  1

  0
LINE
  5
E8D1
330
E8C5
100
AcDbEntity
  8
30
 62
     0
370
    -2
100
AcDbLine
 10
201.75
 20
211.0000000000002
 30
0.0
 11
220.5
 21
211.0000000000002
 31
0.0
  0
LINE
  5
E8D2
330
E8C5
100
AcDbEntity
  8
30
 62
     0
370
    -2
100
AcDbLine
 10
208.0
 20
200.0
 30
0.0
 11
220.5
 21
200.0
 31
0.0
  0
LINE
  5
E8D3
330
E8C5
100
AcDbEntity
  8
30
 62
     0
370
    -2
100
AcDbLine
 10
220.0
 20
209.0000000000002
 30
0.0
 11
220.0
 21
202.0
 31
0.0
  0
INSERT
  5
E8D4
330
E8C5
100
AcDbEntity
  8
30
 62
     0
370
    -2
100
AcDbBlockReference
  2
_OPEN
 10
220.0
 20
211.0000000000002
 30
0.0
 41
2.0
 42
2.0
 43
2.0
 50
90.0
  0
INSERT
  5
E8D5
330
E8C5
100
AcDbEntity
  8
30
 62
     0
370
    -2
100
AcDbBlockReference
  2
_OPEN
 10
220.0
 20
200.0
 30
0.0
 41
2.0
 42
2.0
 43
2.0
 50
270.0
  0
MTEXT
  5
E8D6
330
E8C5
100
AcDbEntity
  8
30
 62
     0
100
AcDbMText
 10
214.9999999999999
 20
205.5000000000001
 30
0.0
 40
6.0
 41
0.0
 71
     5
 72
     1
  1
\A1;11
 11
0.0000000000000001
 21
1.0
 31
0.0
 73
     1
 44
1.0
1001
ACAD
1000
MTEXTBEGIN
1070
    73
1070
     1
1070
    44
1040
1.0
1070
    74
1070
     0
1000
MTEXTEND
  0
POINT
  5
E8D7
330
E8C5
100
AcDbEntity
  8
DEFPOINTS
 62
     0
100
AcDbPoint
 10
198.75
 20
211.0000000000002
 30
0.0
  0
POINT
  5
E8D8
330
E8C5
100
AcDbEntity
  8
DEFPOINTS
 62
     0
100
AcDbPoint
 10
205.0
 20
200.0
 30
0.0
  0
POINT
  5
E8D9
330
E8C5
100
AcDbEntity
  8
DEFPOINTS
 62
     0
100
AcDbPoint
 10
220.0
 20
200.0
 30
0.0
  0
ENDBLK
  5
E8C7
330
E8C5
100
AcDbEntity
  8
0
100
AcDbBlockEnd
  0
BLOCK
  5
EB05
330
EAFE
100
AcDbEntity
  8
0
100
AcDbBlockBegin
  2
*D83
 70
     1
 10
0.0
 20
0.0
 30
0.0
  3
*D83
  1

  0
LINE
  5
EAFF
330
EAFE
100
AcDbEntity
  8
30
  6
Continuous
 62
     0
370
    -2
100
AcDbLine
 10
55.91365406044488
 20
-75.71835074257085
 30
0.0
 11
67.17737300918783
 21
-67.40398754123489
 31
0.0
  0
LINE
  5
EB00
330
EAFE
100
AcDbEntity
  8
30
  6
Continuous
 62
     0
370
    -2
100
AcDbLine
 10
53.49999999999997
 20
-77.49999999999996
 30
0.0
 11
54.30455135348161
 21
-76.90611691419025
 31
0.0
  0
INSERT
  5
EB01
330
EAFE
100
AcDbEntity
  8
30
  6
Continuous
 62
     0
370
    -2
100
AcDbBlockReference
  2
_OPEN
 10
54.30455135348161
 20
-76.90611691419025
 30
0.0
 41
2.0
 42
2.0
 43
2.0
 50
216.433050712671
  0
MTEXT
  5
EB02
330
EAFE
100
AcDbEntity
  8
30
  6
Continuous
 62
     0
100
AcDbMText
 10
59.38064945924946
 20
-66.94452928868496
 30
0.0
 40
6.0
 41
0.0
 71
     5
 72
     1
  1
\A1;R1
 11
0.8045513534816389
 21
0.5938830858097099
 31
0.0
 73
     1
 44
1.0
1001
ACAD
1000
MTEXTBEGIN
1070
    73
1070
     1
1070
    44
1040
1.0
1070
    74
1070
     0
1000
MTEXTEND
  0
POINT
  5
EB03
330
EAFE
100
AcDbEntity
  8
DEFPOINTS
  6
Continuous
 62
     0
100
AcDbPoint
 10
54.30455135348161
 20
-76.90611691419025
 30
0.0
  0
POINT
  5
EB04
330
EAFE
100
AcDbEntity
  8
DEFPOINTS
  6
Continuous
 62
     0
100
AcDbPoint
 10
53.49999999999997
 20
-77.49999999999996
 30
0.0
  0
ENDBLK
  5
EB06
330
EAFE
100
AcDbEntity
  8
0
100
AcDbBlockEnd
  0
BLOCK
  5
EB11
330
EB07
100
AcDbEntity
  8
0
100
AcDbBlockBegin
  2
*D84
 70
     1
 10
0.0
 20
0.0
 30
0.0
  3
*D84
  1

  0
LINE
  5
EB08
330
EB07
100
AcDbEntity
  8
30
 62
     0
370
    -2
100
AcDbLine
 10
52.5
 20
-130.4999999999999
 30
0.0
 11
52.5
 21
-210.4999999999999
 31
0.0
  0
LINE
  5
EB09
330
EB07
100
AcDbEntity
  8
30
 62
     0
370
    -2
100
AcDbLine
 10
152.5
 20
-130.4999999999999
 30
0.0
 11
152.5
 21
-210.4999999999999
 31
0.0
  0
LINE
  5
EB0A
330
EB07
100
AcDbEntity
  8
30
 62
     0
370
    -2
100
AcDbLine
 10
54.49999999999999
 20
-210.0
 30
0.0
 11
150.5
 21
-210.0
 31
0.0
  0
INSERT
  5
EB0B
330
EB07
100
AcDbEntity
  8
30
 62
     0
370
    -2
100
AcDbBlockReference
  2
_OPEN
 10
52.5
 20
-210.0
 30
0.0
 41
2.0
 42
2.0
 43
2.0
 50
180.0
  0
INSERT
  5
EB0C
330
EB07
100
AcDbEntity
  8
30
 62
     0
370
    -2
100
AcDbBlockReference
  2
_OPEN
 10
152.5
 20
-210.0
 30
0.0
 41
2.0
 42
2.0
 43
2.0
  0
MTEXT
  5
EB0D
330
EB07
100
AcDbEntity
  8
30
 62
     0
100
AcDbMText
 10
102.4999999999999
 20
-205.0
 30
0.0
 40
6.0
 41
0.0
 71
     5
 72
     1
  1
\A1;100
 73
     1
 44
1.0
1001
ACAD
1000
MTEXTBEGIN
1070
    73
1070
     1
1070
    44
1040
1.0
1070
    74
1070
     0
1000
MTEXTEND
  0
POINT
  5
EB0E
330
EB07
100
AcDbEntity
  8
DEFPOINTS
 62
     0
100
AcDbPoint
 10
52.5
 20
-127.5
 30
0.0
  0
POINT
  5
EB0F
330
EB07
100
AcDbEntity
  8
DEFPOINTS
 62
     0
100
AcDbPoint
 10
152.5
 20
-127.5
 30
0.0
  0
POINT
  5
EB10
330
EB07
100
AcDbEntity
  8
DEFPOINTS
 62
     0
100
AcDbPoint
 10
152.5
 20
-210.0
 30
0.0
  0
ENDBLK
  5
EB12
330
EB07
100
AcDbEntity
  8
0
100
AcDbBlockEnd
  0
BLOCK
  5
EB1D
330
EB13
100
AcDbEntity
  8
0
100
AcDbBlockBegin
  2
*D85
 70
     1
 10
0.0
 20
0.0
 30
0.0
  3
*D85
  1

  0
LINE
  5
EB14
330
EB13
100
AcDbEntity
  8
30
 62
     0
370
    -2
100
AcDbLine
 10
50.5
 20
-76.49999999999997
 30
0.0
 11
39.50000000000001
 21
-76.49999999999997
 31
0.0
  0
LINE
  5
EB15
330
EB13
100
AcDbEntity
  8
30
 62
     0
370
    -2
100
AcDbLine
 10
50.5
 20
-128.4999999999999
 30
0.0
 11
39.5
 21
-128.4999999999999
 31
0.0
  0
LINE
  5
EB16
330
EB13
100
AcDbEntity
  8
30
 62
     0
370
    -2
100
AcDbLine
 10
40.0
 20
-78.49999999999997
 30
0.0
 11
40.0
 21
-126.5
 31
0.0
  0
INSERT
  5
EB17
330
EB13
100
AcDbEntity
  8
30
 62
     0
370
    -2
100
AcDbBlockReference
  2
_OPEN
 10
40.0
 20
-76.49999999999997
 30
0.0
 41
2.0
 42
2.0
 43
2.0
 50
90.0
  0
INSERT
  5
EB18
330
EB13
100
AcDbEntity
  8
30
 62
     0
370
    -2
100
AcDbBlockReference
  2
_OPEN
 10
40.0
 20
-128.4999999999999
 30
0.0
 41
2.0
 42
2.0
 43
2.0
 50
270.0
  0
MTEXT
  5
EB19
330
EB13
100
AcDbEntity
  8
30
 62
     0
100
AcDbMText
 10
35.00000000000002
 20
-102.4999999999999
 30
0.0
 40
6.0
 41
0.0
 71
     5
 72
     1
  1
\A1;52
 11
0.0000000000000001
 21
1.0
 31
0.0
 73
     1
 44
1.0
1001
ACAD
1000
MTEXTBEGIN
1070
    73
1070
     1
1070
    44
1040
1.0
1070
    74
1070
     0
1000
MTEXTEND
  0
POINT
  5
EB1A
330
EB13
100
AcDbEntity
  8
DEFPOINTS
 62
     0
100
AcDbPoint
 10
53.5
 20
-76.49999999999997
 30
0.0
  0
POINT
  5
EB1B
330
EB13
100
AcDbEntity
  8
DEFPOINTS
 62
     0
100
AcDbPoint
 10
53.5
 20
-128.4999999999999
 30
0.0
  0
POINT
  5
EB1C
330
EB13
100
AcDbEntity
  8
DEFPOINTS
 62
     0
100
AcDbPoint
 10
40.0
 20
-128.4999999999999
 30
0.0
  0
ENDBLK
  5
EB1E
330
EB13
100
AcDbEntity
  8
0
100
AcDbBlockEnd
  0
BLOCK
  5
EB24
330
EB1F
100
AcDbEntity
  8
0
100
AcDbBlockBegin
  2
A$C633A549A
 70
     0
 10
0.0
 20
0.0
 30
0.0
  3
A$C633A549A
  1

  0
LWPOLYLINE
  5
EB20
330
EB1F
100
AcDbEntity
  8
10
100
AcDbPolyline
 90
        8
 70
     1
 43
0.0
 10
3.5
 20
26.00000000000003
 10
101.5
 20
26.0
 42
-0.4142135623730951
 10
102.4999999999999
 20
25.0
 10
102.4999999999999
 20
-25.0
 42
-0.4142135623730951
 10
101.5
 20
-26.0
 10
3.5
 20
-26.0
 42
-0.4142135623730951
 10
2.5
 20
-25.0
 10
2.5
 20
25.00000000000003
 42
-0.4142135623730951
  0
DIMENSION
  5
EB21
330
EB1F
100
AcDbEntity
  8
30
  6
Continuous
100
AcDbDimension
  2
*D83
 10
3.499999999999977
 20
25.00000000000004
 30
0.0
 11
12.350064888298
 21
31.53271394390684
 31
0.0
 12
-50.0
 22
102.4999999999999
 32
0.0
 70
   132
 71
     5
 42
0.9999999999999927
  3
STANDARD1
100
AcDbRadialDimension
 15
4.304551353481606
 25
25.59388308580975
 35
0.0
 40
0.0
  0
DIMENSION
  5
EB22
330
EB1F
100
AcDbEntity
  8
30
100
AcDbDimension
  2
*D84
 10
102.4999999999999
 20
-107.4999999999999
 30
0.0
 11
52.5
 21
-102.4999999999999
 31
0.0
 12
-50.0
 22
102.4999999999999
 32
0.0
 71
     5
 42
100.0
  3
STANDARD1
100
AcDbAlignedDimension
 13
2.5
 23
-25.0
 33
0.0
 14
102.4999999999999
 24
-25.0
 34
0.0
100
AcDbRotatedDimension
  0
DIMENSION
  5
EB23
330
EB1F
100
AcDbEntity
  8
30
100
AcDbDimension
  2
*D85
 10
-10.0
 20
-26.0
 30
0.0
 11
-14.99999999999998
 21
0.0000000000000284
 31
0.0
 12
-50.0
 22
102.4999999999999
 32
0.0
 71
     5
 42
52.00000000000003
  3
STANDARD1
100
AcDbAlignedDimension
 13
3.5
 23
26.00000000000003
 33
0.0
 14
3.5
 24
-26.0
 34
0.0
 50
90.0
100
AcDbRotatedDimension
  0
ENDBLK
  5
EB25
330
EB1F
100
AcDbEntity
  8
0
100
AcDbBlockEnd
  0
BLOCK
  5
EB5A
330
EB53
100
AcDbEntity
  8
0
100
AcDbBlockBegin
  2
*D87
 70
     1
 10
0.0
 20
0.0
 30
0.0
  3
*D87
  1

  0
LINE
  5
EB74
330
EB53
100
AcDbEntity
  8
30
  6
Continuous
 62
     0
370
    -2
100
AcDbLine
 10
55.91365406044488
 20
-75.71835074257085
 30
0.0
 11
67.17737300918781
 21
-67.40398754123489
 31
0.0
  0
LINE
  5
EB75
330
EB53
100
AcDbEntity
  8
30
  6
Continuous
 62
     0
370
    -2
100
AcDbLine
 10
53.49999999999997
 20
-77.49999999999997
 30
0.0
 11
54.30455135348161
 21
-76.90611691419026
 31
0.0
  0
INSERT
  5
EB76
330
EB53
100
AcDbEntity
  8
30
  6
Continuous
 62
     0
370
    -2
100
AcDbBlockReference
  2
_OPEN
 10
54.30455135348161
 20
-76.90611691419026
 30
0.0
 41
2.0
 42
2.0
 43
2.0
 50
216.433050712671
  0
MTEXT
  5
EB77
330
EB53
100
AcDbEntity
  8
30
  6
Continuous
 62
     0
100
AcDbMText
 10
59.38064945924945
 20
-66.94452928868496
 30
0.0
 40
6.0
 41
0.0
 71
     5
 72
     1
  1
\A1;R1
 11
0.8045513534816389
 21
0.5938830858097099
 31
0.0
 73
     1
 44
1.0
1001
ACAD
1000
MTEXTBEGIN
1070
    73
1070
     1
1070
    44
1040
1.0
1070
    74
1070
     0
1000
MTEXTEND
  0
POINT
  5
EB78
330
EB53
100
AcDbEntity
  8
DEFPOINTS
  6
Continuous
 62
     0
100
AcDbPoint
 10
54.30455135348161
 20
-76.90611691419026
 30
0.0
  0
POINT
  5
EB79
330
EB53
100
AcDbEntity
  8
DEFPOINTS
  6
Continuous
 62
     0
100
AcDbPoint
 10
53.49999999999997
 20
-77.49999999999997
 30
0.0
  0
ENDBLK
  5
EB5B
330
EB53
100
AcDbEntity
  8
0
100
AcDbBlockEnd
  0
BLOCK
  5
EB66
330
EB5C
100
AcDbEntity
  8
0
100
AcDbBlockBegin
  2
*D88
 70
     1
 10
0.0
 20
0.0
 30
0.0
  3
*D88
  1

  0
LINE
  5
EB7A
330
EB5C
100
AcDbEntity
  8
30
 62
     0
370
    -2
100
AcDbLine
 10
52.5
 20
-130.4999999999999
 30
0.0
 11
52.5
 21
-210.4999999999999
 31
0.0
  0
LINE
  5
EB7B
330
EB5C
100
AcDbEntity
  8
30
 62
     0
370
    -2
100
AcDbLine
 10
152.5
 20
-130.4999999999999
 30
0.0
 11
152.5
 21
-210.4999999999999
 31
0.0
  0
LINE
  5
EB7C
330
EB5C
100
AcDbEntity
  8
30
 62
     0
370
    -2
100
AcDbLine
 10
54.49999999999999
 20
-210.0
 30
0.0
 11
150.5
 21
-210.0
 31
0.0
  0
INSERT
  5
EB7D
330
EB5C
100
AcDbEntity
  8
30
 62
     0
370
    -2
100
AcDbBlockReference
  2
_OPEN
 10
52.5
 20
-210.0
 30
0.0
 41
2.0
 42
2.0
 43
2.0
 50
180.0
  0
INSERT
  5
EB7E
330
EB5C
100
AcDbEntity
  8
30
 62
     0
370
    -2
100
AcDbBlockReference
  2
_OPEN
 10
152.5
 20
-210.0
 30
0.0
 41
2.0
 42
2.0
 43
2.0
  0
MTEXT
  5
EB7F
330
EB5C
100
AcDbEntity
  8
30
 62
     0
100
AcDbMText
 10
102.4999999999999
 20
-205.0
 30
0.0
 40
6.0
 41
0.0
 71
     5
 72
     1
  1
\A1;100
 73
     1
 44
1.0
1001
ACAD
1000
MTEXTBEGIN
1070
    73
1070
     1
1070
    44
1040
1.0
1070
    74
1070
     0
1000
MTEXTEND
  0
POINT
  5
EB80
330
EB5C
100
AcDbEntity
  8
DEFPOINTS
 62
     0
100
AcDbPoint
 10
52.5
 20
-127.5
 30
0.0
  0
POINT
  5
EB81
330
EB5C
100
AcDbEntity
  8
DEFPOINTS
 62
     0
100
AcDbPoint
 10
152.5
 20
-127.5
 30
0.0
  0
POINT
  5
EB82
330
EB5C
100
AcDbEntity
  8
DEFPOINTS
 62
     0
100
AcDbPoint
 10
152.5
 20
-210.0
 30
0.0
  0
ENDBLK
  5
EB67
330
EB5C
100
AcDbEntity
  8
0
100
AcDbBlockEnd
  0
BLOCK
  5
EB72
330
EB68
100
AcDbEntity
  8
0
100
AcDbBlockBegin
  2
*D89
 70
     1
 10
0.0
 20
0.0
 30
0.0
  3
*D89
  1

  0
LINE
  5
EB83
330
EB68
100
AcDbEntity
  8
30
 62
     0
370
    -2
100
AcDbLine
 10
50.5
 20
-76.49999999999997
 30
0.0
 11
39.50000000000001
 21
-76.49999999999997
 31
0.0
  0
LINE
  5
EB84
330
EB68
100
AcDbEntity
  8
30
 62
     0
370
    -2
100
AcDbLine
 10
50.5
 20
-128.4999999999999
 30
0.0
 11
39.5
 21
-128.4999999999999
 31
0.0
  0
LINE
  5
EB85
330
EB68
100
AcDbEntity
  8
30
 62
     0
370
    -2
100
AcDbLine
 10
40.0
 20
-78.49999999999997
 30
0.0
 11
40.0
 21
-126.5
 31
0.0
  0
INSERT
  5
EB86
330
EB68
100
AcDbEntity
  8
30
 62
     0
370
    -2
100
AcDbBlockReference
  2
_OPEN
 10
40.0
 20
-76.49999999999997
 30
0.0
 41
2.0
 42
2.0
 43
2.0
 50
90.0
  0
INSERT
  5
EB87
330
EB68
100
AcDbEntity
  8
30
 62
     0
370
    -2
100
AcDbBlockReference
  2
_OPEN
 10
40.0
 20
-128.4999999999999
 30
0.0
 41
2.0
 42
2.0
 43
2.0
 50
270.0
  0
MTEXT
  5
EB88
330
EB68
100
AcDbEntity
  8
30
 62
     0
100
AcDbMText
 10
35.00000000000002
 20
-102.4999999999999
 30
0.0
 40
6.0
 41
0.0
 71
     5
 72
     1
  1
\A1;52
 11
0.0000000000000001
 21
1.0
 31
0.0
 73
     1
 44
1.0
1001
ACAD
1000
MTEXTBEGIN
1070
    73
1070
     1
1070
    44
1040
1.0
1070
    74
1070
     0
1000
MTEXTEND
  0
POINT
  5
EB89
330
EB68
100
AcDbEntity
  8
DEFPOINTS
 62
     0
100
AcDbPoint
 10
53.5
 20
-76.49999999999997
 30
0.0
  0
POINT
  5
EB8A
330
EB68
100
AcDbEntity
  8
DEFPOINTS
 62
     0
100
AcDbPoint
 10
53.5
 20
-128.4999999999999
 30
0.0
  0
POINT
  5
EB8B
330
EB68
100
AcDbEntity
  8
DEFPOINTS
 62
     0
100
AcDbPoint
 10
40.0
 20
-128.4999999999999
 30
0.0
  0
ENDBLK
  5
EB73
330
EB68
100
AcDbEntity
  8
0
100
AcDbBlockEnd
  0
ENDSEC
  0
SECTION
  2
ENTITIES
  0
MTEXT
  5
BF3
330
1E
100
AcDbEntity
  8
24
  6
Continuous
100
AcDbMText
 10
-986.0751011837496
 20
175.9536871838474
 30
0.0
 40
3.0
 41
0.0
 71
     1
 72
     1
  1
\A1;
 73
     1
 44
1.0
1001
ACAD
1000
MTEXTBEGIN
1070
    73
1070
     1
1070
    44
1040
1.0
1070
    74
1070
     0
1000
MTEXTEND
  0
MTEXT
  5
5C78
330
1E
100
AcDbEntity
  8
30
  6
Continuous
100
AcDbMText
 10
-964.7274327904421
 20
88.60394432911169
 30
0.0
 40
4.0
 41
0.0
 71
     9
 72
     1
  1

 73
     1
 44
1.0
1001
ACAD
1000
MTEXTBEGIN
1070
    73
1070
     1
1070
    44
1040
1.0
1070
    74
1070
     0
1000
MTEXTEND
  0
MTEXT
  5
6200
330
1E
100
AcDbEntity
  8
30
  6
Continuous
100
AcDbMText
 10
-966.4281910258107
 20
90.84374479521404
 30
0.0
 40
4.0
 41
0.0
 71
     9
 72
     1
  1

 73
     1
 44
1.0
1001
ACAD
1000
MTEXTBEGIN
1070
    73
1070
     1
1070
    44
1040
1.0
1070
    74
1070
     0
1000
MTEXTEND
  0
MTEXT
  5
7CA7
330
1E
100
AcDbEntity
  8
30
  6
Continuous
100
AcDbMText
 10
-916.1885499888967
 20
139.1276210998601
 30
0.0
 40
4.0
 41
0.0
 71
     9
 72
     1
  1
\A1;
 73
     1
 44
1.0
1001
ACAD
1000
MTEXTBEGIN
1070
    73
1070
     1
1070
    44
1040
1.0
1070
    74
1070
     0
1000
MTEXTEND
  0
MTEXT
  5
7CA9
330
1E
100
AcDbEntity
  8
30
  6
Continuous
100
AcDbMText
 10
-909.4483106392546
 20
136.4147230186065
 30
0.0
 40
4.0
 41
0.0
 71
     9
 72
     1
  1
\A1;
 73
     1
 44
1.0
1001
ACAD
1000
MTEXTBEGIN
1070
    73
1070
     1
1070
    44
1040
1.0
1070
    74
1070
     0
1000
MTEXTEND
  0
MTEXT
  5
8D78
330
1E
100
AcDbEntity
  8
30
  6
Continuous
100
AcDbMText
 10
-1355.322411901456
 20
136.4147230186064
 30
0.0
 40
4.0
 41
0.0
 71
     9
 72
     1
  1
\A1;
 73
     1
 44
1.0
1001
ACAD
1000
MTEXTBEGIN
1070
    73
1070
     1
1070
    44
1040
1.0
1070
    74
1070
     0
1000
MTEXTEND
  0
MTEXT
  5
A94C
330
1E
100
AcDbEntity
  8
5
  6
Continuous
 62
     7
100
AcDbMText
 10
50.0
 20
350.0
 30
0.0
 40
8.0
 41
0.0
 71
     7
 72
     5
  1
ZE250-SF 3P FC\PZS250-SF 3P FC
  7
blockfont
 73
     1
 44
1.0
1001
ACAD
1000
MTEXTBEGIN
1070
    73
1070
     1
1070
    44
1040
1.0
1070
    74
1070
     0
1000
MTEXTEND
  0
LINE
  5
CE37
330
1E
100
AcDbEntity
  8
130
100
AcDbLine
 10
-35.50000000000011
 20
235.0
 30
0.0
 11
-35.50000000000011
 21
217.4999999999998
 31
0.0
  0
LINE
  5
CE38
330
1E
100
AcDbEntity
  8
130
100
AcDbLine
 10
-30.0
 20
70.0
 30
0.0
 11
-30.0
 21
235.0
 31
0.0
  0
LINE
  5
CE39
330
1E
100
AcDbEntity
  8
130
100
AcDbLine
 10
-70.5000000000001
 20
235.0
 30
0.0
 11
-70.5000000000001
 21
217.4999999999998
 31
0.0
  0
LINE
  5
CE3A
330
1E
100
AcDbEntity
  8
130
100
AcDbLine
 10
-59.49999999999988
 20
235.0
 30
0.0
 11
-59.49999999999988
 21
217.4999999999998
 31
0.0
  0
LINE
  5
CE3B
330
1E
100
AcDbEntity
  8
130
100
AcDbLine
 10
-105.5000000000001
 20
235.0
 30
0.0
 11
-105.5000000000001
 21
217.4999999999998
 31
0.0
  0
LINE
  5
CE3C
330
1E
100
AcDbEntity
  8
130
100
AcDbLine
 10
-94.49999999999986
 20
235.0
 30
0.0
 11
-94.49999999999986
 21
217.4999999999998
 31
0.0
  0
LINE
  5
CE3D
330
1E
100
AcDbEntity
  8
130
100
AcDbLine
 10
-129.4999999999998
 20
235.0
 30
0.0
 11
-129.4999999999998
 21
217.4999999999998
 31
0.0
  0
LINE
  5
CE3E
330
1E
100
AcDbEntity
  8
16
100
AcDbLine
 10
-82.5
 20
245.0
 30
0.0
 11
-82.5
 21
60.0
 31
0.0
  0
LINE
  5
CE3F
330
1E
100
AcDbEntity
  8
130
100
AcDbLine
 10
-135.0
 20
235.0
 30
0.0
 11
-135.0
 21
70.0
 31
0.0
  0
LINE
  5
CE40
330
1E
100
AcDbEntity
  8
130
100
AcDbLine
 10
-75.5000000000001
 20
212.4999999999998
 30
0.0
 11
-89.49999999999986
 21
212.4999999999998
 31
0.0
  0
LINE
  5
CE41
330
1E
100
AcDbEntity
  8
17
100
AcDbLine
 10
-89.49999999999986
 20
224.5
 30
0.0
 11
-75.5000000000001
 21
224.5
 31
0.0
  0
CIRCLE
  5
CE42
330
1E
100
AcDbEntity
  8
24
100
AcDbCircle
 10
-82.5
 20
224.5
 30
0.0
 40
5.0
  0
LINE
  5
CE43
330
1E
100
AcDbEntity
  8
130
100
AcDbLine
 10
-75.5000000000001
 20
159.3407899999998
 30
0.0
 11
-89.49999999999986
 21
159.3407899999998
 31
0.0
  0
LINE
  5
CE44
330
1E
100
AcDbEntity
  8
130
100
AcDbLine
 10
-75.5000000000001
 20
172.6548699999997
 30
0.0
 11
-89.49999999999986
 21
172.6548699999997
 31
0.0
  0
LINE
  5
CE45
330
1E
100
AcDbEntity
  8
130
100
AcDbLine
 10
-75.5000000000001
 20
167.7399575
 30
0.0
 11
-89.49999999999986
 21
167.7399575
 31
0.0
  0
LINE
  5
CE46
330
1E
100
AcDbEntity
  8
130
100
AcDbLine
 10
-75.5000000000001
 20
92.5
 30
0.0
 11
-89.49999999999986
 21
92.5
 31
0.0
  0
LINE
  5
CE47
330
1E
100
AcDbEntity
  8
130
100
AcDbLine
 10
-89.49999999999986
 20
134.0
 30
0.0
 11
-75.5000000000001
 21
134.0
 31
0.0
  0
LINE
  5
CE49
330
1E
100
AcDbEntity
  8
17
100
AcDbLine
 10
-89.49999999999986
 20
80.50000000000009
 30
0.0
 11
-75.5000000000001
 21
80.50000000000009
 31
0.0
  0
CIRCLE
  5
CE4A
330
1E
100
AcDbEntity
  8
24
100
AcDbCircle
 10
-82.5
 20
80.50000000000009
 30
0.0
 40
5.0
  0
LINE
  5
CE4C
330
1E
100
AcDbEntity
  8
130
100
AcDbLine
 10
-135.0
 20
203.4999999999997
 30
0.0
 11
-30.0
 21
203.4999999999997
 31
0.0
  0
LINE
  5
CE4D
330
1E
100
AcDbEntity
  8
130
100
AcDbLine
 10
-131.4999999999997
 20
127.5
 30
0.0
 11
-33.50000000000022
 21
127.5
 31
0.0
  0
LINE
  5
CE4E
330
1E
100
AcDbEntity
  8
16
100
AcDbLine
 10
-145.0
 20
152.5
 30
0.0
 11
-20.0
 21
152.5
 31
0.0
  0
LINE
  5
CE4F
330
1E
100
AcDbEntity
  8
130
100
AcDbLine
 10
-131.4999999999997
 20
177.5
 30
0.0
 11
-33.50000000000022
 21
177.5
 31
0.0
  0
LINE
  5
CE50
330
1E
100
AcDbEntity
  8
130
100
AcDbLine
 10
-135.0
 20
70.0
 30
0.0
 11
-30.0
 21
70.0
 31
0.0
  0
LINE
  5
CE51
330
1E
100
AcDbEntity
  8
130
100
AcDbLine
 10
-135.0
 20
101.5
 30
0.0
 11
-30.0
 21
101.5
 31
0.0
  0
ARC
  5
CE54
330
1E
100
AcDbEntity
  8
130
100
AcDbCircle
 10
124.4999999999998
 20
87.5
 30
0.0
 40
5.0
210
0.0
220
0.0
230
-1.0
100
AcDbArc
 50
0.0
 51
90.0
  0
LINE
  5
CE55
330
1E
100
AcDbEntity
  8
130
100
AcDbLine
 10
-129.4999999999998
 20
70.0
 30
0.0
 11
-129.4999999999998
 21
87.5
 31
0.0
  0
LINE
  5
CE56
330
1E
100
AcDbEntity
  8
17
100
AcDbLine
 10
-117.5
 20
87.5
 30
0.0
 11
-117.5
 21
73.49999999999993
 31
0.0
  0
LINE
  5
CE57
330
1E
100
AcDbEntity
  8
130
100
AcDbLine
 10
-105.5000000000001
 20
70.0
 30
0.0
 11
-105.5000000000001
 21
87.5
 31
0.0
  0
ARC
  5
CE58
330
1E
100
AcDbEntity
  8
130
100
AcDbCircle
 10
110.5000000000001
 20
87.5
 30
0.0
 40
5.0
210
0.0
220
0.0
230
-1.0
100
AcDbArc
 50
90.0
 51
180.0
  0
LINE
  5
CE59
330
1E
100
AcDbEntity
  8
17
100
AcDbLine
 10
-124.4999999999998
 20
80.50000000000009
 30
0.0
 11
-110.5000000000001
 21
80.50000000000009
 31
0.0
  0
LINE
  5
CE5A
330
1E
100
AcDbEntity
  8
130
100
AcDbLine
 10
-110.5000000000001
 20
92.5
 30
0.0
 11
-124.4999999999998
 21
92.5
 31
0.0
  0
CIRCLE
  5
CE5B
330
1E
100
AcDbEntity
  8
24
100
AcDbCircle
 10
-117.5
 20
80.50000000000009
 30
0.0
 40
5.0
  0
LINE
  5
CE5C
330
1E
100
AcDbEntity
  8
130
100
AcDbLine
 10
-94.49999999999986
 20
70.0
 30
0.0
 11
-94.49999999999986
 21
87.5
 31
0.0
  0
ARC
  5
CE5D
330
1E
100
AcDbEntity
  8
130
100
AcDbCircle
 10
89.49999999999986
 20
87.5
 30
0.0
 40
5.0
210
0.0
220
0.0
230
-1.0
100
AcDbArc
 50
0.0
 51
90.0
  0
ARC
  5
CE5E
330
1E
100
AcDbEntity
  8
130
100
AcDbCircle
 10
-124.4999999999998
 20
217.4999999999998
 30
0.0
 40
5.0
100
AcDbArc
 50
180.0
 51
270.0
  0
LINE
  5
CE5F
330
1E
100
AcDbEntity
  8
130
100
AcDbLine
 10
-131.4999999999997
 20
177.5
 30
0.0
 11
-131.4999999999997
 21
127.5
 31
0.0
  0
LINE
  5
CE62
330
1E
100
AcDbEntity
  8
130
100
AcDbLine
 10
-93.49999999999964
 20
177.5
 30
0.0
 11
-93.49999999999964
 21
127.5
 31
0.0
  0
LINE
  5
CE63
330
1E
100
AcDbEntity
  8
130
100
AcDbLine
 10
-89.49999999999986
 20
134.0
 30
0.0
 11
-89.49999999999986
 21
172.6548699999997
 31
0.0
  0
LINE
  5
CE64
330
1E
100
AcDbEntity
  8
17
100
AcDbLine
 10
-105.5000000000001
 20
215.4999999999998
 30
0.0
 11
-94.49999999999986
 21
215.4999999999998
 31
0.0
  0
ARC
  5
CE65
330
1E
100
AcDbEntity
  8
130
100
AcDbCircle
 10
-110.5000000000001
 20
217.4999999999998
 30
0.0
 40
5.0
100
AcDbArc
 50
270.0
 51
0.0
  0
LINE
  5
CE66
330
1E
100
AcDbEntity
  8
17
100
AcDbLine
 10
-117.5
 20
231.5
 30
0.0
 11
-117.5
 21
217.4999999999998
 31
0.0
  0
LINE
  5
CE67
330
1E
100
AcDbEntity
  8
17
100
AcDbLine
 10
-124.4999999999998
 20
224.5
 30
0.0
 11
-110.5000000000001
 21
224.5
 31
0.0
  0
LINE
  5
CE68
330
1E
100
AcDbEntity
  8
130
100
AcDbLine
 10
-110.5000000000001
 20
212.4999999999998
 30
0.0
 11
-124.4999999999998
 21
212.4999999999998
 31
0.0
  0
CIRCLE
  5
CE69
330
1E
100
AcDbEntity
  8
24
100
AcDbCircle
 10
-117.5
 20
224.5
 30
0.0
 40
5.0
  0
LINE
  5
CE6A
330
1E
100
AcDbEntity
  8
17
100
AcDbLine
 10
-100.0
 20
221.0
 30
0.0
 11
-100.0
 21
209.9999999999998
 31
0.0
  0
ARC
  5
CE6B
330
1E
100
AcDbEntity
  8
130
100
AcDbCircle
 10
-89.49999999999986
 20
217.4999999999998
 30
0.0
 40
5.0
100
AcDbArc
 50
180.0
 51
270.0
  0
CIRCLE
  5
CE6C
330
1E
100
AcDbEntity
  8
24
100
AcDbCircle
 10
-100.0
 20
215.4999999999998
 30
0.0
 40
4.0
  0
ARC
  5
CE6D
330
1E
100
AcDbEntity
  8
130
100
AcDbCircle
 10
40.5000000000001
 20
87.5
 30
0.0
 40
5.0
210
0.0
220
0.0
230
-1.0
100
AcDbArc
 50
90.0
 51
180.0
  0
ARC
  5
CE6E
330
1E
100
AcDbEntity
  8
130
100
AcDbCircle
 10
54.49999999999988
 20
87.5
 30
0.0
 40
5.0
210
0.0
220
0.0
230
-1.0
100
AcDbArc
 50
0.0
 51
90.0
  0
LINE
  5
CE6F
330
1E
100
AcDbEntity
  8
130
100
AcDbLine
 10
-59.49999999999988
 20
70.0
 30
0.0
 11
-59.49999999999988
 21
87.5
 31
0.0
  0
LINE
  5
CE70
330
1E
100
AcDbEntity
  8
130
100
AcDbLine
 10
-70.5000000000001
 20
70.0
 30
0.0
 11
-70.5000000000001
 21
87.5
 31
0.0
  0
LINE
  5
CE71
330
1E
100
AcDbEntity
  8
17
100
AcDbLine
 10
-70.5000000000001
 20
89.49999999999986
 30
0.0
 11
-59.49999999999988
 21
89.49999999999986
 31
0.0
  0
LINE
  5
CE72
330
1E
100
AcDbEntity
  8
17
100
AcDbLine
 10
-65.0
 20
95.0
 30
0.0
 11
-65.0
 21
84.00000000000003
 31
0.0
  0
CIRCLE
  5
CE73
330
1E
100
AcDbEntity
  8
24
100
AcDbCircle
 10
-65.0
 20
89.49999999999986
 30
0.0
 40
4.0
  0
ARC
  5
CE74
330
1E
100
AcDbEntity
  8
130
100
AcDbCircle
 10
75.5000000000001
 20
87.5
 30
0.0
 40
5.0
210
0.0
220
0.0
230
-1.0
100
AcDbArc
 50
90.0
 51
180.0
  0
LINE
  5
CE75
330
1E
100
AcDbEntity
  8
17
100
AcDbLine
 10
-47.5
 20
87.5
 30
0.0
 11
-47.5
 21
73.49999999999993
 31
0.0
  0
CIRCLE
  5
CE76
330
1E
100
AcDbEntity
  8
24
100
AcDbCircle
 10
-47.5
 20
80.50000000000009
 30
0.0
 40
5.0
  0
LINE
  5
CE77
330
1E
100
AcDbEntity
  8
17
100
AcDbLine
 10
-54.49999999999988
 20
80.50000000000009
 30
0.0
 11
-40.5000000000001
 21
80.50000000000009
 31
0.0
  0
LINE
  5
CE78
330
1E
100
AcDbEntity
  8
130
100
AcDbLine
 10
-40.5000000000001
 20
92.5
 30
0.0
 11
-54.49999999999988
 21
92.5
 31
0.0
  0
LINE
  5
CE79
330
1E
100
AcDbEntity
  8
130
100
AcDbLine
 10
-35.50000000000011
 20
70.0
 30
0.0
 11
-35.50000000000011
 21
87.5
 31
0.0
  0
ARC
  5
CE7A
330
1E
100
AcDbEntity
  8
130
100
AcDbCircle
 10
-40.5000000000001
 20
217.4999999999998
 30
0.0
 40
5.0
100
AcDbArc
 50
270.0
 51
0.0
  0
LINE
  5
CE7B
330
1E
100
AcDbEntity
  8
130
100
AcDbLine
 10
-71.49999999999976
 20
177.5
 30
0.0
 11
-71.49999999999976
 21
127.5
 31
0.0
  0
LINE
  5
CE7C
330
1E
100
AcDbEntity
  8
130
100
AcDbLine
 10
-75.5000000000001
 20
134.0
 30
0.0
 11
-75.5000000000001
 21
172.6548699999997
 31
0.0
  0
ARC
  5
CE7D
330
1E
100
AcDbEntity
  8
130
100
AcDbCircle
 10
-54.49999999999988
 20
217.4999999999998
 30
0.0
 40
5.0
100
AcDbArc
 50
180.0
 51
270.0
  0
ARC
  5
CE7E
330
1E
100
AcDbEntity
  8
130
100
AcDbCircle
 10
-75.5000000000001
 20
217.4999999999998
 30
0.0
 40
5.0
100
AcDbArc
 50
270.0
 51
0.0
  0
LINE
  5
CE7F
330
1E
100
AcDbEntity
  8
17
100
AcDbLine
 10
-47.5
 20
231.5
 30
0.0
 11
-47.5
 21
217.4999999999998
 31
0.0
  0
CIRCLE
  5
CE80
330
1E
100
AcDbEntity
  8
24
100
AcDbCircle
 10
-47.5
 20
224.5
 30
0.0
 40
5.0
  0
LINE
  5
CE81
330
1E
100
AcDbEntity
  8
17
100
AcDbLine
 10
-54.49999999999988
 20
224.5
 30
0.0
 11
-40.5000000000001
 21
224.5
 31
0.0
  0
LINE
  5
CE82
330
1E
100
AcDbEntity
  8
130
100
AcDbLine
 10
-40.5000000000001
 20
212.4999999999998
 30
0.0
 11
-54.49999999999988
 21
212.4999999999998
 31
0.0
  0
LINE
  5
CE83
330
1E
100
AcDbEntity
  8
130
100
AcDbLine
 10
-33.50000000000022
 20
127.5
 30
0.0
 11
-33.50000000000022
 21
177.5
 31
0.0
  0
LINE
  5
CE85
330
1E
100
AcDbEntity
  8
130
100
AcDbLine
 10
-30.0
 20
235.0
 30
0.0
 11
-135.0
 21
235.0
 31
0.0
  0
DIMENSION
  5
D010
330
1E
100
AcDbEntity
  8
30
100
AcDbDimension
  2
*D56
 10
-150.0
 20
235.0
 30
0.0
 11
-155.0
 21
285.4999999999999
 31
0.0
 70
    32
 71
     5
 42
100.9999999999999
  3
STANDARD1
100
AcDbAlignedDimension
 13
-101.4999999999997
 23
335.9999999999999
 33
0.0
 14
-135.0
 24
235.0
 34
0.0
 50
90.0
100
AcDbRotatedDimension
  0
DIMENSION
  5
D02F
330
1E
100
AcDbEntity
  8
30
100
AcDbDimension
  2
*D57
 10
-150.0
 20
70.0
 30
0.0
 11
-155.0
 21
152.4999999999999
 31
0.0
 70
    32
 71
     5
 42
165.0
  3
STANDARD1
100
AcDbAlignedDimension
 13
-135.0
 23
235.0
 33
0.0
 14
-135.0
 24
70.0
 34
0.0
 50
90.0
100
AcDbRotatedDimension
1001
ACAD
1000
DSTYLE
1002
{
1070
   279
1070
     1
1002
}
  0
DIMENSION
  5
D045
330
1E
100
AcDbEntity
  8
30
100
AcDbDimension
  2
*D58
 10
-33.50000000000022
 20
187.5
 30
0.0
 11
-82.5
 21
192.5
 31
0.0
 70
    32
 71
     5
 42
97.99999999999954
  3
STANDARD1
100
AcDbAlignedDimension
 13
-131.4999999999997
 23
177.5
 33
0.0
 14
-33.50000000000022
 24
177.5
 34
0.0
100
AcDbRotatedDimension
  0
DIMENSION
  5
D05B
330
1E
100
AcDbEntity
  8
30
100
AcDbDimension
  2
*D59
 10
-71.49999999999976
 20
117.5
 30
0.0
 11
-82.49999999999969
 21
122.5
 31
0.0
 70
    32
 71
     5
 42
21.99999999999988
  3
STANDARD1
100
AcDbAlignedDimension
 13
-93.49999999999964
 23
127.5
 33
0.0
 14
-71.49999999999976
 24
127.5
 34
0.0
100
AcDbRotatedDimension
  0
DIMENSION
  5
D071
330
1E
100
AcDbEntity
  8
30
100
AcDbDimension
  2
*D60
 10
-47.5
 20
50.0
 30
0.0
 11
-82.5
 21
55.0
 31
0.0
 70
    32
 71
     5
 42
70.0
  3
STANDARD1
100
AcDbAlignedDimension
 13
-117.5
 23
73.49999999999993
 33
0.0
 14
-47.5
 24
73.49999999999993
 34
0.0
100
AcDbRotatedDimension
  0
DIMENSION
  5
D07E
330
1E
100
AcDbEntity
  8
30
100
AcDbDimension
  2
*D61
 10
-30.0
 20
40.0
 30
0.0
 11
-82.5
 21
45.0
 31
0.0
 70
    32
 71
     5
 42
105.0
  3
STANDARD1
100
AcDbAlignedDimension
 13
-135.0
 23
70.0
 33
0.0
 14
-30.0
 24
70.0
 34
0.0
100
AcDbRotatedDimension
  0
LINE
  5
D405
330
1E
100
AcDbEntity
  8
12
100
AcDbLine
 10
113.9999999999997
 20
232.2
 30
0.0
 11
113.9999999999997
 21
216.7999999999997
 31
0.0
  0
LINE
  5
D406
330
1E
100
AcDbEntity
  8
12
100
AcDbLine
 10
120.0
 20
235.0
 30
0.0
 11
120.0
 21
213.9999999999997
 31
0.0
  0
LINE
  5
D407
330
1E
100
AcDbEntity
  8
12
100
AcDbLine
 10
115.9999999999995
 20
235.0
 30
0.0
 11
115.9999999999995
 21
213.9999999999997
 31
0.0
  0
LINE
  5
D408
330
1E
100
AcDbEntity
  8
130
100
AcDbLine
 10
140.0
 20
235.0
 30
0.0
 11
140.0
 21
70.0
 31
0.0
  0
LINE
  5
D409
330
1E
100
AcDbEntity
  8
130
100
AcDbLine
 10
80.0
 20
235.0
 30
0.0
 11
80.0
 21
203.4999999999997
 31
0.0
  0
LINE
  5
D40A
330
1E
100
AcDbEntity
  8
130
100
AcDbLine
 10
72.0
 20
203.4999999999997
 30
0.0
 11
80.0
 21
203.4999999999997
 31
0.0
  0
LINE
  5
D40B
330
1E
100
AcDbEntity
  8
130
100
AcDbLine
 10
72.0
 20
101.5
 30
0.0
 11
80.0
 21
101.5
 31
0.0
  0
LINE
  5
D40C
330
1E
100
AcDbEntity
  8
17
100
AcDbLine
 10
75.0
 20
89.49999999999986
 30
0.0
 11
150.0
 21
89.49999999999986
 31
0.0
  0
LINE
  5
D40D
330
1E
100
AcDbEntity
  8
130
100
AcDbLine
 10
72.0
 20
203.4999999999997
 30
0.0
 11
72.0
 21
101.5
 31
0.0
  0
LINE
  5
D40E
330
1E
100
AcDbEntity
  8
130
100
AcDbLine
 10
68.0
 20
177.5
 30
0.0
 11
68.0
 21
127.5
 31
0.0
  0
LINE
  5
D40F
330
1E
100
AcDbEntity
  8
130
100
AcDbLine
 10
61.49999999999977
 20
164.1626350000001
 30
0.0
 11
48.92164999999977
 21
168.74078
 31
0.0
  0
LINE
  5
D410
330
1E
100
AcDbEntity
  8
130
100
AcDbLine
 10
61.49999999999977
 20
157.77757
 30
0.0
 11
46.86952999999948
 21
163.1026249999997
 31
0.0
  0
LINE
  5
D411
330
1E
100
AcDbEntity
  8
130
100
AcDbLine
 10
48.92164999999977
 20
168.74078
 30
0.0
 11
46.86952999999948
 21
163.1026249999997
 31
0.0
  0
LINE
  5
D412
330
1E
100
AcDbEntity
  8
130
100
AcDbLine
 10
61.49999999999977
 20
175.0
 30
0.0
 11
68.0
 21
175.0
 31
0.0
  0
LINE
  5
D413
330
1E
100
AcDbEntity
  8
130
100
AcDbLine
 10
68.0
 20
127.5
 30
0.0
 11
72.0
 21
127.5
 31
0.0
  0
LINE
  5
D414
330
1E
100
AcDbEntity
  8
130
100
AcDbLine
 10
61.49999999999977
 20
130.0
 30
0.0
 11
68.0
 21
130.0
 31
0.0
  0
LINE
  5
D415
330
1E
100
AcDbEntity
  8
130
100
AcDbLine
 10
61.49999999999977
 20
175.0
 30
0.0
 11
61.49999999999977
 21
130.0
 31
0.0
  0
LINE
  5
D416
330
1E
100
AcDbEntity
  8
130
100
AcDbLine
 10
68.0
 20
177.5
 30
0.0
 11
72.0
 21
177.5
 31
0.0
  0
LINE
  5
D417
330
1E
100
AcDbEntity
  8
12
100
AcDbLine
 10
93.99999999999977
 20
91.75000000000013
 30
0.0
 11
147.0
 21
91.75000000000013
 31
0.0
  0
LINE
  5
D418
330
1E
100
AcDbEntity
  8
12
100
AcDbLine
 10
93.99999999999977
 20
87.24999999999994
 30
0.0
 11
147.0
 21
87.24999999999994
 31
0.0
  0
LINE
  5
D419
330
1E
100
AcDbEntity
  8
130
100
AcDbLine
 10
80.0
 20
70.0
 30
0.0
 11
140.0
 21
70.0
 31
0.0
  0
LINE
  5
D41A
330
1E
100
AcDbEntity
  8
12
100
AcDbLine
 10
93.99999999999977
 20
93.75
 30
0.0
 11
93.99999999999977
 21
91.75000000000013
 31
0.0
  0
LINE
  5
D41B
330
1E
100
AcDbEntity
  8
12
100
AcDbLine
 10
93.99999999999977
 20
87.24999999999994
 30
0.0
 11
93.99999999999977
 21
85.25000000000003
 31
0.0
  0
LINE
  5
D41C
330
1E
100
AcDbEntity
  8
12
100
AcDbLine
 10
93.99999999999977
 20
93.75
 30
0.0
 11
93.99999999999977
 21
85.25000000000003
 31
0.0
  0
LINE
  5
D41D
330
1E
100
AcDbEntity
  8
12
100
AcDbLine
 10
88.99999999999977
 20
93.75
 30
0.0
 11
88.99999999999977
 21
85.25000000000003
 31
0.0
  0
LINE
  5
D41E
330
1E
100
AcDbEntity
  8
130
100
AcDbLine
 10
80.0
 20
101.5
 30
0.0
 11
80.0
 21
70.0
 31
0.0
  0
LINE
  5
D41F
330
1E
100
AcDbEntity
  8
12
100
AcDbLine
 10
80.0
 20
93.75
 30
0.0
 11
93.99999999999977
 21
93.75
 31
0.0
  0
LINE
  5
D420
330
1E
100
AcDbEntity
  8
12
100
AcDbLine
 10
80.0
 20
85.25000000000003
 30
0.0
 11
93.99999999999977
 21
85.25000000000003
 31
0.0
  0
LINE
  5
D424
330
1E
100
AcDbEntity
  8
12
100
AcDbLine
 10
147.0
 20
91.75000000000013
 30
0.0
 11
147.0
 21
87.24999999999994
 31
0.0
  0
LINE
  5
D425
330
1E
100
AcDbEntity
  8
17
100
AcDbLine
 10
100.9999999999995
 20
224.5
 30
0.0
 11
125.0
 21
224.5
 31
0.0
  0
LINE
  5
D426
330
1E
100
AcDbEntity
  8
12
100
AcDbLine
 10
105.9999999999995
 20
230.9999999999998
 30
0.0
 11
113.9999999999997
 21
230.9999999999998
 31
0.0
  0
LINE
  5
D427
330
1E
100
AcDbEntity
  8
12
100
AcDbLine
 10
113.9999999999997
 20
216.7999999999997
 30
0.0
 11
115.9999999999995
 21
216.7999999999997
 31
0.0
  0
LINE
  5
D428
330
1E
100
AcDbEntity
  8
12
100
AcDbLine
 10
115.9999999999995
 20
213.9999999999997
 30
0.0
 11
120.0
 21
213.9999999999997
 31
0.0
  0
LINE
  5
D429
330
1E
100
AcDbEntity
  8
12
100
AcDbLine
 10
105.9999999999995
 20
217.9999999999998
 30
0.0
 11
113.9999999999997
 21
217.9999999999998
 31
0.0
  0
LINE
  5
D42A
330
1E
100
AcDbEntity
  8
12
100
AcDbLine
 10
105.9999999999995
 20
230.9999999999998
 30
0.0
 11
105.9999999999995
 21
217.9999999999998
 31
0.0
  0
LINE
  5
D42B
330
1E
100
AcDbEntity
  8
130
100
AcDbLine
 10
140.0
 20
235.0
 30
0.0
 11
80.0
 21
235.0
 31
0.0
  0
LINE
  5
D42C
330
1E
100
AcDbEntity
  8
12
100
AcDbLine
 10
113.9999999999997
 20
232.2
 30
0.0
 11
115.9999999999995
 21
232.2
 31
0.0
  0
LINE
  5
D42D
330
1E
100
AcDbEntity
  8
16
100
AcDbLine
 10
43.0
 20
152.5
 30
0.0
 11
150.0
 21
152.5
 31
0.0
  0
ARC
  5
D42E
330
1E
100
AcDbEntity
  8
30
100
AcDbCircle
 10
75.99999999999955
 20
152.5
 30
0.0
 40
31.0
100
AcDbArc
 50
159.9999999999985
 51
180.0
  0
ARC
  5
D42F
330
1E
100
AcDbEntity
  8
24
100
AcDbCircle
 10
195.9875825000001
 20
236.9959175000002
 30
0.0
 40
7.5
100
AcDbArc
 50
238.8948889999949
 51
294.2039970000057
  0
LINE
  5
D430
330
1E
100
AcDbEntity
  8
24
100
AcDbLine
 10
199.0624825000002
 20
230.1552300000001
 30
0.0
 11
205.0
 21
232.1499025000001
 31
0.0
  0
LINE
  5
D431
330
1E
100
AcDbEntity
  8
24
100
AcDbLine
 10
180.0
 20
232.0
 30
0.0
 11
180.0
 21
200.0
 31
0.0
  0
LINE
  5
D432
330
1E
100
AcDbEntity
  8
24
100
AcDbLine
 10
205.0
 20
232.1499025000001
 30
0.0
 11
205.0
 21
200.0
 31
0.0
  0
LINE
  5
D437
330
1E
100
AcDbEntity
  8
17
100
AcDbLine
 10
186.25
 20
211.0000000000002
 30
0.0
 11
198.75
 21
211.0000000000002
 31
0.0
  0
LINE
  5
D438
330
1E
100
AcDbEntity
  8
24
100
AcDbLine
 10
180.0
 20
200.0
 30
0.0
 11
205.0
 21
200.0
 31
0.0
  0
LINE
  5
D439
330
1E
100
AcDbEntity
  8
17
100
AcDbLine
 10
192.5
 20
217.2500000000002
 30
0.0
 11
192.5
 21
204.7499999999999
 31
0.0
  0
CIRCLE
  5
D43A
330
1E
100
AcDbEntity
  8
24
100
AcDbCircle
 10
192.5
 20
211.0000000000002
 30
0.0
 40
4.5
  0
ARC
  5
D43B
330
1E
100
AcDbEntity
  8
24
100
AcDbCircle
 10
184.1250000000002
 20
225.1454850000003
 30
0.0
 40
8.0
100
AcDbArc
 50
58.96076000000157
 51
121.0392399999984
  0
LINE
  5
D43C
330
1E
100
AcDbEntity
  8
24
100
AcDbLine
 10
188.2578775
 20
231.9952524999999
 30
0.0
 11
192.1130099999998
 21
230.5742600000002
 31
0.0
  0
MTEXT
  5
D676
330
1E
100
AcDbEntity
  8
5
  6
Continuous
 62
     7
100
AcDbMText
 10
192.5
 20
177.0
 30
0.0
 40
8.0
 41
0.0
 71
     2
 72
     5
  1
25(max.)\Pmax.t7
  7
blockfont
 73
     1
 44
1.0
1001
ACAD
1000
MTEXTBEGIN
1070
    73
1070
     1
1070
    44
1040
1.0
1070
    74
1070
     0
1000
MTEXTEND
  0
DIMENSION
  5
D678
330
1E
100
AcDbEntity
  8
30
100
AcDbDimension
  2
*D62
 10
205.0
 20
180.0
 30
0.0
 11
192.5
 21
185.0
 31
0.0
 70
    32
 71
     5
 42
25.0
  3
STANDARD1
100
AcDbAlignedDimension
 13
180.0
 23
200.0
 33
0.0
 14
205.0
 24
200.0
 34
0.0
100
AcDbRotatedDimension
  0
DIMENSION
  5
D6B1
330
1E
100
AcDbEntity
  8
30
100
AcDbDimension
  2
*D63
 10
140.0
 20
60.0
 30
0.0
 11
155.0
 21
60.0
 31
0.0
 70
   160
 71
     5
 42
7.0
  3
STANDARD1
100
AcDbAlignedDimension
 13
147.0
 23
87.24999999999994
 33
0.0
 14
140.0
 24
70.0
 34
0.0
100
AcDbRotatedDimension
1001
ACAD
1000
DSTYLE
1002
{
1070
    42
1040
3.0
1070
    44
1040
4.0
1002
}
  0
DIMENSION
  5
D6BF
330
1E
100
AcDbEntity
  8
30
100
AcDbDimension
  2
*D64
 10
93.99999999999977
 20
60.0
 30
0.0
 11
116.9999999999998
 21
65.0
 31
0.0
 70
    32
 71
     5
 42
46.00000000000021
  3
STANDARD1
100
AcDbAlignedDimension
 13
140.0
 23
70.0
 33
0.0
 14
93.99999999999977
 24
85.25000000000003
 34
0.0
100
AcDbRotatedDimension
  0
DIMENSION
  5
D6CC
330
1E
100
AcDbEntity
  8
30
100
AcDbDimension
  2
*D65
 10
80.0
 20
50.0
 30
0.0
 11
110.0
 21
55.0
 31
0.0
 70
    32
 71
     5
 42
60.0
  3
STANDARD1
100
AcDbAlignedDimension
 13
140.0
 23
70.0
 33
0.0
 14
80.0
 24
70.0
 34
0.0
100
AcDbRotatedDimension
  0
DIMENSION
  5
D6D9
330
1E
100
AcDbEntity
  8
30
100
AcDbDimension
  2
*D66
 10
72.0
 20
40.0
 30
0.0
 11
106.0
 21
45.0
 31
0.0
 70
    32
 71
     5
 42
68.0
  3
STANDARD1
100
AcDbAlignedDimension
 13
140.0
 23
70.0
 33
0.0
 14
72.0
 24
101.5
 34
0.0
100
AcDbRotatedDimension
  0
DIMENSION
  5
D6E6
330
1E
100
AcDbEntity
  8
30
100
AcDbDimension
  2
*D67
 10
68.0
 20
30.0
 30
0.0
 11
104.0
 21
35.0
 31
0.0
 70
    32
 71
     5
 42
72.0
  3
STANDARD1
100
AcDbAlignedDimension
 13
140.0
 23
70.0
 33
0.0
 14
68.0
 24
127.5
 34
0.0
100
AcDbRotatedDimension
  0
DIMENSION
  5
D6F3
330
1E
100
AcDbEntity
  8
30
100
AcDbDimension
  2
*D68
 10
68.0
 20
30.0
 30
0.0
 11
53.0
 21
30.0
 31
0.0
 70
   160
 71
     5
 42
6.500000000000227
  3
STANDARD1
100
AcDbAlignedDimension
 13
61.49999999999977
 23
130.0
 33
0.0
 14
68.0
 24
130.0
 34
0.0
100
AcDbRotatedDimension
1001
ACAD
1000
DSTYLE
1002
{
1070
   279
1070
     1
1002
}
  0
DIMENSION
  5
D91F
330
1E
100
AcDbEntity
  8
30
100
AcDbDimension
  2
*D69
 10
44.99999999999952
 20
20.0
 30
0.0
 11
92.49999999999976
 21
25.0
 31
0.0
 70
    32
 71
     5
 42
95.00000000000046
  3
STANDARD1
100
AcDbAlignedDimension
 13
140.0
 23
70.0
 33
0.0
 14
44.99999999999954
 24
152.5
 34
0.0
100
AcDbRotatedDimension
  0
LWPOLYLINE
  5
D9C7
330
1E
100
AcDbEntity
  8
130
100
AcDbPolyline
 90
        4
 70
     1
 43
0.0
 10
-135.0
 20
459.9999999999998
 10
-30.0
 20
459.9999999999998
 10
-30.0
 20
399.9999999999998
 10
-135.0
 20
399.9999999999998
  0
LINE
  5
D9EA
330
1E
100
AcDbEntity
  8
24
100
AcDbLine
 10
-52.5
 20
425.9999999999995
 30
0.0
 11
-42.5
 21
425.9999999999995
 31
0.0
  0
LINE
  5
D9EB
330
1E
100
AcDbEntity
  8
24
100
AcDbLine
 10
-58.0
 20
435.9999999999994
 30
0.0
 11
-36.99999999999977
 21
435.9999999999994
 31
0.0
  0
LINE
  5
D9EC
330
1E
100
AcDbEntity
  8
24
100
AcDbLine
 10
-58.0
 20
439.9999999999998
 30
0.0
 11
-36.99999999999977
 21
439.9999999999998
 31
0.0
  0
LINE
  5
D9ED
330
1E
100
AcDbEntity
  8
24
100
AcDbLine
 10
-55.19999999999981
 20
433.9999999999997
 30
0.0
 11
-39.79999999999972
 21
433.9999999999997
 31
0.0
  0
LINE
  5
D9EF
330
1E
100
AcDbEntity
  8
24
100
AcDbLine
 10
-42.5
 20
425.9999999999995
 30
0.0
 11
-42.5
 21
433.9999999999997
 31
0.0
  0
LINE
  5
D9F1
330
1E
100
AcDbEntity
  8
24
100
AcDbLine
 10
-39.79999999999972
 20
433.9999999999997
 30
0.0
 11
-39.79999999999972
 21
435.9999999999994
 31
0.0
  0
LINE
  5
D9F3
330
1E
100
AcDbEntity
  8
24
100
AcDbLine
 10
-55.19999999999981
 20
433.9999999999997
 30
0.0
 11
-55.19999999999981
 21
435.9999999999994
 31
0.0
  0
LINE
  5
D9F4
330
1E
100
AcDbEntity
  8
24
100
AcDbLine
 10
-52.5
 20
425.9999999999995
 30
0.0
 11
-52.5
 21
433.9999999999997
 31
0.0
  0
LINE
  5
DB2A
330
1E
100
AcDbEntity
  8
24
100
AcDbLine
 10
-77.5
 20
425.9999999999995
 30
0.0
 11
-77.5
 21
433.9999999999998
 31
0.0
  0
LINE
  5
DB2B
330
1E
100
AcDbEntity
  8
24
100
AcDbLine
 10
-87.5
 20
425.9999999999995
 30
0.0
 11
-87.5
 21
433.9999999999998
 31
0.0
  0
LINE
  5
DB2C
330
1E
100
AcDbEntity
  8
24
100
AcDbLine
 10
-87.5
 20
425.9999999999995
 30
0.0
 11
-77.5
 21
425.9999999999995
 31
0.0
  0
LINE
  5
DB2D
330
1E
100
AcDbEntity
  8
24
100
AcDbLine
 10
-90.1999999999998
 20
433.9999999999998
 30
0.0
 11
-74.79999999999972
 21
433.9999999999998
 31
0.0
  0
LINE
  5
DB2E
330
1E
100
AcDbEntity
  8
24
100
AcDbLine
 10
-93.0
 20
440.0
 30
0.0
 11
-71.99999999999976
 21
440.0
 31
0.0
  0
LINE
  5
DB2F
330
1E
100
AcDbEntity
  8
24
100
AcDbLine
 10
-93.0
 20
435.9999999999994
 30
0.0
 11
-71.99999999999976
 21
435.9999999999994
 31
0.0
  0
LINE
  5
DB30
330
1E
100
AcDbEntity
  8
24
100
AcDbLine
 10
-90.1999999999998
 20
433.9999999999998
 30
0.0
 11
-90.1999999999998
 21
435.9999999999994
 31
0.0
  0
LINE
  5
DB31
330
1E
100
AcDbEntity
  8
24
100
AcDbLine
 10
-74.79999999999972
 20
433.9999999999998
 30
0.0
 11
-74.79999999999972
 21
435.9999999999994
 31
0.0
  0
LINE
  5
DB32
330
1E
100
AcDbEntity
  8
24
100
AcDbLine
 10
-122.5
 20
425.9999999999996
 30
0.0
 11
-122.5
 21
433.9999999999998
 31
0.0
  0
LINE
  5
DB33
330
1E
100
AcDbEntity
  8
24
100
AcDbLine
 10
-112.5
 20
425.9999999999996
 30
0.0
 11
-112.5
 21
433.9999999999998
 31
0.0
  0
LINE
  5
DB34
330
1E
100
AcDbEntity
  8
24
100
AcDbLine
 10
-122.5
 20
425.9999999999996
 30
0.0
 11
-112.5
 21
425.9999999999996
 31
0.0
  0
LINE
  5
DB35
330
1E
100
AcDbEntity
  8
24
100
AcDbLine
 10
-128.0
 20
435.9999999999994
 30
0.0
 11
-106.9999999999997
 21
435.9999999999994
 31
0.0
  0
LINE
  5
DB36
330
1E
100
AcDbEntity
  8
24
100
AcDbLine
 10
-128.0
 20
440.0
 30
0.0
 11
-106.9999999999997
 21
440.0
 31
0.0
  0
LINE
  5
DB37
330
1E
100
AcDbEntity
  8
24
100
AcDbLine
 10
-125.1999999999998
 20
433.9999999999998
 30
0.0
 11
-109.7999999999997
 21
433.9999999999998
 31
0.0
  0
LINE
  5
DB38
330
1E
100
AcDbEntity
  8
24
100
AcDbLine
 10
-125.1999999999998
 20
433.9999999999998
 30
0.0
 11
-125.1999999999998
 21
435.9999999999994
 31
0.0
  0
LINE
  5
DB39
330
1E
100
AcDbEntity
  8
24
100
AcDbLine
 10
-109.7999999999997
 20
433.9999999999998
 30
0.0
 11
-109.7999999999997
 21
435.9999999999994
 31
0.0
  0
LINE
  5
DB40
330
1E
100
AcDbEntity
  8
16
100
AcDbLine
 10
-82.5
 20
360.0
 30
0.0
 11
-82.5
 21
464.9999999999998
 31
0.0
  0
DIMENSION
  5
DB42
330
1E
100
AcDbEntity
  8
30
100
AcDbDimension
  2
*D70
 10
-82.5
 20
470.0
 30
0.0
 11
-64.99999999999992
 21
475.0
 31
0.0
 70
    32
 71
     5
 42
35.00000000000011
  3
STANDARD1
100
AcDbAlignedDimension
 13
-47.49999999999988
 23
459.9999999999998
 33
0.0
 14
-82.5
 24
464.9999999999998
 34
0.0
100
AcDbRotatedDimension
  0
DIMENSION
  5
DB58
330
1E
100
AcDbEntity
  8
30
100
AcDbDimension
  2
*D71
 10
-117.5
 20
470.0
 30
0.0
 11
-100.0
 21
475.0
 31
0.0
 70
    32
 71
     5
 42
35.0
  3
STANDARD1
100
AcDbAlignedDimension
 13
-82.5
 23
464.9999999999998
 33
0.0
 14
-117.5
 24
459.9999999999998
 34
0.0
100
AcDbRotatedDimension
  0
CIRCLE
  5
DC05
330
1E
100
AcDbEntity
  8
24
100
AcDbCircle
 10
-65.0
 20
-165.5
 30
0.0
 40
2.0
  0
LINE
  5
DC06
330
1E
100
AcDbEntity
  8
17
100
AcDbLine
 10
-70.5
 20
-165.5
 30
0.0
 11
-59.49999999999977
 21
-165.5
 31
0.0
  0
LINE
  5
DC07
330
1E
100
AcDbEntity
  8
17
100
AcDbLine
 10
-65.0
 20
-160.0
 30
0.0
 11
-65.0
 21
-170.9999999999999
 31
0.0
  0
LINE
  5
DC08
330
1E
100
AcDbEntity
  8
17
100
AcDbLine
 10
-100.0
 20
-33.99999999999995
 30
0.0
 11
-100.0
 21
-45.00000000000015
 31
0.0
  0
CIRCLE
  5
DC0A
330
1E
100
AcDbEntity
  8
24
100
AcDbCircle
 10
-100.0
 20
-39.50000000000017
 30
0.0
 40
2.0
  0
LINE
  5
DC0B
330
1E
100
AcDbEntity
  8
17
100
AcDbLine
 10
-105.4999999999995
 20
-39.50000000000017
 30
0.0
 11
-94.49999999999977
 21
-39.50000000000017
 31
0.0
  0
LINE
  5
DCD7
330
1E
100
AcDbEntity
  8
16
100
AcDbLine
 10
102.4999999999999
 20
-10.0
 30
0.0
 11
102.4999999999999
 21
-195.0
 31
0.0
  0
LINE
  5
DCD8
330
1E
100
AcDbEntity
  8
16
100
AcDbLine
 10
40.0
 20
-102.4999999999999
 30
0.0
 11
165.0
 21
-102.4999999999999
 31
0.0
  0
LINE
  5
DD42
330
1E
100
AcDbEntity
  8
16
100
AcDbLine
 10
-82.5
 20
-10.0
 30
0.0
 11
-82.5
 21
-195.0
 31
0.0
  0
LINE
  5
DD43
330
1E
100
AcDbEntity
  8
16
100
AcDbLine
 10
-145.0
 20
-102.4999999999999
 30
0.0
 11
-20.0
 21
-102.4999999999999
 31
0.0
  0
LWPOLYLINE
  5
DD5E
330
1E
100
AcDbEntity
  8
18
100
AcDbPolyline
 90
        4
 70
     1
 43
0.0
 10
-135.0
 20
-20.0
 10
-30.0
 20
-20.0
 10
-30.0
 20
-185.0
 10
-135.0
 20
-185.0
  0
DIMENSION
  5
E143
330
1E
100
AcDbEntity
  8
30
100
AcDbDimension
  2
*D72
 10
-150.0
 20
-165.5
 30
0.0
 11
-154.9999999999999
 21
-102.5000000000001
 31
0.0
 70
    32
 71
     5
 42
125.9999999999998
  3
STANDARD1
100
AcDbAlignedDimension
 13
-105.4999999999995
 23
-39.50000000000017
 33
0.0
 14
-70.5
 24
-165.5
 34
0.0
 50
90.0
100
AcDbRotatedDimension
  0
DIMENSION
  5
E15A
330
1E
100
AcDbEntity
  8
30
100
AcDbDimension
  2
*D73
 10
-65.0
 20
-210.0
 30
0.0
 11
-82.5
 21
-205.0
 31
0.0
 70
    32
 71
     5
 42
35.0
  3
STANDARD1
100
AcDbAlignedDimension
 13
-100.0
 23
-45.00000000000015
 33
0.0
 14
-65.0
 24
-170.9999999999999
 34
0.0
100
AcDbRotatedDimension
  0
LEADER
  5
E1C7
330
1E
100
AcDbEntity
  8
30
100
AcDbLeader
  3
STANDARD1
 76
     3
 10
-100.0
 20
-39.50000000000006
 30
0.0
 10
-140.0
 20
-30.0
 30
0.0
 10
-169.0
 20
-30.0
 30
0.0
1001
ACAD
1000
DSTYLE
1002
{
1070
   147
1040
2.0
1070
    77
1070
     0
1002
}
  0
MTEXT
  5
E1C8
330
1E
100
AcDbEntity
  8
30
  6
Continuous
100
AcDbMText
 10
-167.0
 20
-24.0
 30
0.0
 40
5.0
 41
30.0
 71
     1
 72
     5
  1
M4x0.7
  7
blockfont
 73
     1
 44
1.0
1001
ACAD
1000
MTEXTBEGIN
1070
    73
1070
     1
1070
    44
1040
1.0
1070
    74
1070
     0
1000
MTEXTEND
  0
LWPOLYLINE
  5
E1D9
330
1E
100
AcDbEntity
  8
18
100
AcDbPolyline
 90
        4
 70
     1
 43
0.0
 10
155.0
 20
-20.0
 10
50.0
 20
-20.0
 10
50.0
 20
-185.0
 10
155.0
 20
-185.0
  0
LEADER
  5
E1E5
330
1E
100
AcDbEntity
  8
30
100
AcDbLeader
  3
STANDARD1
 76
     3
 10
105.9999999999995
 20
224.4999999999998
 30
0.0
 10
70.0
 20
240.0
 30
0.0
 10
58.0
 20
240.0
 30
0.0
1001
ACAD
1000
DSTYLE
1002
{
1070
   147
1040
2.0
1070
    77
1070
     0
1002
}
  0
MTEXT
  5
E1E6
330
1E
100
AcDbEntity
  8
30
  6
Continuous
100
AcDbMText
 10
59.0
 20
246.0
 30
0.0
 40
5.0
 41
10.0
 71
     1
 72
     5
  1
M8
  7
blockfont
 73
     1
 44
1.0
1001
ACAD
1000
MTEXTBEGIN
1070
    73
1070
     1
1070
    44
1040
1.0
1070
    74
1070
     0
1000
MTEXTEND
  0
DIMENSION
  5
E1E7
330
1E
100
AcDbEntity
  8
30
100
AcDbDimension
  2
*D76
 10
140.0
 20
245.0
 30
0.0
 11
127.9999999999997
 21
250.0
 31
0.0
 70
    32
 71
     5
 42
24.00000000000045
  3
STANDARD1
100
AcDbAlignedDimension
 13
115.9999999999995
 23
235.0
 33
0.0
 14
140.0
 24
235.0
 34
0.0
100
AcDbRotatedDimension
  0
DIMENSION
  5
E22E
330
1E
100
AcDbEntity
  8
30
100
AcDbDimension
  2
*D77
 10
20.0
 20
101.5
 30
0.0
 11
14.99999999999998
 21
152.4999999999999
 31
0.0
 70
    32
 71
     5
 42
101.9999999999997
  3
STANDARD1
100
AcDbAlignedDimension
 13
72.0
 23
203.4999999999997
 33
0.0
 14
72.0
 24
101.5
 34
0.0
 50
90.0
100
AcDbRotatedDimension
  0
DIMENSION
  5
E22F
330
1E
100
AcDbEntity
  8
30
100
AcDbDimension
  2
*D78
 10
30.0
 20
127.5
 30
0.0
 11
24.99999999999998
 21
152.5
 31
0.0
 70
    32
 71
     5
 42
50.0
  3
STANDARD1
100
AcDbAlignedDimension
 13
68.0
 23
177.5
 33
0.0
 14
68.0
 24
127.5
 34
0.0
 50
90.0
100
AcDbRotatedDimension
  0
DIMENSION
  5
E230
330
1E
100
AcDbEntity
  8
30
100
AcDbDimension
  2
*D79
 10
40.0
 20
130.0
 30
0.0
 11
34.99999999999998
 21
152.5
 31
0.0
 70
    32
 71
     5
 42
45.0
  3
STANDARD1
100
AcDbAlignedDimension
 13
61.49999999999977
 23
175.0
 33
0.0
 14
61.49999999999977
 24
130.0
 34
0.0
 50
90.0
100
AcDbRotatedDimension
  0
LEADER
  5
E464
330
1E
100
AcDbEntity
  8
30
100
AcDbLeader
  3
STANDARD1
 76
     3
 10
192.5
 20
211.0000000000002
 30
0.0
 10
170.0
 20
220.0
 30
0.0
 10
158.0
 20
220.0
 30
0.0
1001
ACAD
1000
DSTYLE
1002
{
1070
   147
1040
2.0
1070
    77
1070
     0
1002
}
  0
MTEXT
  5
E465
330
1E
100
AcDbEntity
  8
30
  6
Continuous
100
AcDbMText
 10
159.0
 20
226.0
 30
0.0
 40
5.0
 41
10.0
 71
     1
 72
     5
  1
%%c9
  7
blockfont
 73
     1
 44
1.0
1001
ACAD
1000
MTEXTBEGIN
1070
    73
1070
     1
1070
    44
1040
1.0
1070
    74
1070
     0
1000
MTEXTEND
  0
DIMENSION
  5
E5A0
330
1E
100
AcDbEntity
  8
30
100
AcDbDimension
  2
*D80
 10
50.0
 20
-10.0
 30
0.0
 11
76.25
 21
-5.000000000000006
 31
0.0
 70
    32
 71
     5
 42
52.5
  3
STANDARD1
100
AcDbAlignedDimension
 13
102.4999999999999
 23
-10.0
 33
0.0
 14
50.0
 24
-20.0
 34
0.0
100
AcDbRotatedDimension
  0
LWPOLYLINE
  5
E776
330
1E
100
AcDbEntity
  8
130
100
AcDbPolyline
 90
        4
 70
     1
 43
0.0
 10
-135.0000000000002
 20
400.0
 10
-30.0
 20
399.9999999999998
 10
-30.0
 20
391.9999999999999
 10
-135.0000000000002
 20
392.0
  0
LWPOLYLINE
  5
E777
330
1E
100
AcDbEntity
  8
130
100
AcDbPolyline
 90
        4
 70
     1
 43
0.0
 10
-131.4999999999997
 20
392.0
 10
-33.49999999999954
 20
391.9999999999999
 10
-33.49999999999954
 20
388.0
 10
-131.4999999999997
 20
388.0
  0
LWPOLYLINE
  5
E778
330
1E
100
AcDbEntity
  8
130
100
AcDbPolyline
 90
        4
 70
     1
 43
0.0
 10
-89.50000000000017
 20
381.4999999999998
 10
-75.50000000000039
 20
381.4999999999998
 10
-75.50000000000039
 20
381.4999999999997
 10
-89.50000000000017
 20
381.4999999999997
  0
LWPOLYLINE
  5
E77A
330
1E
100
AcDbEntity
  8
130
100
AcDbPolyline
 90
        4
 70
     1
 43
0.0
 10
-93.49999999999994
 20
388.0
 10
-71.50000000000004
 20
388.0
 10
-71.50000000000004
 20
381.4999999999997
 10
-93.49999999999994
 20
381.4999999999997
  0
LWPOLYLINE
  5
E77B
330
1E
100
AcDbEntity
  8
130
100
AcDbPolyline
 90
        4
 70
     1
 43
0.0
 10
-89.50000000000017
 20
381.4999999999997
 10
-75.50000000000039
 20
381.4999999999997
 10
-75.50000000000039
 20
381.4999999999997
 10
-89.50000000000017
 20
381.4999999999997
  0
LWPOLYLINE
  5
E7CB
330
1E
100
AcDbEntity
  8
130
100
AcDbPolyline
 90
        4
 70
     1
 43
0.0
 10
-89.50000000000029
 20
381.4999999999998
 10
-75.50000000000054
 20
381.4999999999998
 10
-75.50000000000054
 20
364.9999999999999
 10
-89.50000000000029
 20
364.9999999999999
  0
LWPOLYLINE
  5
E862
330
1E
100
AcDbEntity
  8
18
100
AcDbPolyline
 90
        4
 70
     1
 43
0.0
 10
-98.49999999999964
 20
335.9999999999999
 10
-101.4999999999997
 20
335.9999999999999
 10
-101.4999999999997
 20
235.0
 10
-98.49999999999964
 20
235.0
  0
LWPOLYLINE
  5
E865
330
1E
100
AcDbEntity
  8
18
100
AcDbPolyline
 90
        4
 70
     1
 43
0.0
 10
-63.49999999999965
 20
335.9999999999999
 10
-66.49999999999977
 20
335.9999999999999
 10
-66.49999999999977
 20
235.0
 10
-63.49999999999965
 20
235.0
  0
MTEXT
  5
E8C3
330
1E
100
AcDbEntity
  8
5
  6
Continuous
 62
     7
100
AcDbMText
 10
222.0
 20
216.07495125
 30
0.0
 40
8.0
 41
0.0
 71
     2
 72
     5
  1
11(max.)
  7
blockfont
 11
0.0000000000000001
 21
1.0
 31
0.0
 73
     1
 44
1.0
1001
ACAD
1000
MTEXTBEGIN
1070
    73
1070
     1
1070
    44
1040
1.0
1070
    74
1070
     0
1000
MTEXTEND
  0
DIMENSION
  5
E8C4
330
1E
100
AcDbEntity
  8
30
100
AcDbDimension
  2
*D82
 10
220.0
 20
200.0
 30
0.0
 11
214.9999999999999
 21
205.5000000000001
 31
0.0
 70
    32
 71
     5
 42
11.00000000000022
  3
STANDARD1
100
AcDbAlignedDimension
 13
198.75
 23
211.0000000000002
 33
0.0
 14
205.0
 24
200.0
 34
0.0
 50
90.0
100
AcDbRotatedDimension
  0
LWPOLYLINE
  5
EB4F
330
1E
100
AcDbEntity
  8
10
100
AcDbPolyline
 90
        8
 70
     1
 43
0.0
 10
53.5
 20
-76.49999999999997
 10
151.5
 20
-76.5
 42
-0.4142135623730951
 10
152.5
 20
-77.5
 10
152.5
 20
-127.5
 42
-0.4142135623730951
 10
151.5
 20
-128.4999999999999
 10
53.5
 20
-128.4999999999999
 42
-0.4142135623730951
 10
52.5
 20
-127.5
 10
52.5
 20
-77.49999999999997
 42
-0.4142135623730951
  0
DIMENSION
  5
EB50
330
1E
100
AcDbEntity
  8
30
  6
Continuous
100
AcDbDimension
  2
*D87
 10
53.49999999999997
 20
-77.49999999999997
 30
0.0
 11
62.350064888298
 21
-70.96728605609316
 31
0.0
 70
   164
 71
     5
 42
-1.0
  3
STANDARD1
100
AcDbRadialDimension
 15
54.30455135348161
 25
-76.90611691419026
 35
0.0
 40
0.0
  0
DIMENSION
  5
EB51
330
1E
100
AcDbEntity
  8
30
100
AcDbDimension
  2
*D88
 10
152.5
 20
-210.0
 30
0.0
 11
102.4999999999999
 21
-205.0
 31
0.0
 70
    32
 71
     5
 42
100.0
  3
STANDARD1
100
AcDbAlignedDimension
 13
52.5
 23
-127.5
 33
0.0
 14
152.5
 24
-127.5
 34
0.0
100
AcDbRotatedDimension
  0
DIMENSION
  5
EB52
330
1E
100
AcDbEntity
  8
30
100
AcDbDimension
  2
*D89
 10
40.0
 20
-128.4999999999999
 30
0.0
 11
35.00000000000002
 21
-102.4999999999999
 31
0.0
 70
    32
 71
     5
 42
52.00000000000003
  3
STANDARD1
100
AcDbAlignedDimension
 13
53.5
 23
-76.49999999999997
 33
0.0
 14
53.5
 24
-128.4999999999999
 34
0.0
 50
90.0
100
AcDbRotatedDimension
  0
LINE
  5
EBF0
330
1E
100
AcDbEntity
  8
1
  6
Continuous
 62
     2
100
AcDbLine
 10
-55.49999999999988
 20
141.5
 30
0.0
 11
-46.29999999999996
 21
141.5
 31
0.0
  0
LINE
  5
EBF1
330
1E
100
AcDbEntity
  8
1
  6
Continuous
 62
     2
100
AcDbLine
 10
-55.49999999999988
 20
145.5
 30
0.0
 11
-55.49999999999988
 21
141.5
 31
0.0
  0
LINE
  5
EBF2
330
1E
100
AcDbEntity
  8
1
  6
Continuous
 62
     2
100
AcDbLine
 10
-46.29999999999996
 20
140.5
 30
0.0
 11
-46.29999999999996
 21
136.5
 31
0.0
  0
LINE
  5
EBF3
330
1E
100
AcDbEntity
  8
1
  6
Continuous
 62
     3
100
AcDbLine
 10
-57.1389774999999
 20
143.5
 30
0.0
 11
-45.05293749999998
 21
143.5
 31
0.0
  0
LINE
  5
EBF4
330
1E
100
AcDbEntity
  8
1
  6
Continuous
 62
     2
100
AcDbLine
 10
-55.49999999999988
 20
140.5
 30
0.0
 11
-46.29999999999996
 21
140.5
 31
0.0
  0
LINE
  5
EBF5
330
1E
100
AcDbEntity
  8
1
  6
Continuous
 62
     3
100
AcDbLine
 10
-50.89999999999998
 20
146.1622525
 30
0.0
 11
-50.89999999999998
 21
135.513375
 31
0.0
  0
LINE
  5
EBF6
330
1E
100
AcDbEntity
  8
1
  6
Continuous
 62
     3
100
AcDbLine
 10
-57.03909249999992
 20
150.6
 30
0.0
 11
-46.1516674999999
 21
150.6
 31
0.0
  0
LINE
  5
EBF7
330
1E
100
AcDbEntity
  8
1
  6
Continuous
 62
     2
100
AcDbLine
 10
-55.49999999999988
 20
145.5
 30
0.0
 11
-46.29999999999996
 21
145.5
 31
0.0
  0
LINE
  5
EBF8
330
1E
100
AcDbEntity
  8
1
  6
Continuous
 62
     3
100
AcDbLine
 10
-51.39999999999986
 20
162.56861
 30
0.0
 11
-51.39999999999986
 21
146.06861
 31
0.0
  0
LINE
  5
EBF9
330
1E
100
AcDbEntity
  8
1
  6
Continuous
 62
     2
100
AcDbLine
 10
-55.49999999999988
 20
136.5
 30
0.0
 11
-46.29999999999996
 21
136.5
 31
0.0
  0
LINE
  5
EBFA
330
1E
100
AcDbEntity
  8
1
  6
Continuous
 62
     2
100
AcDbLine
 10
-46.29999999999996
 20
145.5
 30
0.0
 11
-46.29999999999996
 21
141.5
 31
0.0
  0
LINE
  5
EBFB
330
1E
100
AcDbEntity
  8
1
  6
Continuous
 62
     3
100
AcDbLine
 10
-57.03909249999992
 20
158.3
 30
0.0
 11
-46.1516674999999
 21
158.3
 31
0.0
  0
LINE
  5
EBFC
330
1E
100
AcDbEntity
  8
1
  6
Continuous
 62
     2
100
AcDbLine
 10
-55.49999999999988
 20
140.5
 30
0.0
 11
-55.49999999999988
 21
136.5
 31
0.0
  0
LINE
  5
EBFD
330
1E
100
AcDbEntity
  8
1
  6
Continuous
 62
     3
100
AcDbLine
 10
-57.1389774999999
 20
138.5
 30
0.0
 11
-45.05293749999998
 21
138.5
 31
0.0
  0
CIRCLE
  5
EBFE
330
1E
100
AcDbEntity
  8
1
  6
Continuous
 62
     2
100
AcDbCircle
 10
-51.39999999999986
 20
150.6
 30
0.0
 40
3.599999999999998
  0
CIRCLE
  5
EBFF
330
1E
100
AcDbEntity
  8
1
  6
Continuous
 62
     2
100
AcDbCircle
 10
-51.39999999999986
 20
150.6
 30
0.0
 40
2.5
  0
CIRCLE
  5
EC00
330
1E
100
AcDbEntity
  8
1
  6
Continuous
 62
     2
100
AcDbCircle
 10
-51.39999999999986
 20
158.3
 30
0.0
 40
2.75
  0
VIEWPORT
  5
9AC
102
{ACAD_XDICTIONARY
360
EC05
102
}
330
1A
100
AcDbEntity
 67
     1
  8
0
  6
Continuous
100
AcDbViewport
 10
0.0
 20
0.0
 30
0.0
 40
0.0
 41
0.0
 68
     1
 69
     1
 12
0.0
 22
0.0
 13
0.0
 23
0.0
 14
10.0
 24
10.0
 15
10.0
 25
10.0
 16
0.0
 26
0.0
 36
1.0
 17
0.0
 27
0.0
 37
0.0
 42
50.0
 43
0.0
 44
0.0
 45
0.0
 50
0.0
 51
0.0
 72
   100
 90
    32800
  1

281
     0
 71
     1
 74
     0
110
0.0
120
0.0
130
0.0
111
1.0
121
0.0
131
0.0
112
0.0
122
1.0
132
0.0
 79
     0
146
0.0
  0
VIEWPORT
  5
E19D
102
{ACAD_XDICTIONARY
360
EC0F
102
}
330
1A
100
AcDbEntity
 67
     1
  8
30
100
AcDbViewport
 10
0.0
 20
0.0
 30
0.0
 40
0.0
 41
0.0
 68
     2
 69
     2
 12
8.653370891979619
 22
137.2805829780177
 13
0.0
 23
0.0
 14
1.0
 24
1.0
 15
10.0
 25
10.0
 16
0.0
 26
0.0
 36
1.0
 17
0.0
 27
0.0
 37
0.0
 42
50.0
 43
0.0
 44
0.0
 45
689.9195596776389
 50
0.0
 51
0.0
 72
   100
 90
    37664
  1

281
     0
 71
     1
 74
     0
110
0.0
120
0.0
130
0.0
111
1.0
121
0.0
131
0.0
112
0.0
122
1.0
132
0.0
 79
     0
146
0.0
  0
ENDSEC
  0
SECTION
  2
OBJECTS
  0
DICTIONARY
  5
C
330
0
100
AcDbDictionary
281
     1
  3
ACAD_COLOR
350
E4E8
  3
ACAD_GROUP
350
D
  3
ACAD_LAYOUT
350
19
  3
ACAD_MATERIAL
350
E4BB
  3
ACAD_MLEADERSTYLE
350
E50D
  3
ACAD_MLINESTYLE
350
16
  3
ACAD_PLOTSETTINGS
350
18
  3
ACAD_PLOTSTYLENAME
350
E
  3
ACAD_SCALELIST
350
E4EB
  3
ACAD_TABLESTYLE
350
E4E9
  3
ACAD_VISUALSTYLE
350
E4D4
  3
ACADDIM
350
6D5E
  3
ACDB_RECOMPOSE_DATA
350
EC03
  3
ACDBVARIABLEDICTIONARY
350
5697
  3
AEC_PROPERTY_SET_DEFS
350
E59C
  3
ASE_INDEX_DICTIONARY
350
EB9A
  3
DWGPROPS
350
EC04
  0
DICTIONARY
  5
E512
330
10
100
AcDbDictionary
280
     1
281
     1
  3
ADSK_XREC_LAYER_RECONCILED
360
E513
  0
DICTIONARY
  5
E514
330
2F
100
AcDbDictionary
280
     1
281
     1
  3
ADSK_XREC_LAYER_RECONCILED
360
E515
  0
DICTIONARY
  5
E516
330
31
100
AcDbDictionary
280
     1
281
     1
  3
ADSK_XREC_LAYER_RECONCILED
360
E517
  0
DICTIONARY
  5
E518
330
35
100
AcDbDictionary
280
     1
281
     1
  3
ADSK_XREC_LAYER_RECONCILED
360
E519
  0
DICTIONARY
  5
E51A
330
38
100
AcDbDictionary
280
     1
281
     1
  3
ADSK_XREC_LAYER_RECONCILED
360
E51B
  0
DICTIONARY
  5
E51C
330
3D
100
AcDbDictionary
280
     1
281
     1
  3
ADSK_XREC_LAYER_RECONCILED
360
E51D
  0
DICTIONARY
  5
E51E
330
3A2
100
AcDbDictionary
280
     1
281
     1
  3
ADSK_XREC_LAYER_RECONCILED
360
E51F
  0
DICTIONARY
  5
E520
330
3BBA
100
AcDbDictionary
280
     1
281
     1
  3
ADSK_XREC_LAYER_RECONCILED
360
E521
  0
DICTIONARY
  5
E522
330
67A8
100
AcDbDictionary
280
     1
281
     1
  3
ADSK_XREC_LAYER_RECONCILED
360
E523
  0
DICTIONARY
  5
E524
330
7837
100
AcDbDictionary
280
     1
281
     1
  3
ADSK_XREC_LAYER_RECONCILED
360
E525
  0
DICTIONARY
  5
E526
330
7BC8
100
AcDbDictionary
280
     1
281
     1
  3
ADSK_XREC_LAYER_RECONCILED
360
E527
  0
DICTIONARY
  5
E528
330
C4FD
100
AcDbDictionary
280
     1
281
     1
  3
ADSK_XREC_LAYER_RECONCILED
360
E529
  0
DICTIONARY
  5
E52A
330
C4FE
100
AcDbDictionary
280
     1
281
     1
  3
ADSK_XREC_LAYER_RECONCILED
360
E52B
  0
DICTIONARY
  5
E52C
330
C4FF
100
AcDbDictionary
280
     1
281
     1
  3
ADSK_XREC_LAYER_RECONCILED
360
E52D
  0
DICTIONARY
  5
E52E
330
C500
100
AcDbDictionary
280
     1
281
     1
  3
ADSK_XREC_LAYER_RECONCILED
360
E52F
  0
DICTIONARY
  5
E530
330
C501
100
AcDbDictionary
280
     1
281
     1
  3
ADSK_XREC_LAYER_RECONCILED
360
E531
  0
DICTIONARY
  5
E532
330
C502
100
AcDbDictionary
280
     1
281
     1
  3
ADSK_XREC_LAYER_RECONCILED
360
E533
  0
DICTIONARY
  5
E534
330
E473
100
AcDbDictionary
280
     1
281
     1
  3
ADSK_XREC_LAYER_RECONCILED
360
E535
  0
DICTIONARY
  5
178
330
1E
100
AcDbDictionary
280
     1
281
     1
  3
ACAD_LAYOUTSELFREF
360
9011
  0
DICTIONARY
  5
17A
330
1A
100
AcDbDictionary
280
     1
281
     1
  3
ACAD_LAYOUTSELFREF
360
9010
  0
DICTIONARY
  5
E5FF
330
E5FD
100
AcDbDictionary
280
     1
281
     1
  0
DICTIONARY
  5
EC0B
330
92D7
100
AcDbDictionary
280
     1
281
     1
  3
ACAD_MTEXT_RT
360
EC0C
  0
DICTIONARY
  5
EC0D
330
92E2
100
AcDbDictionary
280
     1
281
     1
  3
ACAD_MTEXT_RT
360
EC0E
  0
DICTIONARY
  5
EC11
330
E1CF
100
AcDbDictionary
280
     1
281
     1
  3
ACAD_MTEXT_RT
360
EC12
  0
DICTIONARY
  5
EC05
330
9AC
100
AcDbDictionary
280
     1
281
     1
  3
ACAD_XREC_ROUNDTRIP
360
EC06
  0
DICTIONARY
  5
EC0F
330
E19D
100
AcDbDictionary
280
     1
281
     1
  3
ACAD_XREC_ROUNDTRIP
360
EC10
  0
DICTIONARY
  5
E4E8
102
{ACAD_REACTORS
330
C
102
}
330
C
100
AcDbDictionary
281
     1
  0
DICTIONARY
  5
D
102
{ACAD_REACTORS
330
C
102
}
330
C
100
AcDbDictionary
281
     1
  0
DICTIONARY
  5
19
102
{ACAD_REACTORS
330
C
102
}
330
C
100
AcDbDictionary
281
     1
  3
Model
350
904E
  3
ﾚｲｱｳﾄ1
350
904F
  0
DICTIONARY
  5
E4BB
102
{ACAD_REACTORS
330
C
102
}
330
C
100
AcDbDictionary
281
     1
  3
ByBlock
350
E4C4
  3
ByLayer
350
E4BC
  3
Global
350
E4CC
  0
DICTIONARY
  5
E50D
102
{ACAD_REACTORS
330
C
102
}
330
C
100
AcDbDictionary
281
     1
  3
Standard
350
E50E
  0
DICTIONARY
  5
16
102
{ACAD_REACTORS
330
C
102
}
330
C
100
AcDbDictionary
281
     1
  3
STANDARD
350
17
  0
DICTIONARY
  5
18
102
{ACAD_REACTORS
330
C
102
}
330
C
100
AcDbDictionary
281
     1
  0
ACDBDICTIONARYWDFLT
  5
E
102
{ACAD_REACTORS
330
C
102
}
330
C
100
AcDbDictionary
281
     1
  3
Normal
350
F
100
AcDbDictionaryWithDefault
340
F
  0
DICTIONARY
  5
E4EB
102
{ACAD_REACTORS
330
C
102
}
330
C
100
AcDbDictionary
281
     1
  3
A0
350
E4EC
  3
A1
350
E4ED
  3
A2
350
E4EE
  3
A3
350
E4EF
  3
A4
350
E4F0
  3
A5
350
E4F1
  3
A6
350
E4F2
  3
A7
350
E4F3
  3
A8
350
E4F4
  3
A9
350
E4F5
  3
B0
350
E4F6
  3
B1
350
E4F7
  3
B2
350
E4F8
  3
B3
350
E4F9
  3
B4
350
E4FA
  3
B5
350
E4FB
  3
B6
350
E4FC
  3
B7
350
E4FD
  3
B8
350
E4FE
  3
B9
350
E4FF
  3
C0
350
E500
  3
C1
350
E501
  3
C2
350
E502
  3
C3
350
E503
  3
C4
350
E504
  3
C5
350
E505
  3
C6
350
E506
  3
C7
350
E507
  3
C8
350
E508
  3
C9
350
E509
  3
D0
350
E50A
  3
D1
350
E50B
  3
D2
350
E50C
  0
DICTIONARY
  5
E4E9
102
{ACAD_REACTORS
330
C
102
}
330
C
100
AcDbDictionary
281
     1
  3
Standard
350
E4EA
  0
DICTIONARY
  5
E4D4
102
{ACAD_REACTORS
330
C
102
}
330
C
100
AcDbDictionary
281
     1
  3
2dWireframe
350
E4DA
  3
3D Hidden
350
E4DC
  3
3dWireframe
350
E4DB
  3
Basic
350
E4D9
  3
Brighten
350
E4E0
  3
ColorChange
350
E4E4
  3
Conceptual
350
E4DD
  3
Dim
350
E4DF
  3
EdgeColorOff
350
E4E7
  3
Facepattern
350
E4E3
  3
Flat
350
E4D5
  3
FlatWithEdges
350
E4D6
  3
Gouraud
350
E4D7
  3
GouraudWithEdges
350
E4D8
  3
JitterOff
350
E4E5
  3
Linepattern
350
E4E2
  3
OverhangOff
350
E4E6
  3
Realistic
350
E4DE
  3
Thicken
350
E4E1
  0
XRECORD
  5
6D5E
102
{ACAD_REACTORS
330
C
102
}
330
C
100
AcDbXrecord
280
     1
 90
   990106
  3

 60
     0
 61
     0
 62
     1
 63
     3
 64
     0
 65
     0
 66
     0
 67
     3
 68
     1
 69
     0
 70
     0
 71
     0
 72
     0
 40
0.0
170
     0
340
7CA9
  0
XRECORD
  5
EC03
102
{ACAD_REACTORS
330
C
102
}
330
C
100
AcDbXrecord
280
     1
 90
        1
330
E4EA
  0
DICTIONARY
  5
5697
102
{ACAD_REACTORS
330
C
102
}
330
C
100
AcDbDictionary
281
     1
  3
CANNOSCALE
350
E581
  3
CMLEADERSTYLE
350
E580
  3
CTABLESTYLE
350
E57F
  3
DIMASSOC
350
5698
  3
INDEXCTL
350
E583
  3
SORTENTS
350
E582
  3
XCLIPFRAME
350
EB9C
  0
DICTIONARY
  5
E59C
102
{ACAD_REACTORS
330
C
102
}
330
C
100
AcDbDictionary
281
     1
  0
DICTIONARY
  5
EB9A
102
{ACAD_REACTORS
330
C
102
}
330
C
100
AcDbDictionary
281
     1
  3
ASEBlockHierarchyIndexRecord
350
EB9B
1001
DCO15
1040
1730098928.468
  0
XRECORD
  5
EC04
102
{ACAD_REACTORS
330
C
102
}
330
C
100
AcDbXrecord
280
     1
  1
DWGPROPS COOKIE
  2

  3

  4

  6

  7

  8
cadm
  9

300
=
301
=
302
=
303
=
304
=
305
=
306
=
307
=
308
=
309
=
 40
2.007250613425926
 41
2452286.555658658
 42
2455827.505005417
  1

 90
        0
  0
XRECORD
  5
E513
102
{ACAD_REACTORS
330
E512
102
}
330
E512
100
AcDbXrecord
280
     1
290
     1
  0
XRECORD
  5
E515
102
{ACAD_REACTORS
330
E514
102
}
330
E514
100
AcDbXrecord
280
     1
290
     1
  0
XRECORD
  5
E517
102
{ACAD_REACTORS
330
E516
102
}
330
E516
100
AcDbXrecord
280
     1
290
     1
  0
XRECORD
  5
E519
102
{ACAD_REACTORS
330
E518
102
}
330
E518
100
AcDbXrecord
280
     1
290
     1
  0
XRECORD
  5
E51B
102
{ACAD_REACTORS
330
E51A
102
}
330
E51A
100
AcDbXrecord
280
     1
290
     1
  0
XRECORD
  5
E51D
102
{ACAD_REACTORS
330
E51C
102
}
330
E51C
100
AcDbXrecord
280
     1
290
     1
  0
XRECORD
  5
E51F
102
{ACAD_REACTORS
330
E51E
102
}
330
E51E
100
AcDbXrecord
280
     1
290
     1
  0
XRECORD
  5
E521
102
{ACAD_REACTORS
330
E520
102
}
330
E520
100
AcDbXrecord
280
     1
290
     1
  0
XRECORD
  5
E523
102
{ACAD_REACTORS
330
E522
102
}
330
E522
100
AcDbXrecord
280
     1
290
     1
  0
XRECORD
  5
E525
102
{ACAD_REACTORS
330
E524
102
}
330
E524
100
AcDbXrecord
280
     1
290
     1
  0
XRECORD
  5
E527
102
{ACAD_REACTORS
330
E526
102
}
330
E526
100
AcDbXrecord
280
     1
290
     1
  0
XRECORD
  5
E529
102
{ACAD_REACTORS
330
E528
102
}
330
E528
100
AcDbXrecord
280
     1
290
     1
  0
XRECORD
  5
E52B
102
{ACAD_REACTORS
330
E52A
102
}
330
E52A
100
AcDbXrecord
280
     1
290
     1
  0
XRECORD
  5
E52D
102
{ACAD_REACTORS
330
E52C
102
}
330
E52C
100
AcDbXrecord
280
     1
290
     1
  0
XRECORD
  5
E52F
102
{ACAD_REACTORS
330
E52E
102
}
330
E52E
100
AcDbXrecord
280
     1
290
     1
  0
XRECORD
  5
E531
102
{ACAD_REACTORS
330
E530
102
}
330
E530
100
AcDbXrecord
280
     1
290
     1
  0
XRECORD
  5
E533
102
{ACAD_REACTORS
330
E532
102
}
330
E532
100
AcDbXrecord
280
     1
290
     1
  0
XRECORD
  5
E535
102
{ACAD_REACTORS
330
E534
102
}
330
E534
100
AcDbXrecord
280
     1
290
     1
  0
XRECORD
  5
9011
102
{ACAD_REACTORS
330
178
102
}
330
178
100
AcDbXrecord
280
     1
340
1E
  0
XRECORD
  5
9010
102
{ACAD_REACTORS
330
17A
102
}
330
17A
100
AcDbXrecord
280
     1
340
1A
  0
XRECORD
  5
EC0C
102
{ACAD_REACTORS
330
EC0B
102
}
330
EC0B
100
AcDbXrecord
280
     1
 40
10143.0
  1
\A1;\U+22058.015265
  0
XRECORD
  5
EC0E
102
{ACAD_REACTORS
330
EC0D
102
}
330
EC0D
100
AcDbXrecord
280
     1
 40
11108.0
  1
\A1;\U+220513.024807
  0
XRECORD
  5
EC12
102
{ACAD_REACTORS
330
EC11
102
}
330
EC11
100
AcDbXrecord
280
     1
 40
4473.0
  1
\A1;\U+22059
  0
XRECORD
  5
EC06
102
{ACAD_REACTORS
330
EC05
102
}
330
EC05
100
AcDbXrecord
280
     1
102
SHADEPLOT
 70
     0
  0
XRECORD
  5
EC10
102
{ACAD_REACTORS
330
EC0F
102
}
330
EC0F
100
AcDbXrecord
280
     1
102
SHADEPLOT
 70
     0
  0
LAYOUT
  5
904E
102
{ACAD_XDICTIONARY
360
EC07
102
}
102
{ACAD_REACTORS
330
19
102
}
330
19
100
AcDbPlotSettings
  1

  2
Canon LBP3800 LIPSLX
  4
A4
  6

 40
5.873749732971191
 41
5.873747825622557
 42
5.873748779296875
 43
5.873748779296875
 44
209.9733276367186
 45
296.9259948730469
 46
18.43984969487282
 47
4.872025289436352
 48
0.0
 49
0.0
140
0.0
141
0.0
142
1.0
143
2.5
 70
 11940
 72
     1
 73
     0
 74
     1
  7
monochrome.ctb
 75
     0
147
0.4396468539207605
148
169.0586189742416
149
210.5190989520861
100
AcDbLayout
  1
Model
 70
     1
 71
     0
 10
0.0
 20
0.0
 11
12.0
 21
9.0
 12
0.0
 22
0.0
 32
0.0
 14
0.0
 24
0.0
 34
0.0
 15
0.0
 25
0.0
 35
0.0
146
0.0
 13
0.0
 23
0.0
 33
0.0
 16
1.0
 26
0.0
 36
0.0
 17
0.0
 27
1.0
 37
0.0
 76
     0
330
1E
331
EB91
1001
ACAD_PSEXT
1000
Canon LBP3800 LIPSLX
1000
Canon LBP3800 LIPSLX
1000
IP_192.168.54.50
1000

1070
     0
  0
LAYOUT
  5
904F
102
{ACAD_XDICTIONARY
360
EC09
102
}
102
{ACAD_REACTORS
330
19
102
}
330
19
100
AcDbPlotSettings
  1

  2
LBP5400
  4

  6

 40
0.0
 41
0.0
 42
0.0
 43
0.0
 44
0.0
 45
0.0
 46
0.0
 47
0.0
 48
0.0
 49
0.0
140
0.0
141
0.0
142
1.0
143
1.0
 70
   688
 72
     0
 73
     1
 74
     1
  7
monochrome.stb
 75
     0
147
1.0
148
0.0
149
0.0
100
AcDbLayout
  1
ﾚｲｱｳﾄ1
 70
     1
 71
     1
 10
0.0
 20
0.0
 11
0.0
 21
0.0
 12
0.0
 22
0.0
 32
0.0
 14
0.0
 24
0.0
 34
0.0
 15
0.0
 25
0.0
 35
0.0
146
0.0
 13
0.0
 23
0.0
 33
0.0
 16
1.0
 26
0.0
 36
0.0
 17
0.0
 27
1.0
 37
0.0
 76
     0
330
1A
331
9AC
  0
MATERIAL
  5
E4C4
102
{ACAD_XDICTIONARY
360
E4C5
102
}
102
{ACAD_REACTORS
330
E4BB
102
}
330
E4BB
100
AcDbMaterial
  1
ByBlock
 72
     0
 43
0.0208333333333333
 43
0.0
 43
0.0
 43
0.0
 43
0.0
 43
0.0208333333333333
 43
0.0
 43
0.0
 43
0.0
 43
0.0
 43
1.0
 43
0.0
 43
0.0
 43
0.0
 43
0.0
 43
1.0
 77
     0
 47
0.0208333333333333
 47
0.0
 47
0.0
 47
0.0
 47
0.0
 47
0.0208333333333333
 47
0.0
 47
0.0
 47
0.0
 47
0.0
 47
1.0
 47
0.0
 47
0.0
 47
0.0
 47
0.0
 47
1.0
171
     0
 49
0.0208333333333333
 49
0.0
 49
0.0
 49
0.0
 49
0.0
 49
0.0208333333333333
 49
0.0
 49
0.0
 49
0.0
 49
0.0
 49
1.0
 49
0.0
 49
0.0
 49
0.0
 49
0.0
 49
1.0
175
     0
142
0.0208333333333333
142
0.0
142
0.0
142
0.0
142
0.0
142
0.0208333333333333
142
0.0
142
0.0
142
0.0
142
0.0
142
1.0
142
0.0
142
0.0
142
0.0
142
0.0
142
1.0
179
     0
144
0.0208333333333333
144
0.0
144
0.0
144
0.0
144
0.0
144
0.0208333333333333
144
0.0
144
0.0
144
0.0
144
0.0
144
1.0
144
0.0
144
0.0
144
0.0
144
0.0
144
1.0
147
0.0208333333333333
147
0.0
147
0.0
147
0.0
147
0.0
147
0.0208333333333333
147
0.0
147
0.0
147
0.0
147
0.0
147
1.0
147
0.0
147
0.0
147
0.0
147
0.0
147
1.0
  0
MATERIAL
  5
E4BC
102
{ACAD_XDICTIONARY
360
E4BD
102
}
102
{ACAD_REACTORS
330
E4BB
102
}
330
E4BB
100
AcDbMaterial
  1
ByLayer
 72
     0
 43
0.0208333333333333
 43
0.0
 43
0.0
 43
0.0
 43
0.0
 43
0.0208333333333333
 43
0.0
 43
0.0
 43
0.0
 43
0.0
 43
1.0
 43
0.0
 43
0.0
 43
0.0
 43
0.0
 43
1.0
 77
     0
 47
0.0208333333333333
 47
0.0
 47
0.0
 47
0.0
 47
0.0
 47
0.0208333333333333
 47
0.0
 47
0.0
 47
0.0
 47
0.0
 47
1.0
 47
0.0
 47
0.0
 47
0.0
 47
0.0
 47
1.0
171
     0
 49
0.0208333333333333
 49
0.0
 49
0.0
 49
0.0
 49
0.0
 49
0.0208333333333333
 49
0.0
 49
0.0
 49
0.0
 49
0.0
 49
1.0
 49
0.0
 49
0.0
 49
0.0
 49
0.0
 49
1.0
175
     0
142
0.0208333333333333
142
0.0
142
0.0
142
0.0
142
0.0
142
0.0208333333333333
142
0.0
142
0.0
142
0.0
142
0.0
142
1.0
142
0.0
142
0.0
142
0.0
142
0.0
142
1.0
179
     0
144
0.0208333333333333
144
0.0
144
0.0
144
0.0
144
0.0
144
0.0208333333333333
144
0.0
144
0.0
144
0.0
144
0.0
144
1.0
144
0.0
144
0.0
144
0.0
144
0.0
144
1.0
147
0.0208333333333333
147
0.0
147
0.0
147
0.0
147
0.0
147
0.0208333333333333
147
0.0
147
0.0
147
0.0
147
0.0
147
1.0
147
0.0
147
0.0
147
0.0
147
0.0
147
1.0
  0
MATERIAL
  5
E4CC
102
{ACAD_XDICTIONARY
360
E4CD
102
}
102
{ACAD_REACTORS
330
E4BB
102
}
330
E4BB
100
AcDbMaterial
  1
Global
 72
     0
 43
0.0208333333333333
 43
0.0
 43
0.0
 43
0.0
 43
0.0
 43
0.0208333333333333
 43
0.0
 43
0.0
 43
0.0
 43
0.0
 43
1.0
 43
0.0
 43
0.0
 43
0.0
 43
0.0
 43
1.0
 77
     0
 47
0.0208333333333333
 47
0.0
 47
0.0
 47
0.0
 47
0.0
 47
0.0208333333333333
 47
0.0
 47
0.0
 47
0.0
 47
0.0
 47
1.0
 47
0.0
 47
0.0
 47
0.0
 47
0.0
 47
1.0
171
     0
 49
0.0208333333333333
 49
0.0
 49
0.0
 49
0.0
 49
0.0
 49
0.0208333333333333
 49
0.0
 49
0.0
 49
0.0
 49
0.0
 49
1.0
 49
0.0
 49
0.0
 49
0.0
 49
0.0
 49
1.0
175
     0
142
0.0208333333333333
142
0.0
142
0.0
142
0.0
142
0.0
142
0.0208333333333333
142
0.0
142
0.0
142
0.0
142
0.0
142
1.0
142
0.0
142
0.0
142
0.0
142
0.0
142
1.0
179
     0
144
0.0208333333333333
144
0.0
144
0.0
144
0.0
144
0.0
144
0.0208333333333333
144
0.0
144
0.0
144
0.0
144
0.0
144
1.0
144
0.0
144
0.0
144
0.0
144
0.0
144
1.0
147
0.0208333333333333
147
0.0
147
0.0
147
0.0
147
0.0
147
0.0208333333333333
147
0.0
147
0.0
147
0.0
147
0.0
147
1.0
147
0.0
147
0.0
147
0.0
147
0.0
147
1.0
  0
MLEADERSTYLE
  5
E50E
102
{ACAD_REACTORS
330
E50D
102
}
330
E50D
100
AcDbMLeaderStyle
170
     2
171
     1
172
     0
 90
        2
 40
0.0
 41
0.0
173
     1
 91
-1056964608
340
13
 92
       -2
290
     1
 42
0.09
291
     1
 43
0.36
  3
Standard
 44
0.18
300

342
11
174
     1
178
     6
175
     1
176
     0
 93
-1056964608
 45
0.18
292
     0
297
     0
 46
0.18
 94
-1056964608
 47
1.0
 49
1.0
140
1.0
293
     1
141
0.0
294
     1
177
     0
142
1.0
295
     0
296
     0
143
0.125
1001
ACAD_MLEADERVER
1070
     2
  0
MLINESTYLE
  5
17
102
{ACAD_REACTORS
330
16
102
}
330
16
100
AcDbMlineStyle
  2
STANDARD
 70
     0
  3

 62
   256
 51
90.0
 52
90.0
 71
     2
 49
0.5
 62
   256
  6
BYLAYER
 49
-0.5
 62
   256
  6
BYLAYER
  0
ACDBPLACEHOLDER
  5
F
102
{ACAD_REACTORS
330
E
102
}
330
E
  0
SCALE
  5
E4EC
102
{ACAD_REACTORS
330
E4EB
102
}
330
E4EB
100
AcDbScale
 70
     0
300
1:1
140
1.0
141
1.0
290
     1
  0
SCALE
  5
E4ED
102
{ACAD_REACTORS
330
E4EB
102
}
330
E4EB
100
AcDbScale
 70
     0
300
1:2
140
1.0
141
2.0
290
     0
  0
SCALE
  5
E4EE
102
{ACAD_REACTORS
330
E4EB
102
}
330
E4EB
100
AcDbScale
 70
     0
300
1:4
140
1.0
141
4.0
290
     0
  0
SCALE
  5
E4EF
102
{ACAD_REACTORS
330
E4EB
102
}
330
E4EB
100
AcDbScale
 70
     0
300
1:5
140
1.0
141
5.0
290
     0
  0
SCALE
  5
E4F0
102
{ACAD_REACTORS
330
E4EB
102
}
330
E4EB
100
AcDbScale
 70
     0
300
1:8
140
1.0
141
8.0
290
     0
  0
SCALE
  5
E4F1
102
{ACAD_REACTORS
330
E4EB
102
}
330
E4EB
100
AcDbScale
 70
     0
300
1:10
140
1.0
141
10.0
290
     0
  0
SCALE
  5
E4F2
102
{ACAD_REACTORS
330
E4EB
102
}
330
E4EB
100
AcDbScale
 70
     0
300
1:16
140
1.0
141
16.0
290
     0
  0
SCALE
  5
E4F3
102
{ACAD_REACTORS
330
E4EB
102
}
330
E4EB
100
AcDbScale
 70
     0
300
1:20
140
1.0
141
20.0
290
     0
  0
SCALE
  5
E4F4
102
{ACAD_REACTORS
330
E4EB
102
}
330
E4EB
100
AcDbScale
 70
     0
300
1:30
140
1.0
141
30.0
290
     0
  0
SCALE
  5
E4F5
102
{ACAD_REACTORS
330
E4EB
102
}
330
E4EB
100
AcDbScale
 70
     0
300
1:40
140
1.0
141
40.0
290
     0
  0
SCALE
  5
E4F6
102
{ACAD_REACTORS
330
E4EB
102
}
330
E4EB
100
AcDbScale
 70
     0
300
1:50
140
1.0
141
50.0
290
     0
  0
SCALE
  5
E4F7
102
{ACAD_REACTORS
330
E4EB
102
}
330
E4EB
100
AcDbScale
 70
     0
300
1:100
140
1.0
141
100.0
290
     0
  0
SCALE
  5
E4F8
102
{ACAD_REACTORS
330
E4EB
102
}
330
E4EB
100
AcDbScale
 70
     0
300
2:1
140
2.0
141
1.0
290
     0
  0
SCALE
  5
E4F9
102
{ACAD_REACTORS
330
E4EB
102
}
330
E4EB
100
AcDbScale
 70
     0
300
4:1
140
4.0
141
1.0
290
     0
  0
SCALE
  5
E4FA
102
{ACAD_REACTORS
330
E4EB
102
}
330
E4EB
100
AcDbScale
 70
     0
300
8:1
140
8.0
141
1.0
290
     0
  0
SCALE
  5
E4FB
102
{ACAD_REACTORS
330
E4EB
102
}
330
E4EB
100
AcDbScale
 70
     0
300
10:1
140
10.0
141
1.0
290
     0
  0
SCALE
  5
E4FC
102
{ACAD_REACTORS
330
E4EB
102
}
330
E4EB
100
AcDbScale
 70
     0
300
100:1
140
100.0
141
1.0
290
     0
  0
SCALE
  5
E4FD
102
{ACAD_REACTORS
330
E4EB
102
}
330
E4EB
100
AcDbScale
 70
     0
300
1/128" = 1'-0"
140
0.0078125
141
12.0
290
     0
  0
SCALE
  5
E4FE
102
{ACAD_REACTORS
330
E4EB
102
}
330
E4EB
100
AcDbScale
 70
     0
300
1/64" = 1'-0"
140
0.015625
141
12.0
290
     0
  0
SCALE
  5
E4FF
102
{ACAD_REACTORS
330
E4EB
102
}
330
E4EB
100
AcDbScale
 70
     0
300
1/32" = 1'-0"
140
0.03125
141
12.0
290
     0
  0
SCALE
  5
E500
102
{ACAD_REACTORS
330
E4EB
102
}
330
E4EB
100
AcDbScale
 70
     0
300
1/16" = 1'-0"
140
0.0625
141
12.0
290
     0
  0
SCALE
  5
E501
102
{ACAD_REACTORS
330
E4EB
102
}
330
E4EB
100
AcDbScale
 70
     0
300
3/32" = 1'-0"
140
0.09375
141
12.0
290
     0
  0
SCALE
  5
E502
102
{ACAD_REACTORS
330
E4EB
102
}
330
E4EB
100
AcDbScale
 70
     0
300
1/8" = 1'-0"
140
0.125
141
12.0
290
     0
  0
SCALE
  5
E503
102
{ACAD_REACTORS
330
E4EB
102
}
330
E4EB
100
AcDbScale
 70
     0
300
3/16" = 1'-0"
140
0.1875
141
12.0
290
     0
  0
SCALE
  5
E504
102
{ACAD_REACTORS
330
E4EB
102
}
330
E4EB
100
AcDbScale
 70
     0
300
1/4" = 1'-0"
140
0.25
141
12.0
290
     0
  0
SCALE
  5
E505
102
{ACAD_REACTORS
330
E4EB
102
}
330
E4EB
100
AcDbScale
 70
     0
300
3/8" = 1'-0"
140
0.375
141
12.0
290
     0
  0
SCALE
  5
E506
102
{ACAD_REACTORS
330
E4EB
102
}
330
E4EB
100
AcDbScale
 70
     0
300
1/2" = 1'-0"
140
0.5
141
12.0
290
     0
  0
SCALE
  5
E507
102
{ACAD_REACTORS
330
E4EB
102
}
330
E4EB
100
AcDbScale
 70
     0
300
3/4" = 1'-0"
140
0.75
141
12.0
290
     0
  0
SCALE
  5
E508
102
{ACAD_REACTORS
330
E4EB
102
}
330
E4EB
100
AcDbScale
 70
     0
300
1" = 1'-0"
140
1.0
141
12.0
290
     0
  0
SCALE
  5
E509
102
{ACAD_REACTORS
330
E4EB
102
}
330
E4EB
100
AcDbScale
 70
     0
300
1-1/2" = 1'-0"
140
1.5
141
12.0
290
     0
  0
SCALE
  5
E50A
102
{ACAD_REACTORS
330
E4EB
102
}
330
E4EB
100
AcDbScale
 70
     0
300
3" = 1'-0"
140
3.0
141
12.0
290
     0
  0
SCALE
  5
E50B
102
{ACAD_REACTORS
330
E4EB
102
}
330
E4EB
100
AcDbScale
 70
     0
300
6" = 1'-0"
140
6.0
141
12.0
290
     0
  0
SCALE
  5
E50C
102
{ACAD_REACTORS
330
E4EB
102
}
330
E4EB
100
AcDbScale
 70
     0
300
1'-0" = 1'-0"
140
12.0
141
12.0
290
     0
  0
TABLESTYLE
  5
E4EA
102
{ACAD_XDICTIONARY
360
E53A
102
}
102
{ACAD_REACTORS
330
E4E9
102
}
330
E4E9
100
AcDbTableStyle
  3
Standard
 70
     0
 71
     0
 40
0.06
 41
0.06
280
     0
281
     0
  7
STANDARD
140
0.18
170
     2
 62
     0
 63
     7
283
     0
274
    -2
284
     1
 64
     0
275
    -2
285
     1
 65
     0
276
    -2
286
     1
 66
     0
277
    -2
287
     1
 67
     0
278
    -2
288
     1
 68
     0
279
    -2
289
     1
 69
     0
  7
STANDARD
140
0.25
170
     5
 62
     0
 63
     7
283
     0
274
    -2
284
     1
 64
     0
275
    -2
285
     1
 65
     0
276
    -2
286
     1
 66
     0
277
    -2
287
     1
 67
     0
278
    -2
288
     1
 68
     0
279
    -2
289
     1
 69
     0
  7
STANDARD
140
0.18
170
     5
 62
     0
 63
     7
283
     0
274
    -2
284
     1
 64
     0
275
    -2
285
     1
 65
     0
276
    -2
286
     1
 66
     0
277
    -2
287
     1
 67
     0
278
    -2
288
     1
 68
     0
279
    -2
289
     1
 69
     0
  0
VISUALSTYLE
  5
E4DA
102
{ACAD_XDICTIONARY
360
EC1D
102
}
102
{ACAD_REACTORS
330
E4D4
102
}
330
E4D4
100
AcDbVisualStyle
  2
2dWireframe
 70
     4
 71
     0
 72
     2
 73
     0
 90
        0
 40
-0.6
 41
-30.0
 62
     5
 63
     7
 74
     1
 91
        4
 64
     7
 65
   257
 75
     1
175
     1
 42
1.0
 92
        0
 66
   257
 43
1.0
 76
     1
 77
     6
 78
     2
 67
     7
 79
     5
170
     0
171
     0
290
     0
174
     0
 93
        1
 44
0.0
173
     0
291
     0
 45
0.0
1001
ACAD
1000
AcDbSavedByObjectVersion
1070
     0
  0
VISUALSTYLE
  5
E4DC
102
{ACAD_XDICTIONARY
360
EC21
102
}
102
{ACAD_REACTORS
330
E4D4
102
}
330
E4D4
100
AcDbVisualStyle
  2
3D Hidden
 70
     6
 71
     1
 72
     2
 73
     2
 90
        0
 40
-0.6
 41
-30.0
 62
     5
 63
     7
 74
     2
 91
        2
 64
     7
 65
   257
 75
     2
175
     1
 42
179.0
 92
        0
 66
   257
 43
1.0
 76
     1
 77
     6
 78
     2
 67
     7
 79
     3
170
     0
171
     0
290
     0
174
     0
 93
        1
 44
0.0
173
     0
291
     0
 45
0.0
1001
ACAD
1000
AcDbSavedByObjectVersion
1070
     0
  0
VISUALSTYLE
  5
E4DB
102
{ACAD_XDICTIONARY
360
EC1F
102
}
102
{ACAD_REACTORS
330
E4D4
102
}
330
E4D4
100
AcDbVisualStyle
  2
3dWireframe
 70
     5
 71
     0
 72
     2
 73
     0
 90
        0
 40
-0.6
 41
-30.0
 62
     5
 63
     7
 74
     1
 91
        4
 64
     7
 65
   257
 75
     1
175
     1
 42
1.0
 92
        0
 66
   257
 43
1.0
 76
     1
 77
     6
 78
     2
 67
     7
 79
     5
170
     0
171
     0
290
     0
174
     0
 93
        1
 44
0.0
173
     0
291
     0
 45
0.0
1001
ACAD
1000
AcDbSavedByObjectVersion
1070
     0
  0
VISUALSTYLE
  5
E4D9
102
{ACAD_XDICTIONARY
360
EC1B
102
}
102
{ACAD_REACTORS
330
E4D4
102
}
330
E4D4
100
AcDbVisualStyle
  2
Basic
 70
     7
 71
     1
 72
     0
 73
     1
 90
        0
 40
-0.6
 41
-30.0
 62
     5
 63
     7
 74
     0
 91
        4
 64
     7
 65
   257
 75
     1
175
     1
 42
1.0
 92
        8
 66
     7
 43
1.0
 76
     1
 77
     6
 78
     2
 67
     7
 79
     5
170
     0
171
     0
290
     0
174
     0
 93
        1
 44
0.0
173
     0
291
     1
 45
0.0
1001
ACAD
1000
AcDbSavedByObjectVersion
1070
     0
  0
VISUALSTYLE
  5
E4E0
102
{ACAD_XDICTIONARY
360
EC29
102
}
102
{ACAD_REACTORS
330
E4D4
102
}
330
E4D4
100
AcDbVisualStyle
  2
Brighten
 70
    12
 71
     2
 72
     2
 73
     0
 90
        0
 40
-0.6
 41
-30.0
 62
     5
 63
     7
 74
     1
 91
        4
 64
     7
 65
   257
 75
     1
175
     1
 42
1.0
 92
        8
 66
     7
 43
1.0
 76
     1
 77
     6
 78
     2
 67
     7
 79
     5
170
     0
171
     0
290
     0
174
     0
 93
        1
 44
50.0
173
     0
291
     1
 45
0.0
1001
ACAD
1000
AcDbSavedByObjectVersion
1070
     0
  0
VISUALSTYLE
  5
E4E4
102
{ACAD_XDICTIONARY
360
EC31
102
}
102
{ACAD_REACTORS
330
E4D4
102
}
330
E4D4
100
AcDbVisualStyle
  2
ColorChange
 70
    16
 71
     2
 72
     2
 73
     3
 90
        0
 40
-0.6
 41
-30.0
 62
     5
 63
     8
 74
     1
 91
        4
 64
     7
 65
   257
 75
     1
175
     1
 42
1.0
 92
        8
 66
     8
 43
1.0
 76
     1
 77
     6
 78
     2
 67
     7
 79
     5
170
     0
171
     0
290
     0
174
     0
 93
        1
 44
0.0
173
     0
291
     1
 45
0.0
1001
ACAD
1000
AcDbSavedByObjectVersion
1070
     0
  0
VISUALSTYLE
  5
E4DD
102
{ACAD_XDICTIONARY
360
EC23
102
}
102
{ACAD_REACTORS
330
E4D4
102
}
330
E4D4
100
AcDbVisualStyle
  2
Conceptual
 70
     9
 71
     3
 72
     2
 73
     0
 90
        0
 40
-0.6
 41
-30.0
 62
     5
 63
     7
 74
     2
 91
        2
 64
     7
 65
   257
 75
     1
175
     1
 42
179.0
 92
        8
 66
     7
 43
1.0
 76
     1
 77
     6
 78
     2
 67
     7
 79
     3
170
     0
171
     0
290
     0
174
     0
 93
        1
 44
0.0
173
     0
291
     0
 45
0.0
1001
ACAD
1000
AcDbSavedByObjectVersion
1070
     0
  0
VISUALSTYLE
  5
E4DF
102
{ACAD_XDICTIONARY
360
EC27
102
}
102
{ACAD_REACTORS
330
E4D4
102
}
330
E4D4
100
AcDbVisualStyle
  2
Dim
 70
    11
 71
     2
 72
     2
 73
     0
 90
        0
 40
-0.6
 41
-30.0
 62
     5
 63
     7
 74
     1
 91
        4
 64
     7
 65
   257
 75
     1
175
     1
 42
1.0
 92
        8
 66
     7
 43
1.0
 76
     1
 77
     6
 78
     2
 67
     7
 79
     5
170
     0
171
     0
290
     0
174
     0
 93
        1
 44
-50.0
173
     0
291
     1
 45
0.0
1001
ACAD
1000
AcDbSavedByObjectVersion
1070
     0
  0
VISUALSTYLE
  5
E4E7
102
{ACAD_XDICTIONARY
360
EC37
102
}
102
{ACAD_REACTORS
330
E4D4
102
}
330
E4D4
100
AcDbVisualStyle
  2
EdgeColorOff
 70
    22
 71
     2
 72
     2
 73
     0
 90
        0
 40
-0.6
 41
-30.0
 62
     5
 63
     7
 74
     1
 91
        4
 64
     7
 65
   257
 75
     1
175
     1
 42
1.0
 92
        8
 66
     7
 43
1.0
 76
     1
 77
     6
 78
     2
 67
     7
 79
     5
170
     0
171
     0
290
     0
174
     0
 93
        1
 44
0.0
173
     0
291
     1
 45
0.0
1001
ACAD
1000
AcDbSavedByObjectVersion
1070
     0
  0
VISUALSTYLE
  5
E4E3
102
{ACAD_XDICTIONARY
360
EC2F
102
}
102
{ACAD_REACTORS
330
E4D4
102
}
330
E4D4
100
AcDbVisualStyle
  2
Facepattern
 70
    15
 71
     2
 72
     2
 73
     0
 90
        0
 40
-0.6
 41
-30.0
 62
     5
 63
     7
 74
     1
 91
        4
 64
     7
 65
   257
 75
     1
175
     1
 42
1.0
 92
        8
 66
     7
 43
1.0
 76
     1
 77
     6
 78
     2
 67
     7
 79
     5
170
     0
171
     0
290
     0
174
     0
 93
        1
 44
0.0
173
     0
291
     1
 45
0.0
1001
ACAD
1000
AcDbSavedByObjectVersion
1070
     0
  0
VISUALSTYLE
  5
E4D5
102
{ACAD_XDICTIONARY
360
EC13
102
}
102
{ACAD_REACTORS
330
E4D4
102
}
330
E4D4
100
AcDbVisualStyle
  2
Flat
 70
     0
 71
     2
 72
     1
 73
     1
 90
        2
 40
-0.6
 41
30.0
 62
     5
 63
     7
 74
     0
 91
        4
 64
     7
 65
   257
 75
     1
175
     1
 42
1.0
 92
        8
 66
     7
 43
1.0
 76
     1
 77
     6
 78
     2
 67
     7
 79
     5
170
     0
171
     0
290
     0
174
     0
 93
       13
 44
0.0
173
     0
291
     1
 45
0.0
1001
ACAD
1000
AcDbSavedByObjectVersion
1070
     0
  0
VISUALSTYLE
  5
E4D6
102
{ACAD_XDICTIONARY
360
EC15
102
}
102
{ACAD_REACTORS
330
E4D4
102
}
330
E4D4
100
AcDbVisualStyle
  2
FlatWithEdges
 70
     1
 71
     2
 72
     1
 73
     1
 90
        2
 40
-0.6
 41
30.0
 62
     5
 63
     7
 74
     1
 91
        4
 64
     7
 65
   257
 75
     1
175
     1
 42
1.0
 92
        0
 66
   257
 43
1.0
 76
     1
 77
     6
 78
     2
 67
     7
 79
     5
170
     0
171
     0
290
     0
174
     0
 93
       13
 44
0.0
173
     0
291
     1
 45
0.0
1001
ACAD
1000
AcDbSavedByObjectVersion
1070
     0
  0
VISUALSTYLE
  5
E4D7
102
{ACAD_XDICTIONARY
360
EC17
102
}
102
{ACAD_REACTORS
330
E4D4
102
}
330
E4D4
100
AcDbVisualStyle
  2
Gouraud
 70
     2
 71
     2
 72
     2
 73
     1
 90
        2
 40
-0.6
 41
30.0
 62
     5
 63
     7
 74
     0
 91
        4
 64
     7
 65
   257
 75
     1
175
     1
 42
1.0
 92
        0
 66
     7
 43
1.0
 76
     1
 77
     6
 78
     2
 67
     7
 79
     5
170
     0
171
     0
290
     0
174
     0
 93
       13
 44
0.0
173
     0
291
     1
 45
0.0
1001
ACAD
1000
AcDbSavedByObjectVersion
1070
     0
  0
VISUALSTYLE
  5
E4D8
102
{ACAD_XDICTIONARY
360
EC19
102
}
102
{ACAD_REACTORS
330
E4D4
102
}
330
E4D4
100
AcDbVisualStyle
  2
GouraudWithEdges
 70
     3
 71
     2
 72
     2
 73
     1
 90
        2
 40
-0.6
 41
30.0
 62
     5
 63
     7
 74
     1
 91
        4
 64
     7
 65
   257
 75
     1
175
     1
 42
1.0
 92
        0
 66
   257
 43
1.0
 76
     1
 77
     6
 78
     2
 67
     7
 79
     5
170
     0
171
     0
290
     0
174
     0
 93
       13
 44
0.0
173
     0
291
     1
 45
0.0
1001
ACAD
1000
AcDbSavedByObjectVersion
1070
     0
  0
VISUALSTYLE
  5
E4E5
102
{ACAD_XDICTIONARY
360
EC33
102
}
102
{ACAD_REACTORS
330
E4D4
102
}
330
E4D4
100
AcDbVisualStyle
  2
JitterOff
 70
    20
 71
     2
 72
     2
 73
     0
 90
        0
 40
-0.6
 41
-30.0
 62
     5
 63
     7
 74
     1
 91
        4
 64
     7
 65
   257
 75
     1
175
     1
 42
1.0
 92
       10
 66
     7
 43
1.0
 76
     1
 77
     6
 78
     2
 67
     7
 79
     5
170
     0
171
     0
290
     0
174
     0
 93
        1
 44
0.0
173
     0
291
     1
 45
0.0
1001
ACAD
1000
AcDbSavedByObjectVersion
1070
     0
  0
VISUALSTYLE
  5
E4E2
102
{ACAD_XDICTIONARY
360
EC2D
102
}
102
{ACAD_REACTORS
330
E4D4
102
}
330
E4D4
100
AcDbVisualStyle
  2
Linepattern
 70
    14
 71
     2
 72
     2
 73
     0
 90
        0
 40
-0.6
 41
-30.0
 62
     5
 63
     7
 74
     1
 91
        4
 64
     7
 65
   257
 75
     7
175
     7
 42
1.0
 92
        8
 66
     7
 43
1.0
 76
     1
 77
     6
 78
     2
 67
     7
 79
     5
170
     0
171
     0
290
     0
174
     0
 93
        1
 44
0.0
173
     0
291
     1
 45
0.0
1001
ACAD
1000
AcDbSavedByObjectVersion
1070
     0
  0
VISUALSTYLE
  5
E4E6
102
{ACAD_XDICTIONARY
360
EC35
102
}
102
{ACAD_REACTORS
330
E4D4
102
}
330
E4D4
100
AcDbVisualStyle
  2
OverhangOff
 70
    21
 71
     2
 72
     2
 73
     0
 90
        0
 40
-0.6
 41
-30.0
 62
     5
 63
     7
 74
     1
 91
        4
 64
     7
 65
   257
 75
     1
175
     1
 42
1.0
 92
        9
 66
     7
 43
1.0
 76
     1
 77
     6
 78
     2
 67
     7
 79
     5
170
     0
171
     0
290
     0
174
     0
 93
        1
 44
0.0
173
     0
291
     1
 45
0.0
1001
ACAD
1000
AcDbSavedByObjectVersion
1070
     0
  0
VISUALSTYLE
  5
E4DE
102
{ACAD_XDICTIONARY
360
EC25
102
}
102
{ACAD_REACTORS
330
E4D4
102
}
330
E4D4
100
AcDbVisualStyle
  2
Realistic
 70
     8
 71
     2
 72
     2
 73
     0
 90
        0
 40
-0.6
 41
-30.0
 62
     5
 63
     7
 74
     1
 91
        0
 64
     7
 65
   257
 75
     1
175
     1
 42
1.0
 92
        8
 66
     8
 43
1.0
 76
     1
 77
     6
 78
     2
 67
     7
 79
     5
170
     0
171
     0
290
     0
174
     0
 93
       13
 44
0.0
173
     0
291
     0
 45
0.0
1001
ACAD
1000
AcDbSavedByObjectVersion
1070
     0
  0
VISUALSTYLE
  5
E4E1
102
{ACAD_XDICTIONARY
360
EC2B
102
}
102
{ACAD_REACTORS
330
E4D4
102
}
330
E4D4
100
AcDbVisualStyle
  2
Thicken
 70
    13
 71
     2
 72
     2
 73
     0
 90
        0
 40
-0.6
 41
-30.0
 62
     5
 63
     7
 74
     1
 91
        4
 64
     7
 65
   257
 75
     1
175
     1
 42
1.0
 92
       12
 66
     7
 43
1.0
 76
     1
 77
     6
 78
     2
 67
     7
 79
     5
170
     0
171
     0
290
     0
174
     0
 93
        1
 44
0.0
173
     0
291
     1
 45
0.0
1001
ACAD
1000
AcDbSavedByObjectVersion
1070
     0
  0
DICTIONARYVAR
  5
E581
102
{ACAD_REACTORS
330
5697
102
}
330
5697
100
DictionaryVariables
280
     0
  1
1:1
  0
DICTIONARYVAR
  5
E580
102
{ACAD_REACTORS
330
5697
102
}
330
5697
100
DictionaryVariables
280
     0
  1
STANDARD
  0
DICTIONARYVAR
  5
E57F
102
{ACAD_REACTORS
330
5697
102
}
330
5697
100
DictionaryVariables
280
     0
  1
STANDARD
  0
DICTIONARYVAR
  5
5698
102
{ACAD_REACTORS
330
5697
102
}
330
5697
100
DictionaryVariables
280
     0
  1
1
  0
DICTIONARYVAR
  5
E583
102
{ACAD_REACTORS
330
5697
102
}
330
5697
100
DictionaryVariables
280
     0
  1
0
  0
DICTIONARYVAR
  5
E582
102
{ACAD_REACTORS
330
5697
102
}
330
5697
100
DictionaryVariables
280
     0
  1
127
  0
DICTIONARYVAR
  5
EB9C
102
{ACAD_REACTORS
330
5697
102
}
330
5697
100
DictionaryVariables
280
     0
  1
2
  0
XRECORD
  5
EB9B
102
{ACAD_REACTORS
330
EB9A
102
}
330
EB9A
100
AcDbXrecord
280
     1
330
EA0C
330
EA0D
330
EA15
330
EA16
330
EA1E
330
EA1F
330
EA27
330
EA28
330
EA30
330
EA31
330
EA39
330
EA3A
330
E3AD
330
E3AE
330
E3BF
330
E3C0
330
E3C8
330
E3C9
330
E3D1
330
E3D2
330
E3DA
330
E3DB
330
E3E3
330
E3E4
330
E3EF
330
E3F0
330
E3F7
330
E3F8
330
EA42
330
EA43
330
EA4B
330
EA4C
330
EA54
330
EA55
330
EA5D
330
EA5E
330
E1CD
330
E1CE
330
E43C
330
E43D
330
E445
330
E446
330
E44E
330
E44F
330
E457
330
E458
330
E5B0
330
E5B1
330
E8D4
330
E8D5
330
EB01
330
EB0B
330
EB0C
330
EB17
330
EB18
330
EB76
330
EB7D
330
EB7E
330
EB86
330
EB87
  0
DICTIONARY
  5
EC07
330
904E
100
AcDbDictionary
280
     1
281
     1
  3
ACAD_XREC_ROUNDTRIP
360
EC08
  0
DICTIONARY
  5
EC09
330
904F
100
AcDbDictionary
280
     1
281
     1
  3
ACAD_XREC_ROUNDTRIP
360
EC0A
  0
DICTIONARY
  5
E4C5
330
E4C4
100
AcDbDictionary
280
     1
281
     1
  3
ACAD_XREC_ROUNDTRIP
360
EACB
  3
BUMPTILE
360
E4C7
  3
DIFFUSETILE
360
E4C6
  3
OPACITYTILE
360
E4CA
  3
REFLECTIONTILE
360
E4C9
  3
REFRACTIONTILE
360
E4CB
  3
SPECULARTILE
360
E4C8
  0
DICTIONARY
  5
E4BD
330
E4BC
100
AcDbDictionary
280
     1
281
     1
  3
ACAD_XREC_ROUNDTRIP
360
EACA
  3
BUMPTILE
360
E4BF
  3
DIFFUSETILE
360
E4BE
  3
OPACITYTILE
360
E4C2
  3
REFLECTIONTILE
360
E4C1
  3
REFRACTIONTILE
360
E4C3
  3
SPECULARTILE
360
E4C0
  0
DICTIONARY
  5
E4CD
330
E4CC
100
AcDbDictionary
280
     1
281
     1
  3
ACAD_XREC_ROUNDTRIP
360
EACC
  3
BUMPTILE
360
E4CF
  3
DIFFUSETILE
360
E4CE
  3
OPACITYTILE
360
E4D2
  3
REFLECTIONTILE
360
E4D1
  3
REFRACTIONTILE
360
E4D3
  3
SPECULARTILE
360
E4D0
  0
DICTIONARY
  5
E53A
330
E4EA
100
AcDbDictionary
280
     1
281
     1
  3
ACAD_ROUNDTRIP_2008_TABLESTYLE_CELLSTYLEMAP
360
EC02
  3
ACAD_XREC_ROUNDTRIP
360
EC39
  0
DICTIONARY
  5
EC1D
330
E4DA
100
AcDbDictionary
280
     1
281
     1
  3
ACAD_XREC_ROUNDTRIP
360
EC1E
  0
DICTIONARY
  5
EC21
330
E4DC
100
AcDbDictionary
280
     1
281
     1
  3
ACAD_XREC_ROUNDTRIP
360
EC22
  0
DICTIONARY
  5
EC1F
330
E4DB
100
AcDbDictionary
280
     1
281
     1
  3
ACAD_XREC_ROUNDTRIP
360
EC20
  0
DICTIONARY
  5
EC1B
330
E4D9
100
AcDbDictionary
280
     1
281
     1
  3
ACAD_XREC_ROUNDTRIP
360
EC1C
  0
DICTIONARY
  5
EC29
330
E4E0
100
AcDbDictionary
280
     1
281
     1
  3
ACAD_XREC_ROUNDTRIP
360
EC2A
  0
DICTIONARY
  5
EC31
330
E4E4
100
AcDbDictionary
280
     1
281
     1
  3
ACAD_XREC_ROUNDTRIP
360
EC32
  0
DICTIONARY
  5
EC23
330
E4DD
100
AcDbDictionary
280
     1
281
     1
  3
ACAD_XREC_ROUNDTRIP
360
EC24
  0
DICTIONARY
  5
EC27
330
E4DF
100
AcDbDictionary
280
     1
281
     1
  3
ACAD_XREC_ROUNDTRIP
360
EC28
  0
DICTIONARY
  5
EC37
330
E4E7
100
AcDbDictionary
280
     1
281
     1
  3
ACAD_XREC_ROUNDTRIP
360
EC38
  0
DICTIONARY
  5
EC2F
330
E4E3
100
AcDbDictionary
280
     1
281
     1
  3
ACAD_XREC_ROUNDTRIP
360
EC30
  0
DICTIONARY
  5
EC13
330
E4D5
100
AcDbDictionary
280
     1
281
     1
  3
ACAD_XREC_ROUNDTRIP
360
EC14
  0
DICTIONARY
  5
EC15
330
E4D6
100
AcDbDictionary
280
     1
281
     1
  3
ACAD_XREC_ROUNDTRIP
360
EC16
  0
DICTIONARY
  5
EC17
330
E4D7
100
AcDbDictionary
280
     1
281
     1
  3
ACAD_XREC_ROUNDTRIP
360
EC18
  0
DICTIONARY
  5
EC19
330
E4D8
100
AcDbDictionary
280
     1
281
     1
  3
ACAD_XREC_ROUNDTRIP
360
EC1A
  0
DICTIONARY
  5
EC33
330
E4E5
100
AcDbDictionary
280
     1
281
     1
  3
ACAD_XREC_ROUNDTRIP
360
EC34
  0
DICTIONARY
  5
EC2D
330
E4E2
100
AcDbDictionary
280
     1
281
     1
  3
ACAD_XREC_ROUNDTRIP
360
EC2E
  0
DICTIONARY
  5
EC35
330
E4E6
100
AcDbDictionary
280
     1
281
     1
  3
ACAD_XREC_ROUNDTRIP
360
EC36
  0
DICTIONARY
  5
EC25
330
E4DE
100
AcDbDictionary
280
     1
281
     1
  3
ACAD_XREC_ROUNDTRIP
360
EC26
  0
DICTIONARY
  5
EC2B
330
E4E1
100
AcDbDictionary
280
     1
281
     1
  3
ACAD_XREC_ROUNDTRIP
360
EC2C
  0
XRECORD
  5
EC08
102
{ACAD_REACTORS
330
EC07
102
}
330
EC07
100
AcDbXrecord
280
     1
102
SHADEPLOT
 70
     0
102
SHADEPLOTRESLEVEL
 70
     2
102
SHADEPLOTCUSTOMDPI
 70
   300
  0
XRECORD
  5
EC0A
102
{ACAD_REACTORS
330
EC09
102
}
330
EC09
100
AcDbXrecord
280
     1
102
SHADEPLOT
 70
     0
102
SHADEPLOTRESLEVEL
 70
     2
102
SHADEPLOTCUSTOMDPI
 70
   300
  0
XRECORD
  5
EACB
102
{ACAD_REACTORS
330
E4C5
102
}
330
E4C5
100
AcDbXrecord
280
     1
102
MATERIAL
148
0.0
149
0.0
149
0.0
 93
        0
 94
      127
282
     0
 72
     0
 77
     0
171
     0
175
     0
179
     0
273
     0
  0
XRECORD
  5
E4C7
102
{ACAD_REACTORS
330
E4C5
102
}
330
E4C5
100
AcDbXrecord
280
     1
270
     1
271
     1
  0
XRECORD
  5
E4C6
102
{ACAD_REACTORS
330
E4C5
102
}
330
E4C5
100
AcDbXrecord
280
     1
270
     1
271
     1
  0
XRECORD
  5
E4CA
102
{ACAD_REACTORS
330
E4C5
102
}
330
E4C5
100
AcDbXrecord
280
     1
270
     1
271
     1
  0
XRECORD
  5
E4C9
102
{ACAD_REACTORS
330
E4C5
102
}
330
E4C5
100
AcDbXrecord
280
     1
270
     1
271
     1
  0
XRECORD
  5
E4CB
102
{ACAD_REACTORS
330
E4C5
102
}
330
E4C5
100
AcDbXrecord
280
     1
270
     1
271
     1
  0
XRECORD
  5
E4C8
102
{ACAD_REACTORS
330
E4C5
102
}
330
E4C5
100
AcDbXrecord
280
     1
270
     1
271
     1
  0
XRECORD
  5
EACA
102
{ACAD_REACTORS
330
E4BD
102
}
330
E4BD
100
AcDbXrecord
280
     1
102
MATERIAL
148
0.0
149
0.0
149
0.0
 93
        0
 94
      127
282
     0
 72
     0
 77
     0
171
     0
175
     0
179
     0
273
     0
  0
XRECORD
  5
E4BF
102
{ACAD_REACTORS
330
E4BD
102
}
330
E4BD
100
AcDbXrecord
280
     1
270
     1
271
     1
  0
XRECORD
  5
E4BE
102
{ACAD_REACTORS
330
E4BD
102
}
330
E4BD
100
AcDbXrecord
280
     1
270
     1
271
     1
  0
XRECORD
  5
E4C2
102
{ACAD_REACTORS
330
E4BD
102
}
330
E4BD
100
AcDbXrecord
280
     1
270
     1
271
     1
  0
XRECORD
  5
E4C1
102
{ACAD_REACTORS
330
E4BD
102
}
330
E4BD
100
AcDbXrecord
280
     1
270
     1
271
     1
  0
XRECORD
  5
E4C3
102
{ACAD_REACTORS
330
E4BD
102
}
330
E4BD
100
AcDbXrecord
280
     1
270
     1
271
     1
  0
XRECORD
  5
E4C0
102
{ACAD_REACTORS
330
E4BD
102
}
330
E4BD
100
AcDbXrecord
280
     1
270
     1
271
     1
  0
XRECORD
  5
EACC
102
{ACAD_REACTORS
330
E4CD
102
}
330
E4CD
100
AcDbXrecord
280
     1
102
MATERIAL
148
0.0
149
0.0
149
0.0
 93
        0
 94
      127
282
     0
 72
     0
 77
     0
171
     0
175
     0
179
     0
273
     0
  0
XRECORD
  5
E4CF
102
{ACAD_REACTORS
330
E4CD
102
}
330
E4CD
100
AcDbXrecord
280
     1
270
     1
271
     1
  0
XRECORD
  5
E4CE
102
{ACAD_REACTORS
330
E4CD
102
}
330
E4CD
100
AcDbXrecord
280
     1
270
     1
271
     1
  0
XRECORD
  5
E4D2
102
{ACAD_REACTORS
330
E4CD
102
}
330
E4CD
100
AcDbXrecord
280
     1
270
     1
271
     1
  0
XRECORD
  5
E4D1
102
{ACAD_REACTORS
330
E4CD
102
}
330
E4CD
100
AcDbXrecord
280
     1
270
     1
271
     1
  0
XRECORD
  5
E4D3
102
{ACAD_REACTORS
330
E4CD
102
}
330
E4CD
100
AcDbXrecord
280
     1
270
     1
271
     1
  0
XRECORD
  5
E4D0
102
{ACAD_REACTORS
330
E4CD
102
}
330
E4CD
100
AcDbXrecord
280
     1
270
     1
271
     1
  0
CELLSTYLEMAP
  5
EC02
102
{ACAD_REACTORS
330
E53A
102
}
330
E53A
100
AcDbCellStyleMap
 90
        3
300
CELLSTYLE
  1
TABLEFORMAT_BEGIN
 90
        5
170
     1
 91
        0
 92
    32768
 62
   257
 93
        1
300
CONTENTFORMAT
  1
CONTENTFORMAT_BEGIN
 90
        0
 91
        0
 92
      512
 93
        0
300

 40
0.0
140
1.0
 94
        5
 62
     0
340
11
144
0.25
309
CONTENTFORMAT_END
171
     1
301
MARGIN
  1
CELLMARGIN_BEGIN
 40
0.06
 40
0.06
 40
0.06
 40
0.06
 40
0.18
 40
0.18
309
CELLMARGIN_END
 94
        6
 95
        1
302
GRIDFORMAT
  1
GRIDFORMAT_BEGIN
 90
        0
 91
        1
 62
     0
 92
       -2
340
0
 93
        0
 40
0.045
309
GRIDFORMAT_END
 95
        2
302
GRIDFORMAT
  1
GRIDFORMAT_BEGIN
 90
        0
 91
        1
 62
     0
 92
       -2
340
0
 93
        0
 40
0.045
309
GRIDFORMAT_END
 95
        4
302
GRIDFORMAT
  1
GRIDFORMAT_BEGIN
 90
        0
 91
        1
 62
     0
 92
       -2
340
0
 93
        0
 40
0.045
309
GRIDFORMAT_END
 95
        8
302
GRIDFORMAT
  1
GRIDFORMAT_BEGIN
 90
        0
 91
        1
 62
     0
 92
       -2
340
0
 93
        0
 40
0.045
309
GRIDFORMAT_END
 95
       16
302
GRIDFORMAT
  1
GRIDFORMAT_BEGIN
 90
        0
 91
        1
 62
     0
 92
       -2
340
0
 93
        0
 40
0.045
309
GRIDFORMAT_END
 95
       32
302
GRIDFORMAT
  1
GRIDFORMAT_BEGIN
 90
        0
 91
        1
 62
     0
 92
       -2
340
0
 93
        0
 40
0.045
309
GRIDFORMAT_END
309
TABLEFORMAT_END
  1
CELLSTYLE_BEGIN
 90
        1
 91
        1
300
_TITLE
309
CELLSTYLE_END
300
CELLSTYLE
  1
TABLEFORMAT_BEGIN
 90
        5
170
     1
 91
        0
 92
        0
 62
   257
 93
        1
300
CONTENTFORMAT
  1
CONTENTFORMAT_BEGIN
 90
        0
 91
        0
 92
      512
 93
        0
300

 40
0.0
140
1.0
 94
        5
 62
     0
340
11
144
0.18
309
CONTENTFORMAT_END
171
     1
301
MARGIN
  1
CELLMARGIN_BEGIN
 40
0.06
 40
0.06
 40
0.06
 40
0.06
 40
0.18
 40
0.18
309
CELLMARGIN_END
 94
        6
 95
        1
302
GRIDFORMAT
  1
GRIDFORMAT_BEGIN
 90
        0
 91
        1
 62
     0
 92
       -2
340
0
 93
        0
 40
0.045
309
GRIDFORMAT_END
 95
        2
302
GRIDFORMAT
  1
GRIDFORMAT_BEGIN
 90
        0
 91
        1
 62
     0
 92
       -2
340
0
 93
        0
 40
0.045
309
GRIDFORMAT_END
 95
        4
302
GRIDFORMAT
  1
GRIDFORMAT_BEGIN
 90
        0
 91
        1
 62
     0
 92
       -2
340
0
 93
        0
 40
0.045
309
GRIDFORMAT_END
 95
        8
302
GRIDFORMAT
  1
GRIDFORMAT_BEGIN
 90
        0
 91
        1
 62
     0
 92
       -2
340
0
 93
        0
 40
0.045
309
GRIDFORMAT_END
 95
       16
302
GRIDFORMAT
  1
GRIDFORMAT_BEGIN
 90
        0
 91
        1
 62
     0
 92
       -2
340
0
 93
        0
 40
0.045
309
GRIDFORMAT_END
 95
       32
302
GRIDFORMAT
  1
GRIDFORMAT_BEGIN
 90
        0
 91
        1
 62
     0
 92
       -2
340
0
 93
        0
 40
0.045
309
GRIDFORMAT_END
309
TABLEFORMAT_END
  1
CELLSTYLE_BEGIN
 90
        2
 91
        1
300
_HEADER
309
CELLSTYLE_END
300
CELLSTYLE
  1
TABLEFORMAT_BEGIN
 90
        5
170
     1
 91
        0
 92
        0
 62
   257
 93
        1
300
CONTENTFORMAT
  1
CONTENTFORMAT_BEGIN
 90
        0
 91
        0
 92
      512
 93
        0
300

 40
0.0
140
1.0
 94
        2
 62
     0
340
11
144
0.18
309
CONTENTFORMAT_END
171
     1
301
MARGIN
  1
CELLMARGIN_BEGIN
 40
0.06
 40
0.06
 40
0.06
 40
0.06
 40
0.18
 40
0.18
309
CELLMARGIN_END
 94
        6
 95
        1
302
GRIDFORMAT
  1
GRIDFORMAT_BEGIN
 90
        0
 91
        1
 62
     0
 92
       -2
340
0
 93
        0
 40
0.045
309
GRIDFORMAT_END
 95
        2
302
GRIDFORMAT
  1
GRIDFORMAT_BEGIN
 90
        0
 91
        1
 62
     0
 92
       -2
340
0
 93
        0
 40
0.045
309
GRIDFORMAT_END
 95
        4
302
GRIDFORMAT
  1
GRIDFORMAT_BEGIN
 90
        0
 91
        1
 62
     0
 92
       -2
340
0
 93
        0
 40
0.045
309
GRIDFORMAT_END
 95
        8
302
GRIDFORMAT
  1
GRIDFORMAT_BEGIN
 90
        0
 91
        1
 62
     0
 92
       -2
340
0
 93
        0
 40
0.045
309
GRIDFORMAT_END
 95
       16
302
GRIDFORMAT
  1
GRIDFORMAT_BEGIN
 90
        0
 91
        1
 62
     0
 92
       -2
340
0
 93
        0
 40
0.045
309
GRIDFORMAT_END
 95
       32
302
GRIDFORMAT
  1
GRIDFORMAT_BEGIN
 90
        0
 91
        1
 62
     0
 92
       -2
340
0
 93
        0
 40
0.045
309
GRIDFORMAT_END
309
TABLEFORMAT_END
  1
CELLSTYLE_BEGIN
 90
        3
 91
        2
300
_DATA
309
CELLSTYLE_END
  0
XRECORD
  5
EC39
102
{ACAD_REACTORS
330
E53A
102
}
330
E53A
100
AcDbXrecord
280
     1
102
ACAD_ROUNDTRIP_PRE2007_TABLESTYLE
 90
      512
 91
        0
  1

 92
      512
 93
        0
  2

 94
      512
 95
        0
  3

  0
XRECORD
  5
EC1E
102
{ACAD_REACTORS
330
EC1D
102
}
330
EC1D
100
AcDbXrecord
280
     1
102
RTVSPropertyOp0
 70
     1
102
RTVSPropertyOp1
 70
     1
102
RTVSPropertyOp2
 70
     1
102
RTVSPropertyOp3
 70
     1
102
RTVSPropertyOp4
 70
     1
102
RTVSPropertyOp5
 70
     1
102
RTVSPropertyOp6
 70
     1
102
RTVSPropertyOp7
 70
     1
102
RTVSPropertyOp8
 70
     1
102
RTVSPropertyOp9
 70
     1
102
RTVSPropertyOp10
 70
     1
102
RTVSPropertyOp11
 70
     1
102
RTVSPropertyOp12
 70
     1
102
RTVSPropertyOp13
 70
     1
102
RTVSPropertyOp14
 70
     1
102
RTVSPropertyOp15
 70
     1
102
RTVSPropertyOp16
 70
     1
102
RTVSPropertyOp17
 70
     1
102
RTVSPropertyOp18
 70
     1
102
RTVSPropertyOp19
 70
     1
102
RTVSPropertyOp20
 70
     1
102
RTVSPropertyOp21
 70
     1
102
RTVSPropertyOp22
 70
     1
102
RTVSPropertyOp23
 70
     1
102
RTVSPropertyOp24
 70
     1
102
RTVSPropertyOp25
 70
     1
102
RTVSPropertyOp26
 70
     1
102
RTVSPropertyOp27
 70
     1
  0
XRECORD
  5
EC22
102
{ACAD_REACTORS
330
EC21
102
}
330
EC21
100
AcDbXrecord
280
     1
102
RTVSPropertyOp0
 70
     1
102
RTVSPropertyOp1
 70
     1
102
RTVSPropertyOp2
 70
     1
102
RTVSPropertyOp3
 70
     1
102
RTVSPropertyOp4
 70
     1
102
RTVSPropertyOp5
 70
     1
102
RTVSPropertyOp6
 70
     1
102
RTVSPropertyOp7
 70
     1
102
RTVSPropertyOp8
 70
     1
102
RTVSPropertyOp9
 70
     1
102
RTVSPropertyOp10
 70
     1
102
RTVSPropertyOp11
 70
     1
102
RTVSPropertyOp12
 70
     1
102
RTVSPropertyOp13
 70
     1
102
RTVSPropertyOp14
 70
     1
102
RTVSPropertyOp15
 70
     1
102
RTVSPropertyOp16
 70
     1
102
RTVSPropertyOp17
 70
     1
102
RTVSPropertyOp18
 70
     1
102
RTVSPropertyOp19
 70
     1
102
RTVSPropertyOp20
 70
     1
102
RTVSPropertyOp21
 70
     1
102
RTVSPropertyOp22
 70
     1
102
RTVSPropertyOp23
 70
     1
102
RTVSPropertyOp24
 70
     1
102
RTVSPropertyOp25
 70
     1
102
RTVSPropertyOp26
 70
     1
102
RTVSPropertyOp27
 70
     1
  0
XRECORD
  5
EC20
102
{ACAD_REACTORS
330
EC1F
102
}
330
EC1F
100
AcDbXrecord
280
     1
102
RTVSPropertyOp0
 70
     1
102
RTVSPropertyOp1
 70
     1
102
RTVSPropertyOp2
 70
     1
102
RTVSPropertyOp3
 70
     1
102
RTVSPropertyOp4
 70
     1
102
RTVSPropertyOp5
 70
     1
102
RTVSPropertyOp6
 70
     1
102
RTVSPropertyOp7
 70
     1
102
RTVSPropertyOp8
 70
     1
102
RTVSPropertyOp9
 70
     1
102
RTVSPropertyOp10
 70
     1
102
RTVSPropertyOp11
 70
     1
102
RTVSPropertyOp12
 70
     1
102
RTVSPropertyOp13
 70
     1
102
RTVSPropertyOp14
 70
     1
102
RTVSPropertyOp15
 70
     1
102
RTVSPropertyOp16
 70
     1
102
RTVSPropertyOp17
 70
     1
102
RTVSPropertyOp18
 70
     1
102
RTVSPropertyOp19
 70
     1
102
RTVSPropertyOp20
 70
     1
102
RTVSPropertyOp21
 70
     1
102
RTVSPropertyOp22
 70
     1
102
RTVSPropertyOp23
 70
     1
102
RTVSPropertyOp24
 70
     1
102
RTVSPropertyOp25
 70
     1
102
RTVSPropertyOp26
 70
     1
102
RTVSPropertyOp27
 70
     1
  0
XRECORD
  5
EC1C
102
{ACAD_REACTORS
330
EC1B
102
}
330
EC1B
100
AcDbXrecord
280
     1
102
RTVSPropertyOp0
 70
     1
102
RTVSPropertyOp1
 70
     1
102
RTVSPropertyOp2
 70
     1
102
RTVSPropertyOp3
 70
     1
102
RTVSPropertyOp4
 70
     1
102
RTVSPropertyOp5
 70
     1
102
RTVSPropertyOp6
 70
     1
102
RTVSPropertyOp7
 70
     1
102
RTVSPropertyOp8
 70
     1
102
RTVSPropertyOp9
 70
     1
102
RTVSPropertyOp10
 70
     1
102
RTVSPropertyOp11
 70
     1
102
RTVSPropertyOp12
 70
     1
102
RTVSPropertyOp13
 70
     1
102
RTVSPropertyOp14
 70
     1
102
RTVSPropertyOp15
 70
     1
102
RTVSPropertyOp16
 70
     1
102
RTVSPropertyOp17
 70
     1
102
RTVSPropertyOp18
 70
     1
102
RTVSPropertyOp19
 70
     1
102
RTVSPropertyOp20
 70
     1
102
RTVSPropertyOp21
 70
     1
102
RTVSPropertyOp22
 70
     1
102
RTVSPropertyOp23
 70
     1
102
RTVSPropertyOp24
 70
     1
102
RTVSPropertyOp25
 70
     1
102
RTVSPropertyOp26
 70
     1
102
RTVSPropertyOp27
 70
     1
  0
XRECORD
  5
EC2A
102
{ACAD_REACTORS
330
EC29
102
}
330
EC29
100
AcDbXrecord
280
     1
102
RTVSPropertyOp0
 70
     1
102
RTVSPropertyOp1
 70
     1
102
RTVSPropertyOp2
 70
     1
102
RTVSPropertyOp3
 70
     1
102
RTVSPropertyOp4
 70
     1
102
RTVSPropertyOp5
 70
     1
102
RTVSPropertyOp6
 70
     1
102
RTVSPropertyOp7
 70
     1
102
RTVSPropertyOp8
 70
     1
102
RTVSPropertyOp9
 70
     1
102
RTVSPropertyOp10
 70
     1
102
RTVSPropertyOp11
 70
     1
102
RTVSPropertyOp12
 70
     1
102
RTVSPropertyOp13
 70
     1
102
RTVSPropertyOp14
 70
     1
102
RTVSPropertyOp15
 70
     1
102
RTVSPropertyOp16
 70
     1
102
RTVSPropertyOp17
 70
     1
102
RTVSPropertyOp18
 70
     1
102
RTVSPropertyOp19
 70
     1
102
RTVSPropertyOp20
 70
     1
102
RTVSPropertyOp21
 70
     1
102
RTVSPropertyOp22
 70
     1
102
RTVSPropertyOp23
 70
     1
102
RTVSPropertyOp24
 70
     1
102
RTVSPropertyOp25
 70
     1
102
RTVSPropertyOp26
 70
     1
102
RTVSPropertyOp27
 70
     1
  0
XRECORD
  5
EC32
102
{ACAD_REACTORS
330
EC31
102
}
330
EC31
100
AcDbXrecord
280
     1
102
RTVSPropertyOp0
 70
     1
102
RTVSPropertyOp1
 70
     1
102
RTVSPropertyOp2
 70
     1
102
RTVSPropertyOp3
 70
     1
102
RTVSPropertyOp4
 70
     1
102
RTVSPropertyOp5
 70
     1
102
RTVSPropertyOp6
 70
     1
102
RTVSPropertyOp7
 70
     1
102
RTVSPropertyOp8
 70
     1
102
RTVSPropertyOp9
 70
     1
102
RTVSPropertyOp10
 70
     1
102
RTVSPropertyOp11
 70
     1
102
RTVSPropertyOp12
 70
     1
102
RTVSPropertyOp13
 70
     1
102
RTVSPropertyOp14
 70
     1
102
RTVSPropertyOp15
 70
     1
102
RTVSPropertyOp16
 70
     1
102
RTVSPropertyOp17
 70
     1
102
RTVSPropertyOp18
 70
     1
102
RTVSPropertyOp19
 70
     1
102
RTVSPropertyOp20
 70
     1
102
RTVSPropertyOp21
 70
     1
102
RTVSPropertyOp22
 70
     1
102
RTVSPropertyOp23
 70
     1
102
RTVSPropertyOp24
 70
     1
102
RTVSPropertyOp25
 70
     1
102
RTVSPropertyOp26
 70
     1
102
RTVSPropertyOp27
 70
     1
  0
XRECORD
  5
EC24
102
{ACAD_REACTORS
330
EC23
102
}
330
EC23
100
AcDbXrecord
280
     1
102
RTVSPropertyOp0
 70
     1
102
RTVSPropertyOp1
 70
     1
102
RTVSPropertyOp2
 70
     1
102
RTVSPropertyOp3
 70
     1
102
RTVSPropertyOp4
 70
     1
102
RTVSPropertyOp5
 70
     1
102
RTVSPropertyOp6
 70
     1
102
RTVSPropertyOp7
 70
     1
102
RTVSPropertyOp8
 70
     1
102
RTVSPropertyOp9
 70
     1
102
RTVSPropertyOp10
 70
     1
102
RTVSPropertyOp11
 70
     1
102
RTVSPropertyOp12
 70
     1
102
RTVSPropertyOp13
 70
     1
102
RTVSPropertyOp14
 70
     1
102
RTVSPropertyOp15
 70
     1
102
RTVSPropertyOp16
 70
     1
102
RTVSPropertyOp17
 70
     1
102
RTVSPropertyOp18
 70
     1
102
RTVSPropertyOp19
 70
     1
102
RTVSPropertyOp20
 70
     1
102
RTVSPropertyOp21
 70
     1
102
RTVSPropertyOp22
 70
     1
102
RTVSPropertyOp23
 70
     1
102
RTVSPropertyOp24
 70
     1
102
RTVSPropertyOp25
 70
     1
102
RTVSPropertyOp26
 70
     1
102
RTVSPropertyOp27
 70
     1
  0
XRECORD
  5
EC28
102
{ACAD_REACTORS
330
EC27
102
}
330
EC27
100
AcDbXrecord
280
     1
102
RTVSPropertyOp0
 70
     1
102
RTVSPropertyOp1
 70
     1
102
RTVSPropertyOp2
 70
     1
102
RTVSPropertyOp3
 70
     1
102
RTVSPropertyOp4
 70
     1
102
RTVSPropertyOp5
 70
     1
102
RTVSPropertyOp6
 70
     1
102
RTVSPropertyOp7
 70
     1
102
RTVSPropertyOp8
 70
     1
102
RTVSPropertyOp9
 70
     1
102
RTVSPropertyOp10
 70
     1
102
RTVSPropertyOp11
 70
     1
102
RTVSPropertyOp12
 70
     1
102
RTVSPropertyOp13
 70
     1
102
RTVSPropertyOp14
 70
     1
102
RTVSPropertyOp15
 70
     1
102
RTVSPropertyOp16
 70
     1
102
RTVSPropertyOp17
 70
     1
102
RTVSPropertyOp18
 70
     1
102
RTVSPropertyOp19
 70
     1
102
RTVSPropertyOp20
 70
     1
102
RTVSPropertyOp21
 70
     1
102
RTVSPropertyOp22
 70
     1
102
RTVSPropertyOp23
 70
     1
102
RTVSPropertyOp24
 70
     1
102
RTVSPropertyOp25
 70
     1
102
RTVSPropertyOp26
 70
     1
102
RTVSPropertyOp27
 70
     1
  0
XRECORD
  5
EC38
102
{ACAD_REACTORS
330
EC37
102
}
330
EC37
100
AcDbXrecord
280
     1
102
RTVSPropertyOp0
 70
     0
102
RTVSPropertyOp1
 70
     0
102
RTVSPropertyOp2
 70
     0
102
RTVSPropertyOp3
 70
     0
102
RTVSPropertyOp4
 70
     0
102
RTVSPropertyOp5
 70
     0
102
RTVSPropertyOp6
 70
     0
102
RTVSPropertyOp7
 70
     0
102
RTVSPropertyOp8
 70
     0
102
RTVSPropertyOp9
 70
     0
102
RTVSPropertyOp10
 70
     0
102
RTVSPropertyOp11
 70
     0
102
RTVSPropertyOp12
 70
     0
102
RTVSPropertyOp13
 70
     0
102
RTVSPropertyOp14
 70
     2
102
RTVSPropertyOp15
 70
     0
102
RTVSPropertyOp16
 70
     0
102
RTVSPropertyOp17
 70
     0
102
RTVSPropertyOp18
 70
     0
102
RTVSPropertyOp19
 70
     0
102
RTVSPropertyOp20
 70
     0
102
RTVSPropertyOp21
 70
     0
102
RTVSPropertyOp22
 70
     0
102
RTVSPropertyOp23
 70
     0
102
RTVSPropertyOp24
 70
     0
102
RTVSPropertyOp25
 70
     0
102
RTVSPropertyOp26
 70
     0
102
RTVSPropertyOp27
 70
     0
  0
XRECORD
  5
EC30
102
{ACAD_REACTORS
330
EC2F
102
}
330
EC2F
100
AcDbXrecord
280
     1
102
RTVSPropertyOp0
 70
     1
102
RTVSPropertyOp1
 70
     1
102
RTVSPropertyOp2
 70
     1
102
RTVSPropertyOp3
 70
     1
102
RTVSPropertyOp4
 70
     1
102
RTVSPropertyOp5
 70
     1
102
RTVSPropertyOp6
 70
     1
102
RTVSPropertyOp7
 70
     1
102
RTVSPropertyOp8
 70
     1
102
RTVSPropertyOp9
 70
     1
102
RTVSPropertyOp10
 70
     1
102
RTVSPropertyOp11
 70
     1
102
RTVSPropertyOp12
 70
     1
102
RTVSPropertyOp13
 70
     1
102
RTVSPropertyOp14
 70
     1
102
RTVSPropertyOp15
 70
     1
102
RTVSPropertyOp16
 70
     1
102
RTVSPropertyOp17
 70
     1
102
RTVSPropertyOp18
 70
     1
102
RTVSPropertyOp19
 70
     1
102
RTVSPropertyOp20
 70
     1
102
RTVSPropertyOp21
 70
     1
102
RTVSPropertyOp22
 70
     1
102
RTVSPropertyOp23
 70
     1
102
RTVSPropertyOp24
 70
     1
102
RTVSPropertyOp25
 70
     1
102
RTVSPropertyOp26
 70
     1
102
RTVSPropertyOp27
 70
     1
  0
XRECORD
  5
EC14
102
{ACAD_REACTORS
330
EC13
102
}
330
EC13
100
AcDbXrecord
280
     1
102
RTVSPropertyOp0
 70
     1
102
RTVSPropertyOp1
 70
     1
102
RTVSPropertyOp2
 70
     1
102
RTVSPropertyOp3
 70
     1
102
RTVSPropertyOp4
 70
     1
102
RTVSPropertyOp5
 70
     1
102
RTVSPropertyOp6
 70
     1
102
RTVSPropertyOp7
 70
     1
102
RTVSPropertyOp8
 70
     1
102
RTVSPropertyOp9
 70
     1
102
RTVSPropertyOp10
 70
     1
102
RTVSPropertyOp11
 70
     1
102
RTVSPropertyOp12
 70
     1
102
RTVSPropertyOp13
 70
     1
102
RTVSPropertyOp14
 70
     1
102
RTVSPropertyOp15
 70
     1
102
RTVSPropertyOp16
 70
     1
102
RTVSPropertyOp17
 70
     1
102
RTVSPropertyOp18
 70
     1
102
RTVSPropertyOp19
 70
     1
102
RTVSPropertyOp20
 70
     1
102
RTVSPropertyOp21
 70
     1
102
RTVSPropertyOp22
 70
     1
102
RTVSPropertyOp23
 70
     1
102
RTVSPropertyOp24
 70
     1
102
RTVSPropertyOp25
 70
     1
102
RTVSPropertyOp26
 70
     1
102
RTVSPropertyOp27
 70
     1
  0
XRECORD
  5
EC16
102
{ACAD_REACTORS
330
EC15
102
}
330
EC15
100
AcDbXrecord
280
     1
102
RTVSPropertyOp0
 70
     1
102
RTVSPropertyOp1
 70
     1
102
RTVSPropertyOp2
 70
     1
102
RTVSPropertyOp3
 70
     1
102
RTVSPropertyOp4
 70
     1
102
RTVSPropertyOp5
 70
     1
102
RTVSPropertyOp6
 70
     1
102
RTVSPropertyOp7
 70
     1
102
RTVSPropertyOp8
 70
     1
102
RTVSPropertyOp9
 70
     1
102
RTVSPropertyOp10
 70
     1
102
RTVSPropertyOp11
 70
     1
102
RTVSPropertyOp12
 70
     1
102
RTVSPropertyOp13
 70
     1
102
RTVSPropertyOp14
 70
     1
102
RTVSPropertyOp15
 70
     1
102
RTVSPropertyOp16
 70
     1
102
RTVSPropertyOp17
 70
     1
102
RTVSPropertyOp18
 70
     1
102
RTVSPropertyOp19
 70
     1
102
RTVSPropertyOp20
 70
     1
102
RTVSPropertyOp21
 70
     1
102
RTVSPropertyOp22
 70
     1
102
RTVSPropertyOp23
 70
     1
102
RTVSPropertyOp24
 70
     1
102
RTVSPropertyOp25
 70
     1
102
RTVSPropertyOp26
 70
     1
102
RTVSPropertyOp27
 70
     1
  0
XRECORD
  5
EC18
102
{ACAD_REACTORS
330
EC17
102
}
330
EC17
100
AcDbXrecord
280
     1
102
RTVSPropertyOp0
 70
     1
102
RTVSPropertyOp1
 70
     1
102
RTVSPropertyOp2
 70
     1
102
RTVSPropertyOp3
 70
     1
102
RTVSPropertyOp4
 70
     1
102
RTVSPropertyOp5
 70
     1
102
RTVSPropertyOp6
 70
     1
102
RTVSPropertyOp7
 70
     1
102
RTVSPropertyOp8
 70
     1
102
RTVSPropertyOp9
 70
     1
102
RTVSPropertyOp10
 70
     1
102
RTVSPropertyOp11
 70
     1
102
RTVSPropertyOp12
 70
     1
102
RTVSPropertyOp13
 70
     1
102
RTVSPropertyOp14
 70
     1
102
RTVSPropertyOp15
 70
     1
102
RTVSPropertyOp16
 70
     1
102
RTVSPropertyOp17
 70
     1
102
RTVSPropertyOp18
 70
     1
102
RTVSPropertyOp19
 70
     1
102
RTVSPropertyOp20
 70
     1
102
RTVSPropertyOp21
 70
     1
102
RTVSPropertyOp22
 70
     1
102
RTVSPropertyOp23
 70
     1
102
RTVSPropertyOp24
 70
     1
102
RTVSPropertyOp25
 70
     1
102
RTVSPropertyOp26
 70
     1
102
RTVSPropertyOp27
 70
     1
  0
XRECORD
  5
EC1A
102
{ACAD_REACTORS
330
EC19
102
}
330
EC19
100
AcDbXrecord
280
     1
102
RTVSPropertyOp0
 70
     1
102
RTVSPropertyOp1
 70
     1
102
RTVSPropertyOp2
 70
     1
102
RTVSPropertyOp3
 70
     1
102
RTVSPropertyOp4
 70
     1
102
RTVSPropertyOp5
 70
     1
102
RTVSPropertyOp6
 70
     1
102
RTVSPropertyOp7
 70
     1
102
RTVSPropertyOp8
 70
     1
102
RTVSPropertyOp9
 70
     1
102
RTVSPropertyOp10
 70
     1
102
RTVSPropertyOp11
 70
     1
102
RTVSPropertyOp12
 70
     1
102
RTVSPropertyOp13
 70
     1
102
RTVSPropertyOp14
 70
     1
102
RTVSPropertyOp15
 70
     1
102
RTVSPropertyOp16
 70
     1
102
RTVSPropertyOp17
 70
     1
102
RTVSPropertyOp18
 70
     1
102
RTVSPropertyOp19
 70
     1
102
RTVSPropertyOp20
 70
     1
102
RTVSPropertyOp21
 70
     1
102
RTVSPropertyOp22
 70
     1
102
RTVSPropertyOp23
 70
     1
102
RTVSPropertyOp24
 70
     1
102
RTVSPropertyOp25
 70
     1
102
RTVSPropertyOp26
 70
     1
102
RTVSPropertyOp27
 70
     1
  0
XRECORD
  5
EC34
102
{ACAD_REACTORS
330
EC33
102
}
330
EC33
100
AcDbXrecord
280
     1
102
RTVSPropertyOp0
 70
     0
102
RTVSPropertyOp1
 70
     0
102
RTVSPropertyOp2
 70
     0
102
RTVSPropertyOp3
 70
     0
102
RTVSPropertyOp4
 70
     0
102
RTVSPropertyOp5
 70
     0
102
RTVSPropertyOp6
 70
     0
102
RTVSPropertyOp7
 70
     0
102
RTVSPropertyOp8
 70
     0
102
RTVSPropertyOp9
 70
     0
102
RTVSPropertyOp10
 70
     0
102
RTVSPropertyOp11
 70
     0
102
RTVSPropertyOp12
 70
     0
102
RTVSPropertyOp13
 70
     0
102
RTVSPropertyOp14
 70
     2
102
RTVSPropertyOp15
 70
     0
102
RTVSPropertyOp16
 70
     0
102
RTVSPropertyOp17
 70
     0
102
RTVSPropertyOp18
 70
     0
102
RTVSPropertyOp19
 70
     0
102
RTVSPropertyOp20
 70
     0
102
RTVSPropertyOp21
 70
     0
102
RTVSPropertyOp22
 70
     0
102
RTVSPropertyOp23
 70
     0
102
RTVSPropertyOp24
 70
     0
102
RTVSPropertyOp25
 70
     0
102
RTVSPropertyOp26
 70
     0
102
RTVSPropertyOp27
 70
     0
  0
XRECORD
  5
EC2E
102
{ACAD_REACTORS
330
EC2D
102
}
330
EC2D
100
AcDbXrecord
280
     1
102
RTVSPropertyOp0
 70
     1
102
RTVSPropertyOp1
 70
     1
102
RTVSPropertyOp2
 70
     1
102
RTVSPropertyOp3
 70
     1
102
RTVSPropertyOp4
 70
     1
102
RTVSPropertyOp5
 70
     1
102
RTVSPropertyOp6
 70
     1
102
RTVSPropertyOp7
 70
     1
102
RTVSPropertyOp8
 70
     1
102
RTVSPropertyOp9
 70
     1
102
RTVSPropertyOp10
 70
     1
102
RTVSPropertyOp11
 70
     1
102
RTVSPropertyOp12
 70
     1
102
RTVSPropertyOp13
 70
     1
102
RTVSPropertyOp14
 70
     1
102
RTVSPropertyOp15
 70
     1
102
RTVSPropertyOp16
 70
     1
102
RTVSPropertyOp17
 70
     1
102
RTVSPropertyOp18
 70
     1
102
RTVSPropertyOp19
 70
     1
102
RTVSPropertyOp20
 70
     1
102
RTVSPropertyOp21
 70
     1
102
RTVSPropertyOp22
 70
     1
102
RTVSPropertyOp23
 70
     1
102
RTVSPropertyOp24
 70
     1
102
RTVSPropertyOp25
 70
     1
102
RTVSPropertyOp26
 70
     1
102
RTVSPropertyOp27
 70
     1
  0
XRECORD
  5
EC36
102
{ACAD_REACTORS
330
EC35
102
}
330
EC35
100
AcDbXrecord
280
     1
102
RTVSPropertyOp0
 70
     0
102
RTVSPropertyOp1
 70
     0
102
RTVSPropertyOp2
 70
     0
102
RTVSPropertyOp3
 70
     0
102
RTVSPropertyOp4
 70
     0
102
RTVSPropertyOp5
 70
     0
102
RTVSPropertyOp6
 70
     0
102
RTVSPropertyOp7
 70
     0
102
RTVSPropertyOp8
 70
     0
102
RTVSPropertyOp9
 70
     0
102
RTVSPropertyOp10
 70
     0
102
RTVSPropertyOp11
 70
     0
102
RTVSPropertyOp12
 70
     0
102
RTVSPropertyOp13
 70
     0
102
RTVSPropertyOp14
 70
     2
102
RTVSPropertyOp15
 70
     0
102
RTVSPropertyOp16
 70
     0
102
RTVSPropertyOp17
 70
     0
102
RTVSPropertyOp18
 70
     0
102
RTVSPropertyOp19
 70
     0
102
RTVSPropertyOp20
 70
     0
102
RTVSPropertyOp21
 70
     0
102
RTVSPropertyOp22
 70
     0
102
RTVSPropertyOp23
 70
     0
102
RTVSPropertyOp24
 70
     0
102
RTVSPropertyOp25
 70
     0
102
RTVSPropertyOp26
 70
     0
102
RTVSPropertyOp27
 70
     0
  0
XRECORD
  5
EC26
102
{ACAD_REACTORS
330
EC25
102
}
330
EC25
100
AcDbXrecord
280
     1
102
RTVSPropertyOp0
 70
     1
102
RTVSPropertyOp1
 70
     1
102
RTVSPropertyOp2
 70
     1
102
RTVSPropertyOp3
 70
     1
102
RTVSPropertyOp4
 70
     1
102
RTVSPropertyOp5
 70
     1
102
RTVSPropertyOp6
 70
     1
102
RTVSPropertyOp7
 70
     1
102
RTVSPropertyOp8
 70
     1
102
RTVSPropertyOp9
 70
     1
102
RTVSPropertyOp10
 70
     1
102
RTVSPropertyOp11
 70
     1
102
RTVSPropertyOp12
 70
     1
102
RTVSPropertyOp13
 70
     1
102
RTVSPropertyOp14
 70
     1
102
RTVSPropertyOp15
 70
     1
102
RTVSPropertyOp16
 70
     1
102
RTVSPropertyOp17
 70
     1
102
RTVSPropertyOp18
 70
     1
102
RTVSPropertyOp19
 70
     1
102
RTVSPropertyOp20
 70
     1
102
RTVSPropertyOp21
 70
     1
102
RTVSPropertyOp22
 70
     1
102
RTVSPropertyOp23
 70
     1
102
RTVSPropertyOp24
 70
     1
102
RTVSPropertyOp25
 70
     1
102
RTVSPropertyOp26
 70
     1
102
RTVSPropertyOp27
 70
     1
  0
XRECORD
  5
EC2C
102
{ACAD_REACTORS
330
EC2B
102
}
330
EC2B
100
AcDbXrecord
280
     1
102
RTVSPropertyOp0
 70
     1
102
RTVSPropertyOp1
 70
     1
102
RTVSPropertyOp2
 70
     1
102
RTVSPropertyOp3
 70
     1
102
RTVSPropertyOp4
 70
     1
102
RTVSPropertyOp5
 70
     1
102
RTVSPropertyOp6
 70
     1
102
RTVSPropertyOp7
 70
     1
102
RTVSPropertyOp8
 70
     1
102
RTVSPropertyOp9
 70
     1
102
RTVSPropertyOp10
 70
     1
102
RTVSPropertyOp11
 70
     1
102
RTVSPropertyOp12
 70
     1
102
RTVSPropertyOp13
 70
     1
102
RTVSPropertyOp14
 70
     1
102
RTVSPropertyOp15
 70
     1
102
RTVSPropertyOp16
 70
     1
102
RTVSPropertyOp17
 70
     1
102
RTVSPropertyOp18
 70
     1
102
RTVSPropertyOp19
 70
     1
102
RTVSPropertyOp20
 70
     1
102
RTVSPropertyOp21
 70
     1
102
RTVSPropertyOp22
 70
     1
102
RTVSPropertyOp23
 70
     1
102
RTVSPropertyOp24
 70
     1
102
RTVSPropertyOp25
 70
     1
102
RTVSPropertyOp26
 70
     1
102
RTVSPropertyOp27
 70
     1
  0
ENDSEC
  0
EOF
