  0
SECTION
  2
HEADER
  9
$ACADVER
  1
AC1015
  9
$ACADMAINTVER
 70
    20
  9
$DWGCODEPAGE
  3
ANSI_932
  9
$INSBASE
 10
0.0
 20
0.0
 30
0.0
  9
$EXTMIN
 10
-72.54513687319286
 20
-351.2838432250826
 30
-0.0015258207003583
  9
$EXTMAX
 10
426.2870310995115
 20
384.9303511276803
 30
0.0000000349246037
  9
$LIMMIN
 10
-125.1996450171336
 20
-378.8528732976747
  9
$LIMMAX
 10
496.784087282236
 20
423.084024335782
  9
$ORTHOMODE
 70
     1
  9
$REGENMODE
 70
     1
  9
$FILLMODE
 70
     1
  9
$QTEXTMODE
 70
     0
  9
$MIRRTEXT
 70
     1
  9
$LTSCALE
 40
5.0
  9
$ATTMODE
 70
     1
  9
$TEXTSIZE
 40
2.0
  9
$TRACEWID
 40
0.05
  9
$TEXTSTYLE
  7
STANDARD
  9
$CLAYER
  8
0
  9
$CELTYPE
  6
BYLAYER
  9
$CECOLOR
 62
   256
  9
$CELTSCALE
 40
1.0
  9
$DISPSILH
 70
     0
  9
$DIMSCALE
 40
1.0
  9
$DIMASZ
 40
2.0
  9
$DIMEXO
 40
1.0
  9
$DIMDLI
 40
0.5
  9
$DIMRND
 40
0.0
  9
$DIMDLE
 40
0.0
  9
$DIMEXE
 40
0.5
  9
$DIMTP
 40
0.0
  9
$DIMTM
 40
0.0
  9
$DIMTXT
 40
4.0
  9
$DIMCEN
 40
0.09
  9
$DIMTSZ
 40
0.0
  9
$DIMTOL
 70
     0
  9
$DIMLIM
 70
     0
  9
$DIMTIH
 70
     0
  9
$DIMTOH
 70
     0
  9
$DIMSE1
 70
     0
  9
$DIMSE2
 70
     0
  9
$DIMTAD
 70
     3
  9
$DIMZIN
 70
    12
  9
$DIMBLK
  1
OPEN
  9
$DIMASO
 70
     1
  9
$DIMSHO
 70
     1
  9
$DIMPOST
  1

  9
$DIMAPOST
  1

  9
$DIMALT
 70
     0
  9
$DIMALTD
 70
     2
  9
$DIMALTF
 40
25.4
  9
$DIMLFAC
 40
1.0
  9
$DIMTOFL
 70
     0
  9
$DIMTVP
 40
0.0
  9
$DIMTIX
 70
     0
  9
$DIMSOXD
 70
     0
  9
$DIMSAH
 70
     0
  9
$DIMBLK1
  1

  9
$DIMBLK2
  1

  9
$DIMSTYLE
  2
STANDARD
  9
$DIMCLRD
 70
     0
  9
$DIMCLRE
 70
     0
  9
$DIMCLRT
 70
     0
  9
$DIMTFAC
 40
1.0
  9
$DIMGAP
 40
1.0
  9
$DIMJUST
 70
     0
  9
$DIMSD1
 70
     0
  9
$DIMSD2
 70
     0
  9
$DIMTOLJ
 70
     1
  9
$DIMTZIN
 70
     0
  9
$DIMALTZ
 70
     0
  9
$DIMALTTZ
 70
     0
  9
$DIMUPT
 70
     0
  9
$DIMDEC
 70
     1
  9
$DIMTDEC
 70
     1
  9
$DIMALTU
 70
     2
  9
$DIMALTTD
 70
     2
  9
$DIMTXSTY
  7
STANDARD
  9
$DIMAUNIT
 70
     0
  9
$DIMADEC
 70
     0
  9
$DIMALTRND
 40
0.0
  9
$DIMAZIN
 70
     0
  9
$DIMDSEP
 70
    46
  9
$DIMATFIT
 70
     3
  9
$DIMFRAC
 70
     0
  9
$DIMLDRBLK
  1
OPEN
  9
$DIMLUNIT
 70
     2
  9
$DIMLWD
 70
    -2
  9
$DIMLWE
 70
    -2
  9
$DIMTMOVE
 70
     0
  9
$LUNITS
 70
     2
  9
$LUPREC
 70
     4
  9
$SKETCHINC
 40
0.1
  9
$FILLETRAD
 40
0.0
  9
$AUNITS
 70
     0
  9
$AUPREC
 70
     0
  9
$MENU
  1
.
  9
$ELEVATION
 40
0.0
  9
$PELEVATION
 40
0.0
  9
$THICKNESS
 40
0.0
  9
$LIMCHECK
 70
     0
  9
$CHAMFERA
 40
0.0
  9
$CHAMFERB
 40
0.0
  9
$CHAMFERC
 40
0.0
  9
$CHAMFERD
 40
0.0
  9
$SKPOLY
 70
     0
  9
$TDCREATE
 40
2452286.555658658
  9
$TDUCREATE
 40
2452286.180658658
  9
$TDUPDATE
 40
2457176.717755243
  9
$TDUUPDATE
 40
2457176.342755243
  9
$TDINDWG
 40
1.4631985880
  9
$TDUSRTIMER
 40
1.4631980556
  9
$USRTIMER
 70
     1
  9
$ANGBASE
 50
0.0
  9
$ANGDIR
 70
     0
  9
$PDMODE
 70
     0
  9
$PDSIZE
 40
0.0
  9
$PLINEWID
 40
0.0
  9
$SPLFRAME
 70
     0
  9
$SPLINETYPE
 70
     6
  9
$SPLINESEGS
 70
     8
  9
$HANDSEED
  5
A338
  9
$SURFTAB1
 70
     6
  9
$SURFTAB2
 70
     6
  9
$SURFTYPE
 70
     6
  9
$SURFU
 70
     6
  9
$SURFV
 70
     6
  9
$UCSBASE
  2

  9
$UCSNAME
  2

  9
$UCSORG
 10
0.0
 20
0.0
 30
0.0
  9
$UCSXDIR
 10
1.0
 20
0.0
 30
0.0
  9
$UCSYDIR
 10
0.0
 20
1.0
 30
0.0
  9
$UCSORTHOREF
  2

  9
$UCSORTHOVIEW
 70
     0
  9
$UCSORGTOP
 10
0.0
 20
0.0
 30
0.0
  9
$UCSORGBOTTOM
 10
0.0
 20
0.0
 30
0.0
  9
$UCSORGLEFT
 10
0.0
 20
0.0
 30
0.0
  9
$UCSORGRIGHT
 10
0.0
 20
0.0
 30
0.0
  9
$UCSORGFRONT
 10
0.0
 20
0.0
 30
0.0
  9
$UCSORGBACK
 10
0.0
 20
0.0
 30
0.0
  9
$PUCSBASE
  2

  9
$PUCSNAME
  2

  9
$PUCSORG
 10
0.0
 20
0.0
 30
0.0
  9
$PUCSXDIR
 10
1.0
 20
0.0
 30
0.0
  9
$PUCSYDIR
 10
0.0
 20
1.0
 30
0.0
  9
$PUCSORTHOREF
  2

  9
$PUCSORTHOVIEW
 70
     0
  9
$PUCSORGTOP
 10
0.0
 20
0.0
 30
0.0
  9
$PUCSORGBOTTOM
 10
0.0
 20
0.0
 30
0.0
  9
$PUCSORGLEFT
 10
0.0
 20
0.0
 30
0.0
  9
$PUCSORGRIGHT
 10
0.0
 20
0.0
 30
0.0
  9
$PUCSORGFRONT
 10
0.0
 20
0.0
 30
0.0
  9
$PUCSORGBACK
 10
0.0
 20
0.0
 30
0.0
  9
$USERI1
 70
     0
  9
$USERI2
 70
     0
  9
$USERI3
 70
     0
  9
$USERI4
 70
     0
  9
$USERI5
 70
     0
  9
$USERR1
 40
0.0
  9
$USERR2
 40
0.0
  9
$USERR3
 40
0.0
  9
$USERR4
 40
0.0
  9
$USERR5
 40
0.0
  9
$WORLDVIEW
 70
     1
  9
$SHADEDGE
 70
     3
  9
$SHADEDIF
 70
    70
  9
$TILEMODE
 70
     1
  9
$MAXACTVP
 70
    48
  9
$PINSBASE
 10
0.0
 20
0.0
 30
0.0
  9
$PLIMCHECK
 70
     0
  9
$PEXTMIN
 10
4.273573370203961
 20
5.205246163471485
 30
0.0
  9
$PEXTMAX
 10
194.6100952986349
 20
283.0697008572913
 30
0.0
  9
$PLIMMIN
 10
-5.873748779296875
 20
-5.873749732971191
  9
$PLIMMAX
 10
204.0995788574218
 20
291.1369009017943
  9
$UNITMODE
 70
     0
  9
$VISRETAIN
 70
     1
  9
$PLINEGEN
 70
     0
  9
$PSLTSCALE
 70
     1
  9
$TREEDEPTH
 70
  3020
  9
$CMLSTYLE
  2
STANDARD
  9
$CMLJUST
 70
     0
  9
$CMLSCALE
 40
1.0
  9
$PROXYGRAPHICS
 70
     1
  9
$MEASUREMENT
 70
     0
  9
$CELWEIGHT
370
    -1
  9
$ENDCAPS
280
     0
  9
$JOINSTYLE
280
     0
  9
$LWDISPLAY
290
     0
  9
$INSUNITS
 70
     0
  9
$HYPERLINKBASE
  1

  9
$STYLESHEET
  1
KIKI.CTB
  9
$XEDIT
290
     1
  9
$CEPSNTYPE
380
     0
  9
$PSTYLEMODE
290
     1
  9
$FINGERPRINTGUID
  2

  9
$VERSIONGUID
  2
{6D2988D2-0E1B-46C3-844C-D8FA7FB94365}
  9
$EXTNAMES
290
     1
  9
$PSVPSCALE
 40
0.0
  9
$OLESTARTUP
290
     0
  0
ENDSEC
  0
SECTION
  2
CLASSES
  0
CLASS
  1
ACDBDICTIONARYWDFLT
  2
AcDbDictionaryWithDefault
  3
ObjectDBX Classes
 90
        0
280
     0
281
     0
  0
CLASS
  1
ACDBPLACEHOLDER
  2
AcDbPlaceHolder
  3
ObjectDBX Classes
 90
        0
280
     0
281
     0
  0
CLASS
  1
LAYOUT
  2
AcDbLayout
  3
ObjectDBX Classes
 90
        0
280
     0
281
     0
  0
CLASS
  1
DICTIONARYVAR
  2
AcDbDictionaryVar
  3
ObjectDBX Classes
 90
        0
280
     0
281
     0
  0
CLASS
  1
MATERIAL
  2
AcDbMaterial
  3
ObjectDBX Classes
 90
     1153
280
     0
281
     0
  0
CLASS
  1
VISUALSTYLE
  2
AcDbVisualStyle
  3
ObjectDBX Classes
 90
     4095
280
     0
281
     0
  0
CLASS
  1
TABLESTYLE
  2
AcDbTableStyle
  3
ObjectDBX Classes
 90
     4095
280
     0
281
     0
  0
CLASS
  1
SCALE
  2
AcDbScale
  3
ObjectDBX Classes
 90
     1153
280
     0
281
     0
  0
CLASS
  1
MLEADERSTYLE
  2
AcDbMLeaderStyle
  3
ACDB_MLEADERSTYLE_CLASS
 90
     4095
280
     0
281
     0
  0
CLASS
  1
CELLSTYLEMAP
  2
AcDbCellStyleMap
  3
ObjectDBX Classes
 90
     1152
280
     0
281
     0
  0
ENDSEC
  0
SECTION
  2
TABLES
  0
TABLE
  2
VPORT
  5
8
330
0
100
AcDbSymbolTable
 70
     1
  0
VPORT
  5
A256
330
8
100
AcDbSymbolTableRecord
100
AcDbViewportTableRecord
  2
*Active
 70
     0
 10
0.0
 20
0.0
 11
1.0
 21
1.0
 12
176.8709471131593
 22
16.82325395129885
 13
0.0
 23
0.0
 14
1.0
 24
1.0
 15
10.0
 25
10.0
 16
0.0
 26
0.0
 36
1.0
 17
0.0
 27
0.0
 37
0.0
 40
741.2510075410372
 41
1.746575342465753
 42
50.0
 43
0.0
 44
0.0
 50
0.0
 51
0.0
 71
     0
 72
   100
 73
     1
 74
     1
 75
     0
 76
     0
 77
     0
 78
     0
281
     0
 65
     1
110
0.0
120
0.0
130
0.0
111
1.0
121
0.0
131
0.0
112
0.0
122
1.0
132
0.0
 79
     0
146
0.0
  0
ENDTAB
  0
TABLE
  2
LTYPE
  5
5
330
0
100
AcDbSymbolTable
 70
     5
  0
LTYPE
  5
13
330
5
100
AcDbSymbolTableRecord
100
AcDbLinetypeTableRecord
  2
BYBLOCK
 70
     0
  3

 72
    65
 73
     0
 40
0.0
  0
LTYPE
  5
14
330
5
100
AcDbSymbolTableRecord
100
AcDbLinetypeTableRecord
  2
BYLAYER
 70
     0
  3

 72
    65
 73
     0
 40
0.0
  0
LTYPE
  5
15
330
5
100
AcDbSymbolTableRecord
100
AcDbLinetypeTableRecord
  2
CONTINUOUS
 70
     0
  3
Solid line
 72
    65
 73
     0
 40
0.0
  0
LTYPE
  5
22
330
5
100
AcDbSymbolTableRecord
100
AcDbLinetypeTableRecord
  2
CONTINOUS
 70
     0
  3
Solid line
 72
    65
 73
     0
 40
0.0
  0
LTYPE
  5
24
330
5
100
AcDbSymbolTableRecord
100
AcDbLinetypeTableRecord
  2
DASHDOT
 70
     0
  3
__ . __ . __ . __ . __ . __ . __ . __ . __ . __
 72
    65
 73
     4
 40
1.0
 49
0.5
 74
     0
 49
-0.25
 74
     0
 49
0.0
 74
     0
 49
-0.25
 74
     0
  0
LTYPE
  5
429E
330
5
100
AcDbSymbolTableRecord
100
AcDbLinetypeTableRecord
  2
DIVIDE
 70
     0
  3
Divide ____ . . ____ . . ____ . . ____ . . ____
 72
    65
 73
     6
 40
1.25
 49
0.5
 74
     0
 49
-0.25
 74
     0
 49
0.0
 74
     0
 49
-0.25
 74
     0
 49
0.0
 74
     0
 49
-0.25
 74
     0
  0
ENDTAB
  0
TABLE
  2
LAYER
  5
2
330
0
100
AcDbSymbolTable
 70
    13
  0
LAYER
  5
10
102
{ACAD_XDICTIONARY
360
A2E1
102
}
330
2
100
AcDbSymbolTableRecord
100
AcDbLayerTableRecord
  2
0
 70
     0
 62
     7
  6
CONTINOUS
370
    -3
390
F
  0
LAYER
  5
2F
102
{ACAD_XDICTIONARY
360
A2E3
102
}
330
2
100
AcDbSymbolTableRecord
100
AcDbLayerTableRecord
  2
10
 70
     0
 62
     4
  6
CONTINOUS
370
    -3
390
F
  0
LAYER
  5
31
102
{ACAD_XDICTIONARY
360
A2E5
102
}
330
2
100
AcDbSymbolTableRecord
100
AcDbLayerTableRecord
  2
12
 70
     0
 62
     3
  6
CONTINOUS
370
    -3
390
F
  0
LAYER
  5
35
102
{ACAD_XDICTIONARY
360
A2E7
102
}
330
2
100
AcDbSymbolTableRecord
100
AcDbLayerTableRecord
  2
16
 70
     4
 62
     6
  6
DASHDOT
370
    -3
390
F
  0
LAYER
  5
36
102
{ACAD_XDICTIONARY
360
A2E9
102
}
330
2
100
AcDbSymbolTableRecord
100
AcDbLayerTableRecord
  2
17
 70
     0
 62
     2
  6
DASHDOT
370
    -3
390
F
  0
LAYER
  5
3D
102
{ACAD_XDICTIONARY
360
A2EB
102
}
330
2
100
AcDbSymbolTableRecord
100
AcDbLayerTableRecord
  2
24
 70
     0
 62
     2
  6
CONTINOUS
370
    -3
390
F
  0
LAYER
  5
3A2
102
{ACAD_XDICTIONARY
360
A2ED
102
}
330
2
100
AcDbSymbolTableRecord
100
AcDbLayerTableRecord
  2
30
 70
     0
 62
     9
  6
CONTINUOUS
370
    -3
390
F
  0
LAYER
  5
3A4
330
2
100
AcDbSymbolTableRecord
100
AcDbLayerTableRecord
  2
DEFPOINTS
 70
     0
 62
     7
  6
CONTINUOUS
290
     0
370
    -3
390
F
  0
LAYER
  5
3BBA
102
{ACAD_XDICTIONARY
360
A2EF
102
}
330
2
100
AcDbSymbolTableRecord
100
AcDbLayerTableRecord
  2
18
 70
     0
 62
     5
  6
DIVIDE
370
    -3
390
F
  0
LAYER
  5
3BBB
102
{ACAD_XDICTIONARY
360
A2F1
102
}
330
2
100
AcDbSymbolTableRecord
100
AcDbLayerTableRecord
  2
21
 70
     0
 62
     7
  6
CONTINUOUS
370
    -3
390
F
  0
LAYER
  5
40E3
102
{ACAD_XDICTIONARY
360
A2F3
102
}
330
2
100
AcDbSymbolTableRecord
100
AcDbLayerTableRecord
  2
22
 70
     0
 62
     3
  6
CONTINUOUS
370
    -3
390
F
  0
LAYER
  5
9496
102
{ACAD_XDICTIONARY
360
A2F5
102
}
330
2
100
AcDbSymbolTableRecord
100
AcDbLayerTableRecord
  2
TOP
 70
     0
 62
     7
  6
CONTINUOUS
370
    -3
390
F
  0
LAYER
  5
98BC
102
{ACAD_XDICTIONARY
360
A2F7
102
}
330
2
100
AcDbSymbolTableRecord
100
AcDbLayerTableRecord
  2
1
 70
     0
 62
     7
  6
CONTINUOUS
370
    -3
390
F
  0
ENDTAB
  0
TABLE
  2
STYLE
  5
3
330
0
100
AcDbSymbolTable
 70
     4
  0
STYLE
  5
11
330
3
100
AcDbSymbolTableRecord
100
AcDbTextStyleTableRecord
  2
STANDARD
 70
     0
 40
0.0
 41
1.0
 50
0.0
 71
     0
 42
2.0
  3
txt.shx
  4
bigfont.shx
  0
STYLE
  5
42
330
3
100
AcDbSymbolTableRecord
100
AcDbTextStyleTableRecord
  2
STANDARD1
 70
     0
 40
0.0
 41
1.0
 50
0.0
 71
     0
 42
5.0
  3
MONOTXT
  4
BIGFONT
  0
STYLE
  5
9497
330
3
100
AcDbSymbolTableRecord
100
AcDbTextStyleTableRecord
  2
UGMTXT
 70
     0
 40
0.0
 41
1.0
 50
0.0
 71
     0
 42
0.2
  3
ugmtxt
  4
bigfont
  0
ENDTAB
  0
TABLE
  2
VIEW
  5
6
330
0
100
AcDbSymbolTable
 70
     5
  0
VIEW
  5
230C
330
6
100
AcDbSymbolTableRecord
100
AcDbViewTableRecord
  2
OLE1
 70
     0
 40
148.9124878027714
 10
429.4976280407222
 20
2.560626997828478
 41
103.1458057716444
 11
0.0
 21
0.0
 31
1.0
 12
0.0
 22
0.0
 32
0.0
 42
50.0
 43
0.0
 44
0.0
 50
0.0
 71
     0
281
     0
 72
     0
  0
VIEW
  5
230E
330
6
100
AcDbSymbolTableRecord
100
AcDbViewTableRecord
  2
OLE2
 70
     0
 40
170.7786920545775
 10
322.664969958371
 20
-5.978304054290276
 41
102.4672152327465
 11
0.0
 21
0.0
 31
1.0
 12
0.0
 22
0.0
 32
0.0
 42
50.0
 43
0.0
 44
0.0
 50
0.0
 71
     0
281
     0
 72
     0
  0
VIEW
  5
23AA
330
6
100
AcDbSymbolTableRecord
100
AcDbViewTableRecord
  2
OLE3
 70
     0
 40
591.7897393182231
 10
84.79698158148218
 20
-46.09336010803995
 41
388.7920961799953
 11
0.0
 21
0.0
 31
1.0
 12
0.0
 22
0.0
 32
0.0
 42
50.0
 43
0.0
 44
0.0
 50
0.0
 71
     0
281
     0
 72
     0
  0
VIEW
  5
4402
330
6
100
AcDbSymbolTableRecord
100
AcDbViewTableRecord
  2
OLE4
 70
     0
 40
151.7917771380923
 10
15.38766885376364
 20
-193.752550173716
 41
398.5527551557765
 11
0.0
 21
0.0
 31
1.0
 12
0.0
 22
0.0
 32
0.0
 42
50.0
 43
0.0
 44
0.0
 50
0.0
 71
     0
281
     0
 72
     0
  0
VIEW
  5
8D79
330
6
100
AcDbSymbolTableRecord
100
AcDbViewTableRecord
  2
OLE5
 70
     0
 40
473.0465752437631
 10
40.72308557678552
 20
-190.6885064073368
 41
1018.166770320803
 11
0.0
 21
0.0
 31
1.0
 12
0.0
 22
0.0
 32
0.0
 42
50.0
 43
0.0
 44
0.0
 50
0.0
 71
     0
281
     0
 72
     0
  0
ENDTAB
  0
TABLE
  2
UCS
  5
7
330
0
100
AcDbSymbolTable
 70
     0
  0
ENDTAB
  0
TABLE
  2
APPID
  5
9
330
0
100
AcDbSymbolTable
 70
     5
  0
APPID
  5
12
330
9
100
AcDbSymbolTableRecord
100
AcDbRegAppTableRecord
  2
ACAD
 70
     0
  0
APPID
  5
ECD
330
9
100
AcDbSymbolTableRecord
100
AcDbRegAppTableRecord
  2
CONTENTBLOCKICON
 70
     0
  0
APPID
  5
A2DA
330
9
100
AcDbSymbolTableRecord
100
AcDbRegAppTableRecord
  2
ACAD_EXEMPT_FROM_CAD_STANDARDS
 70
     0
  0
APPID
  5
A2FB
330
9
100
AcDbSymbolTableRecord
100
AcDbRegAppTableRecord
  2
DCO15
 70
     0
  0
APPID
  5
A337
330
9
100
AcDbSymbolTableRecord
100
AcDbRegAppTableRecord
  2
ACAD_MLEADERVER
 70
     0
  0
ENDTAB
  0
TABLE
  2
DIMSTYLE
  5
A
330
0
100
AcDbSymbolTable
 70
     2
100
AcDbDimStyleTable
 71
     1
340
175
  0
DIMSTYLE
105
175
102
{ACAD_REACTORS
330
92DA
330
933A
330
9C5E
330
9770
330
97C2
330
9795
330
9EEE
330
9E18
330
9E21
330
9E1E
330
9E2A
330
9E1D
330
9E17
330
9C12
330
9C1B
330
9C15
330
9C14
330
9C11
330
9C10
330
9C1C
330
9C1D
330
9C2A
330
A006
330
A013
330
A029
330
9940
330
9945
330
A0C7
330
A0D4
330
A0E1
102
}
330
A
100
AcDbSymbolTableRecord
100
AcDbDimStyleTableRecord
  2
STANDARD
 70
     0
 41
2.0
 42
1.0
 43
0.5
 44
0.5
 73
     0
 74
     0
 77
     3
 78
    12
140
4.0
147
1.0
271
     1
272
     1
340
11
341
3B2
342
3B2
  0
ENDTAB
  0
TABLE
  2
BLOCK_RECORD
  5
1
330
0
100
AcDbSymbolTable
 70
    31
  0
BLOCK_RECORD
  5
1E
102
{ACAD_XDICTIONARY
360
178
102
}
330
1
100
AcDbSymbolTableRecord
100
AcDbBlockTableRecord
  2
*MODEL_SPACE
340
A251
  0
BLOCK_RECORD
  5
1A
102
{ACAD_XDICTIONARY
360
17A
102
}
330
1
100
AcDbSymbolTableRecord
100
AcDbBlockTableRecord
  2
*PAPER_SPACE
340
A252
  0
BLOCK_RECORD
  5
3B2
330
1
100
AcDbSymbolTableRecord
100
AcDbBlockTableRecord
  2
_OPEN
340
0
102
{BLKREFS
331
9F7E
331
9F7F
331
9EE8
331
9EE9
331
9F75
331
9F76
331
A229
331
A22A
331
A232
331
A233
331
A082
331
A083
331
A079
331
A07A
331
A094
331
A095
331
A066
331
A067
331
A054
331
A055
331
A05D
331
A05E
331
A039
331
A03A
331
A04B
331
A04C
331
A042
331
A043
331
9F3D
331
9F3E
331
9EFE
331
9EFF
331
9F61
331
9F62
331
9F58
331
9F59
331
9F46
331
9F47
331
9F6A
331
9F6B
331
9EF3
331
9EF4
331
A00B
331
A00C
331
A018
331
A019
331
A02E
331
A02F
331
A2B8
331
A2B9
331
A2C2
331
A2C3
331
A2CB
331
A2CC
331
A2D4
331
A2D5
102
}
  0
BLOCK_RECORD
  5
9830
330
1
100
AcDbSymbolTableRecord
100
AcDbBlockTableRecord
  2
*D1
340
0
  0
BLOCK_RECORD
  5
983C
330
1
100
AcDbSymbolTableRecord
100
AcDbBlockTableRecord
  2
*D2
340
0
  0
BLOCK_RECORD
  5
9848
330
1
100
AcDbSymbolTableRecord
100
AcDbBlockTableRecord
  2
*D3
340
0
  0
BLOCK_RECORD
  5
9975
330
1
100
AcDbSymbolTableRecord
100
AcDbBlockTableRecord
  2
*D4
340
0
  0
BLOCK_RECORD
  5
9981
330
1
100
AcDbSymbolTableRecord
100
AcDbBlockTableRecord
  2
*D5
340
0
  0
BLOCK_RECORD
  5
9A63
330
1
100
AcDbSymbolTableRecord
100
AcDbBlockTableRecord
  2
*U6
340
0
102
{BLKREFS
331
9C0D
102
}
  0
BLOCK_RECORD
  5
9C6E
330
1
100
AcDbSymbolTableRecord
100
AcDbBlockTableRecord
  2
*D7
340
0
  0
BLOCK_RECORD
  5
9C7A
330
1
100
AcDbSymbolTableRecord
100
AcDbBlockTableRecord
  2
*D8
340
0
  0
BLOCK_RECORD
  5
9C87
330
1
100
AcDbSymbolTableRecord
100
AcDbBlockTableRecord
  2
*D9
340
0
  0
BLOCK_RECORD
  5
9C93
330
1
100
AcDbSymbolTableRecord
100
AcDbBlockTableRecord
  2
*D10
340
0
  0
BLOCK_RECORD
  5
9C9F
330
1
100
AcDbSymbolTableRecord
100
AcDbBlockTableRecord
  2
*D11
340
0
  0
BLOCK_RECORD
  5
9CAB
330
1
100
AcDbSymbolTableRecord
100
AcDbBlockTableRecord
  2
*D12
340
0
  0
BLOCK_RECORD
  5
9CB7
330
1
100
AcDbSymbolTableRecord
100
AcDbBlockTableRecord
  2
*D13
340
0
  0
BLOCK_RECORD
  5
9CC3
330
1
100
AcDbSymbolTableRecord
100
AcDbBlockTableRecord
  2
*D14
340
0
  0
BLOCK_RECORD
  5
9CCF
330
1
100
AcDbSymbolTableRecord
100
AcDbBlockTableRecord
  2
*D15
340
0
  0
BLOCK_RECORD
  5
9CF3
330
1
100
AcDbSymbolTableRecord
100
AcDbBlockTableRecord
  2
*D16
340
0
  0
BLOCK_RECORD
  5
9E46
330
1
100
AcDbSymbolTableRecord
100
AcDbBlockTableRecord
  2
*D17
340
0
  0
BLOCK_RECORD
  5
9E52
330
1
100
AcDbSymbolTableRecord
100
AcDbBlockTableRecord
  2
*D18
340
0
  0
BLOCK_RECORD
  5
9E5E
330
1
100
AcDbSymbolTableRecord
100
AcDbBlockTableRecord
  2
*D19
340
0
  0
BLOCK_RECORD
  5
9E6A
330
1
100
AcDbSymbolTableRecord
100
AcDbBlockTableRecord
  2
*D20
340
0
  0
BLOCK_RECORD
  5
9E76
330
1
100
AcDbSymbolTableRecord
100
AcDbBlockTableRecord
  2
*D21
340
0
  0
BLOCK_RECORD
  5
9E82
330
1
100
AcDbSymbolTableRecord
100
AcDbBlockTableRecord
  2
*D22
340
0
  0
BLOCK_RECORD
  5
9EEF
330
1
100
AcDbSymbolTableRecord
100
AcDbBlockTableRecord
  2
*D23
340
0
  0
BLOCK_RECORD
  5
A007
330
1
100
AcDbSymbolTableRecord
100
AcDbBlockTableRecord
  2
*D24
340
0
  0
BLOCK_RECORD
  5
A014
330
1
100
AcDbSymbolTableRecord
100
AcDbBlockTableRecord
  2
*D25
340
0
  0
BLOCK_RECORD
  5
A02A
330
1
100
AcDbSymbolTableRecord
100
AcDbBlockTableRecord
  2
*D26
340
0
  0
BLOCK_RECORD
  5
A0C8
330
1
100
AcDbSymbolTableRecord
100
AcDbBlockTableRecord
  2
*D27
340
0
  0
BLOCK_RECORD
  5
A0D5
330
1
100
AcDbSymbolTableRecord
100
AcDbBlockTableRecord
  2
*D28
340
0
  0
BLOCK_RECORD
  5
A0E2
330
1
100
AcDbSymbolTableRecord
100
AcDbBlockTableRecord
  2
*D29
340
0
  0
ENDTAB
  0
ENDSEC
  0
SECTION
  2
BLOCKS
  0
BLOCK
  5
1F
330
1E
100
AcDbEntity
  8
0
100
AcDbBlockBegin
  2
*MODEL_SPACE
 70
     0
 10
0.0
 20
0.0
 30
0.0
  3
*MODEL_SPACE
  1

  0
ENDBLK
  5
20
330
1E
100
AcDbEntity
  8
0
100
AcDbBlockEnd
  0
BLOCK
  5
1B
330
1A
100
AcDbEntity
 67
     1
  8
0
100
AcDbBlockBegin
  2
*PAPER_SPACE
 70
     0
 10
0.0
 20
0.0
 30
0.0
  3
*PAPER_SPACE
  1

  0
ENDBLK
  5
1C
330
1A
100
AcDbEntity
 67
     1
  8
0
100
AcDbBlockEnd
  0
BLOCK
  5
3B6
330
3B2
100
AcDbEntity
  8
0
100
AcDbBlockBegin
  2
_OPEN
 70
     0
 10
0.0
 20
0.0
 30
0.0
  3
_OPEN
  1

  0
LINE
  5
3B3
330
3B2
100
AcDbEntity
  8
30
  6
Continuous
 62
     0
100
AcDbLine
 10
-1.0
 20
0.1666666666666666
 30
0.0
 11
0.0
 21
0.0
 31
0.0
  0
LINE
  5
3B4
330
3B2
100
AcDbEntity
  8
30
  6
Continuous
 62
     0
100
AcDbLine
 10
-1.0
 20
-0.1666666666666666
 30
0.0
 11
0.0
 21
0.0
 31
0.0
  0
LINE
  5
3B5
330
3B2
100
AcDbEntity
  8
30
  6
Continuous
 62
     0
100
AcDbLine
 10
0.0
 20
0.0
 30
0.0
 11
-1.0
 21
0.0
 31
0.0
  0
ENDBLK
  5
3B7
330
3B2
100
AcDbEntity
  8
0
100
AcDbBlockEnd
  0
BLOCK
  5
983A
330
9830
100
AcDbEntity
  8
0
100
AcDbBlockBegin
  2
*D1
 70
     1
 10
0.0
 20
0.0
 30
0.0
  3
*D1
  1

  0
LINE
  5
9F7B
330
9830
100
AcDbEntity
  8
30
 62
     0
100
AcDbLine
 10
-52.49972879674436
 20
-83.49957382345539
 30
0.0
 11
-52.49972879674436
 21
-101.1627382867611
 31
0.0
  0
LINE
  5
9F7C
330
9830
100
AcDbEntity
  8
30
 62
     0
100
AcDbLine
 10
87.49954799457388
 20
-83.49957382345539
 30
0.0
 11
87.49954799457388
 21
-101.1627382867611
 31
0.0
  0
LINE
  5
9F7D
330
9830
100
AcDbEntity
  8
30
 62
     0
100
AcDbLine
 10
-50.49972879674434
 20
-100.6627382867609
 30
0.0
 11
85.49954799457387
 21
-100.6627382867609
 31
0.0
  0
INSERT
  5
9F7E
330
9830
100
AcDbEntity
  8
30
 62
     0
100
AcDbBlockReference
  2
_OPEN
 10
-52.49972879674436
 20
-100.6627382867609
 30
0.0
 41
2.0
 42
2.0
 43
2.0
 50
180.0
  0
INSERT
  5
9F7F
330
9830
100
AcDbEntity
  8
30
 62
     0
100
AcDbBlockReference
  2
_OPEN
 10
87.49954799457388
 20
-100.6627382867609
 30
0.0
 41
2.0
 42
2.0
 43
2.0
  0
MTEXT
  5
9F80
330
9830
100
AcDbEntity
  8
30
 62
     0
100
AcDbMText
 10
17.49990959891476
 20
-97.66273828676121
 30
0.0
 40
4.0
 41
0.0
 71
     5
 72
     1
  1
\A1;140
 73
     1
 44
1.0
1001
ACAD
1000
MTEXTBEGIN
1070
    73
1070
     1
1070
    44
1040
1.0
1070
    74
1070
     0
1000
MTEXTEND
  0
POINT
  5
9F81
330
9830
100
AcDbEntity
  8
DEFPOINTS
 62
     0
100
AcDbPoint
 10
-52.49972879674436
 20
-82.4995738234554
 30
0.0
  0
POINT
  5
9F82
330
9830
100
AcDbEntity
  8
DEFPOINTS
 62
     0
100
AcDbPoint
 10
87.49954799457388
 20
-82.4995738234554
 30
0.0
  0
POINT
  5
9F83
330
9830
100
AcDbEntity
  8
DEFPOINTS
 62
     0
100
AcDbPoint
 10
87.49954799457388
 20
-100.6627382867609
 30
0.0
  0
ENDBLK
  5
983B
330
9830
100
AcDbEntity
  8
0
100
AcDbBlockEnd
  0
BLOCK
  5
9846
330
983C
100
AcDbEntity
  8
0
100
AcDbBlockBegin
  2
*D2
 70
     1
 10
0.0
 20
0.0
 30
0.0
  3
*D2
  1

  0
LINE
  5
9EE5
330
983C
100
AcDbEntity
  8
30
 62
     0
100
AcDbLine
 10
-48.99974687696138
 20
25.99987085559252
 30
0.0
 11
-48.99974687696138
 21
35.71301008272598
 31
0.0
  0
LINE
  5
9EE6
330
983C
100
AcDbEntity
  8
30
 62
     0
100
AcDbLine
 10
48.99974687696138
 20
25.99987085559252
 30
0.0
 11
48.99974687696138
 21
35.71301008272598
 31
0.0
  0
LINE
  5
9EE7
330
983C
100
AcDbEntity
  8
30
 62
     0
100
AcDbLine
 10
-46.99974687696138
 20
35.21301008272596
 30
0.0
 11
46.99974687696138
 21
35.21301008272596
 31
0.0
  0
INSERT
  5
9EE8
330
983C
100
AcDbEntity
  8
30
 62
     0
100
AcDbBlockReference
  2
_OPEN
 10
-48.99974687696138
 20
35.21301008272596
 30
0.0
 41
2.0
 42
2.0
 43
2.0
 50
180.0
  0
INSERT
  5
9EE9
330
983C
100
AcDbEntity
  8
30
 62
     0
100
AcDbBlockReference
  2
_OPEN
 10
48.99974687696138
 20
35.21301008272596
 30
0.0
 41
2.0
 42
2.0
 43
2.0
  0
MTEXT
  5
9EEA
330
983C
100
AcDbEntity
  8
30
 62
     0
100
AcDbMText
 10
0.0000000000000002
 20
38.21301008272598
 30
0.0
 40
4.0
 41
0.0
 71
     5
 72
     1
  1
\A1;98
 73
     1
 44
1.0
1001
ACAD
1000
MTEXTBEGIN
1070
    73
1070
     1
1070
    44
1040
1.0
1070
    74
1070
     0
1000
MTEXTEND
  0
POINT
  5
9EEB
330
983C
100
AcDbEntity
  8
DEFPOINTS
 62
     0
100
AcDbPoint
 10
-48.99974687696138
 20
24.99987085559252
 30
0.0
  0
POINT
  5
9EEC
330
983C
100
AcDbEntity
  8
DEFPOINTS
 62
     0
100
AcDbPoint
 10
48.99974687696138
 20
24.99987085559252
 30
0.0
  0
POINT
  5
9EED
330
983C
100
AcDbEntity
  8
DEFPOINTS
 62
     0
100
AcDbPoint
 10
48.99974687696138
 20
35.21301008272596
 30
0.0
  0
ENDBLK
  5
9847
330
983C
100
AcDbEntity
  8
0
100
AcDbBlockEnd
  0
BLOCK
  5
9852
330
9848
100
AcDbEntity
  8
0
100
AcDbBlockBegin
  2
*D3
 70
     1
 10
0.0
 20
0.0
 30
0.0
  3
*D3
  1

  0
LINE
  5
9F72
330
9848
100
AcDbEntity
  8
30
 62
     0
100
AcDbLine
 10
88.49954799457387
 20
-82.4995738234554
 30
0.0
 11
101.1779304226176
 21
-82.4995738234554
 31
0.0
  0
LINE
  5
9F73
330
9848
100
AcDbEntity
  8
30
 62
     0
100
AcDbLine
 10
88.49954799457387
 20
82.49957382345536
 30
0.0
 11
101.1779304226177
 21
82.49957382345534
 31
0.0
  0
LINE
  5
9F74
330
9848
100
AcDbEntity
  8
30
 62
     0
100
AcDbLine
 10
100.6779304226177
 20
-80.49957382345541
 30
0.0
 11
100.6779304226177
 21
80.49957382345535
 31
0.0
  0
INSERT
  5
9F75
330
9848
100
AcDbEntity
  8
30
 62
     0
100
AcDbBlockReference
  2
_OPEN
 10
100.6779304226177
 20
-82.4995738234554
 30
0.0
 41
2.0
 42
2.0
 43
2.0
 50
270.0
  0
INSERT
  5
9F76
330
9848
100
AcDbEntity
  8
30
 62
     0
100
AcDbBlockReference
  2
_OPEN
 10
100.6779304226177
 20
82.49957382345534
 30
0.0
 41
2.0
 42
2.0
 43
2.0
 50
90.0
  0
MTEXT
  5
9F77
330
9848
100
AcDbEntity
  8
30
 62
     0
100
AcDbMText
 10
97.67793042261772
 20
-0.0000000000000058
 30
0.0
 40
4.0
 41
0.0
 71
     5
 72
     1
  1
\A1;165
 11
0.0000000000000001
 21
1.0
 31
0.0
 73
     1
 44
1.0
1001
ACAD
1000
MTEXTBEGIN
1070
    73
1070
     1
1070
    44
1040
1.0
1070
    74
1070
     0
1000
MTEXTEND
  0
POINT
  5
9F78
330
9848
100
AcDbEntity
  8
DEFPOINTS
 62
     0
100
AcDbPoint
 10
87.49954799457388
 20
-82.4995738234554
 30
0.0
  0
POINT
  5
9F79
330
9848
100
AcDbEntity
  8
DEFPOINTS
 62
     0
100
AcDbPoint
 10
87.49954799457388
 20
82.49957382345536
 30
0.0
  0
POINT
  5
9F7A
330
9848
100
AcDbEntity
  8
DEFPOINTS
 62
     0
100
AcDbPoint
 10
100.6779304226177
 20
82.49957382345534
 30
0.0
  0
ENDBLK
  5
9853
330
9848
100
AcDbEntity
  8
0
100
AcDbBlockEnd
  0
BLOCK
  5
997F
330
9975
100
AcDbEntity
  8
0
100
AcDbBlockBegin
  2
*D4
 70
     1
 10
0.0
 20
0.0
 30
0.0
  3
*D4
  1

  0
LINE
  5
A226
330
9975
100
AcDbEntity
  8
30
 62
     0
100
AcDbLine
 10
-52.49972879674442
 20
193.9815513960022
 30
0.0
 11
-52.49972879674444
 21
124.7687195325585
 31
0.0
  0
LINE
  5
A227
330
9975
100
AcDbEntity
  8
30
 62
     0
100
AcDbLine
 10
87.49954799457396
 20
193.9815513960022
 30
0.0
 11
87.49954799457396
 21
124.7687195325585
 31
0.0
  0
LINE
  5
A228
330
9975
100
AcDbEntity
  8
30
 62
     0
100
AcDbLine
 10
-50.49972879674442
 20
125.2687195325586
 30
0.0
 11
85.49954799457395
 21
125.2687195325586
 31
0.0
  0
INSERT
  5
A229
330
9975
100
AcDbEntity
  8
30
 62
     0
100
AcDbBlockReference
  2
_OPEN
 10
-52.49972879674444
 20
125.2687195325586
 30
0.0
 41
2.0
 42
2.0
 43
2.0
 50
180.0
  0
INSERT
  5
A22A
330
9975
100
AcDbEntity
  8
30
 62
     0
100
AcDbBlockReference
  2
_OPEN
 10
87.49954799457396
 20
125.2687195325586
 30
0.0
 41
2.0
 42
2.0
 43
2.0
  0
MTEXT
  5
A22B
330
9975
100
AcDbEntity
  8
30
 62
     0
100
AcDbMText
 10
17.49990959891476
 20
128.2687195325586
 30
0.0
 40
4.0
 41
0.0
 71
     5
 72
     1
  1
\A1;140
 73
     1
 44
1.0
1001
ACAD
1000
MTEXTBEGIN
1070
    73
1070
     1
1070
    44
1040
1.0
1070
    74
1070
     0
1000
MTEXTEND
  0
POINT
  5
A22C
330
9975
100
AcDbEntity
  8
DEFPOINTS
 62
     0
100
AcDbPoint
 10
-52.49972879674442
 20
194.9815513960022
 30
0.0
  0
POINT
  5
A22D
330
9975
100
AcDbEntity
  8
DEFPOINTS
 62
     0
100
AcDbPoint
 10
87.49954799457396
 20
194.9815513960022
 30
0.0
  0
POINT
  5
A22E
330
9975
100
AcDbEntity
  8
DEFPOINTS
 62
     0
100
AcDbPoint
 10
87.49954799457396
 20
125.2687195325586
 30
0.0
  0
ENDBLK
  5
9980
330
9975
100
AcDbEntity
  8
0
100
AcDbBlockEnd
  0
BLOCK
  5
998B
330
9981
100
AcDbEntity
  8
0
100
AcDbBlockBegin
  2
*D5
 70
     1
 10
0.0
 20
0.0
 30
0.0
  3
*D5
  1

  0
LINE
  5
A22F
330
9981
100
AcDbEntity
  8
30
 62
     0
100
AcDbLine
 10
20.49989926736225
 20
270.9811587970035
 30
0.0
 11
125.4963638675385
 21
270.9811587970035
 31
0.0
  0
LINE
  5
A230
330
9981
100
AcDbEntity
  8
30
 62
     0
100
AcDbLine
 10
108.4994446790479
 20
262.9812001232139
 30
0.0
 11
125.4963638675385
 21
262.9812001232139
 31
0.0
  0
LINE
  5
A231
330
9981
100
AcDbEntity
  8
30
 62
     0
100
AcDbLine
 10
124.9963638675385
 20
268.9811587970035
 30
0.0
 11
124.9963638675385
 21
264.9812001232139
 31
0.0
  0
INSERT
  5
A232
330
9981
100
AcDbEntity
  8
30
 62
     0
100
AcDbBlockReference
  2
_OPEN
 10
124.9963638675385
 20
270.9811587970035
 30
0.0
 41
2.0
 42
2.0
 43
2.0
 50
90.0
  0
INSERT
  5
A233
330
9981
100
AcDbEntity
  8
30
 62
     0
100
AcDbBlockReference
  2
_OPEN
 10
124.9963638675385
 20
262.9812001232139
 30
0.0
 41
2.0
 42
2.0
 43
2.0
 50
270.0
  0
MTEXT
  5
A234
330
9981
100
AcDbEntity
  8
30
 62
     0
100
AcDbMText
 10
121.9963638675385
 20
266.9811794601087
 30
0.0
 40
4.0
 41
0.0
 71
     5
 72
     1
  1
\A1;8
 11
0.0000000000000001
 21
1.0
 31
0.0
 73
     1
 44
1.0
1001
ACAD
1000
MTEXTBEGIN
1070
    73
1070
     1
1070
    44
1040
1.0
1070
    74
1070
     0
1000
MTEXTEND
  0
POINT
  5
A235
330
9981
100
AcDbEntity
  8
DEFPOINTS
 62
     0
100
AcDbPoint
 10
19.49989926736225
 20
270.9811587970035
 30
0.0
  0
POINT
  5
A236
330
9981
100
AcDbEntity
  8
DEFPOINTS
 62
     0
100
AcDbPoint
 10
107.4994446790479
 20
262.9812001232139
 30
0.0
  0
POINT
  5
A237
330
9981
100
AcDbEntity
  8
DEFPOINTS
 62
     0
100
AcDbPoint
 10
124.9963638675385
 20
262.9812001232139
 30
0.0
  0
ENDBLK
  5
998C
330
9981
100
AcDbEntity
  8
0
100
AcDbBlockEnd
  0
BLOCK
  5
9A67
330
9A63
100
AcDbEntity
  8
TOP
  6
Continuous
 62
     4
100
AcDbBlockBegin
  2
*U6
 70
     1
 10
0.0
 20
0.0
 30
0.0
  3
*U6
  1

  0
LINE
  5
9A64
330
9A63
100
AcDbEntity
  8
1
  6
ByBlock
 62
     0
100
AcDbLine
 10
277.8511961722488
 20
79.86472320362056
 30
0.0
 11
283.0330054314933
 21
79.86472320362056
 31
0.0
  0
LINE
  5
9A65
330
9A63
100
AcDbEntity
  8
1
  6
ByBlock
 62
     0
100
AcDbLine
 10
275.6511961722486
 20
137.4647232036204
 30
0.0
 11
283.0330054314933
 21
137.4647232036204
 31
0.0
  0
TEXT
  5
9A66
330
9A63
100
AcDbEntity
  8
TOP
  6
ByBlock
 62
     0
100
AcDbText
 10
280.7830054229933
 20
107.7988377856377
 30
0.0
 40
2.500000003799998
  1
 
 50
89.99999999999404
 41
1.189062499999995
  7
UGMTXT
100
AcDbText
  0
ENDBLK
  5
9A68
330
9A63
100
AcDbEntity
  8
0
100
AcDbBlockEnd
  0
BLOCK
  5
9C78
330
9C6E
100
AcDbEntity
  8
0
100
AcDbBlockBegin
  2
*D7
 70
     1
 10
0.0
 20
0.0
 30
0.0
  3
*D7
  1

  0
LINE
  5
A07F
330
9C6E
100
AcDbEntity
  8
30
 62
     0
100
AcDbLine
 10
200.7872704246524
 20
-25.99987085559253
 30
0.0
 11
200.7872704246524
 21
-137.5755454950736
 31
0.0
  0
LINE
  5
A080
330
9C6E
100
AcDbEntity
  8
30
 62
     0
100
AcDbLine
 10
272.786898488759
 20
-83.49957382345539
 30
0.0
 11
272.786898488759
 21
-137.5755454950736
 31
0.0
  0
LINE
  5
A081
330
9C6E
100
AcDbEntity
  8
30
 62
     0
100
AcDbLine
 10
202.7872704246524
 20
-137.0755454950737
 30
0.0
 11
270.786898488759
 21
-137.0755454950737
 31
0.0
  0
INSERT
  5
A082
330
9C6E
100
AcDbEntity
  8
30
 62
     0
100
AcDbBlockReference
  2
_OPEN
 10
200.7872704246524
 20
-137.0755454950737
 30
0.0
 41
2.0
 42
2.0
 43
2.0
 50
180.0
  0
INSERT
  5
A083
330
9C6E
100
AcDbEntity
  8
30
 62
     0
100
AcDbBlockReference
  2
_OPEN
 10
272.786898488759
 20
-137.0755454950737
 30
0.0
 41
2.0
 42
2.0
 43
2.0
  0
MTEXT
  5
A084
330
9C6E
100
AcDbEntity
  8
30
 62
     0
100
AcDbMText
 10
236.7870844567057
 20
-134.0755454950737
 30
0.0
 40
4.0
 41
0.0
 71
     5
 72
     1
  1
\A1;72
 73
     1
 44
1.0
1001
ACAD
1000
MTEXTBEGIN
1070
    73
1070
     1
1070
    44
1040
1.0
1070
    74
1070
     0
1000
MTEXTEND
  0
POINT
  5
A085
330
9C6E
100
AcDbEntity
  8
DEFPOINTS
 62
     0
100
AcDbPoint
 10
200.7872704246524
 20
-24.99987085559253
 30
0.0
  0
POINT
  5
A086
330
9C6E
100
AcDbEntity
  8
DEFPOINTS
 62
     0
100
AcDbPoint
 10
272.786898488759
 20
-82.4995738234554
 30
0.0
  0
POINT
  5
A087
330
9C6E
100
AcDbEntity
  8
DEFPOINTS
 62
     0
100
AcDbPoint
 10
272.786898488759
 20
-137.0755454950737
 30
0.0
  0
ENDBLK
  5
9C79
330
9C6E
100
AcDbEntity
  8
0
100
AcDbBlockEnd
  0
BLOCK
  5
9C85
330
9C7A
100
AcDbEntity
  8
0
100
AcDbBlockBegin
  2
*D8
 70
     1
 10
0.0
 20
0.0
 30
0.0
  3
*D8
  1

  0
LINE
  5
A075
330
9C7A
100
AcDbEntity
  8
30
 62
     0
100
AcDbLine
 10
196.7872910877574
 20
-25.99987085559253
 30
0.0
 11
196.7872910877574
 21
-137.5755454950736
 31
0.0
  0
LINE
  5
A076
330
9C7A
100
AcDbEntity
  8
30
 62
     0
100
AcDbLine
 10
200.7872704246524
 20
-25.99987085559253
 30
0.0
 11
200.7872704246524
 21
-137.5755454950736
 31
0.0
  0
LINE
  5
A077
330
9C7A
100
AcDbEntity
  8
30
 62
     0
100
AcDbLine
 10
194.7872910877574
 20
-137.0755454950737
 30
0.0
 11
192.7872910877574
 21
-137.0755454950737
 31
0.0
  0
LINE
  5
A078
330
9C7A
100
AcDbEntity
  8
30
 62
     0
100
AcDbLine
 10
202.7872704246524
 20
-137.0755454950737
 30
0.0
 11
209.453937091319
 21
-137.0755454950737
 31
0.0
  0
INSERT
  5
A079
330
9C7A
100
AcDbEntity
  8
30
 62
     0
100
AcDbBlockReference
  2
_OPEN
 10
196.7872910877574
 20
-137.0755454950737
 30
0.0
 41
2.0
 42
2.0
 43
2.0
  0
INSERT
  5
A07A
330
9C7A
100
AcDbEntity
  8
30
 62
     0
100
AcDbBlockReference
  2
_OPEN
 10
200.7872704246524
 20
-137.0755454950737
 30
0.0
 41
2.0
 42
2.0
 43
2.0
 50
180.0
  0
MTEXT
  5
A07B
330
9C7A
100
AcDbEntity
  8
30
 62
     0
100
AcDbMText
 10
207.1206037579857
 20
-134.0755454950737
 30
0.0
 40
4.0
 41
0.0
 71
     5
 72
     1
  1
\A1;4
 73
     1
 44
1.0
1001
ACAD
1000
MTEXTBEGIN
1070
    73
1070
     1
1070
    44
1040
1.0
1070
    74
1070
     0
1000
MTEXTEND
  0
POINT
  5
A07C
330
9C7A
100
AcDbEntity
  8
DEFPOINTS
 62
     0
100
AcDbPoint
 10
196.7872910877574
 20
-24.99987085559253
 30
0.0
  0
POINT
  5
A07D
330
9C7A
100
AcDbEntity
  8
DEFPOINTS
 62
     0
100
AcDbPoint
 10
200.7872704246524
 20
-24.99987085559253
 30
0.0
  0
POINT
  5
A07E
330
9C7A
100
AcDbEntity
  8
DEFPOINTS
 62
     0
100
AcDbPoint
 10
200.7872704246524
 20
-137.0755454950737
 30
0.0
  0
ENDBLK
  5
9C86
330
9C7A
100
AcDbEntity
  8
0
100
AcDbBlockEnd
  0
BLOCK
  5
9C91
330
9C87
100
AcDbEntity
  8
0
100
AcDbBlockBegin
  2
*D9
 70
     1
 10
0.0
 20
0.0
 30
0.0
  3
*D9
  1

  0
LINE
  5
A091
330
9C87
100
AcDbEntity
  8
30
 62
     0
100
AcDbLine
 10
180.7873737401784
 20
-3.499987102059208
 30
0.0
 11
180.7873737401784
 21
-152.8998277705196
 31
0.0
  0
LINE
  5
A092
330
9C87
100
AcDbEntity
  8
30
 62
     0
100
AcDbLine
 10
272.786898488759
 20
-83.49957382345539
 30
0.0
 11
272.786898488759
 21
-152.8998277705196
 31
0.0
  0
LINE
  5
A093
330
9C87
100
AcDbEntity
  8
30
 62
     0
100
AcDbLine
 10
182.7873737401784
 20
-152.3998277705197
 30
0.0
 11
270.786898488759
 21
-152.3998277705197
 31
0.0
  0
INSERT
  5
A094
330
9C87
100
AcDbEntity
  8
30
 62
     0
100
AcDbBlockReference
  2
_OPEN
 10
180.7873737401784
 20
-152.3998277705197
 30
0.0
 41
2.0
 42
2.0
 43
2.0
 50
180.0
  0
INSERT
  5
A095
330
9C87
100
AcDbEntity
  8
30
 62
     0
100
AcDbBlockReference
  2
_OPEN
 10
272.786898488759
 20
-152.3998277705197
 30
0.0
 41
2.0
 42
2.0
 43
2.0
  0
MTEXT
  5
A096
330
9C87
100
AcDbEntity
  8
30
 62
     0
100
AcDbMText
 10
226.7871361144687
 20
-149.3998277705196
 30
0.0
 40
4.0
 41
0.0
 71
     5
 72
     1
  1
\A1;92
 73
     1
 44
1.0
1001
ACAD
1000
MTEXTBEGIN
1070
    73
1070
     1
1070
    44
1040
1.0
1070
    74
1070
     0
1000
MTEXTEND
  0
POINT
  5
A097
330
9C87
100
AcDbEntity
  8
DEFPOINTS
 62
     0
100
AcDbPoint
 10
180.7873737401784
 20
-2.499987102059208
 30
0.0
  0
POINT
  5
A098
330
9C87
100
AcDbEntity
  8
DEFPOINTS
 62
     0
100
AcDbPoint
 10
272.786898488759
 20
-82.4995738234554
 30
0.0
  0
POINT
  5
A099
330
9C87
100
AcDbEntity
  8
DEFPOINTS
 62
     0
100
AcDbPoint
 10
272.786898488759
 20
-152.3998277705197
 30
0.0
  0
ENDBLK
  5
9C92
330
9C87
100
AcDbEntity
  8
0
100
AcDbBlockEnd
  0
BLOCK
  5
9C9D
330
9C93
100
AcDbEntity
  8
0
100
AcDbBlockBegin
  2
*D10
 70
     1
 10
0.0
 20
0.0
 30
0.0
  3
*D10
  1

  0
LINE
  5
A063
330
9C93
100
AcDbEntity
  8
30
 62
     0
100
AcDbLine
 10
204.7872497615473
 20
-51.99973654540878
 30
0.0
 11
204.7872497615473
 21
-120.7235397719641
 31
0.0
  0
LINE
  5
A064
330
9C93
100
AcDbEntity
  8
30
 62
     0
100
AcDbLine
 10
272.786898488759
 20
-83.49957382345539
 30
0.0
 11
272.786898488759
 21
-120.7235397719641
 31
0.0
  0
LINE
  5
A065
330
9C93
100
AcDbEntity
  8
30
 62
     0
100
AcDbLine
 10
206.7872497615473
 20
-120.223539771964
 30
0.0
 11
270.786898488759
 21
-120.223539771964
 31
0.0
  0
INSERT
  5
A066
330
9C93
100
AcDbEntity
  8
30
 62
     0
100
AcDbBlockReference
  2
_OPEN
 10
204.7872497615473
 20
-120.223539771964
 30
0.0
 41
2.0
 42
2.0
 43
2.0
 50
180.0
  0
INSERT
  5
A067
330
9C93
100
AcDbEntity
  8
30
 62
     0
100
AcDbBlockReference
  2
_OPEN
 10
272.786898488759
 20
-120.223539771964
 30
0.0
 41
2.0
 42
2.0
 43
2.0
  0
MTEXT
  5
A068
330
9C93
100
AcDbEntity
  8
30
 62
     0
100
AcDbMText
 10
238.7870741251532
 20
-117.223539771964
 30
0.0
 40
4.0
 41
0.0
 71
     5
 72
     1
  1
\A1;68
 73
     1
 44
1.0
1001
ACAD
1000
MTEXTBEGIN
1070
    73
1070
     1
1070
    44
1040
1.0
1070
    74
1070
     0
1000
MTEXTEND
  0
POINT
  5
A069
330
9C93
100
AcDbEntity
  8
DEFPOINTS
 62
     0
100
AcDbPoint
 10
204.7872497615473
 20
-50.99973654540878
 30
0.0
  0
POINT
  5
A06A
330
9C93
100
AcDbEntity
  8
DEFPOINTS
 62
     0
100
AcDbPoint
 10
272.786898488759
 20
-82.4995738234554
 30
0.0
  0
POINT
  5
A06B
330
9C93
100
AcDbEntity
  8
DEFPOINTS
 62
     0
100
AcDbPoint
 10
272.786898488759
 20
-120.223539771964
 30
0.0
  0
ENDBLK
  5
9C9E
330
9C93
100
AcDbEntity
  8
0
100
AcDbBlockEnd
  0
BLOCK
  5
9CA9
330
9C9F
100
AcDbEntity
  8
0
100
AcDbBlockBegin
  2
*D11
 70
     1
 10
0.0
 20
0.0
 30
0.0
  3
*D11
  1

  0
LINE
  5
A051
330
9C9F
100
AcDbEntity
  8
30
 62
     0
100
AcDbLine
 10
211.7872136011131
 20
-83.49957382345539
 30
0.0
 11
211.7872136011131
 21
-105.9084993202335
 31
0.0
  0
LINE
  5
A052
330
9C9F
100
AcDbEntity
  8
30
 62
     0
100
AcDbLine
 10
272.786898488759
 20
-83.49957382345539
 30
0.0
 11
272.786898488759
 21
-105.9084993202335
 31
0.0
  0
LINE
  5
A053
330
9C9F
100
AcDbEntity
  8
30
 62
     0
100
AcDbLine
 10
213.7872136011131
 20
-105.4084993202337
 30
0.0
 11
270.786898488759
 21
-105.4084993202337
 31
0.0
  0
INSERT
  5
A054
330
9C9F
100
AcDbEntity
  8
30
 62
     0
100
AcDbBlockReference
  2
_OPEN
 10
211.7872136011131
 20
-105.4084993202337
 30
0.0
 41
2.0
 42
2.0
 43
2.0
 50
180.0
  0
INSERT
  5
A055
330
9C9F
100
AcDbEntity
  8
30
 62
     0
100
AcDbBlockReference
  2
_OPEN
 10
272.786898488759
 20
-105.4084993202337
 30
0.0
 41
2.0
 42
2.0
 43
2.0
  0
MTEXT
  5
A056
330
9C9F
100
AcDbEntity
  8
30
 62
     0
100
AcDbMText
 10
242.2870560449359
 20
-102.4084993202337
 30
0.0
 40
4.0
 41
0.0
 71
     5
 72
     1
  1
\A1;61
 73
     1
 44
1.0
1001
ACAD
1000
MTEXTBEGIN
1070
    73
1070
     1
1070
    44
1040
1.0
1070
    74
1070
     0
1000
MTEXTEND
  0
POINT
  5
A057
330
9C9F
100
AcDbEntity
  8
DEFPOINTS
 62
     0
100
AcDbPoint
 10
211.7872136011131
 20
-82.4995738234554
 30
0.0
  0
POINT
  5
A058
330
9C9F
100
AcDbEntity
  8
DEFPOINTS
 62
     0
100
AcDbPoint
 10
272.786898488759
 20
-82.4995738234554
 30
0.0
  0
POINT
  5
A059
330
9C9F
100
AcDbEntity
  8
DEFPOINTS
 62
     0
100
AcDbPoint
 10
272.786898488759
 20
-105.4084993202337
 30
0.0
  0
ENDBLK
  5
9CAA
330
9C9F
100
AcDbEntity
  8
0
100
AcDbBlockEnd
  0
BLOCK
  5
9CB5
330
9CAB
100
AcDbEntity
  8
0
100
AcDbBlockBegin
  2
*D12
 70
     1
 10
0.0
 20
0.0
 30
0.0
  3
*D12
  1

  0
LINE
  5
A05A
330
9CAB
100
AcDbEntity
  8
30
 62
     0
100
AcDbLine
 10
272.786898488759
 20
-83.49957382345539
 30
0.0
 11
272.786898488759
 21
-120.7235397719641
 31
0.0
  0
LINE
  5
A05B
330
9CAB
100
AcDbEntity
  8
30
 62
     0
100
AcDbLine
 10
378.7863509164714
 20
-72.99962806410656
 30
0.0
 11
378.7863509164714
 21
-120.7235397719641
 31
0.0
  0
LINE
  5
A05C
330
9CAB
100
AcDbEntity
  8
30
 62
     0
100
AcDbLine
 10
274.786898488759
 20
-120.223539771964
 30
0.0
 11
376.7863509164714
 21
-120.223539771964
 31
0.0
  0
INSERT
  5
A05D
330
9CAB
100
AcDbEntity
  8
30
 62
     0
100
AcDbBlockReference
  2
_OPEN
 10
272.786898488759
 20
-120.223539771964
 30
0.0
 41
2.0
 42
2.0
 43
2.0
 50
180.0
  0
INSERT
  5
A05E
330
9CAB
100
AcDbEntity
  8
30
 62
     0
100
AcDbBlockReference
  2
_OPEN
 10
378.7863509164714
 20
-120.223539771964
 30
0.0
 41
2.0
 42
2.0
 43
2.0
  0
MTEXT
  5
A05F
330
9CAB
100
AcDbEntity
  8
30
 62
     0
100
AcDbMText
 10
325.7866247026151
 20
-117.223539771964
 30
0.0
 40
4.0
 41
0.0
 71
     5
 72
     1
  1
\A1;106
 73
     1
 44
1.0
1001
ACAD
1000
MTEXTBEGIN
1070
    73
1070
     1
1070
    44
1040
1.0
1070
    74
1070
     0
1000
MTEXTEND
  0
POINT
  5
A060
330
9CAB
100
AcDbEntity
  8
DEFPOINTS
 62
     0
100
AcDbPoint
 10
272.786898488759
 20
-82.4995738234554
 30
0.0
  0
POINT
  5
A061
330
9CAB
100
AcDbEntity
  8
DEFPOINTS
 62
     0
100
AcDbPoint
 10
378.7863509164714
 20
-71.99962806410656
 30
0.0
  0
POINT
  5
A062
330
9CAB
100
AcDbEntity
  8
DEFPOINTS
 62
     0
100
AcDbPoint
 10
378.7863509164714
 20
-120.223539771964
 30
0.0
  0
ENDBLK
  5
9CB6
330
9CAB
100
AcDbEntity
  8
0
100
AcDbBlockEnd
  0
BLOCK
  5
9CC1
330
9CB7
100
AcDbEntity
  8
0
100
AcDbBlockBegin
  2
*D13
 70
     1
 10
0.0
 20
0.0
 30
0.0
  3
*D13
  1

  0
LINE
  5
A036
330
9CB7
100
AcDbEntity
  8
30
 62
     0
100
AcDbLine
 10
363.7864284031159
 20
-75.49961516616571
 30
0.0
 11
363.7864284031159
 21
-96.18587305869361
 31
0.0
  0
LINE
  5
A037
330
9CB7
100
AcDbEntity
  8
30
 62
     0
100
AcDbLine
 10
378.7863509164714
 20
-83.30733891656379
 30
0.0
 11
378.7863509164714
 21
-96.18587305869361
 31
0.0
  0
LINE
  5
A038
330
9CB7
100
AcDbEntity
  8
30
 62
     0
100
AcDbLine
 10
365.7864284031159
 20
-95.68587305869355
 30
0.0
 11
376.7863509164714
 21
-95.68587305869355
 31
0.0
  0
INSERT
  5
A039
330
9CB7
100
AcDbEntity
  8
30
 62
     0
100
AcDbBlockReference
  2
_OPEN
 10
363.7864284031159
 20
-95.68587305869355
 30
0.0
 41
2.0
 42
2.0
 43
2.0
 50
180.0
  0
INSERT
  5
A03A
330
9CB7
100
AcDbEntity
  8
30
 62
     0
100
AcDbBlockReference
  2
_OPEN
 10
378.7863509164714
 20
-95.68587305869355
 30
0.0
 41
2.0
 42
2.0
 43
2.0
  0
MTEXT
  5
A03B
330
9CB7
100
AcDbEntity
  8
30
 62
     0
100
AcDbMText
 10
371.2863896597935
 20
-92.68587305869358
 30
0.0
 40
4.0
 41
0.0
 71
     5
 72
     1
  1
\A1;15
 73
     1
 44
1.0
1001
ACAD
1000
MTEXTBEGIN
1070
    73
1070
     1
1070
    44
1040
1.0
1070
    74
1070
     0
1000
MTEXTEND
  0
POINT
  5
A03C
330
9CB7
100
AcDbEntity
  8
DEFPOINTS
 62
     0
100
AcDbPoint
 10
363.7864284031159
 20
-74.49961516616571
 30
0.0
  0
POINT
  5
A03D
330
9CB7
100
AcDbEntity
  8
DEFPOINTS
 62
     0
100
AcDbPoint
 10
378.7863509164714
 20
-82.30733891656379
 30
0.0
  0
POINT
  5
A03E
330
9CB7
100
AcDbEntity
  8
DEFPOINTS
 62
     0
100
AcDbPoint
 10
378.7863509164714
 20
-95.68587305869355
 30
0.0
  0
ENDBLK
  5
9CC2
330
9CB7
100
AcDbEntity
  8
0
100
AcDbBlockEnd
  0
BLOCK
  5
9CCD
330
9CC3
100
AcDbEntity
  8
0
100
AcDbBlockBegin
  2
*D14
 70
     1
 10
0.0
 20
0.0
 30
0.0
  3
*D14
  1

  0
LINE
  5
A048
330
9CC3
100
AcDbEntity
  8
30
 62
     0
100
AcDbLine
 10
272.786898488759
 20
-83.49957382345539
 30
0.0
 11
272.786898488759
 21
-105.9084993202335
 31
0.0
  0
LINE
  5
A049
330
9CC3
100
AcDbEntity
  8
30
 62
     0
100
AcDbLine
 10
343.7865317186417
 20
-72.99962806410656
 30
0.0
 11
343.7865317186417
 21
-105.9084993202335
 31
0.0
  0
LINE
  5
A04A
330
9CC3
100
AcDbEntity
  8
30
 62
     0
100
AcDbLine
 10
274.786898488759
 20
-105.4084993202337
 30
0.0
 11
341.7865317186418
 21
-105.4084993202337
 31
0.0
  0
INSERT
  5
A04B
330
9CC3
100
AcDbEntity
  8
30
 62
     0
100
AcDbBlockReference
  2
_OPEN
 10
272.786898488759
 20
-105.4084993202337
 30
0.0
 41
2.0
 42
2.0
 43
2.0
 50
180.0
  0
INSERT
  5
A04C
330
9CC3
100
AcDbEntity
  8
30
 62
     0
100
AcDbBlockReference
  2
_OPEN
 10
343.7865317186417
 20
-105.4084993202337
 30
0.0
 41
2.0
 42
2.0
 43
2.0
  0
MTEXT
  5
A04D
330
9CC3
100
AcDbEntity
  8
30
 62
     0
100
AcDbMText
 10
308.2867151037003
 20
-102.4084993202337
 30
0.0
 40
4.0
 41
0.0
 71
     5
 72
     1
  1
\A1;71
 73
     1
 44
1.0
1001
ACAD
1000
MTEXTBEGIN
1070
    73
1070
     1
1070
    44
1040
1.0
1070
    74
1070
     0
1000
MTEXTEND
  0
POINT
  5
A04E
330
9CC3
100
AcDbEntity
  8
DEFPOINTS
 62
     0
100
AcDbPoint
 10
272.786898488759
 20
-82.4995738234554
 30
0.0
  0
POINT
  5
A04F
330
9CC3
100
AcDbEntity
  8
DEFPOINTS
 62
     0
100
AcDbPoint
 10
343.7865317186417
 20
-71.99962806410656
 30
0.0
  0
POINT
  5
A050
330
9CC3
100
AcDbEntity
  8
DEFPOINTS
 62
     0
100
AcDbPoint
 10
343.7865317186417
 20
-105.4084993202337
 30
0.0
  0
ENDBLK
  5
9CCE
330
9CC3
100
AcDbEntity
  8
0
100
AcDbBlockEnd
  0
BLOCK
  5
9CD9
330
9CCF
100
AcDbEntity
  8
0
100
AcDbBlockBegin
  2
*D15
 70
     1
 10
0.0
 20
0.0
 30
0.0
  3
*D15
  1

  0
LINE
  5
A03F
330
9CCF
100
AcDbEntity
  8
30
 62
     0
100
AcDbLine
 10
328.7866092052863
 20
-75.49961516616571
 30
0.0
 11
328.7866092052863
 21
-96.18587305869361
 31
0.0
  0
LINE
  5
A040
330
9CCF
100
AcDbEntity
  8
30
 62
     0
100
AcDbLine
 10
343.7865317186417
 20
-83.30733891656379
 30
0.0
 11
343.7865317186417
 21
-96.18587305869361
 31
0.0
  0
LINE
  5
A041
330
9CCF
100
AcDbEntity
  8
30
 62
     0
100
AcDbLine
 10
330.7866092052863
 20
-95.68587305869355
 30
0.0
 11
341.7865317186418
 21
-95.68587305869355
 31
0.0
  0
INSERT
  5
A042
330
9CCF
100
AcDbEntity
  8
30
 62
     0
100
AcDbBlockReference
  2
_OPEN
 10
328.7866092052863
 20
-95.68587305869355
 30
0.0
 41
2.0
 42
2.0
 43
2.0
 50
180.0
  0
INSERT
  5
A043
330
9CCF
100
AcDbEntity
  8
30
 62
     0
100
AcDbBlockReference
  2
_OPEN
 10
343.7865317186417
 20
-95.68587305869355
 30
0.0
 41
2.0
 42
2.0
 43
2.0
  0
MTEXT
  5
A044
330
9CCF
100
AcDbEntity
  8
30
 62
     0
100
AcDbMText
 10
336.286570461964
 20
-92.68587305869358
 30
0.0
 40
4.0
 41
0.0
 71
     5
 72
     1
  1
\A1;15
 73
     1
 44
1.0
1001
ACAD
1000
MTEXTBEGIN
1070
    73
1070
     1
1070
    44
1040
1.0
1070
    74
1070
     0
1000
MTEXTEND
  0
POINT
  5
A045
330
9CCF
100
AcDbEntity
  8
DEFPOINTS
 62
     0
100
AcDbPoint
 10
328.7866092052863
 20
-74.49961516616571
 30
0.0
  0
POINT
  5
A046
330
9CCF
100
AcDbEntity
  8
DEFPOINTS
 62
     0
100
AcDbPoint
 10
343.7865317186417
 20
-82.30733891656379
 30
0.0
  0
POINT
  5
A047
330
9CCF
100
AcDbEntity
  8
DEFPOINTS
 62
     0
100
AcDbPoint
 10
343.7865317186417
 20
-95.68587305869355
 30
0.0
  0
ENDBLK
  5
9CDA
330
9CCF
100
AcDbEntity
  8
0
100
AcDbBlockEnd
  0
BLOCK
  5
9CFE
330
9CF3
100
AcDbEntity
  8
0
100
AcDbBlockBegin
  2
*D16
 70
     1
 10
0.0
 20
0.0
 30
0.0
  3
*D16
  1

  0
LINE
  5
A2B4
330
9CF3
100
AcDbEntity
  8
30
 62
     0
370
    -2
100
AcDbLine
 10
379.786898488759
 20
68.99964356143539
 30
0.0
 11
414.5331784124326
 21
68.99964356143539
 31
0.0
  0
LINE
  5
A2B5
330
9CF3
100
AcDbEntity
  8
30
 62
     0
370
    -2
100
AcDbLine
 10
379.786898488759
 20
74.99961256677761
 30
0.0
 11
414.5331784124326
 21
74.99961256677761
 31
0.0
  0
LINE
  5
A2B6
330
9CF3
100
AcDbEntity
  8
30
 62
     0
370
    -2
100
AcDbLine
 10
414.0331784124326
 20
66.99964356143539
 30
0.0
 11
414.0331784124326
 21
64.99964356143539
 31
0.0
  0
LINE
  5
A2B7
330
9CF3
100
AcDbEntity
  8
30
 62
     0
370
    -2
100
AcDbLine
 10
414.0331784124326
 20
76.99961256677761
 30
0.0
 11
414.0331784124326
 21
78.99961256677761
 31
0.0
  0
INSERT
  5
A2B8
330
9CF3
100
AcDbEntity
  8
30
 62
     0
370
    -2
100
AcDbBlockReference
  2
_OPEN
 10
414.0331784124326
 20
68.99964356143539
 30
0.0
 41
2.0
 42
2.0
 43
2.0
 50
90.0
  0
INSERT
  5
A2B9
330
9CF3
100
AcDbEntity
  8
30
 62
     0
370
    -2
100
AcDbBlockReference
  2
_OPEN
 10
414.0331784124326
 20
74.99961256677761
 30
0.0
 41
2.0
 42
2.0
 43
2.0
 50
270.0
  0
MTEXT
  5
A2BA
330
9CF3
100
AcDbEntity
  8
30
 62
     0
100
AcDbMText
 10
411.0331784124325
 20
71.99962806410656
 30
0.0
 40
4.0
 41
0.0
 71
     5
 72
     1
  1
\A1;6
 11
0.0000000000000001
 21
1.0
 31
0.0
 73
     1
 44
1.0
1001
ACAD
1000
MTEXTBEGIN
1070
    73
1070
     1
1070
    44
1040
1.0
1070
    74
1070
     0
1000
MTEXTEND
  0
POINT
  5
A2BB
330
9CF3
100
AcDbEntity
  8
DEFPOINTS
 62
     0
100
AcDbPoint
 10
378.786898488759
 20
68.99964356143539
 30
0.0
  0
POINT
  5
A2BC
330
9CF3
100
AcDbEntity
  8
DEFPOINTS
 62
     0
100
AcDbPoint
 10
378.786898488759
 20
74.99961256677761
 30
0.0
  0
POINT
  5
A2BD
330
9CF3
100
AcDbEntity
  8
DEFPOINTS
 62
     0
100
AcDbPoint
 10
414.0331784124326
 20
74.99961256677761
 30
0.0
  0
ENDBLK
  5
9CFF
330
9CF3
100
AcDbEntity
  8
0
100
AcDbBlockEnd
  0
BLOCK
  5
9E50
330
9E46
100
AcDbEntity
  8
0
100
AcDbBlockBegin
  2
*D17
 70
     1
 10
0.0
 20
0.0
 30
0.0
  3
*D17
  1

  0
LINE
  5
9F3A
330
9E46
100
AcDbEntity
  8
30
 62
     0
100
AcDbLine
 10
20.99989670097397
 20
-297.9996745560931
 30
0.0
 11
119.9963922793082
 21
-297.9996745560931
 31
0.0
  0
LINE
  5
9F3B
330
9E46
100
AcDbEntity
  8
30
 62
     0
100
AcDbLine
 10
20.99989670097397
 20
-172.0003254439065
 30
0.0
 11
119.9963922793082
 21
-172.0003254439068
 31
0.0
  0
LINE
  5
9F3C
330
9E46
100
AcDbEntity
  8
30
 62
     0
100
AcDbLine
 10
119.4963922793083
 20
-295.9996745560932
 30
0.0
 11
119.4963922793083
 21
-174.0003254439066
 31
0.0
  0
INSERT
  5
9F3D
330
9E46
100
AcDbEntity
  8
30
 62
     0
100
AcDbBlockReference
  2
_OPEN
 10
119.4963922793083
 20
-297.9996745560931
 30
0.0
 41
2.0
 42
2.0
 43
2.0
 50
270.0
  0
INSERT
  5
9F3E
330
9E46
100
AcDbEntity
  8
30
 62
     0
100
AcDbBlockReference
  2
_OPEN
 10
119.4963922793083
 20
-172.0003254439068
 30
0.0
 41
2.0
 42
2.0
 43
2.0
 50
90.0
  0
MTEXT
  5
9F3F
330
9E46
100
AcDbEntity
  8
30
 62
     0
100
AcDbMText
 10
116.4963922793083
 20
-234.9999999999999
 30
0.0
 40
4.0
 41
0.0
 71
     5
 72
     1
  1
\A1;126
 11
0.0000000000000001
 21
1.0
 31
0.0
 73
     1
 44
1.0
1001
ACAD
1000
MTEXTBEGIN
1070
    73
1070
     1
1070
    44
1040
1.0
1070
    74
1070
     0
1000
MTEXTEND
  0
POINT
  5
9F40
330
9E46
100
AcDbEntity
  8
DEFPOINTS
 62
     0
100
AcDbPoint
 10
19.99989670097397
 20
-297.9996745560931
 30
0.0
  0
POINT
  5
9F41
330
9E46
100
AcDbEntity
  8
DEFPOINTS
 62
     0
100
AcDbPoint
 10
19.99989670097397
 20
-172.0003254439065
 30
0.0
  0
POINT
  5
9F42
330
9E46
100
AcDbEntity
  8
DEFPOINTS
 62
     0
100
AcDbPoint
 10
119.4963922793083
 20
-172.0003254439068
 30
0.0
  0
ENDBLK
  5
9E51
330
9E46
100
AcDbEntity
  8
0
100
AcDbBlockEnd
  0
BLOCK
  5
9E5C
330
9E52
100
AcDbEntity
  8
0
100
AcDbBlockBegin
  2
*D18
 70
     1
 10
0.0
 20
0.0
 30
0.0
  3
*D18
  1

  0
LINE
  5
9EFB
330
9E52
100
AcDbEntity
  8
30
 62
     0
100
AcDbLine
 10
73.49962549771817
 20
-306.9996280641065
 30
0.0
 11
144.9962631349009
 21
-306.9996280641066
 31
0.0
  0
LINE
  5
9EFC
330
9E52
100
AcDbEntity
  8
30
 62
     0
100
AcDbLine
 10
73.49962549771817
 20
-163.0003719358934
 30
0.0
 11
144.9962631349009
 21
-163.0003719358934
 31
0.0
  0
LINE
  5
9EFD
330
9E52
100
AcDbEntity
  8
30
 62
     0
100
AcDbLine
 10
144.4962631349009
 20
-304.9996280641066
 30
0.0
 11
144.4962631349009
 21
-165.0003719358934
 31
0.0
  0
INSERT
  5
9EFE
330
9E52
100
AcDbEntity
  8
30
 62
     0
100
AcDbBlockReference
  2
_OPEN
 10
144.4962631349009
 20
-306.9996280641066
 30
0.0
 41
2.0
 42
2.0
 43
2.0
 50
270.0
  0
INSERT
  5
9EFF
330
9E52
100
AcDbEntity
  8
30
 62
     0
100
AcDbBlockReference
  2
_OPEN
 10
144.4962631349009
 20
-163.0003719358934
 30
0.0
 41
2.0
 42
2.0
 43
2.0
 50
90.0
  0
MTEXT
  5
9F00
330
9E52
100
AcDbEntity
  8
30
 62
     0
100
AcDbMText
 10
141.496263134901
 20
-235.0
 30
0.0
 40
4.0
 41
0.0
 71
     5
 72
     1
  1
\A1;144
 11
0.0000000000000001
 21
1.0
 31
0.0
 73
     1
 44
1.0
1001
ACAD
1000
MTEXTBEGIN
1070
    73
1070
     1
1070
    44
1040
1.0
1070
    74
1070
     0
1000
MTEXTEND
  0
POINT
  5
9F01
330
9E52
100
AcDbEntity
  8
DEFPOINTS
 62
     0
100
AcDbPoint
 10
72.49962549771817
 20
-306.9996280641065
 30
0.0
  0
POINT
  5
9F02
330
9E52
100
AcDbEntity
  8
DEFPOINTS
 62
     0
100
AcDbPoint
 10
72.49962549771817
 20
-163.0003719358934
 30
0.0
  0
POINT
  5
9F03
330
9E52
100
AcDbEntity
  8
DEFPOINTS
 62
     0
100
AcDbPoint
 10
144.4962631349009
 20
-163.0003719358934
 30
0.0
  0
ENDBLK
  5
9E5D
330
9E52
100
AcDbEntity
  8
0
100
AcDbBlockEnd
  0
BLOCK
  5
9E68
330
9E5E
100
AcDbEntity
  8
0
100
AcDbBlockBegin
  2
*D19
 70
     1
 10
0.0
 20
0.0
 30
0.0
  3
*D19
  1

  0
LINE
  5
9F5E
330
9E5E
100
AcDbEntity
  8
30
 62
     0
100
AcDbLine
 10
-0.0000000000000001
 20
-310.4996151661657
 30
0.0
 11
-0.0000000000000025
 21
-350.7250062623431
 31
0.0
  0
LINE
  5
9F5F
330
9E5E
100
AcDbEntity
  8
30
 62
     0
100
AcDbLine
 10
34.99981919782953
 20
-307.9996280641065
 30
0.0
 11
34.99981919782953
 21
-350.7250062623431
 31
0.0
  0
LINE
  5
9F60
330
9E5E
100
AcDbEntity
  8
30
 62
     0
100
AcDbLine
 10
1.999999999999995
 20
-350.2250062623431
 30
0.0
 11
32.99981919782954
 21
-350.2250062623431
 31
0.0
  0
INSERT
  5
9F61
330
9E5E
100
AcDbEntity
  8
30
 62
     0
100
AcDbBlockReference
  2
_OPEN
 10
-0.0000000000000025
 20
-350.2250062623431
 30
0.0
 41
2.0
 42
2.0
 43
2.0
 50
180.0
  0
INSERT
  5
9F62
330
9E5E
100
AcDbEntity
  8
30
 62
     0
100
AcDbBlockReference
  2
_OPEN
 10
34.99981919782953
 20
-350.2250062623431
 30
0.0
 41
2.0
 42
2.0
 43
2.0
  0
MTEXT
  5
9F63
330
9E5E
100
AcDbEntity
  8
30
 62
     0
100
AcDbMText
 10
17.49990959891476
 20
-347.2250062623432
 30
0.0
 40
4.0
 41
0.0
 71
     5
 72
     1
  1
\A1;35
 73
     1
 44
1.0
1001
ACAD
1000
MTEXTBEGIN
1070
    73
1070
     1
1070
    44
1040
1.0
1070
    74
1070
     0
1000
MTEXTEND
  0
POINT
  5
9F64
330
9E5E
100
AcDbEntity
  8
DEFPOINTS
 62
     0
100
AcDbPoint
 10
0.0
 20
-309.4996151661657
 30
0.0
  0
POINT
  5
9F65
330
9E5E
100
AcDbEntity
  8
DEFPOINTS
 62
     0
100
AcDbPoint
 10
34.99981919782953
 20
-306.9996280641065
 30
0.0
  0
POINT
  5
9F66
330
9E5E
100
AcDbEntity
  8
DEFPOINTS
 62
     0
100
AcDbPoint
 10
34.99981919782953
 20
-350.2250062623431
 30
0.0
  0
ENDBLK
  5
9E69
330
9E5E
100
AcDbEntity
  8
0
100
AcDbBlockEnd
  0
BLOCK
  5
9E74
330
9E6A
100
AcDbEntity
  8
0
100
AcDbBlockBegin
  2
*D20
 70
     1
 10
0.0
 20
0.0
 30
0.0
  3
*D20
  1

  0
LINE
  5
9F55
330
9E6A
100
AcDbEntity
  8
30
 62
     0
100
AcDbLine
 10
-34.99981919782953
 20
-310.4996151661657
 30
0.0
 11
-34.99981919782953
 21
-350.2250062623431
 31
0.0
  0
LINE
  5
9F56
330
9E6A
100
AcDbEntity
  8
30
 62
     0
100
AcDbLine
 10
-0.0000000000000001
 20
-347.9994214330546
 30
0.0
 11
-0.0000000000000002
 21
-350.2250062623431
 31
0.0
  0
LINE
  5
9F57
330
9E6A
100
AcDbEntity
  8
30
 62
     0
100
AcDbLine
 10
-32.99981919782954
 20
-349.7250062623431
 30
0.0
 11
-2.0
 21
-349.7250062623431
 31
0.0
  0
INSERT
  5
9F58
330
9E6A
100
AcDbEntity
  8
30
 62
     0
100
AcDbBlockReference
  2
_OPEN
 10
-34.99981919782953
 20
-349.7250062623431
 30
0.0
 41
2.0
 42
2.0
 43
2.0
 50
180.0
  0
INSERT
  5
9F59
330
9E6A
100
AcDbEntity
  8
30
 62
     0
100
AcDbBlockReference
  2
_OPEN
 10
-0.0000000000000002
 20
-349.7250062623431
 30
0.0
 41
2.0
 42
2.0
 43
2.0
  0
MTEXT
  5
9F5A
330
9E6A
100
AcDbEntity
  8
30
 62
     0
100
AcDbMText
 10
-17.49990959891476
 20
-346.7250062623431
 30
0.0
 40
4.0
 41
0.0
 71
     5
 72
     1
  1
\A1;35
 73
     1
 44
1.0
1001
ACAD
1000
MTEXTBEGIN
1070
    73
1070
     1
1070
    44
1040
1.0
1070
    74
1070
     0
1000
MTEXTEND
  0
POINT
  5
9F5B
330
9E6A
100
AcDbEntity
  8
DEFPOINTS
 62
     0
100
AcDbPoint
 10
-34.99981919782953
 20
-309.4996151661657
 30
0.0
  0
POINT
  5
9F5C
330
9E6A
100
AcDbEntity
  8
DEFPOINTS
 62
     0
100
AcDbPoint
 10
0.0
 20
-346.9994214330546
 30
0.0
  0
POINT
  5
9F5D
330
9E6A
100
AcDbEntity
  8
DEFPOINTS
 62
     0
100
AcDbPoint
 10
-0.0000000000000002
 20
-349.7250062623431
 30
0.0
  0
ENDBLK
  5
9E75
330
9E6A
100
AcDbEntity
  8
0
100
AcDbBlockEnd
  0
BLOCK
  5
9E80
330
9E76
100
AcDbEntity
  8
0
100
AcDbBlockBegin
  2
*D21
 70
     1
 10
0.0
 20
0.0
 30
0.0
  3
*D21
  1

  0
LINE
  5
9F43
330
9E76
100
AcDbEntity
  8
30
 62
     0
100
AcDbLine
 10
-17.49990959891464
 20
-301.4996616581523
 30
0.0
 11
-17.49990959891466
 21
-331.1448422481143
 31
0.0
  0
LINE
  5
9F44
330
9E76
100
AcDbEntity
  8
30
 62
     0
100
AcDbLine
 10
17.49990959891488
 20
-301.4996616581523
 30
0.0
 11
17.49990959891488
 21
-331.1448422481143
 31
0.0
  0
LINE
  5
9F45
330
9E76
100
AcDbEntity
  8
30
 62
     0
100
AcDbLine
 10
-15.49990959891466
 20
-330.6448422481143
 30
0.0
 11
15.49990959891488
 21
-330.6448422481143
 31
0.0
  0
INSERT
  5
9F46
330
9E76
100
AcDbEntity
  8
30
 62
     0
100
AcDbBlockReference
  2
_OPEN
 10
-17.49990959891466
 20
-330.6448422481143
 30
0.0
 41
2.0
 42
2.0
 43
2.0
 50
180.0
  0
INSERT
  5
9F47
330
9E76
100
AcDbEntity
  8
30
 62
     0
100
AcDbBlockReference
  2
_OPEN
 10
17.49990959891488
 20
-330.6448422481143
 30
0.0
 41
2.0
 42
2.0
 43
2.0
  0
MTEXT
  5
9F48
330
9E76
100
AcDbEntity
  8
30
 62
     0
100
AcDbMText
 10
0.0000000000001103
 20
-327.6448422481144
 30
0.0
 40
4.0
 41
0.0
 71
     5
 72
     1
  1
\A1;35
 73
     1
 44
1.0
1001
ACAD
1000
MTEXTBEGIN
1070
    73
1070
     1
1070
    44
1040
1.0
1070
    74
1070
     0
1000
MTEXTEND
  0
POINT
  5
9F49
330
9E76
100
AcDbEntity
  8
DEFPOINTS
 62
     0
100
AcDbPoint
 10
-17.49990959891464
 20
-300.4996616581523
 30
0.0
  0
POINT
  5
9F4A
330
9E76
100
AcDbEntity
  8
DEFPOINTS
 62
     0
100
AcDbPoint
 10
17.49990959891488
 20
-300.4996616581523
 30
0.0
  0
POINT
  5
9F4B
330
9E76
100
AcDbEntity
  8
DEFPOINTS
 62
     0
100
AcDbPoint
 10
17.49990959891488
 20
-330.6448422481143
 30
0.0
  0
ENDBLK
  5
9E81
330
9E76
100
AcDbEntity
  8
0
100
AcDbBlockEnd
  0
BLOCK
  5
9E8C
330
9E82
100
AcDbEntity
  8
0
100
AcDbBlockBegin
  2
*D22
 70
     1
 10
0.0
 20
0.0
 30
0.0
  3
*D22
  1

  0
LINE
  5
9F67
330
9E82
100
AcDbEntity
  8
30
 62
     0
100
AcDbLine
 10
34.99981919782953
 20
-310.4996151661657
 30
0.0
 11
34.99981919782953
 21
-351.2250062623432
 31
0.0
  0
LINE
  5
9F68
330
9E82
100
AcDbEntity
  8
30
 62
     0
100
AcDbLine
 10
69.99963839565907
 20
-310.4996151661657
 30
0.0
 11
69.99963839565907
 21
-351.2250062623432
 31
0.0
  0
LINE
  5
9F69
330
9E82
100
AcDbEntity
  8
30
 62
     0
100
AcDbLine
 10
36.99981919782953
 20
-350.7250062623431
 30
0.0
 11
67.99963839565908
 21
-350.7250062623431
 31
0.0
  0
INSERT
  5
9F6A
330
9E82
100
AcDbEntity
  8
30
 62
     0
100
AcDbBlockReference
  2
_OPEN
 10
34.99981919782953
 20
-350.7250062623431
 30
0.0
 41
2.0
 42
2.0
 43
2.0
 50
180.0
  0
INSERT
  5
9F6B
330
9E82
100
AcDbEntity
  8
30
 62
     0
100
AcDbBlockReference
  2
_OPEN
 10
69.99963839565907
 20
-350.7250062623431
 30
0.0
 41
2.0
 42
2.0
 43
2.0
  0
MTEXT
  5
9F6C
330
9E82
100
AcDbEntity
  8
30
 62
     0
100
AcDbMText
 10
52.4997287967443
 20
-347.7250062623431
 30
0.0
 40
4.0
 41
0.0
 71
     5
 72
     1
  1
\A1;35
 73
     1
 44
1.0
1001
ACAD
1000
MTEXTBEGIN
1070
    73
1070
     1
1070
    44
1040
1.0
1070
    74
1070
     0
1000
MTEXTEND
  0
POINT
  5
9F6D
330
9E82
100
AcDbEntity
  8
DEFPOINTS
 62
     0
100
AcDbPoint
 10
34.99981919782953
 20
-309.4996151661657
 30
0.0
  0
POINT
  5
9F6E
330
9E82
100
AcDbEntity
  8
DEFPOINTS
 62
     0
100
AcDbPoint
 10
69.99963839565907
 20
-309.4996151661657
 30
0.0
  0
POINT
  5
9F6F
330
9E82
100
AcDbEntity
  8
DEFPOINTS
 62
     0
100
AcDbPoint
 10
69.99963839565907
 20
-350.7250062623431
 30
0.0
  0
ENDBLK
  5
9E8D
330
9E82
100
AcDbEntity
  8
0
100
AcDbBlockEnd
  0
BLOCK
  5
9EF9
330
9EEF
100
AcDbEntity
  8
0
100
AcDbBlockBegin
  2
*D23
 70
     1
 10
0.0
 20
0.0
 30
0.0
  3
*D23
  1

  0
LINE
  5
9EF0
330
9EEF
100
AcDbEntity
  8
30
 62
     0
100
AcDbLine
 10
-49.99974687696137
 20
24.99987085559252
 30
0.0
 11
-65.83335521408208
 21
24.99987085559252
 31
0.0
  0
LINE
  5
9EF1
330
9EEF
100
AcDbEntity
  8
30
 62
     0
100
AcDbLine
 10
-49.99974687696137
 20
-24.99987085559256
 30
0.0
 11
-65.83335521408208
 21
-24.99987085559256
 31
0.0
  0
LINE
  5
9EF2
330
9EEF
100
AcDbEntity
  8
30
 62
     0
100
AcDbLine
 10
-65.33335521408208
 20
22.99987085559251
 30
0.0
 11
-65.33335521408208
 21
-22.99987085559256
 31
0.0
  0
INSERT
  5
9EF3
330
9EEF
100
AcDbEntity
  8
30
 62
     0
100
AcDbBlockReference
  2
_OPEN
 10
-65.33335521408208
 20
24.99987085559252
 30
0.0
 41
2.0
 42
2.0
 43
2.0
 50
90.0
  0
INSERT
  5
9EF4
330
9EEF
100
AcDbEntity
  8
30
 62
     0
100
AcDbBlockReference
  2
_OPEN
 10
-65.33335521408208
 20
-24.99987085559256
 30
0.0
 41
2.0
 42
2.0
 43
2.0
 50
270.0
  0
MTEXT
  5
9EF5
330
9EEF
100
AcDbEntity
  8
30
 62
     0
100
AcDbMText
 10
-68.33335521408208
 20
-0.0000000000000347
 30
0.0
 40
4.0
 41
0.0
 71
     5
 72
     1
  1
\A1;50
 11
0.0000000000000001
 21
1.0
 31
0.0
 73
     1
 44
1.0
1001
ACAD
1000
MTEXTBEGIN
1070
    73
1070
     1
1070
    44
1040
1.0
1070
    74
1070
     0
1000
MTEXTEND
  0
POINT
  5
9EF6
330
9EEF
100
AcDbEntity
  8
DEFPOINTS
 62
     0
100
AcDbPoint
 10
-48.99974687696135
 20
24.99987085559252
 30
0.0
  0
POINT
  5
9EF7
330
9EEF
100
AcDbEntity
  8
DEFPOINTS
 62
     0
100
AcDbPoint
 10
-48.99974687696135
 20
-24.99987085559256
 30
0.0
  0
POINT
  5
9EF8
330
9EEF
100
AcDbEntity
  8
DEFPOINTS
 62
     0
100
AcDbPoint
 10
-65.33335521408208
 20
-24.99987085559256
 30
0.0
  0
ENDBLK
  5
9EFA
330
9EEF
100
AcDbEntity
  8
0
100
AcDbBlockEnd
  0
BLOCK
  5
A011
330
A007
100
AcDbEntity
  8
0
100
AcDbBlockBegin
  2
*D24
 70
     1
 10
0.0
 20
0.0
 30
0.0
  3
*D24
  1

  0
LINE
  5
A008
330
A007
100
AcDbEntity
  8
30
 62
     0
100
AcDbLine
 10
306.7867228523683
 20
-60.99967972186956
 30
0.0
 11
306.7867228523683
 21
-45.04888516066738
 31
0.0
  0
LINE
  5
A009
330
A007
100
AcDbEntity
  8
30
 62
     0
100
AcDbLine
 10
328.78660920529
 20
-66.49965131009992
 30
0.0
 11
328.78660920529
 21
-45.04888516066738
 31
0.0
  0
LINE
  5
A00A
330
A007
100
AcDbEntity
  8
30
 62
     0
100
AcDbLine
 10
308.7867228523683
 20
-45.54888516066738
 30
0.0
 11
326.78660920529
 21
-45.54888516066738
 31
0.0
  0
INSERT
  5
A00B
330
A007
100
AcDbEntity
  8
30
 62
     0
100
AcDbBlockReference
  2
_OPEN
 10
306.7867228523683
 20
-45.54888516066738
 30
0.0
 41
2.0
 42
2.0
 43
2.0
 50
180.0
  0
INSERT
  5
A00C
330
A007
100
AcDbEntity
  8
30
 62
     0
100
AcDbBlockReference
  2
_OPEN
 10
328.78660920529
 20
-45.54888516066738
 30
0.0
 41
2.0
 42
2.0
 43
2.0
  0
MTEXT
  5
A00D
330
A007
100
AcDbEntity
  8
30
 62
     0
100
AcDbMText
 10
317.7866660288291
 20
-42.54888516066738
 30
0.0
 40
4.0
 41
0.0
 71
     5
 72
     1
  1
\A1;22
 73
     1
 44
1.0
1001
ACAD
1000
MTEXTBEGIN
1070
    73
1070
     1
1070
    44
1040
1.0
1070
    74
1070
     0
1000
MTEXTEND
  0
POINT
  5
A00E
330
A007
100
AcDbEntity
  8
DEFPOINTS
 62
     0
100
AcDbPoint
 10
306.7867228523683
 20
-61.99967972186954
 30
0.0
  0
POINT
  5
A00F
330
A007
100
AcDbEntity
  8
DEFPOINTS
 62
     0
100
AcDbPoint
 10
328.78660920529
 20
-67.49965131009992
 30
0.0
  0
POINT
  5
A010
330
A007
100
AcDbEntity
  8
DEFPOINTS
 62
     0
100
AcDbPoint
 10
328.78660920529
 20
-45.54888516066738
 30
0.0
  0
ENDBLK
  5
A012
330
A007
100
AcDbEntity
  8
0
100
AcDbBlockEnd
  0
BLOCK
  5
A01E
330
A014
100
AcDbEntity
  8
0
100
AcDbBlockBegin
  2
*D25
 70
     1
 10
0.0
 20
0.0
 30
0.0
  3
*D25
  1

  0
LINE
  5
A015
330
A014
100
AcDbEntity
  8
30
 62
     0
100
AcDbLine
 10
403.2407529037674
 20
71.99962806410463
 30
0.0
 11
426.255524609336
 21
71.9996280641046
 31
0.0
  0
LINE
  5
A016
330
A014
100
AcDbEntity
  8
30
 62
     0
100
AcDbLine
 10
403.2407529037674
 20
-71.99962806410765
 30
0.0
 11
426.255524609336
 21
-71.99962806410768
 31
0.0
  0
LINE
  5
A017
330
A014
100
AcDbEntity
  8
30
 62
     0
100
AcDbLine
 10
425.7555246093359
 20
69.9996280641046
 30
0.0
 11
425.7555246093359
 21
-69.99962806410768
 31
0.0
  0
INSERT
  5
A018
330
A014
100
AcDbEntity
  8
30
 62
     0
100
AcDbBlockReference
  2
_OPEN
 10
425.7555246093359
 20
71.9996280641046
 30
0.0
 41
2.0
 42
2.0
 43
2.0
 50
90.0
  0
INSERT
  5
A019
330
A014
100
AcDbEntity
  8
30
 62
     0
100
AcDbBlockReference
  2
_OPEN
 10
425.7555246093359
 20
-71.99962806410768
 30
0.0
 41
2.0
 42
2.0
 43
2.0
 50
270.0
  0
MTEXT
  5
A01A
330
A014
100
AcDbEntity
  8
30
 62
     0
100
AcDbMText
 10
422.755524609336
 20
-0.000000000001461
 30
0.0
 40
4.0
 41
0.0
 71
     5
 72
     1
  1
\A1;144
 11
0.0000000000000001
 21
1.0
 31
0.0
 73
     1
 44
1.0
1001
ACAD
1000
MTEXTBEGIN
1070
    73
1070
     1
1070
    44
1040
1.0
1070
    74
1070
     0
1000
MTEXTEND
  0
POINT
  5
A01B
330
A014
100
AcDbEntity
  8
DEFPOINTS
 62
     0
100
AcDbPoint
 10
402.2407529037673
 20
71.99962806410463
 30
0.0
  0
POINT
  5
A01C
330
A014
100
AcDbEntity
  8
DEFPOINTS
 62
     0
100
AcDbPoint
 10
402.2407529037673
 20
-71.99962806410765
 30
0.0
  0
POINT
  5
A01D
330
A014
100
AcDbEntity
  8
DEFPOINTS
 62
     0
100
AcDbPoint
 10
425.7555246093359
 20
-71.99962806410768
 30
0.0
  0
ENDBLK
  5
A01F
330
A014
100
AcDbEntity
  8
0
100
AcDbBlockEnd
  0
BLOCK
  5
A034
330
A02A
100
AcDbEntity
  8
0
100
AcDbBlockBegin
  2
*D26
 70
     1
 10
0.0
 20
0.0
 30
0.0
  3
*D26
  1

  0
LINE
  5
A02B
330
A02A
100
AcDbEntity
  8
30
 62
     0
100
AcDbLine
 10
377.1068728338158
 20
-61.99967972186928
 30
0.0
 11
409.9712429321806
 21
-61.99967972186928
 31
0.0
  0
LINE
  5
A02C
330
A02A
100
AcDbEntity
  8
30
 62
     0
100
AcDbLine
 10
377.106872833816
 20
-81.99957640634357
 30
0.0
 11
409.9712429321806
 21
-81.99957640634357
 31
0.0
  0
LINE
  5
A02D
330
A02A
100
AcDbEntity
  8
30
 62
     0
100
AcDbLine
 10
409.4712429321806
 20
-63.99967972186928
 30
0.0
 11
409.4712429321806
 21
-79.99957640634358
 31
0.0
  0
INSERT
  5
A02E
330
A02A
100
AcDbEntity
  8
30
 62
     0
100
AcDbBlockReference
  2
_OPEN
 10
409.4712429321806
 20
-61.99967972186928
 30
0.0
 41
2.0
 42
2.0
 43
2.0
 50
90.0
  0
INSERT
  5
A02F
330
A02A
100
AcDbEntity
  8
30
 62
     0
100
AcDbBlockReference
  2
_OPEN
 10
409.4712429321806
 20
-81.99957640634357
 30
0.0
 41
2.0
 42
2.0
 43
2.0
 50
270.0
  0
MTEXT
  5
A030
330
A02A
100
AcDbEntity
  8
30
 62
     0
100
AcDbMText
 10
406.4712429321806
 20
-71.99962806410636
 30
0.0
 40
4.0
 41
0.0
 71
     5
 72
     1
  1
\A1;20
 11
0.0000000000000001
 21
1.0
 31
0.0
 73
     1
 44
1.0
1001
ACAD
1000
MTEXTBEGIN
1070
    73
1070
     1
1070
    44
1040
1.0
1070
    74
1070
     0
1000
MTEXTEND
  0
POINT
  5
A031
330
A02A
100
AcDbEntity
  8
DEFPOINTS
 62
     0
100
AcDbPoint
 10
376.1068728338158
 20
-61.99967972186928
 30
0.0
  0
POINT
  5
A032
330
A02A
100
AcDbEntity
  8
DEFPOINTS
 62
     0
100
AcDbPoint
 10
376.1068728338158
 20
-81.99957640634357
 30
0.0
  0
POINT
  5
A033
330
A02A
100
AcDbEntity
  8
DEFPOINTS
 62
     0
100
AcDbPoint
 10
409.4712429321806
 20
-81.99957640634357
 30
0.0
  0
ENDBLK
  5
A035
330
A02A
100
AcDbEntity
  8
0
100
AcDbBlockEnd
  0
BLOCK
  5
A0D2
330
A0C8
100
AcDbEntity
  8
0
100
AcDbBlockBegin
  2
*D27
 70
     1
 10
0.0
 20
0.0
 30
0.0
  3
*D27
  1

  0
LINE
  5
A2BF
330
A0C8
100
AcDbEntity
  8
30
 62
     0
370
    -2
100
AcDbLine
 10
-34.99981919782964
 20
338.4808152728798
 30
0.0
 11
-34.99981919782964
 21
380.3746696354486
 31
0.0
  0
LINE
  5
A2C0
330
A0C8
100
AcDbEntity
  8
30
 62
     0
370
    -2
100
AcDbLine
 10
0.0000000000000569
 20
369.9812001232139
 30
0.0
 11
0.0000000000000575
 21
380.3746696354486
 31
0.0
  0
LINE
  5
A2C1
330
A0C8
100
AcDbEntity
  8
30
 62
     0
370
    -2
100
AcDbLine
 10
-32.99981919782965
 20
379.8746696354486
 30
0.0
 11
-1.999999999999942
 21
379.8746696354486
 31
0.0
  0
INSERT
  5
A2C2
330
A0C8
100
AcDbEntity
  8
30
 62
     0
370
    -2
100
AcDbBlockReference
  2
_OPEN
 10
-34.99981919782964
 20
379.8746696354486
 30
0.0
 41
2.0
 42
2.0
 43
2.0
 50
180.0
  0
INSERT
  5
A2C3
330
A0C8
100
AcDbEntity
  8
30
 62
     0
370
    -2
100
AcDbBlockReference
  2
_OPEN
 10
0.0000000000000575
 20
379.8746696354486
 30
0.0
 41
2.0
 42
2.0
 43
2.0
  0
MTEXT
  5
A2C4
330
A0C8
100
AcDbEntity
  8
30
 62
     0
100
AcDbMText
 10
-17.49990959891479
 20
382.8746696354486
 30
0.0
 40
4.0
 41
0.0
 71
     5
 72
     1
  1
\A1;35
 73
     1
 44
1.0
1001
ACAD
1000
MTEXTBEGIN
1070
    73
1070
     1
1070
    44
1040
1.0
1070
    74
1070
     0
1000
MTEXTEND
  0
POINT
  5
A2C5
330
A0C8
100
AcDbEntity
  8
DEFPOINTS
 62
     0
100
AcDbPoint
 10
-34.99981919782964
 20
337.4808152728799
 30
0.0
  0
POINT
  5
A2C6
330
A0C8
100
AcDbEntity
  8
DEFPOINTS
 62
     0
100
AcDbPoint
 10
0.0000000000000568
 20
368.9812001232139
 30
0.0
  0
POINT
  5
A2C7
330
A0C8
100
AcDbEntity
  8
DEFPOINTS
 62
     0
100
AcDbPoint
 10
0.0000000000000575
 20
379.8746696354486
 30
0.0
  0
ENDBLK
  5
A0D3
330
A0C8
100
AcDbEntity
  8
0
100
AcDbBlockEnd
  0
BLOCK
  5
A0DF
330
A0D5
100
AcDbEntity
  8
0
100
AcDbBlockBegin
  2
*D28
 70
     1
 10
0.0
 20
0.0
 30
0.0
  3
*D28
  1

  0
LINE
  5
A2C8
330
A0D5
100
AcDbEntity
  8
30
 62
     0
370
    -2
100
AcDbLine
 10
0.0000000000000569
 20
369.9812001232139
 30
0.0
 11
0.0000000000000575
 21
380.3746696354486
 31
0.0
  0
LINE
  5
A2C9
330
A0D5
100
AcDbEntity
  8
30
 62
     0
370
    -2
100
AcDbLine
 10
34.99981919782964
 20
338.4808152728798
 30
0.0
 11
34.99981919782964
 21
380.3746696354486
 31
0.0
  0
LINE
  5
A2CA
330
A0D5
100
AcDbEntity
  8
30
 62
     0
370
    -2
100
AcDbLine
 10
2.000000000000057
 20
379.8746696354486
 30
0.0
 11
32.99981919782965
 21
379.8746696354486
 31
0.0
  0
INSERT
  5
A2CB
330
A0D5
100
AcDbEntity
  8
30
 62
     0
370
    -2
100
AcDbBlockReference
  2
_OPEN
 10
0.0000000000000575
 20
379.8746696354486
 30
0.0
 41
2.0
 42
2.0
 43
2.0
 50
180.0
  0
INSERT
  5
A2CC
330
A0D5
100
AcDbEntity
  8
30
 62
     0
370
    -2
100
AcDbBlockReference
  2
_OPEN
 10
34.99981919782964
 20
379.8746696354486
 30
0.0
 41
2.0
 42
2.0
 43
2.0
  0
MTEXT
  5
A2CD
330
A0D5
100
AcDbEntity
  8
30
 62
     0
100
AcDbMText
 10
17.49990959891485
 20
382.8746696354486
 30
0.0
 40
4.0
 41
0.0
 71
     5
 72
     1
  1
\A1;35
 73
     1
 44
1.0
1001
ACAD
1000
MTEXTBEGIN
1070
    73
1070
     1
1070
    44
1040
1.0
1070
    74
1070
     0
1000
MTEXTEND
  0
POINT
  5
A2CE
330
A0D5
100
AcDbEntity
  8
DEFPOINTS
 62
     0
100
AcDbPoint
 10
0.0000000000000568
 20
368.9812001232139
 30
0.0
  0
POINT
  5
A2CF
330
A0D5
100
AcDbEntity
  8
DEFPOINTS
 62
     0
100
AcDbPoint
 10
34.99981919782964
 20
337.4808152728799
 30
0.0
  0
POINT
  5
A2D0
330
A0D5
100
AcDbEntity
  8
DEFPOINTS
 62
     0
100
AcDbPoint
 10
34.99981919782964
 20
379.8746696354486
 30
0.0
  0
ENDBLK
  5
A0E0
330
A0D5
100
AcDbEntity
  8
0
100
AcDbBlockEnd
  0
BLOCK
  5
A0EC
330
A0E2
100
AcDbEntity
  8
0
100
AcDbBlockBegin
  2
*D29
 70
     1
 10
0.0
 20
0.0
 30
0.0
  3
*D29
  1

  0
LINE
  5
A2D1
330
A0E2
100
AcDbEntity
  8
30
 62
     0
370
    -2
100
AcDbLine
 10
34.99981919782964
 20
338.4808152728798
 30
0.0
 11
34.99981919782964
 21
380.3746696354486
 31
0.0
  0
LINE
  5
A2D2
330
A0E2
100
AcDbEntity
  8
30
 62
     0
370
    -2
100
AcDbLine
 10
69.99963839565919
 20
369.9812001232139
 30
0.0
 11
69.99963839565919
 21
380.3746696354486
 31
0.0
  0
LINE
  5
A2D3
330
A0E2
100
AcDbEntity
  8
30
 62
     0
370
    -2
100
AcDbLine
 10
36.99981919782965
 20
379.8746696354486
 30
0.0
 11
67.99963839565918
 21
379.8746696354486
 31
0.0
  0
INSERT
  5
A2D4
330
A0E2
100
AcDbEntity
  8
30
 62
     0
370
    -2
100
AcDbBlockReference
  2
_OPEN
 10
34.99981919782964
 20
379.8746696354486
 30
0.0
 41
2.0
 42
2.0
 43
2.0
 50
180.0
  0
INSERT
  5
A2D5
330
A0E2
100
AcDbEntity
  8
30
 62
     0
370
    -2
100
AcDbBlockReference
  2
_OPEN
 10
69.99963839565919
 20
379.8746696354486
 30
0.0
 41
2.0
 42
2.0
 43
2.0
  0
MTEXT
  5
A2D6
330
A0E2
100
AcDbEntity
  8
30
 62
     0
100
AcDbMText
 10
52.49972879674442
 20
382.8746696354486
 30
0.0
 40
4.0
 41
0.0
 71
     5
 72
     1
  1
\A1;35
 73
     1
 44
1.0
1001
ACAD
1000
MTEXTBEGIN
1070
    73
1070
     1
1070
    44
1040
1.0
1070
    74
1070
     0
1000
MTEXTEND
  0
POINT
  5
A2D7
330
A0E2
100
AcDbEntity
  8
DEFPOINTS
 62
     0
100
AcDbPoint
 10
34.99981919782964
 20
337.4808152728799
 30
0.0
  0
POINT
  5
A2D8
330
A0E2
100
AcDbEntity
  8
DEFPOINTS
 62
     0
100
AcDbPoint
 10
69.99963839565919
 20
368.9812001232139
 30
0.0
  0
POINT
  5
A2D9
330
A0E2
100
AcDbEntity
  8
DEFPOINTS
 62
     0
100
AcDbPoint
 10
69.99963839565919
 20
379.8746696354486
 30
0.0
  0
ENDBLK
  5
A0ED
330
A0E2
100
AcDbEntity
  8
0
100
AcDbBlockEnd
  0
ENDSEC
  0
SECTION
  2
ENTITIES
  0
LINE
  5
B4
330
1E
100
AcDbEntity
  8
16
100
AcDbLine
 10
0.0
 20
-105.0883879261505
 30
0.0
 11
0.0
 21
86.25
 31
0.0
  0
LINE
  5
B5
330
1E
100
AcDbEntity
  8
16
100
AcDbLine
 10
89.74013214434672
 20
0.0000000000000089
 30
0.0
 11
-56.60868885537141
 21
0.0
 31
0.0
  0
LINE
  5
1C9A
330
1E
100
AcDbEntity
  8
16
100
AcDbLine
 10
0.0
 20
126.8811670622457
 30
0.0
 11
0.0
 21
269.3811670622458
 31
0.0
  0
LINE
  5
1C9B
330
1E
100
AcDbEntity
  8
16
100
AcDbLine
 10
280.529464512613
 20
0.0
 30
0.0
 11
121.0450763366921
 21
0.0
 31
0.0
  0
LINE
  5
2260
330
1E
100
AcDbEntity
  8
16
100
AcDbLine
 10
89.90743607736431
 20
-235.0
 30
0.0
 11
-67.93042662644572
 21
-235.0
 31
0.0
  0
LINE
  5
2261
330
1E
100
AcDbEntity
  8
16
100
AcDbLine
 10
0.0
 20
-317.4374692359974
 30
0.0
 11
0.0
 21
-149.5
 31
0.0
  0
LEADER
  5
92DA
330
1E
100
AcDbEntity
  8
30
100
AcDbLeader
  3
STANDARD
 76
     3
 10
-17.54378491053535
 20
-166.5490984563776
 30
0.0
 10
-24.6222311397928
 20
-139.6055030113511
 30
0.0
 10
-37.77707622258275
 20
-139.6055030113511
 30
0.0
1001
ACAD
1000
DSTYLE
1002
{
1070
     5
1000
OPEN
1070
    77
1070
     0
1070
    79
1070
     3
1070
   147
1040
1.0
1070
   342
1005
3B2
1002
}
  0
TEXT
  5
92DB
330
1E
100
AcDbEntity
  8
30
100
AcDbText
 10
-36.44830264495293
 20
-138.9418781241207
 30
0.0
 40
5.0
  1
M4
  7
STANDARD1
100
AcDbText
  0
LEADER
  5
933A
330
1E
100
AcDbEntity
  8
30
100
AcDbLeader
  3
STANDARD
 76
     3
 10
367.2113726997402
 20
-66.65631172905668
 30
0.0
 10
381.1428113877377
 20
-48.80763993108053
 30
0.0
 10
399.7263428981095
 20
-48.80763993108053
 30
0.0
1001
ACAD
1000
DSTYLE
1002
{
1070
     5
1000
OPEN
1070
    77
1070
     0
1070
    79
1070
     3
1070
   147
1040
1.0
1070
   342
1005
3B2
1002
}
  0
TEXT
  5
933B
330
1E
100
AcDbEntity
  8
30
100
AcDbText
 10
385.3400579756426
 20
-47.75953037389672
 30
0.0
 40
5.0
  1
%%c9
  7
STANDARD1
100
AcDbText
  0
LINE
  5
9764
330
1E
100
AcDbEntity
  8
10
100
AcDbLine
 10
-52.49972879674436
 20
-82.4995738234554
 30
0.0
 11
87.49954799457389
 21
-82.4995738234554
 31
0.0
  0
LINE
  5
9765
330
1E
100
AcDbEntity
  8
10
100
AcDbLine
 10
87.49954799457389
 20
82.49957382345536
 30
0.0
 11
-52.49972879674436
 21
82.49957382345536
 31
0.0
  0
LINE
  5
9766
330
1E
100
AcDbEntity
  8
10
100
AcDbLine
 10
-52.49972879674436
 20
50.99973654540878
 30
0.0
 11
87.49954799457389
 21
50.99973654540878
 31
0.0
  0
LINE
  5
9767
330
1E
100
AcDbEntity
  8
10
100
AcDbLine
 10
-52.49972879674436
 20
-50.99973654540878
 30
0.0
 11
87.49954799457389
 21
-50.99973654540878
 31
0.0
  0
LINE
  5
9769
330
1E
100
AcDbEntity
  8
17
100
AcDbLine
 10
76.99960223522507
 20
71.99962806410656
 30
0.0
 11
62.99967455609325
 21
71.99962806410656
 31
0.0
  0
LINE
  5
976A
330
1E
100
AcDbEntity
  8
10
100
AcDbLine
 10
62.99967455609325
 20
59.99969005342205
 30
0.0
 11
76.99960223522507
 21
59.99969005342205
 31
0.0
  0
LINE
  5
976B
330
1E
100
AcDbEntity
  8
17
100
AcDbLine
 10
76.99960223522507
 20
-71.99962806410656
 30
0.0
 11
62.99967455609325
 21
-71.99962806410656
 31
0.0
  0
LINE
  5
976C
330
1E
100
AcDbEntity
  8
10
100
AcDbLine
 10
62.99967455609325
 20
-59.99969005342212
 30
0.0
 11
76.99960223522507
 21
-59.99969005342212
 31
0.0
  0
CIRCLE
  5
976D
330
1E
100
AcDbEntity
  8
10
100
AcDbCircle
 10
69.99963839565912
 20
36.749810157721
 30
0.0
 40
7.999958673789612
  0
DIMENSION
  5
9770
330
1E
100
AcDbEntity
  8
30
100
AcDbDimension
  2
*D1
 10
87.49954799457388
 20
-100.6627382867609
 30
0.0
 11
17.49990959891476
 21
-97.66273828676121
 31
0.0
 70
    32
 71
     5
 42
-1.0
  3
STANDARD
100
AcDbAlignedDimension
 13
-52.49972879674436
 23
-82.4995738234554
 33
0.0
 14
87.49954799457388
 24
-82.4995738234554
 34
0.0
 50
180.0
100
AcDbRotatedDimension
  0
LINE
  5
9771
330
1E
100
AcDbEntity
  8
10
100
AcDbLine
 10
-52.49972879674436
 20
82.49957382345536
 30
0.0
 11
-52.49972879674436
 21
-82.4995738234554
 31
0.0
  0
ARC
  5
9773
330
1E
100
AcDbEntity
  8
10
100
AcDbCircle
 10
41.99978303739546
 20
-64.99966422454061
 30
0.0
 40
4.999974171118505
210
0.0
220
0.0
230
-1.0
100
AcDbArc
 50
0.0
 51
90.0
  0
LINE
  5
9774
330
1E
100
AcDbEntity
  8
10
100
AcDbLine
 10
-46.99975720851396
 20
-82.4995738234554
 30
0.0
 11
-46.99975720851396
 21
-64.99966422454061
 31
0.0
  0
ARC
  5
9775
330
1E
100
AcDbEntity
  8
10
100
AcDbCircle
 10
-6.999963839565991
 20
-64.99966422454061
 30
0.0
 40
4.999974171118505
210
0.0
220
0.0
230
-1.0
100
AcDbArc
 50
90.0
 51
180.0
  0
LINE
  5
9776
330
1E
100
AcDbEntity
  8
12
100
AcDbLine
 10
-22.99988118714505
 20
-62.99967455609319
 30
0.0
 11
-11.99993801068434
 21
-62.99967455609319
 31
0.0
  0
CIRCLE
  5
9777
330
1E
100
AcDbEntity
  8
12
100
AcDbCircle
 10
17.49990959891476
 20
-62.99967455609319
 30
0.0
 40
3.999979336894806
210
0.0
220
0.0
230
-1.0
  0
LINE
  5
9778
330
1E
100
AcDbEntity
  8
12
100
AcDbLine
 10
-17.49990959891476
 20
-68.49964614432359
 30
0.0
 11
-17.49990959891476
 21
-57.49970296786287
 31
0.0
  0
ARC
  5
9779
330
1E
100
AcDbEntity
  8
10
100
AcDbCircle
 10
27.99985535826357
 20
-64.99966422454061
 30
0.0
 40
4.999974171118505
210
0.0
220
0.0
230
-1.0
100
AcDbArc
 50
90.0
 51
180.0
  0
LINE
  5
977A
330
1E
100
AcDbEntity
  8
17
100
AcDbLine
 10
-41.99978303739546
 20
-71.99962806410656
 30
0.0
 11
-27.99985535826357
 21
-71.99962806410656
 31
0.0
  0
LINE
  5
977B
330
1E
100
AcDbEntity
  8
17
100
AcDbLine
 10
-34.99981919782956
 20
-64.99966422454061
 30
0.0
 11
-34.99981919782956
 21
-78.99959190367248
 31
0.0
  0
CIRCLE
  5
977C
330
1E
100
AcDbEntity
  8
24
100
AcDbCircle
 10
-34.99981919782956
 20
-71.99962806410656
 30
0.0
 40
4.999974171118505
  0
LINE
  5
977D
330
1E
100
AcDbEntity
  8
10
100
AcDbLine
 10
-22.99988118714505
 20
-82.4995738234554
 30
0.0
 11
-22.99988118714505
 21
-64.99966422454061
 31
0.0
  0
LINE
  5
977E
330
1E
100
AcDbEntity
  8
10
100
AcDbLine
 10
-27.99985535826357
 20
-59.99969005342212
 30
0.0
 11
-41.99978303739546
 21
-59.99969005342212
 31
0.0
  0
ARC
  5
977F
330
1E
100
AcDbEntity
  8
10
100
AcDbCircle
 10
6.999963839565879
 20
-64.99966422454061
 30
0.0
 40
4.999974171118505
210
0.0
220
0.0
230
-1.0
100
AcDbArc
 50
0.0
 51
90.0
  0
LINE
  5
9780
330
1E
100
AcDbEntity
  8
17
100
AcDbLine
 10
-6.999963839565879
 20
-71.99962806410656
 30
0.0
 11
6.999963839565991
 21
-71.99962806410656
 31
0.0
  0
CIRCLE
  5
9781
330
1E
100
AcDbEntity
  8
24
100
AcDbCircle
 10
0.0
 20
-71.99962806410656
 30
0.0
 40
4.999974171118505
  0
LINE
  5
9782
330
1E
100
AcDbEntity
  8
10
100
AcDbLine
 10
-11.99993801068434
 20
-82.4995738234554
 30
0.0
 11
-11.99993801068434
 21
-64.99966422454061
 31
0.0
  0
LINE
  5
9783
330
1E
100
AcDbEntity
  8
10
100
AcDbLine
 10
6.999963839565991
 20
-59.99969005342212
 30
0.0
 11
-6.999963839565879
 21
-59.99969005342212
 31
0.0
  0
LINE
  5
9784
330
1E
100
AcDbEntity
  8
17
100
AcDbLine
 10
27.99985535826371
 20
-71.99962806410656
 30
0.0
 11
41.9997830373955
 21
-71.99962806410656
 31
0.0
  0
LINE
  5
9785
330
1E
100
AcDbEntity
  8
10
100
AcDbLine
 10
41.9997830373955
 20
-59.99969005342212
 30
0.0
 11
27.99985535826371
 21
-59.99969005342212
 31
0.0
  0
CIRCLE
  5
9786
330
1E
100
AcDbEntity
  8
24
100
AcDbCircle
 10
34.99981919782956
 20
-71.99962806410656
 30
0.0
 40
4.999974171118505
  0
LINE
  5
9787
330
1E
100
AcDbEntity
  8
12
100
AcDbLine
 10
17.49990959891479
 20
-68.49964614432359
 30
0.0
 11
17.49990959891479
 21
-57.49970296786287
 31
0.0
  0
ARC
  5
9788
330
1E
100
AcDbEntity
  8
10
100
AcDbCircle
 10
-27.99985535826371
 20
-64.99966422454061
 30
0.0
 40
4.999974171118505
210
0.0
220
0.0
230
-1.0
100
AcDbArc
 50
0.0
 51
90.0
  0
CIRCLE
  5
9789
330
1E
100
AcDbEntity
  8
12
100
AcDbCircle
 10
17.49990959891479
 20
-62.99967455609319
 30
0.0
 40
3.999979336894806
  0
LINE
  5
978A
330
1E
100
AcDbEntity
  8
10
100
AcDbLine
 10
22.99988118714517
 20
-82.4995738234554
 30
0.0
 11
22.99988118714517
 21
-64.99966422454061
 31
0.0
  0
LINE
  5
978B
330
1E
100
AcDbEntity
  8
10
100
AcDbLine
 10
11.99993801068447
 20
-82.4995738234554
 30
0.0
 11
11.99993801068447
 21
-64.99966422454061
 31
0.0
  0
LINE
  5
978C
330
1E
100
AcDbEntity
  8
17
100
AcDbLine
 10
34.99981919782956
 20
-64.99966422454061
 30
0.0
 11
34.99981919782956
 21
-78.99959190367248
 31
0.0
  0
LINE
  5
978D
330
1E
100
AcDbEntity
  8
12
100
AcDbLine
 10
11.99993801068447
 20
-62.99967455609319
 30
0.0
 11
22.99988118714517
 21
-62.99967455609319
 31
0.0
  0
ARC
  5
978E
330
1E
100
AcDbEntity
  8
10
100
AcDbCircle
 10
-41.9997830373955
 20
-64.99966422454061
 30
0.0
 40
4.999974171118505
210
0.0
220
0.0
230
-1.0
100
AcDbArc
 50
90.0
 51
180.0
  0
ARC
  5
978F
330
1E
100
AcDbEntity
  8
10
100
AcDbCircle
 10
62.99967455609325
 20
-64.99966422454061
 30
0.0
 40
4.999974171118505
100
AcDbArc
 50
90.0
 51
180.0
  0
LINE
  5
9790
330
1E
100
AcDbEntity
  8
10
100
AcDbLine
 10
46.99975720851401
 20
-82.4995738234554
 30
0.0
 11
46.99975720851401
 21
-64.99966422454061
 31
0.0
  0
LINE
  5
9791
330
1E
100
AcDbEntity
  8
10
100
AcDbLine
 10
57.99970038497474
 20
-82.4995738234554
 30
0.0
 11
57.99970038497474
 21
-64.99966422454061
 31
0.0
  0
LINE
  5
9792
330
1E
100
AcDbEntity
  8
10
100
AcDbLine
 10
-48.99974687696135
 20
24.99987085559252
 30
0.0
 11
48.99974687696138
 21
24.99987085559252
 31
0.0
  0
LINE
  5
9793
330
1E
100
AcDbEntity
  8
10
100
AcDbLine
 10
-48.99974687696135
 20
-24.99987085559256
 30
0.0
 11
48.99974687696138
 21
-24.99987085559256
 31
0.0
  0
ARC
  5
9794
330
1E
100
AcDbEntity
  8
10
100
AcDbCircle
 10
-41.99978303739546
 20
64.99966422454059
 30
0.0
 40
4.999974171118505
100
AcDbArc
 50
180.0
 51
270.0
  0
DIMENSION
  5
9795
330
1E
100
AcDbEntity
  8
30
100
AcDbDimension
  2
*D2
 10
48.99974687696138
 20
35.21301008272596
 30
0.0
 11
0.0000000000000002
 21
38.21301008272598
 31
0.0
 70
    32
 71
     5
 42
-1.0
  3
STANDARD
100
AcDbAlignedDimension
 13
-48.99974687696138
 23
24.99987085559252
 33
0.0
 14
48.99974687696138
 24
24.99987085559252
 34
0.0
100
AcDbRotatedDimension
  0
LINE
  5
9796
330
1E
100
AcDbEntity
  8
10
100
AcDbLine
 10
-48.99974687696135
 20
24.99987085559252
 30
0.0
 11
-48.99974687696135
 21
-24.99987085559256
 31
0.0
  0
LINE
  5
9797
330
1E
100
AcDbEntity
  8
10
100
AcDbLine
 10
-46.99975720851396
 20
82.49957382345536
 30
0.0
 11
-46.99975720851396
 21
64.99966422454059
 31
0.0
  0
LINE
  5
9798
330
1E
100
AcDbEntity
  8
10
100
AcDbLine
 10
-10.99994317646076
 20
24.99987085559252
 30
0.0
 11
-10.99994317646076
 21
-24.99987085559256
 31
0.0
  0
LINE
  5
9799
330
1E
100
AcDbEntity
  8
10
100
AcDbLine
 10
6.999963839565991
 20
-18.49990443313846
 30
0.0
 11
6.999963839566021
 21
20.15476459026723
 31
0.0
  0
LINE
  5
979A
330
1E
100
AcDbEntity
  8
10
100
AcDbLine
 10
-6.999963839565879
 20
-18.49990443313846
 30
0.0
 11
-6.999963839565879
 21
20.15476459026723
 31
0.0
  0
LINE
  5
979B
330
1E
100
AcDbEntity
  8
10
100
AcDbLine
 10
-6.999963839565879
 20
-18.49990443313846
 30
0.0
 11
6.999963839565991
 21
-18.49990443313846
 31
0.0
  0
LINE
  5
979C
330
1E
100
AcDbEntity
  8
10
100
AcDbLine
 10
6.999963839565991
 20
6.840753968874253
 30
0.0
 11
-6.999963839565026
 21
6.840753968874253
 31
0.0
  0
LINE
  5
979D
330
1E
100
AcDbEntity
  8
10
100
AcDbLine
 10
6.999963839565991
 20
15.23987771387089
 30
0.0
 11
-6.999963839565879
 21
15.23987771387089
 31
0.0
  0
LINE
  5
979E
330
1E
100
AcDbEntity
  8
10
100
AcDbLine
 10
6.999963839565991
 20
20.15476459026723
 30
0.0
 11
-6.99996383956676
 21
20.15476459026723
 31
0.0
  0
LINE
  5
979F
330
1E
100
AcDbEntity
  8
10
100
AcDbLine
 10
48.99974687696138
 20
24.99987085559252
 30
0.0
 11
48.99974687696138
 21
-24.99987085559256
 31
0.0
  0
LINE
  5
97A0
330
1E
100
AcDbEntity
  8
10
100
AcDbLine
 10
10.99994317646076
 20
24.99987085559252
 30
0.0
 11
10.99994317646076
 21
-24.99987085559256
 31
0.0
  0
ARC
  5
97A1
330
1E
100
AcDbEntity
  8
10
100
AcDbCircle
 10
6.999963839565991
 20
64.99966422454059
 30
0.0
 40
4.999974171118505
100
AcDbArc
 50
270.0
 51
0.0
  0
LINE
  5
97A2
330
1E
100
AcDbEntity
  8
17
100
AcDbLine
 10
-34.99981919782956
 20
78.99959190367241
 30
0.0
 11
-34.99981919782956
 21
64.99966422454059
 31
0.0
  0
LINE
  5
97A3
330
1E
100
AcDbEntity
  8
10
100
AcDbLine
 10
-11.99993801068434
 20
82.49957382345536
 30
0.0
 11
-11.99993801068434
 21
64.99966422454059
 31
0.0
  0
LINE
  5
97A4
330
1E
100
AcDbEntity
  8
10
100
AcDbLine
 10
-22.99988118714505
 20
82.49957382345536
 30
0.0
 11
-22.99988118714505
 21
64.99966422454059
 31
0.0
  0
CIRCLE
  5
97A5
330
1E
100
AcDbEntity
  8
24
100
AcDbCircle
 10
-34.99981919782956
 20
71.99962806410656
 30
0.0
 40
4.999974171118505
  0
CIRCLE
  5
97A6
330
1E
100
AcDbEntity
  8
24
100
AcDbCircle
 10
0.0
 20
71.99962806410656
 30
0.0
 40
4.999974171118505
  0
LINE
  5
97A7
330
1E
100
AcDbEntity
  8
12
100
AcDbLine
 10
-22.99988118714505
 20
62.99967455609323
 30
0.0
 11
-11.99993801068434
 21
62.99967455609323
 31
0.0
  0
CIRCLE
  5
97A8
330
1E
100
AcDbEntity
  8
12
100
AcDbCircle
 10
-17.49990959891476
 20
62.99967455609323
 30
0.0
 40
3.999979336894806
  0
LINE
  5
97A9
330
1E
100
AcDbEntity
  8
10
100
AcDbLine
 10
-27.99985535826357
 20
59.99969005342205
 30
0.0
 11
-41.99978303739546
 21
59.99969005342205
 31
0.0
  0
LINE
  5
97AA
330
1E
100
AcDbEntity
  8
12
100
AcDbLine
 10
-17.49990959891476
 20
68.49964614432355
 30
0.0
 11
-17.49990959891476
 21
57.49970296786284
 31
0.0
  0
ARC
  5
97AB
330
1E
100
AcDbEntity
  8
10
100
AcDbCircle
 10
-27.99985535826357
 20
64.99966422454059
 30
0.0
 40
4.999974171118505
100
AcDbArc
 50
270.0
 51
0.0
  0
LINE
  5
97AC
330
1E
100
AcDbEntity
  8
10
100
AcDbLine
 10
6.999963839565991
 20
59.99969005342205
 30
0.0
 11
-6.999963839565879
 21
59.99969005342205
 31
0.0
  0
ARC
  5
97AD
330
1E
100
AcDbEntity
  8
10
100
AcDbCircle
 10
-6.999963839565879
 20
64.99966422454059
 30
0.0
 40
4.999974171118505
100
AcDbArc
 50
180.0
 51
270.0
  0
LINE
  5
97AE
330
1E
100
AcDbEntity
  8
17
100
AcDbLine
 10
-41.99978303739546
 20
71.99962806410656
 30
0.0
 11
-27.99985535826357
 21
71.99962806410656
 31
0.0
  0
LINE
  5
97AF
330
1E
100
AcDbEntity
  8
17
100
AcDbLine
 10
-6.999963839565879
 20
71.99962806410656
 30
0.0
 11
6.999963839565991
 21
71.99962806410656
 31
0.0
  0
LINE
  5
97B2
330
1E
100
AcDbEntity
  8
17
100
AcDbLine
 10
34.99981919782956
 20
78.99959190367241
 30
0.0
 11
34.99981919782956
 21
64.99966422454059
 31
0.0
  0
LINE
  5
97B3
330
1E
100
AcDbEntity
  8
10
100
AcDbLine
 10
22.99988118714517
 20
82.49957382345536
 30
0.0
 11
22.99988118714517
 21
64.99966422454059
 31
0.0
  0
LINE
  5
97B4
330
1E
100
AcDbEntity
  8
10
100
AcDbLine
 10
46.99975720851401
 20
82.49957382345536
 30
0.0
 11
46.99975720851401
 21
64.99966422454059
 31
0.0
  0
LINE
  5
97B5
330
1E
100
AcDbEntity
  8
10
100
AcDbLine
 10
11.99993801068447
 20
82.49957382345536
 30
0.0
 11
11.99993801068447
 21
64.99966422454059
 31
0.0
  0
LINE
  5
97B6
330
1E
100
AcDbEntity
  8
10
100
AcDbLine
 10
57.99970038497474
 20
82.49957382345536
 30
0.0
 11
57.99970038497474
 21
64.99966422454059
 31
0.0
  0
CIRCLE
  5
97B7
330
1E
100
AcDbEntity
  8
24
100
AcDbCircle
 10
34.99981919782956
 20
71.99962806410656
 30
0.0
 40
4.999974171118505
  0
LINE
  5
97B8
330
1E
100
AcDbEntity
  8
10
100
AcDbLine
 10
41.9997830373955
 20
59.99969005342205
 30
0.0
 11
27.99985535826371
 21
59.99969005342205
 31
0.0
  0
ARC
  5
97B9
330
1E
100
AcDbEntity
  8
10
100
AcDbCircle
 10
27.99985535826371
 20
64.99966422454059
 30
0.0
 40
4.999974171118505
100
AcDbArc
 50
180.0
 51
270.0
  0
LINE
  5
97BA
330
1E
100
AcDbEntity
  8
12
100
AcDbLine
 10
17.49990959891479
 20
68.49964614432355
 30
0.0
 11
17.49990959891479
 21
57.49970296786284
 31
0.0
  0
CIRCLE
  5
97BB
330
1E
100
AcDbEntity
  8
12
100
AcDbCircle
 10
-17.49990959891479
 20
62.99967455609323
 30
0.0
 40
3.999979336894806
210
0.0
220
0.0
230
-1.0
  0
LINE
  5
97BC
330
1E
100
AcDbEntity
  8
12
100
AcDbLine
 10
11.99993801068447
 20
62.99967455609323
 30
0.0
 11
22.99988118714517
 21
62.99967455609323
 31
0.0
  0
ARC
  5
97BD
330
1E
100
AcDbEntity
  8
10
100
AcDbCircle
 10
41.9997830373955
 20
64.99966422454059
 30
0.0
 40
4.999974171118505
100
AcDbArc
 50
270.0
 51
0.0
  0
ARC
  5
97BE
330
1E
100
AcDbEntity
  8
10
100
AcDbCircle
 10
-62.99967455609325
 20
64.99966422454059
 30
0.0
 40
4.999974171118505
210
0.0
220
0.0
230
-1.0
100
AcDbArc
 50
270.0
 51
0.0
  0
LINE
  5
97BF
330
1E
100
AcDbEntity
  8
17
100
AcDbLine
 10
27.99985535826371
 20
71.99962806410656
 30
0.0
 11
41.9997830373955
 21
71.99962806410656
 31
0.0
  0
LINE
  5
97C1
330
1E
100
AcDbEntity
  8
10
100
AcDbLine
 10
87.49954799457389
 20
82.49957382345536
 30
0.0
 11
87.49954799457389
 21
-82.4995738234554
 31
0.0
  0
DIMENSION
  5
97C2
330
1E
100
AcDbEntity
  8
30
100
AcDbDimension
  2
*D3
 10
100.6779304226177
 20
82.49957382345534
 30
0.0
 11
97.67793042261772
 21
-0.0000000000000058
 31
0.0
 70
    32
 71
     5
 42
-1.0
  3
STANDARD
100
AcDbAlignedDimension
 13
87.49954799457388
 23
-82.4995738234554
 33
0.0
 14
87.49954799457388
 24
82.49957382345536
 34
0.0
 50
270.0
100
AcDbRotatedDimension
  0
ARC
  5
97C3
330
1E
100
AcDbEntity
  8
10
100
AcDbCircle
 10
76.99960223522507
 20
-64.99966422454061
 30
0.0
 40
4.999974171118505
100
AcDbArc
 50
0.0
 51
90.0
  0
LINE
  5
97C4
330
1E
100
AcDbEntity
  8
17
100
AcDbLine
 10
69.99963839565912
 20
-64.99966422454061
 30
0.0
 11
69.99963839565912
 21
-78.99959190367248
 31
0.0
  0
CIRCLE
  5
97C5
330
1E
100
AcDbEntity
  8
24
100
AcDbCircle
 10
-69.99963839565912
 20
-71.99962806410656
 30
0.0
 40
4.999974171118505
210
0.0
220
0.0
230
-1.0
  0
LINE
  5
97C6
330
1E
100
AcDbEntity
  8
10
100
AcDbLine
 10
81.99957640634357
 20
-82.4995738234554
 30
0.0
 11
81.99957640634357
 21
-64.99966422454061
 31
0.0
  0
LINE
  5
97C7
330
1E
100
AcDbEntity
  8
10
100
AcDbLine
 10
66.4996564758762
 20
32.45693911503348
 30
0.0
 11
67.49965131009986
 21
33.45693394925723
 31
0.0
  0
LINE
  5
97C8
330
1E
100
AcDbEntity
  8
10
100
AcDbLine
 10
72.73312872632363
 20
31.97293164538614
 30
0.0
 11
73.49962031544217
 21
32.7394232345045
 31
0.0
  0
LINE
  5
97C9
330
1E
100
AcDbEntity
  8
10
100
AcDbLine
 10
67.49965131009986
 20
39.4493279542773
 30
0.0
 11
72.88929568747218
 21
31.74983598660253
 31
0.0
  0
LINE
  5
97CA
330
1E
100
AcDbEntity
  8
10
100
AcDbLine
 10
67.49965131009986
 20
39.4493279542773
 30
0.0
 11
67.49965131009986
 21
31.74983598660253
 31
0.0
  0
LINE
  5
97CB
330
1E
100
AcDbEntity
  8
10
100
AcDbLine
 10
66.4996564758762
 20
32.10338755081806
 30
0.0
 11
67.49965131009986
 21
33.10338238504176
 31
0.0
  0
LINE
  5
97CC
330
1E
100
AcDbEntity
  8
10
100
AcDbLine
 10
73.49962031544217
 20
31.74983598660247
 30
0.0
 11
73.49962031544217
 21
41.74978432883952
 31
0.0
  0
LINE
  5
97CD
330
1E
100
AcDbEntity
  8
10
100
AcDbLine
 10
72.44196861461681
 20
32.38887466211025
 30
0.0
 11
73.49962031544217
 21
33.44652636293557
 31
0.0
  0
LINE
  5
97CE
330
1E
100
AcDbEntity
  8
10
100
AcDbLine
 10
66.4996564758762
 20
31.74983598660247
 30
0.0
 11
67.49965131009986
 21
32.74983082082616
 31
0.0
  0
LINE
  5
97CF
330
1E
100
AcDbEntity
  8
10
100
AcDbLine
 10
72.58754867047028
 20
32.18090315374819
 30
0.0
 11
73.49962031544217
 21
33.09297479872002
 31
0.0
  0
LINE
  5
97D0
330
1E
100
AcDbEntity
  8
10
100
AcDbLine
 10
66.4996564758762
 20
31.74983598660247
 30
0.0
 11
66.4996564758762
 21
41.74978432883952
 31
0.0
  0
LINE
  5
97D1
330
1E
100
AcDbEntity
  8
10
100
AcDbLine
 10
67.20675960430728
 20
31.74983598660253
 30
0.0
 11
67.49965131009986
 21
32.04272769239507
 31
0.0
  0
LINE
  5
97D2
330
1E
100
AcDbEntity
  8
10
100
AcDbLine
 10
66.8532080400918
 20
31.74983598660253
 30
0.0
 11
67.49965131009986
 21
32.39627925661068
 31
0.0
  0
LINE
  5
97D3
330
1E
100
AcDbEntity
  8
10
100
AcDbLine
 10
66.4996564758762
 20
31.74983598660253
 30
0.0
 11
67.49965131009986
 21
31.74983598660253
 31
0.0
  0
LINE
  5
97D4
330
1E
100
AcDbEntity
  8
10
100
AcDbLine
 10
72.86358463175568
 20
31.74983598660253
 30
0.0
 11
73.49962031544217
 21
32.38587167028891
 31
0.0
  0
LINE
  5
97D5
330
1E
100
AcDbEntity
  8
10
100
AcDbLine
 10
73.49962031544217
 20
31.74983598660253
 30
0.0
 11
72.88929568747231
 21
31.74983598660253
 31
0.0
  0
LINE
  5
97D6
330
1E
100
AcDbEntity
  8
10
100
AcDbLine
 10
73.21713619597111
 20
31.74983598660253
 30
0.0
 11
73.49962031544217
 21
32.03232010607342
 31
0.0
  0
LINE
  5
97D7
330
1E
100
AcDbEntity
  8
17
100
AcDbLine
 10
69.99963839565912
 20
78.99959190367241
 30
0.0
 11
69.99963839565912
 21
64.99966422454059
 31
0.0
  0
LINE
  5
97D8
330
1E
100
AcDbEntity
  8
10
100
AcDbLine
 10
81.99957640634357
 20
82.49957382345536
 30
0.0
 11
81.99957640634357
 21
64.99966422454059
 31
0.0
  0
CIRCLE
  5
97D9
330
1E
100
AcDbEntity
  8
24
100
AcDbCircle
 10
-69.99963839565912
 20
71.99962806410656
 30
0.0
 40
4.999974171118505
210
0.0
220
0.0
230
-1.0
  0
LINE
  5
97DA
330
1E
100
AcDbEntity
  8
10
100
AcDbLine
 10
70.69500794437539
 20
34.88453276245513
 30
0.0
 11
71.41303691845758
 21
35.60256173653725
 31
0.0
  0
LINE
  5
97DB
330
1E
100
AcDbEntity
  8
10
100
AcDbLine
 10
70.54942788852191
 20
35.09250427081719
 30
0.0
 11
71.26745686260417
 21
35.81053324489932
 31
0.0
  0
LINE
  5
97DC
330
1E
100
AcDbEntity
  8
10
100
AcDbLine
 10
70.258267776815
 20
35.50844728754134
 30
0.0
 11
70.9762967508972
 21
36.22647626162363
 31
0.0
  0
LINE
  5
97DD
330
1E
100
AcDbEntity
  8
10
100
AcDbLine
 10
70.4038478326685
 20
35.30047577917928
 30
0.0
 11
71.12187680675075
 21
36.01850475326154
 31
0.0
  0
LINE
  5
97DE
330
1E
100
AcDbEntity
  8
10
100
AcDbLine
 10
67.10998110384614
 20
41.74978432883949
 30
0.0
 11
72.49962548121837
 21
34.05029236116478
 31
0.0
  0
LINE
  5
97DF
330
1E
100
AcDbEntity
  8
10
100
AcDbLine
 10
70.84058800022885
 20
34.67656125409303
 30
0.0
 11
71.55861697431112
 21
35.39459022817528
 31
0.0
  0
LINE
  5
97E0
330
1E
100
AcDbEntity
  8
10
100
AcDbLine
 10
66.4996564758762
 20
35.28535162875771
 30
0.0
 11
67.49965131009986
 21
36.2853464629814
 31
0.0
  0
LINE
  5
97E1
330
1E
100
AcDbEntity
  8
10
100
AcDbLine
 10
66.4996564758762
 20
41.64927978463706
 30
0.0
 11
66.60016102007862
 21
41.74978432883952
 31
0.0
  0
LINE
  5
97E2
330
1E
100
AcDbEntity
  8
10
100
AcDbLine
 10
68.65688716242712
 20
37.79613387952418
 30
0.0
 11
69.37491613650931
 21
38.51416285360631
 31
0.0
  0
LINE
  5
97E3
330
1E
100
AcDbEntity
  8
10
100
AcDbLine
 10
66.4996564758762
 20
37.76021257826636
 30
0.0
 11
67.49965131009986
 21
38.76020741249016
 31
0.0
  0
LINE
  5
97E4
330
1E
100
AcDbEntity
  8
10
100
AcDbLine
 10
67.92898688315982
 20
38.8359914213346
 30
0.0
 11
68.64701585724211
 21
39.55402039541672
 31
0.0
  0
LINE
  5
97E5
330
1E
100
AcDbEntity
  8
10
100
AcDbLine
 10
69.67594755340124
 20
36.34033332098978
 30
0.0
 11
70.39397652748355
 21
37.05836229507184
 31
0.0
  0
LINE
  5
97E6
330
1E
100
AcDbEntity
  8
10
100
AcDbLine
 10
66.4996564758762
 20
40.23507352777511
 30
0.0
 11
67.48237541041456
 21
41.21779246231324
 31
0.0
  0
LINE
  5
97E7
330
1E
100
AcDbEntity
  8
10
100
AcDbLine
 10
66.4996564758762
 20
36.34600632140433
 30
0.0
 11
67.49965131009986
 21
37.34600115562796
 31
0.0
  0
LINE
  5
97E8
330
1E
100
AcDbEntity
  8
10
100
AcDbLine
 10
69.0936273299874
 20
37.1722193544379
 30
0.0
 11
69.8116563040696
 21
37.8902483285201
 31
0.0
  0
LINE
  5
97E9
330
1E
100
AcDbEntity
  8
10
100
AcDbLine
 10
68.07456693901329
 20
38.62801991297249
 30
0.0
 11
68.79259591309547
 21
39.34604888705468
 31
0.0
  0
LINE
  5
97EA
330
1E
100
AcDbEntity
  8
10
100
AcDbLine
 10
66.4996564758762
 20
38.82086727091297
 30
0.0
 11
68.06469563382828
 21
40.38590642886497
 31
0.0
  0
LINE
  5
97EB
330
1E
100
AcDbEntity
  8
10
100
AcDbLine
 10
70.11268772096162
 20
35.71641879590333
 30
0.0
 11
70.83071669504383
 21
36.43444776998558
 31
0.0
  0
LINE
  5
97EC
330
1E
100
AcDbEntity
  8
10
100
AcDbLine
 10
66.4996564758762
 20
34.93180006454223
 30
0.0
 11
67.49965131009986
 21
35.93179489876593
 31
0.0
  0
LINE
  5
97ED
330
1E
100
AcDbEntity
  8
10
100
AcDbLine
 10
68.36572705072021
 20
38.21207689624828
 30
0.0
 11
69.0837560248024
 21
38.93010587033046
 31
0.0
  0
LINE
  5
97EE
330
1E
100
AcDbEntity
  8
10
100
AcDbLine
 10
66.4996564758762
 20
37.40666101405088
 30
0.0
 11
67.49965131009986
 21
38.40665584827462
 31
0.0
  0
LINE
  5
97EF
330
1E
100
AcDbEntity
  8
10
100
AcDbLine
 10
69.53036749754787
 20
36.5483048293517
 30
0.0
 11
70.24839647163005
 21
37.26633380343388
 31
0.0
  0
LINE
  5
97F0
330
1E
100
AcDbEntity
  8
10
100
AcDbLine
 10
66.4996564758762
 20
33.5175938076801
 30
0.0
 11
67.49965131009986
 21
34.51758864190379
 31
0.0
  0
LINE
  5
97F1
330
1E
100
AcDbEntity
  8
10
100
AcDbLine
 10
66.4996564758762
 20
39.88152196355952
 30
0.0
 11
67.6279554662679
 21
41.00982095395116
 31
0.0
  0
LINE
  5
97F2
330
1E
100
AcDbEntity
  8
10
100
AcDbLine
 10
66.4996564758762
 20
35.99245475718872
 30
0.0
 11
67.49965131009986
 21
36.99244959141243
 31
0.0
  0
LINE
  5
97F3
330
1E
100
AcDbEntity
  8
10
100
AcDbLine
 10
66.4996564758762
 20
39.52797039934397
 30
0.0
 11
67.77353552212129
 21
40.80184944558914
 31
0.0
  0
LINE
  5
97F4
330
1E
100
AcDbEntity
  8
10
100
AcDbLine
 10
68.94804727413387
 20
37.38019086280008
 30
0.0
 11
69.66607624821614
 21
38.09821983688221
 31
0.0
  0
LINE
  5
97F5
330
1E
100
AcDbEntity
  8
10
100
AcDbLine
 10
68.22014699486678
 20
38.42004840461039
 30
0.0
 11
68.93817596894885
 21
39.1380773786925
 31
0.0
  0
LINE
  5
97F6
330
1E
100
AcDbEntity
  8
10
100
AcDbLine
 10
66.4996564758762
 20
36.69955788561981
 30
0.0
 11
67.49965131009986
 21
37.6995527198435
 31
0.0
  0
LINE
  5
97F7
330
1E
100
AcDbEntity
  8
10
100
AcDbLine
 10
69.2392073858409
 20
36.96424784607585
 30
0.0
 11
69.9572363599231
 21
37.6822768201581
 31
0.0
  0
LINE
  5
97F8
330
1E
100
AcDbEntity
  8
10
100
AcDbLine
 10
66.4996564758762
 20
32.81049067924907
 30
0.0
 11
67.49965131009986
 21
33.81048551347276
 31
0.0
  0
LINE
  5
97F9
330
1E
100
AcDbEntity
  8
10
100
AcDbLine
 10
66.4996564758762
 20
37.05310944983535
 30
0.0
 11
67.49965131009986
 21
38.05310428405908
 31
0.0
  0
LINE
  5
97FA
330
1E
100
AcDbEntity
  8
10
100
AcDbLine
 10
66.4996564758762
 20
39.17441883512846
 30
0.0
 11
67.9191155779748
 21
40.59387793722702
 31
0.0
  0
LINE
  5
97FB
330
1E
100
AcDbEntity
  8
10
100
AcDbLine
 10
66.4996564758762
 20
33.87114537189563
 30
0.0
 11
67.49965131009986
 21
34.87114020611932
 31
0.0
  0
LINE
  5
97FC
330
1E
100
AcDbEntity
  8
10
100
AcDbLine
 10
66.4996564758762
 20
40.58862509199054
 30
0.0
 11
67.33679535456096
 21
41.42576397067535
 31
0.0
  0
LINE
  5
97FD
330
1E
100
AcDbEntity
  8
10
100
AcDbLine
 10
66.4996564758762
 20
38.1137641424819
 30
0.0
 11
67.49965131009986
 21
39.11375897670558
 31
0.0
  0
LINE
  5
97FE
330
1E
100
AcDbEntity
  8
10
100
AcDbLine
 10
66.4996564758762
 20
41.29572822042166
 30
0.0
 11
66.9537125842941
 21
41.74978432883952
 31
0.0
  0
LINE
  5
97FF
330
1E
100
AcDbEntity
  8
10
100
AcDbLine
 10
66.4996564758762
 20
40.94217665620613
 30
0.0
 11
67.1912152987076
 21
41.63373547903745
 31
0.0
  0
LINE
  5
9800
330
1E
100
AcDbEntity
  8
10
100
AcDbLine
 10
66.4996564758762
 20
38.46731570669749
 30
0.0
 11
68.21027568968173
 21
40.17793492050294
 31
0.0
  0
LINE
  5
9801
330
1E
100
AcDbEntity
  8
10
100
AcDbLine
 10
69.96710766510807
 20
35.92439030426556
 30
0.0
 11
70.68513663919026
 21
36.64241927834769
 31
0.0
  0
LINE
  5
9802
330
1E
100
AcDbEntity
  8
10
100
AcDbLine
 10
66.4996564758762
 20
34.57824850032658
 30
0.0
 11
67.49965131009986
 21
35.57824333455033
 31
0.0
  0
LINE
  5
9803
330
1E
100
AcDbEntity
  8
10
100
AcDbLine
 10
68.51130710657367
 20
38.00410538788622
 30
0.0
 11
69.22933608065594
 21
38.7221343619684
 31
0.0
  0
LINE
  5
9804
330
1E
100
AcDbEntity
  8
10
100
AcDbLine
 10
69.38478744169433
 20
36.75627633771375
 30
0.0
 11
70.10281641577657
 21
37.47430531179607
 31
0.0
  0
LINE
  5
9805
330
1E
100
AcDbEntity
  8
10
100
AcDbLine
 10
66.4996564758762
 20
33.16404224346462
 30
0.0
 11
67.49965131009986
 21
34.16403707768831
 31
0.0
  0
LINE
  5
9806
330
1E
100
AcDbEntity
  8
10
100
AcDbLine
 10
66.4996564758762
 20
35.63890319297326
 30
0.0
 11
67.49965131009986
 21
36.63889802719693
 31
0.0
  0
LINE
  5
9807
330
1E
100
AcDbEntity
  8
10
100
AcDbLine
 10
68.80246721828047
 20
37.58816237116212
 30
0.0
 11
69.52049619236274
 21
38.3061913452442
 31
0.0
  0
LINE
  5
9808
330
1E
100
AcDbEntity
  8
10
100
AcDbLine
 10
67.78340682730635
 20
39.04396292969659
 30
0.0
 11
68.50143580138861
 21
39.76199190377883
 31
0.0
  0
LINE
  5
9809
330
1E
100
AcDbEntity
  8
10
100
AcDbLine
 10
66.4996564758762
 20
41.74978432883952
 30
0.0
 11
67.109981103846
 21
41.74978432883952
 31
0.0
  0
LINE
  5
980A
330
1E
100
AcDbEntity
  8
10
100
AcDbLine
 10
69.82152760925467
 20
36.13236181262755
 30
0.0
 11
70.53955658333686
 21
36.85039078670973
 31
0.0
  0
LINE
  5
980B
330
1E
100
AcDbEntity
  8
10
100
AcDbLine
 10
67.63782677145299
 20
39.2519344380587
 30
0.0
 11
68.35585574553518
 21
39.96996341214089
 31
0.0
  0
LINE
  5
980C
330
1E
100
AcDbEntity
  8
10
100
AcDbLine
 10
66.4996564758762
 20
34.22469693611117
 30
0.0
 11
67.49965131009986
 21
35.22469177033491
 31
0.0
  0
LINE
  5
980D
330
1E
100
AcDbEntity
  8
10
100
AcDbLine
 10
72.49962548121837
 20
35.27494404243606
 30
0.0
 11
73.49962031544217
 21
36.27493887665972
 31
0.0
  0
LINE
  5
980E
330
1E
100
AcDbEntity
  8
10
100
AcDbLine
 10
72.49962548121837
 20
41.63887219831546
 30
0.0
 11
72.61053761174244
 21
41.74978432883952
 31
0.0
  0
LINE
  5
980F
330
1E
100
AcDbEntity
  8
10
100
AcDbLine
 10
71.85964839120297
 20
33.22076069555861
 30
0.0
 11
73.49962031544217
 21
34.8607326197977
 31
0.0
  0
LINE
  5
9810
330
1E
100
AcDbEntity
  8
10
100
AcDbLine
 10
72.49962548121837
 20
34.21428934978939
 30
0.0
 11
73.49962031544217
 21
35.21428418401313
 31
0.0
  0
LINE
  5
9811
330
1E
100
AcDbEntity
  8
10
100
AcDbLine
 10
72.49962548121837
 20
38.8104596845913
 30
0.0
 11
73.49962031544217
 21
39.81045451881493
 31
0.0
  0
LINE
  5
9812
330
1E
100
AcDbEntity
  8
10
100
AcDbLine
 10
72.49962548121837
 20
36.33559873508268
 30
0.0
 11
73.49962031544217
 21
37.33559356930635
 31
0.0
  0
LINE
  5
9813
330
1E
100
AcDbEntity
  8
10
100
AcDbLine
 10
72.49962548121837
 20
37.74980499194475
 30
0.0
 11
73.49962031544217
 21
38.74979982616842
 31
0.0
  0
LINE
  5
9814
330
1E
100
AcDbEntity
  8
10
100
AcDbLine
 10
72.29638855876334
 20
32.59684617047231
 30
0.0
 11
73.49962031544217
 21
33.80007792715115
 31
0.0
  0
LINE
  5
9815
330
1E
100
AcDbEntity
  8
10
100
AcDbLine
 10
72.49962548121837
 20
37.39625342772922
 30
0.0
 11
73.49962031544217
 21
38.3962482619529
 31
0.0
  0
LINE
  5
9816
330
1E
100
AcDbEntity
  8
10
100
AcDbLine
 10
72.49962548121837
 20
34.05029236116478
 30
0.0
 11
72.49962548121837
 21
41.74978432883952
 31
0.0
  0
LINE
  5
9817
330
1E
100
AcDbEntity
  8
10
100
AcDbLine
 10
71.13174811193569
 20
34.26061823736886
 30
0.0
 11
71.84977708601795
 21
34.97864721145111
 31
0.0
  0
LINE
  5
9818
330
1E
100
AcDbEntity
  8
10
100
AcDbLine
 10
71.71406833534951
 20
33.42873220392061
 30
0.0
 11
72.43209730943171
 21
34.14676117800274
 31
0.0
  0
LINE
  5
9819
330
1E
100
AcDbEntity
  8
10
100
AcDbLine
 10
72.49962548121837
 20
34.92139247822058
 30
0.0
 11
73.49962031544217
 21
35.92138731244427
 31
0.0
  0
LINE
  5
981A
330
1E
100
AcDbEntity
  8
10
100
AcDbLine
 10
72.49962548121837
 20
39.16401124880684
 30
0.0
 11
73.49962031544217
 21
40.16400608303053
 31
0.0
  0
LINE
  5
981B
330
1E
100
AcDbEntity
  8
10
100
AcDbLine
 10
72.49962548121837
 20
41.28532063409989
 30
0.0
 11
72.96408917595801
 21
41.74978432883952
 31
0.0
  0
LINE
  5
981C
330
1E
100
AcDbEntity
  8
10
100
AcDbLine
 10
72.49962548121837
 20
40.22466594145337
 30
0.0
 11
73.49962031544217
 21
41.22466077567707
 31
0.0
  0
LINE
  5
981D
330
1E
100
AcDbEntity
  8
10
100
AcDbLine
 10
72.49962548121837
 20
36.6891502992982
 30
0.0
 11
73.49962031544217
 21
37.68914513352189
 31
0.0
  0
LINE
  5
981E
330
1E
100
AcDbEntity
  8
10
100
AcDbLine
 10
72.49962548121837
 20
41.74978432883952
 30
0.0
 11
73.49962031544217
 21
41.74978432883952
 31
0.0
  0
LINE
  5
981F
330
1E
100
AcDbEntity
  8
10
100
AcDbLine
 10
72.49962548121837
 20
40.57821750566882
 30
0.0
 11
73.49962031544217
 21
41.57821233989261
 31
0.0
  0
LINE
  5
9820
330
1E
100
AcDbEntity
  8
10
100
AcDbLine
 10
71.27732816778929
 20
34.05264672900681
 30
0.0
 11
71.99535714187141
 21
34.77067570308901
 31
0.0
  0
LINE
  5
9821
330
1E
100
AcDbEntity
  8
10
100
AcDbLine
 10
72.49962548121837
 20
39.87111437723791
 30
0.0
 11
73.49962031544217
 21
40.87110921146154
 31
0.0
  0
LINE
  5
9822
330
1E
100
AcDbEntity
  8
10
100
AcDbLine
 10
72.49962548121837
 20
35.62849560665164
 30
0.0
 11
73.49962031544217
 21
36.62849044087535
 31
0.0
  0
LINE
  5
9823
330
1E
100
AcDbEntity
  8
10
100
AcDbLine
 10
72.49962548121837
 20
39.51756281302233
 30
0.0
 11
73.49962031544217
 21
40.51755764724606
 31
0.0
  0
LINE
  5
9824
330
1E
100
AcDbEntity
  8
10
100
AcDbLine
 10
72.49962548121837
 20
38.45690812037577
 30
0.0
 11
73.49962031544217
 21
39.4569029545995
 31
0.0
  0
LINE
  5
9825
330
1E
100
AcDbEntity
  8
10
100
AcDbLine
 10
72.15080850290994
 20
32.80481767883435
 30
0.0
 11
73.49962031544217
 21
34.15362949136659
 31
0.0
  0
LINE
  5
9826
330
1E
100
AcDbEntity
  8
10
100
AcDbLine
 10
72.49962548121837
 20
38.10335655616018
 30
0.0
 11
73.49962031544217
 21
39.10335139038392
 31
0.0
  0
LINE
  5
9827
330
1E
100
AcDbEntity
  8
10
100
AcDbLine
 10
70.98616805608227
 20
34.46858974573098
 30
0.0
 11
71.70419703016445
 21
35.18661871981317
 31
0.0
  0
LINE
  5
9828
330
1E
100
AcDbEntity
  8
10
100
AcDbLine
 10
72.49962548121837
 20
40.93176906988452
 30
0.0
 11
73.31764074017351
 21
41.74978432883952
 31
0.0
  0
LINE
  5
9829
330
1E
100
AcDbEntity
  8
10
100
AcDbLine
 10
72.49962548121837
 20
34.56784091400499
 30
0.0
 11
73.49962031544217
 21
35.56783574822868
 31
0.0
  0
LINE
  5
982A
330
1E
100
AcDbEntity
  8
10
100
AcDbLine
 10
71.56848827949611
 20
33.63670371228266
 30
0.0
 11
72.28651725357829
 21
34.35473268636489
 31
0.0
  0
LINE
  5
982B
330
1E
100
AcDbEntity
  8
10
100
AcDbLine
 10
72.49962548121837
 20
37.04270186351362
 30
0.0
 11
73.49962031544217
 21
38.04269669773731
 31
0.0
  0
LINE
  5
982C
330
1E
100
AcDbEntity
  8
10
100
AcDbLine
 10
72.49962548121837
 20
35.98204717086707
 30
0.0
 11
73.49962031544217
 21
36.98204200509081
 31
0.0
  0
LINE
  5
982D
330
1E
100
AcDbEntity
  8
10
100
AcDbLine
 10
71.42290822364268
 20
33.84467522064475
 30
0.0
 11
72.14093719772488
 21
34.56270419472707
 31
0.0
  0
LINE
  5
982E
330
1E
100
AcDbEntity
  8
10
100
AcDbLine
 10
72.00522844705638
 20
33.01278918719651
 30
0.0
 11
73.49962031544217
 21
34.50718105558218
 31
0.0
  0
ARC
  5
982F
330
1E
100
AcDbEntity
  8
10
100
AcDbCircle
 10
-76.99960223522507
 20
64.99966422454059
 30
0.0
 40
4.999974171118505
210
0.0
220
0.0
230
-1.0
100
AcDbArc
 50
180.0
 51
270.0
  0
LINE
  5
9917
330
1E
100
AcDbEntity
  8
21
100
AcDbLine
 10
9.999948342236962
 20
262.9812001232139
 30
0.0
 11
9.999948342236962
 21
325.4812001232139
 31
0.0
  0
LINE
  5
9918
330
1E
100
AcDbEntity
  8
21
100
AcDbLine
 10
-9.999948342237077
 20
262.9812001232139
 30
0.0
 11
-9.999948342237077
 21
325.4812001232139
 31
0.0
  0
LINE
  5
991A
330
1E
100
AcDbEntity
  8
21
100
AcDbLine
 10
79.99958673789627
 20
262.9812001232139
 30
0.0
 11
79.99958673789627
 21
325.4812001232139
 31
0.0
  0
LINE
  5
991B
330
1E
100
AcDbEntity
  8
21
100
AcDbLine
 10
59.99969005342222
 20
262.9812001232139
 30
0.0
 11
59.99969005342222
 21
325.4812001232139
 31
0.0
  0
LINE
  5
991D
330
1E
100
AcDbEntity
  8
21
100
AcDbLine
 10
-31.99983469515848
 20
296.9810244868198
 30
0.0
 11
-31.99983469515848
 21
333.9808333530966
 31
0.0
  0
LINE
  5
991E
330
1E
100
AcDbEntity
  8
21
100
AcDbLine
 10
-37.9998037005006
 20
296.9810244868198
 30
0.0
 11
-37.9998037005006
 21
333.9808333530966
 31
0.0
  0
LINE
  5
991F
330
1E
100
AcDbEntity
  8
21
100
AcDbLine
 10
37.99980370050071
 20
296.9810244868198
 30
0.0
 11
37.99980370050071
 21
333.9808333530966
 31
0.0
  0
LINE
  5
9920
330
1E
100
AcDbEntity
  8
21
100
AcDbLine
 10
31.99983469515859
 20
296.9810244868198
 30
0.0
 11
31.99983469515859
 21
333.9808333530966
 31
0.0
  0
LINE
  5
9925
330
1E
100
AcDbEntity
  8
21
100
AcDbLine
 10
9.999948342236962
 20
325.4812001232139
 30
0.0
 11
-9.999948342237077
 21
325.4812001232139
 31
0.0
  0
LINE
  5
9926
330
1E
100
AcDbEntity
  8
17
100
AcDbLine
 10
12.99993284490799
 20
353.9812001232139
 30
0.0
 11
-12.99993284490799
 21
353.9812001232139
 31
0.0
  0
LINE
  5
9927
330
1E
100
AcDbEntity
  8
17
100
AcDbLine
 10
-21.99988635292152
 20
318.9809108397411
 30
0.0
 11
-47.99975204273764
 21
318.9809108397411
 31
0.0
  0
LINE
  5
9928
330
1E
100
AcDbEntity
  8
21
100
AcDbLine
 10
-37.9998037005006
 20
333.9808333530966
 30
0.0
 11
-31.99983469515848
 21
333.9808333530966
 31
0.0
  0
LINE
  5
9929
330
1E
100
AcDbEntity
  8
21
100
AcDbLine
 10
-2.999984502670939
 20
331.9812001232138
 30
0.0
 11
-2.999984502670939
 21
368.9812001232139
 31
0.0
  0
LINE
  5
992A
330
1E
100
AcDbEntity
  8
21
100
AcDbLine
 10
2.999984502671054
 20
331.9812001232138
 30
0.0
 11
2.999984502671054
 21
368.9812001232139
 31
0.0
  0
LINE
  5
992B
330
1E
100
AcDbEntity
  8
21
100
AcDbLine
 10
-2.999984502670939
 20
368.9812001232139
 30
0.0
 11
2.999984502671054
 21
368.9812001232139
 31
0.0
  0
LINE
  5
992C
330
1E
100
AcDbEntity
  8
21
100
AcDbLine
 10
-4.999974171118537
 20
325.4812001232139
 30
0.0
 11
-4.999974171118537
 21
331.9812001232139
 31
0.0
  0
LINE
  5
992D
330
1E
100
AcDbEntity
  8
21
100
AcDbLine
 10
4.999974171118424
 20
325.4812001232139
 30
0.0
 11
4.999974171118424
 21
331.9812001232139
 31
0.0
  0
LINE
  5
992E
330
1E
100
AcDbEntity
  8
21
100
AcDbLine
 10
-2.999984502670939
 20
331.9812001232139
 30
0.0
 11
-4.999974171118537
 21
331.9812001232139
 31
0.0
  0
LINE
  5
992F
330
1E
100
AcDbEntity
  8
21
100
AcDbLine
 10
4.999974171118424
 20
331.9812001232139
 30
0.0
 11
2.999984502671054
 21
331.9812001232139
 31
0.0
  0
LINE
  5
9930
330
1E
100
AcDbEntity
  8
21
100
AcDbLine
 10
31.99983469515859
 20
333.9808333530966
 30
0.0
 11
37.99980370050071
 21
333.9808333530966
 31
0.0
  0
LINE
  5
9931
330
1E
100
AcDbEntity
  8
17
100
AcDbLine
 10
47.99975204273756
 20
318.9809108397411
 30
0.0
 11
21.99988635292118
 21
318.9809108397411
 31
0.0
  0
LINE
  5
9934
330
1E
100
AcDbEntity
  8
21
100
AcDbLine
 10
66.99965389298814
 20
331.9812001232138
 30
0.0
 11
66.99965389298814
 21
368.9812001232139
 31
0.0
  0
LINE
  5
9935
330
1E
100
AcDbEntity
  8
21
100
AcDbLine
 10
72.99962289833023
 20
331.9812001232138
 30
0.0
 11
72.99962289833023
 21
368.9812001232139
 31
0.0
  0
LINE
  5
9936
330
1E
100
AcDbEntity
  8
17
100
AcDbLine
 10
82.99957124056721
 20
353.9812001232139
 30
0.0
 11
56.99970555075083
 21
353.9812001232139
 31
0.0
  0
LINE
  5
9937
330
1E
100
AcDbEntity
  8
21
100
AcDbLine
 10
66.99965389298814
 20
368.9812001232139
 30
0.0
 11
72.99962289833023
 21
368.9812001232139
 31
0.0
  0
LINE
  5
9938
330
1E
100
AcDbEntity
  8
21
100
AcDbLine
 10
79.99958673789627
 20
325.4812001232139
 30
0.0
 11
59.99969005342222
 21
325.4812001232139
 31
0.0
  0
LINE
  5
9939
330
1E
100
AcDbEntity
  8
21
100
AcDbLine
 10
64.99966422454064
 20
325.4812001232139
 30
0.0
 11
64.99966422454064
 21
331.9812001232139
 31
0.0
  0
LINE
  5
993A
330
1E
100
AcDbEntity
  8
21
100
AcDbLine
 10
74.99961256677773
 20
325.4812001232139
 30
0.0
 11
74.99961256677773
 21
331.9812001232139
 31
0.0
  0
LINE
  5
993B
330
1E
100
AcDbEntity
  8
21
100
AcDbLine
 10
66.99965389298814
 20
331.9812001232139
 30
0.0
 11
64.99966422454064
 21
331.9812001232139
 31
0.0
  0
LINE
  5
993C
330
1E
100
AcDbEntity
  8
21
100
AcDbLine
 10
74.99961256677773
 20
331.9812001232139
 30
0.0
 11
72.99962289833023
 21
331.9812001232139
 31
0.0
  0
LINE
  5
993D
330
1E
100
AcDbEntity
  8
18
100
AcDbLine
 10
107.4994446790479
 20
266.1811835927299
 30
0.0
 11
-72.49962548121846
 21
266.1811835927299
 31
0.0
  0
LINE
  5
993E
330
1E
100
AcDbEntity
  8
18
100
AcDbLine
 10
-52.49972879674442
 20
262.9812001232139
 30
0.0
 11
-72.49962548121846
 21
262.9812001232139
 31
0.0
  0
DIMENSION
  5
9940
330
1E
100
AcDbEntity
  8
30
100
AcDbDimension
  2
*D4
 10
87.49954799457396
 20
125.2687195325586
 30
0.0
 11
17.49990959891476
 21
128.2687195325586
 31
0.0
 70
    32
 71
     5
 42
-1.0
  3
STANDARD
100
AcDbAlignedDimension
 13
-52.49972879674442
 23
194.9815513960022
 33
0.0
 14
87.49954799457396
 24
194.9815513960022
 34
0.0
100
AcDbRotatedDimension
1001
ACAD
1000
DSTYLE
1002
{
1070
   287
1070
     4
1070
   287
1070
     4
1070
    79
1070
     3
1070
   279
1070
     1
1002
}
  0
LINE
  5
9941
330
1E
100
AcDbEntity
  8
10
100
AcDbLine
 10
87.49954799457396
 20
201.9815152355679
 30
0.0
 11
-52.4997287967442
 21
201.9815152355679
 31
0.0
  0
LINE
  5
9942
330
1E
100
AcDbEntity
  8
10
100
AcDbLine
 10
48.99974687696135
 20
190.9815720591074
 30
0.0
 11
-48.99974687696147
 21
190.9815720591074
 31
0.0
  0
LINE
  5
9943
330
1E
100
AcDbEntity
  8
10
100
AcDbLine
 10
87.49954799457396
 20
194.9815513960022
 30
0.0
 11
-52.49972879674442
 21
194.9815513960022
 31
0.0
  0
LINE
  5
9944
330
1E
100
AcDbEntity
  8
10
100
AcDbLine
 10
87.49954799457396
 20
262.9812001232139
 30
0.0
 11
-52.49972879674442
 21
262.9812001232139
 31
0.0
  0
DIMENSION
  5
9945
330
1E
100
AcDbEntity
  8
30
100
AcDbDimension
  2
*D5
 10
124.9963638675385
 20
262.9812001232139
 30
0.0
 11
121.9963638675385
 21
266.9811794601087
 31
0.0
 70
    32
 71
     5
 42
-1.0
  3
STANDARD
100
AcDbAlignedDimension
 13
19.49989926736225
 23
270.9811587970035
 33
0.0
 14
107.4994446790479
 24
262.9812001232139
 34
0.0
 50
90.00000000000005
100
AcDbRotatedDimension
1001
ACAD
1000
DSTYLE
1002
{
1070
   287
1070
     4
1070
   287
1070
     4
1070
    79
1070
     3
1070
   279
1070
     1
1002
}
  0
LINE
  5
9946
330
1E
100
AcDbEntity
  8
10
100
AcDbLine
 10
-52.49972879674442
 20
194.9815513960022
 30
0.0
 11
-52.49972879674442
 21
262.9812001232139
 31
0.0
  0
LINE
  5
9947
330
1E
100
AcDbEntity
  8
21
100
AcDbLine
 10
-24.99987085559256
 20
262.9812001232139
 30
0.0
 11
-24.99987085559256
 21
290.4810580643658
 31
0.0
  0
LINE
  5
9948
330
1E
100
AcDbEntity
  8
21
100
AcDbLine
 10
-44.9997675400666
 20
262.9812001232139
 30
0.0
 11
-44.9997675400666
 21
290.4810580643658
 31
0.0
  0
LINE
  5
9949
330
1E
100
AcDbEntity
  8
12
100
AcDbLine
 10
-19.49989926736225
 20
262.9812001232139
 30
0.0
 11
-19.49989926736225
 21
270.9811587970035
 31
0.0
  0
LINE
  5
994A
330
1E
100
AcDbEntity
  8
12
100
AcDbLine
 10
-15.49991993046726
 20
262.9812001232139
 30
0.0
 11
-15.49991993046726
 21
270.9811587970035
 31
0.0
  0
LINE
  5
994B
330
1E
100
AcDbEntity
  8
21
100
AcDbLine
 10
-24.99987085559256
 20
290.4810580643658
 30
0.0
 11
-44.9997675400666
 21
290.4810580643658
 31
0.0
  0
LINE
  5
994C
330
1E
100
AcDbEntity
  8
21
100
AcDbLine
 10
-31.99983469515848
 20
296.9810244868198
 30
0.0
 11
-29.99984502671111
 21
296.9810244868198
 31
0.0
  0
LINE
  5
994D
330
1E
100
AcDbEntity
  8
21
100
AcDbLine
 10
-39.99979336894806
 20
296.9810244868198
 30
0.0
 11
-37.9998037005006
 21
296.9810244868198
 31
0.0
  0
LINE
  5
994E
330
1E
100
AcDbEntity
  8
21
100
AcDbLine
 10
-39.99979336894806
 20
290.4810580643658
 30
0.0
 11
-39.99979336894806
 21
296.9810244868198
 31
0.0
  0
LINE
  5
994F
330
1E
100
AcDbEntity
  8
21
100
AcDbLine
 10
-29.99984502671111
 20
290.4810580643658
 30
0.0
 11
-29.99984502671111
 21
296.9810244868198
 31
0.0
  0
LINE
  5
9950
330
1E
100
AcDbEntity
  8
12
100
AcDbLine
 10
-15.49991993046726
 20
270.9811587970035
 30
0.0
 11
-19.49989926736225
 21
270.9811587970035
 31
0.0
  0
LINE
  5
9951
330
1E
100
AcDbEntity
  8
12
100
AcDbLine
 10
19.49989926736225
 20
262.9812001232139
 30
0.0
 11
19.49989926736225
 21
270.9811587970035
 31
0.0
  0
LINE
  5
9952
330
1E
100
AcDbEntity
  8
21
100
AcDbLine
 10
44.99976754006673
 20
262.9812001232139
 30
0.0
 11
44.99976754006673
 21
290.4810580643658
 31
0.0
  0
LINE
  5
9953
330
1E
100
AcDbEntity
  8
21
100
AcDbLine
 10
24.99987085559268
 20
262.9812001232139
 30
0.0
 11
24.99987085559268
 21
290.4810580643658
 31
0.0
  0
LINE
  5
9954
330
1E
100
AcDbEntity
  8
12
100
AcDbLine
 10
15.49991993046726
 20
262.9812001232139
 30
0.0
 11
15.49991993046726
 21
270.9811587970035
 31
0.0
  0
LINE
  5
9955
330
1E
100
AcDbEntity
  8
12
100
AcDbLine
 10
19.49989926736225
 20
270.9811587970035
 30
0.0
 11
15.49991993046726
 21
270.9811587970035
 31
0.0
  0
LINE
  5
9956
330
1E
100
AcDbEntity
  8
21
100
AcDbLine
 10
44.99976754006673
 20
290.4810580643658
 30
0.0
 11
24.99987085559268
 21
290.4810580643658
 31
0.0
  0
LINE
  5
9957
330
1E
100
AcDbEntity
  8
21
100
AcDbLine
 10
29.99984502671111
 20
296.9810244868198
 30
0.0
 11
31.99983469515859
 21
296.9810244868198
 31
0.0
  0
LINE
  5
9958
330
1E
100
AcDbEntity
  8
21
100
AcDbLine
 10
29.99984502671111
 20
290.4810580643658
 30
0.0
 11
29.99984502671111
 21
296.9810244868198
 31
0.0
  0
LINE
  5
9959
330
1E
100
AcDbEntity
  8
21
100
AcDbLine
 10
37.99980370050071
 20
296.9810244868198
 30
0.0
 11
39.99979336894819
 21
296.9810244868198
 31
0.0
  0
LINE
  5
995A
330
1E
100
AcDbEntity
  8
21
100
AcDbLine
 10
39.99979336894819
 20
290.4810580643658
 30
0.0
 11
39.99979336894819
 21
296.9810244868198
 31
0.0
  0
LINE
  5
995B
330
1E
100
AcDbEntity
  8
10
100
AcDbLine
 10
10.99994317646064
 20
186.9815927222126
 30
0.0
 11
-10.99994317646076
 21
186.9815927222126
 31
0.0
  0
LINE
  5
995C
330
1E
100
AcDbEntity
  8
10
100
AcDbLine
 10
-6.999963839566021
 20
174.986400887415
 30
0.0
 11
6.999963839566021
 21
174.986400887415
 31
0.0
  0
LINE
  5
995D
330
1E
100
AcDbEntity
  8
10
100
AcDbLine
 10
-48.99974687696147
 20
190.9815720591074
 30
0.0
 11
-48.99974687696147
 21
194.9815513960022
 31
0.0
  0
LINE
  5
995E
330
1E
100
AcDbEntity
  8
10
100
AcDbLine
 10
-6.999963839566021
 20
186.9815927222126
 30
0.0
 11
-6.999963839566021
 21
174.986400887415
 31
0.0
  0
LINE
  5
995F
330
1E
100
AcDbEntity
  8
10
100
AcDbLine
 10
-10.99994317646076
 20
186.9815927222128
 30
0.0
 11
-10.99994317646076
 21
190.9815720591074
 31
0.0
  0
LINE
  5
9960
330
1E
100
AcDbEntity
  8
10
100
AcDbLine
 10
6.999963839566021
 20
186.9815927222126
 30
0.0
 11
6.999963839566021
 21
174.986400887415
 31
0.0
  0
LINE
  5
9961
330
1E
100
AcDbEntity
  8
10
100
AcDbLine
 10
10.99994317646064
 20
186.9815927222128
 30
0.0
 11
10.99994317646064
 21
190.9815720591074
 31
0.0
  0
LINE
  5
9965
330
1E
100
AcDbEntity
  8
10
100
AcDbLine
 10
87.49954799457396
 20
194.9815513960022
 30
0.0
 11
87.49954799457396
 21
262.9812001232139
 31
0.0
  0
LINE
  5
9966
330
1E
100
AcDbEntity
  8
18
100
AcDbLine
 10
107.4994446790479
 20
262.9812001232139
 30
0.0
 11
87.49954799457396
 21
262.9812001232139
 31
0.0
  0
LINE
  5
9968
330
1E
100
AcDbEntity
  8
10
100
AcDbLine
 10
48.99974687696135
 20
190.9815720591074
 30
0.0
 11
48.99974687696135
 21
194.9815513960022
 31
0.0
  0
LINE
  5
9C0A
330
1E
100
AcDbEntity
  8
10
100
AcDbLine
 10
272.786898488759
 20
82.49957382345536
 30
0.0
 11
272.786898488759
 21
-82.4995738234554
 31
0.0
  0
LINE
  5
9C0B
330
1E
100
AcDbEntity
  8
10
100
AcDbLine
 10
204.7872497615473
 20
50.99973654540878
 30
0.0
 11
204.7872497615473
 21
-50.99973654540878
 31
0.0
  0
LINE
  5
9C0C
330
1E
100
AcDbEntity
  8
18
100
AcDbLine
 10
275.9868819582748
 20
112.4994188501662
 30
0.0
 11
275.9868819582748
 21
-112.4994188501662
 31
0.0
  0
INSERT
  5
9C0D
330
1E
100
AcDbEntity
  8
0
100
AcDbBlockReference
  2
*U6
 10
-305.3381054619927
 20
-271.6604046649225
 30
0.0
 41
2.499987085559268
 42
2.49998708555924
 43
2.499987085559252
  0
DIMENSION
  5
9C10
330
1E
100
AcDbEntity
  8
30
100
AcDbDimension
  2
*D7
 10
272.786898488759
 20
-137.0755454950737
 30
0.0
 11
236.7870844567057
 21
-134.0755454950737
 31
0.0
 70
    32
 71
     5
 42
-1.0
  3
STANDARD
100
AcDbAlignedDimension
 13
200.7872704246524
 23
-24.99987085559253
 33
0.0
 14
272.786898488759
 24
-82.4995738234554
 34
0.0
 50
180.0
100
AcDbRotatedDimension
  0
DIMENSION
  5
9C11
330
1E
100
AcDbEntity
  8
30
100
AcDbDimension
  2
*D8
 10
200.7872704246524
 20
-137.0755454950737
 30
0.0
 11
207.1206037579857
 21
-134.0755454950737
 31
0.0
 70
    32
 71
     5
 42
-1.0
  3
STANDARD
100
AcDbAlignedDimension
 13
196.7872910877574
 23
-24.99987085559253
 33
0.0
 14
200.7872704246524
 24
-24.99987085559253
 34
0.0
 50
180.0
100
AcDbRotatedDimension
  0
DIMENSION
  5
9C12
330
1E
100
AcDbEntity
  8
30
100
AcDbDimension
  2
*D9
 10
272.786898488759
 20
-152.3998277705197
 30
0.0
 11
226.7871361144687
 21
-149.3998277705196
 31
0.0
 70
    32
 71
     5
 42
-1.0
  3
STANDARD
100
AcDbAlignedDimension
 13
180.7873737401784
 23
-2.499987102059208
 33
0.0
 14
272.786898488759
 24
-82.4995738234554
 34
0.0
 50
180.0
100
AcDbRotatedDimension
  0
LINE
  5
9C13
330
1E
100
AcDbEntity
  8
10
100
AcDbLine
 10
211.7872136011131
 20
-82.4995738234554
 30
0.0
 11
272.786898488759
 21
-82.4995738234554
 31
0.0
  0
DIMENSION
  5
9C14
330
1E
100
AcDbEntity
  8
30
100
AcDbDimension
  2
*D10
 10
272.786898488759
 20
-120.223539771964
 30
0.0
 11
238.7870741251532
 21
-117.223539771964
 31
0.0
 70
    32
 71
     5
 42
-1.0
  3
STANDARD
100
AcDbAlignedDimension
 13
204.7872497615473
 23
-50.99973654540878
 33
0.0
 14
272.786898488759
 24
-82.4995738234554
 34
0.0
 50
180.0
100
AcDbRotatedDimension
  0
DIMENSION
  5
9C15
330
1E
100
AcDbEntity
  8
30
100
AcDbDimension
  2
*D11
 10
272.786898488759
 20
-105.4084993202337
 30
0.0
 11
242.2870560449359
 21
-102.4084993202337
 31
0.0
 70
    32
 71
     5
 42
-1.0
  3
STANDARD
100
AcDbAlignedDimension
 13
211.7872136011131
 23
-82.4995738234554
 33
0.0
 14
272.786898488759
 24
-82.4995738234554
 34
0.0
 50
180.0
100
AcDbRotatedDimension
  0
LINE
  5
9C16
330
1E
100
AcDbEntity
  8
10
100
AcDbLine
 10
204.7872497615473
 20
-50.99973654540878
 30
0.0
 11
211.7872136011131
 21
-50.99973654540878
 31
0.0
  0
LINE
  5
9C17
330
1E
100
AcDbEntity
  8
10
100
AcDbLine
 10
211.7872136011131
 20
-50.99973654540878
 30
0.0
 11
211.7872136011131
 21
-82.4995738234554
 31
0.0
  0
LINE
  5
9C18
330
1E
100
AcDbEntity
  8
0
100
AcDbLine
 10
343.8309401445848
 20
-81.99957640634359
 30
0.0
 11
376.1068728338158
 21
-81.99957640634359
 31
0.0
  0
LINE
  5
9C19
330
1E
100
AcDbEntity
  8
0
100
AcDbLine
 10
343.8309401445848
 20
-61.99967972186954
 30
0.0
 11
376.1068728338158
 21
-61.99967972186954
 31
0.0
  0
LINE
  5
9C1A
330
1E
100
AcDbEntity
  8
0
100
AcDbLine
 10
267.7869243176404
 20
-71.99962806410656
 30
0.0
 11
389.2862966758203
 21
-71.99962806410656
 31
0.0
  0
DIMENSION
  5
9C1B
330
1E
100
AcDbEntity
  8
30
100
AcDbDimension
  2
*D12
 10
378.7863509164714
 20
-120.223539771964
 30
0.0
 11
325.7866247026151
 21
-117.223539771964
 31
0.0
 70
    32
 71
     5
 42
-1.0
  3
STANDARD
100
AcDbAlignedDimension
 13
272.786898488759
 23
-82.4995738234554
 33
0.0
 14
378.7863509164714
 24
-71.99962806410656
 34
0.0
 50
180.0
100
AcDbRotatedDimension
  0
DIMENSION
  5
9C1C
330
1E
100
AcDbEntity
  8
30
100
AcDbDimension
  2
*D13
 10
378.7863509164714
 20
-95.68587305869355
 30
0.0
 11
371.2863896597935
 21
-92.68587305869358
 31
0.0
 70
    32
 71
     5
 42
-1.0
  3
STANDARD
100
AcDbAlignedDimension
 13
363.7864284031159
 23
-74.49961516616571
 33
0.0
 14
378.7863509164714
 24
-82.30733891656379
 34
0.0
 50
180.0
100
AcDbRotatedDimension
  0
DIMENSION
  5
9C1D
330
1E
100
AcDbEntity
  8
30
100
AcDbDimension
  2
*D14
 10
343.7865317186417
 20
-105.4084993202337
 30
0.0
 11
308.2867151037003
 21
-102.4084993202337
 31
0.0
 70
    32
 71
     5
 42
-1.0
  3
STANDARD
100
AcDbAlignedDimension
 13
272.786898488759
 23
-82.4995738234554
 33
0.0
 14
343.7865317186417
 24
-71.99962806410656
 34
0.0
 50
180.0
100
AcDbRotatedDimension
  0
LINE
  5
9C1E
330
1E
100
AcDbEntity
  8
0
100
AcDbLine
 10
272.786898488759
 20
-61.99967972186954
 30
0.0
 11
341.1070536359864
 21
-61.99967972186954
 31
0.0
  0
LINE
  5
9C1F
330
1E
100
AcDbEntity
  8
0
100
AcDbLine
 10
272.786898488759
 20
-81.99957640634359
 30
0.0
 11
341.1070536359864
 21
-81.99957640634359
 31
0.0
  0
LINE
  5
9C21
330
1E
100
AcDbEntity
  8
0
100
AcDbLine
 10
272.786898488759
 20
-82.4995738234554
 30
0.0
 11
272.786898488759
 21
-112.4994188501662
 31
0.0
  0
LINE
  5
9C23
330
1E
100
AcDbEntity
  8
0
100
AcDbLine
 10
300.2867564299108
 20
-61.99967972186954
 30
0.0
 11
300.2867564299108
 21
-81.99957640634359
 31
0.0
  0
ARC
  5
9C24
330
1E
100
AcDbEntity
  8
0
100
AcDbCircle
 10
-326.1515395485738
 20
-71.99962806410656
 30
0.0
 40
19.99989668447403
210
0.0
220
0.0
230
-1.0
100
AcDbArc
 50
14.47751218593018
 51
30.00000000000095
  0
LINE
  5
9C25
330
1E
100
AcDbEntity
  8
0
100
AcDbLine
 10
300.2867564299108
 20
-66.99965389298808
 30
0.0
 11
306.7867228523648
 21
-66.99965389298808
 31
0.0
  0
LINE
  5
9C26
330
1E
100
AcDbEntity
  8
0
100
AcDbLine
 10
300.2867564299108
 20
-76.99960223522508
 30
0.0
 11
306.7867228523648
 21
-76.99960223522508
 31
0.0
  0
ARC
  5
9C27
330
1E
100
AcDbEntity
  8
0
100
AcDbCircle
 10
-326.1515395485738
 20
-71.99962806410656
 30
0.0
 40
19.99989668447403
210
0.0
220
0.0
230
-1.0
100
AcDbArc
 50
329.999999999999
 51
345.5224878140697
  0
LINE
  5
9C28
330
1E
100
AcDbEntity
  8
17
100
AcDbLine
 10
328.7866092052863
 20
-58.99969521919842
 30
0.0
 11
328.7866092052863
 21
-84.99956090901465
 31
0.0
  0
LINE
  5
9C29
330
1E
100
AcDbEntity
  8
17
100
AcDbLine
 10
363.7864284031159
 20
-58.99969521919842
 30
0.0
 11
363.7864284031159
 21
-84.99956090901465
 31
0.0
  0
DIMENSION
  5
9C2A
330
1E
100
AcDbEntity
  8
30
100
AcDbDimension
  2
*D15
 10
343.7865317186417
 20
-95.68587305869355
 30
0.0
 11
336.286570461964
 21
-92.68587305869358
 31
0.0
 70
    32
 71
     5
 42
-1.0
  3
STANDARD
100
AcDbAlignedDimension
 13
328.7866092052863
 23
-74.49961516616571
 33
0.0
 14
343.7865317186417
 24
-82.30733891656379
 34
0.0
 50
180.0
100
AcDbRotatedDimension
  0
ARC
  5
9C2B
330
1E
100
AcDbEntity
  8
0
100
AcDbCircle
 10
323.7866350341678
 20
-71.99962806410656
 30
0.0
 40
19.99989668447403
100
AcDbArc
 50
329.999999999999
 51
30.00000000000095
  0
ARC
  5
9C2C
330
1E
100
AcDbEntity
  8
0
100
AcDbCircle
 10
-361.1513587464035
 20
-71.99962806410656
 30
0.0
 40
19.99989668447403
210
0.0
220
0.0
230
-1.0
100
AcDbArc
 50
20.91309481829409
 51
30.00000000000095
  0
ARC
  5
9C2D
330
1E
100
AcDbEntity
  8
0
100
AcDbCircle
 10
-361.1513587464035
 20
-71.99962806410656
 30
0.0
 40
19.99989668447403
210
0.0
220
0.0
230
-1.0
100
AcDbArc
 50
329.999999999999
 51
339.0869051817058
  0
CIRCLE
  5
9C2E
330
1E
100
AcDbEntity
  8
0
100
AcDbCircle
 10
328.7866092052863
 20
-71.99962806410656
 30
0.0
 40
4.499976754006658
  0
CIRCLE
  5
9C2F
330
1E
100
AcDbEntity
  8
0
100
AcDbCircle
 10
363.7864284031159
 20
-71.99962806410656
 30
0.0
 40
4.499976754006658
  0
ARC
  5
9C34
330
1E
100
AcDbEntity
  8
0
100
AcDbCircle
 10
358.7864542319973
 20
-71.99962806410656
 30
0.0
 40
19.99989668447403
100
AcDbArc
 50
329.999999999999
 51
30.00000000000095
  0
LINE
  5
9C35
330
1E
100
AcDbEntity
  8
10
100
AcDbLine
 10
272.786898488759
 20
82.49957382345536
 30
0.0
 11
211.7872136011131
 21
82.49957382345536
 31
0.0
  0
LINE
  5
9C37
330
1E
100
AcDbEntity
  8
10
100
AcDbLine
 10
196.7872910877574
 20
24.99987085559252
 30
0.0
 11
196.7872910877574
 21
-24.99987085559256
 31
0.0
  0
LINE
  5
9C38
330
1E
100
AcDbEntity
  8
10
100
AcDbLine
 10
200.7872704246524
 20
24.99987085559252
 30
0.0
 11
200.7872704246524
 21
-24.99987085559256
 31
0.0
  0
LINE
  5
9C3B
330
1E
100
AcDbEntity
  8
10
100
AcDbLine
 10
196.7872910877574
 20
-24.99987085559256
 30
0.0
 11
204.7872497615473
 21
-24.99987085559256
 31
0.0
  0
ARC
  5
9C3C
330
1E
100
AcDbEntity
  8
30
100
AcDbCircle
 10
211.7872136011131
 20
0.0
 30
0.0
 40
30.99983986093475
100
AcDbArc
 50
150.5534441956585
 51
180.0
  0
LINE
  5
9C3E
330
1E
100
AcDbEntity
  8
10
100
AcDbLine
 10
196.7872910877574
 20
6.840753968873968
 30
0.0
 11
184.7920992529602
 21
15.23987771387089
 31
0.0
  0
LINE
  5
9C3F
330
1E
100
AcDbEntity
  8
10
100
AcDbLine
 10
196.7872910877574
 20
14.16536366395211
 30
0.0
 11
188.2335400932609
 21
20.15476459026751
 31
0.0
  0
LINE
  5
9C40
330
1E
100
AcDbEntity
  8
10
100
AcDbLine
 10
184.7920992529602
 20
15.23987771387089
 30
0.0
 11
188.2335400932609
 21
20.15476459026751
 31
0.0
  0
LINE
  5
9C41
330
1E
100
AcDbEntity
  8
10
100
AcDbLine
 10
196.7872910877574
 20
24.99987085559252
 30
0.0
 11
204.7872497615473
 21
24.99987085559252
 31
0.0
  0
LINE
  5
9C42
330
1E
100
AcDbEntity
  8
10
100
AcDbLine
 10
204.7872497615473
 20
50.99973654540878
 30
0.0
 11
211.7872136011131
 21
50.99973654540878
 31
0.0
  0
LINE
  5
9C43
330
1E
100
AcDbEntity
  8
10
100
AcDbLine
 10
211.7872136011131
 20
82.49957382345536
 30
0.0
 11
211.7872136011131
 21
50.99973654540878
 31
0.0
  0
LINE
  5
9C44
330
1E
100
AcDbEntity
  8
18
100
AcDbLine
 10
272.786898488759
 20
82.49957382345536
 30
0.0
 11
272.786898488759
 21
112.4994188501662
 31
0.0
  0
LINE
  5
9C47
330
1E
100
AcDbEntity
  8
0
100
AcDbLine
 10
341.7868984887589
 20
68.99964356143539
 30
0.0
 11
378.786898488759
 21
68.99964356143539
 31
0.0
  0
LINE
  5
9C48
330
1E
100
AcDbEntity
  8
0
100
AcDbLine
 10
341.7868984887589
 20
74.99961256677761
 30
0.0
 11
378.786898488759
 21
74.99961256677761
 31
0.0
  0
LINE
  5
9C49
330
1E
100
AcDbEntity
  8
0
100
AcDbLine
 10
267.7869243176405
 20
71.99962806410656
 30
0.0
 11
383.7868726598773
 21
71.99962806410656
 31
0.0
  0
LINE
  5
9C4B
330
1E
100
AcDbEntity
  8
0
100
AcDbLine
 10
272.786898488759
 20
81.99957640634357
 30
0.0
 11
335.286898488759
 21
81.99957640634357
 31
0.0
  0
LINE
  5
9C4C
330
1E
100
AcDbEntity
  8
0
100
AcDbLine
 10
272.786898488759
 20
61.99967972186954
 30
0.0
 11
335.286898488759
 21
61.99967972186954
 31
0.0
  0
LINE
  5
9C4D
330
1E
100
AcDbEntity
  8
0
100
AcDbLine
 10
306.7867228523648
 20
74.99961256677761
 30
0.0
 11
343.7865317186417
 21
74.99961256677761
 31
0.0
  0
LINE
  5
9C4E
330
1E
100
AcDbEntity
  8
0
100
AcDbLine
 10
306.7867228523648
 20
68.99964356143539
 30
0.0
 11
343.7865317186417
 21
68.99964356143539
 31
0.0
  0
LINE
  5
9C4F
330
1E
100
AcDbEntity
  8
0
100
AcDbLine
 10
300.2867564299108
 20
81.99957640634357
 30
0.0
 11
300.2867564299108
 21
61.99967972186954
 31
0.0
  0
LINE
  5
9C50
330
1E
100
AcDbEntity
  8
0
100
AcDbLine
 10
300.2867564299108
 20
66.99965389298802
 30
0.0
 11
306.7867228523648
 21
66.99965389298802
 31
0.0
  0
LINE
  5
9C51
330
1E
100
AcDbEntity
  8
0
100
AcDbLine
 10
306.7867228523648
 20
68.99964356143539
 30
0.0
 11
306.7867228523648
 21
66.99965389298802
 31
0.0
  0
LINE
  5
9C52
330
1E
100
AcDbEntity
  8
0
100
AcDbLine
 10
300.2867564299108
 20
76.99960223522507
 30
0.0
 11
306.7867228523648
 21
76.99960223522507
 31
0.0
  0
LINE
  5
9C53
330
1E
100
AcDbEntity
  8
0
100
AcDbLine
 10
306.7867228523648
 20
76.99960223522507
 30
0.0
 11
306.7867228523648
 21
74.99961256677761
 31
0.0
  0
LINE
  5
9C54
330
1E
100
AcDbEntity
  8
17
100
AcDbLine
 10
328.7866092052863
 20
84.99956090901461
 30
0.0
 11
328.7866092052863
 21
58.99969521919837
 31
0.0
  0
LINE
  5
9C55
330
1E
100
AcDbEntity
  8
17
100
AcDbLine
 10
363.786898488759
 20
84.99956090901461
 30
0.0
 11
363.786898488759
 21
58.99969521919837
 31
0.0
  0
LINE
  5
9C56
330
1E
100
AcDbEntity
  8
0
100
AcDbLine
 10
343.7865317186417
 20
68.99964356143539
 30
0.0
 11
343.7865317186417
 21
74.99961256677761
 31
0.0
  0
LINE
  5
9C57
330
1E
100
AcDbEntity
  8
0
100
AcDbLine
 10
335.286898488759
 20
66.99965389298802
 30
0.0
 11
341.786898488759
 21
66.99965389298802
 31
0.0
  0
LINE
  5
9C58
330
1E
100
AcDbEntity
  8
0
100
AcDbLine
 10
335.286898488759
 20
68.99964356143539
 30
0.0
 11
335.286898488759
 21
61.99967972186954
 31
0.0
  0
LINE
  5
9C59
330
1E
100
AcDbEntity
  8
0
100
AcDbLine
 10
341.786898488759
 20
68.99964356143539
 30
0.0
 11
341.786898488759
 21
66.99965389298802
 31
0.0
  0
LINE
  5
9C5A
330
1E
100
AcDbEntity
  8
0
100
AcDbLine
 10
335.286898488759
 20
76.99960223522507
 30
0.0
 11
341.786898488759
 21
76.99960223522507
 31
0.0
  0
LINE
  5
9C5B
330
1E
100
AcDbEntity
  8
0
100
AcDbLine
 10
335.286898488759
 20
81.99957640634357
 30
0.0
 11
335.286898488759
 21
74.99961256677761
 31
0.0
  0
LINE
  5
9C5C
330
1E
100
AcDbEntity
  8
0
100
AcDbLine
 10
341.786898488759
 20
76.99960223522507
 30
0.0
 11
341.786898488759
 21
74.99961256677761
 31
0.0
  0
LINE
  5
9C5D
330
1E
100
AcDbEntity
  8
0
100
AcDbLine
 10
378.786898488759
 20
68.99964356143539
 30
0.0
 11
378.786898488759
 21
74.99961256677761
 31
0.0
  0
DIMENSION
  5
9C5E
330
1E
100
AcDbEntity
  8
30
100
AcDbDimension
  2
*D16
 10
414.0331784124326
 20
74.99961256677761
 30
0.0
 11
411.0331784124325
 21
71.99962806410656
 31
0.0
 70
    32
 71
     5
 42
5.999969005342222
  3
STANDARD
100
AcDbAlignedDimension
 13
378.786898488759
 23
68.99964356143539
 33
0.0
 14
378.786898488759
 24
74.99961256677761
 34
0.0
 50
270.0
100
AcDbRotatedDimension
1001
ACAD
1000
DSTYLE
1002
{
1070
   340
1005
11
1002
}
  0
LINE
  5
9E14
330
1E
100
AcDbEntity
  8
18
 48
2.0
100
AcDbLine
 10
-52.4997287967443
 20
-152.5004261765444
 30
0.0
 11
-52.4997287967443
 21
-317.4995738234553
 31
0.0
  0
LINE
  5
9E15
330
1E
100
AcDbEntity
  8
18
 48
2.0
100
AcDbLine
 10
87.49954799457396
 20
-152.5004261765444
 30
0.0
 11
87.49954799457396
 21
-317.4995738234553
 31
0.0
  0
DIMENSION
  5
9E17
330
1E
100
AcDbEntity
  8
30
100
AcDbDimension
  2
*D17
 10
119.4963922793083
 20
-172.0003254439068
 30
0.0
 11
116.4963922793083
 21
-234.9999999999999
 31
0.0
 70
    32
 71
     5
 42
-1.0
  3
STANDARD
100
AcDbAlignedDimension
 13
19.99989670097397
 23
-297.9996745560931
 33
0.0
 14
19.99989670097397
 24
-172.0003254439065
 34
0.0
 50
270.0
100
AcDbRotatedDimension
  0
DIMENSION
  5
9E18
330
1E
100
AcDbEntity
  8
30
100
AcDbDimension
  2
*D18
 10
144.4962631349009
 20
-163.0003719358934
 30
0.0
 11
141.496263134901
 21
-235.0
 31
0.0
 70
    32
 71
     5
 42
-1.0
  3
STANDARD
100
AcDbAlignedDimension
 13
72.49962549771817
 23
-306.9996280641065
 33
0.0
 14
72.49962549771817
 24
-163.0003719358934
 34
0.0
 50
270.0
100
AcDbRotatedDimension
  0
LINE
  5
9E19
330
1E
100
AcDbEntity
  8
18
 48
2.0
100
AcDbLine
 10
-52.4997287967443
 20
-317.4995738234553
 30
0.0
 11
87.49954799457396
 21
-317.4995738234553
 31
0.0
  0
LINE
  5
9E1A
330
1E
100
AcDbEntity
  8
22
100
AcDbLine
 10
-51.99973137963239
 20
-306.9996280641065
 30
0.0
 11
86.99955057746207
 21
-306.9996280641065
 31
0.0
  0
CIRCLE
  5
9E1B
330
1E
100
AcDbEntity
  8
22
100
AcDbCircle
 10
-34.99981919782953
 20
-306.9996280641065
 30
0.0
 40
11.99993801068442
210
0.0
220
0.0
230
-1.0
  0
DIMENSION
  5
9E1D
330
1E
100
AcDbEntity
  8
30
100
AcDbDimension
  2
*D19
 10
34.99981919782953
 20
-350.2250062623431
 30
0.0
 11
17.49990959891476
 21
-347.2250062623432
 31
0.0
 70
    32
 71
     5
 42
-1.0
  3
STANDARD
100
AcDbAlignedDimension
 13
0.0
 23
-309.4996151661657
 33
0.0
 14
34.99981919782953
 24
-306.9996280641065
 34
0.0
 50
180.0
100
AcDbRotatedDimension
  0
DIMENSION
  5
9E1E
330
1E
100
AcDbEntity
  8
30
100
AcDbDimension
  2
*D20
 10
-0.0000000000000002
 20
-349.7250062623431
 30
0.0
 11
-17.49990959891476
 21
-346.7250062623431
 31
0.0
 70
    32
 71
     5
 42
-1.0
  3
STANDARD
100
AcDbAlignedDimension
 13
-34.99981919782953
 23
-309.4996151661657
 33
0.0
 14
0.0
 24
-346.9994214330546
 34
0.0
 50
180.0
100
AcDbRotatedDimension
  0
CIRCLE
  5
9E1F
330
1E
100
AcDbEntity
  8
22
100
AcDbCircle
 10
34.99981919782953
 20
-306.9996280641065
 30
0.0
 40
11.99993801068442
210
0.0
220
0.0
230
-1.0
  0
LINE
  5
9E20
330
1E
100
AcDbEntity
  8
22
100
AcDbLine
 10
-34.99981919782953
 20
-289.9997158823035
 30
0.0
 11
-34.99981919782953
 21
-323.9995402459094
 31
0.0
  0
DIMENSION
  5
9E21
330
1E
100
AcDbEntity
  8
30
100
AcDbDimension
  2
*D21
 10
17.49990959891488
 20
-330.6448422481143
 30
0.0
 11
0.0000000000001103
 21
-327.6448422481144
 31
0.0
 70
    32
 71
     5
 42
-1.0
  3
STANDARD
100
AcDbAlignedDimension
 13
-17.49990959891464
 23
-300.4996616581523
 33
0.0
 14
17.49990959891488
 24
-300.4996616581523
 34
0.0
 50
180.0
100
AcDbRotatedDimension
  0
CIRCLE
  5
9E22
330
1E
100
AcDbEntity
  8
22
100
AcDbCircle
 10
0.0
 20
-306.9996280641065
 30
0.0
 40
11.99993801068442
210
0.0
220
0.0
230
-1.0
  0
LINE
  5
9E23
330
1E
100
AcDbEntity
  8
12
100
AcDbLine
 10
-17.49990959891476
 20
-303.4996461443236
 30
0.0
 11
-17.49990959891476
 21
-292.4997029678626
 31
0.0
  0
CIRCLE
  5
9E24
330
1E
100
AcDbEntity
  8
12
100
AcDbCircle
 10
17.49990959891476
 20
-297.9996745560931
 30
0.0
 40
1.999989668447403
210
0.0
220
0.0
230
-1.0
  0
LINE
  5
9E25
330
1E
100
AcDbEntity
  8
12
100
AcDbLine
 10
-22.99988118714507
 20
-297.9996745560931
 30
0.0
 11
-11.99993801068444
 21
-297.9996745560931
 31
0.0
  0
LINE
  5
9E26
330
1E
100
AcDbEntity
  8
12
100
AcDbLine
 10
17.49990959891488
 20
-303.4996461443236
 30
0.0
 11
17.49990959891488
 21
-292.4997029678626
 31
0.0
  0
CIRCLE
  5
9E27
330
1E
100
AcDbEntity
  8
12
100
AcDbCircle
 10
17.49990959891488
 20
-297.9996745560931
 30
0.0
 40
1.999989668447403
  0
LINE
  5
9E28
330
1E
100
AcDbEntity
  8
12
100
AcDbLine
 10
11.99993801068444
 20
-297.9996745560931
 30
0.0
 11
22.99988118714531
 21
-297.9996745560931
 31
0.0
  0
DIMENSION
  5
9E2A
330
1E
100
AcDbEntity
  8
30
100
AcDbDimension
  2
*D22
 10
69.99963839565907
 20
-350.7250062623431
 30
0.0
 11
52.4997287967443
 21
-347.7250062623431
 31
0.0
 70
    32
 71
     5
 42
-1.0
  3
STANDARD
100
AcDbAlignedDimension
 13
34.99981919782953
 23
-309.4996151661657
 33
0.0
 14
69.99963839565907
 24
-309.4996151661657
 34
0.0
 50
180.0
100
AcDbRotatedDimension
  0
CIRCLE
  5
9E2C
330
1E
100
AcDbEntity
  8
22
100
AcDbCircle
 10
-69.99963839565928
 20
-306.9996280641065
 30
0.0
 40
11.99993801068442
210
0.0
220
0.0
230
-1.0
  0
LINE
  5
9E2D
330
1E
100
AcDbEntity
  8
22
100
AcDbLine
 10
34.99981919782953
 20
-289.9997158823035
 30
0.0
 11
34.99981919782953
 21
-323.9995402459094
 31
0.0
  0
LINE
  5
9E2E
330
1E
100
AcDbEntity
  8
22
100
AcDbLine
 10
69.99963839565928
 20
-289.9997158823035
 30
0.0
 11
69.99963839565928
 21
-323.9995402459094
 31
0.0
  0
LINE
  5
9E32
330
1E
100
AcDbEntity
  8
18
 48
2.0
100
AcDbLine
 10
87.49954799457396
 20
-152.5004261765444
 30
0.0
 11
-52.4997287967443
 21
-152.5004261765444
 31
0.0
  0
LINE
  5
9E33
330
1E
100
AcDbEntity
  8
22
100
AcDbLine
 10
-51.99973137963239
 20
-163.0003719358934
 30
0.0
 11
86.99955057746207
 21
-163.0003719358934
 31
0.0
  0
CIRCLE
  5
9E34
330
1E
100
AcDbEntity
  8
22
100
AcDbCircle
 10
34.99981919782953
 20
-163.0003719358934
 30
0.0
 40
11.99993801068442
  0
CIRCLE
  5
9E36
330
1E
100
AcDbEntity
  8
22
100
AcDbCircle
 10
-34.99981919782953
 20
-163.0003719358934
 30
0.0
 40
11.99993801068442
  0
LINE
  5
9E37
330
1E
100
AcDbEntity
  8
22
100
AcDbLine
 10
-34.99981919782953
 20
-146.0004597540905
 30
0.0
 11
-34.99981919782953
 21
-180.0002841176964
 31
0.0
  0
CIRCLE
  5
9E38
330
1E
100
AcDbEntity
  8
22
100
AcDbCircle
 10
0.0
 20
-163.0003719358934
 30
0.0
 40
11.99993801068442
  0
LINE
  5
9E39
330
1E
100
AcDbEntity
  8
12
100
AcDbLine
 10
-22.99988118714507
 20
-172.0003254439065
 30
0.0
 11
-11.99993801068444
 21
-172.0003254439065
 31
0.0
  0
LINE
  5
9E3A
330
1E
100
AcDbEntity
  8
12
100
AcDbLine
 10
-17.49990959891476
 20
-166.5003538556764
 30
0.0
 11
-17.49990959891476
 21
-177.5002970321369
 31
0.0
  0
CIRCLE
  5
9E3B
330
1E
100
AcDbEntity
  8
12
100
AcDbCircle
 10
-17.49990959891476
 20
-172.0003254439065
 30
0.0
 40
1.999989668447403
  0
LINE
  5
9E3C
330
1E
100
AcDbEntity
  8
12
100
AcDbLine
 10
11.99993801068444
 20
-172.0003254439065
 30
0.0
 11
22.99988118714531
 21
-172.0003254439065
 31
0.0
  0
LINE
  5
9E3D
330
1E
100
AcDbEntity
  8
12
100
AcDbLine
 10
17.49990959891488
 20
-166.5003538556764
 30
0.0
 11
17.49990959891488
 21
-177.5002970321369
 31
0.0
  0
CIRCLE
  5
9E3E
330
1E
100
AcDbEntity
  8
12
100
AcDbCircle
 10
-17.49990959891488
 20
-172.0003254439065
 30
0.0
 40
1.999989668447403
210
0.0
220
0.0
230
-1.0
  0
CIRCLE
  5
9E42
330
1E
100
AcDbEntity
  8
22
100
AcDbCircle
 10
69.99963839565928
 20
-163.0003719358934
 30
0.0
 40
11.99993801068442
  0
LINE
  5
9E43
330
1E
100
AcDbEntity
  8
22
100
AcDbLine
 10
34.99981919782953
 20
-146.0004597540905
 30
0.0
 11
34.99981919782953
 21
-180.0002841176964
 31
0.0
  0
LINE
  5
9E44
330
1E
100
AcDbEntity
  8
22
100
AcDbLine
 10
69.99963839565928
 20
-146.0004597540905
 30
0.0
 11
69.99963839565928
 21
-180.0002841176964
 31
0.0
  0
DIMENSION
  5
9EEE
330
1E
100
AcDbEntity
  8
30
100
AcDbDimension
  2
*D23
 10
-65.33335521408208
 20
-24.99987085559256
 30
0.0
 11
-68.33335521408208
 21
-0.0000000000000347
 31
0.0
 70
    32
 71
     5
 42
-1.0
  3
STANDARD
100
AcDbAlignedDimension
 13
-48.99974687696135
 23
24.99987085559252
 33
0.0
 14
-48.99974687696135
 24
-24.99987085559256
 34
0.0
 50
90.0
100
AcDbRotatedDimension
  0
LEADER
  5
9F70
330
1E
100
AcDbEntity
  8
30
100
AcDbLeader
  3
STANDARD
 76
     3
 10
-38.13200454139678
 20
-313.9567880945508
 30
0.0
 10
-43.5799719983911
 20
-325.238401394519
 30
0.0
 10
-63.24580129463493
 20
-325.238401394519
 30
0.0
1001
ACAD
1000
DSTYLE
1002
{
1070
     5
1000
OPEN
1070
    77
1070
     0
1070
    79
1070
     3
1070
   147
1040
1.0
1070
   342
1005
3B2
1002
}
  0
TEXT
  5
9F71
330
1E
100
AcDbEntity
  8
30
100
AcDbText
 10
-58.99372724998238
 20
-324.176602227147
 30
0.0
 40
5.0
  1
%%c24
  7
STANDARD1
100
AcDbText
  0
DIMENSION
  5
A006
330
1E
100
AcDbEntity
  8
30
100
AcDbDimension
  2
*D24
 10
328.78660920529
 20
-45.54888516066738
 30
0.0
 11
317.7866660288291
 21
-42.54888516066738
 31
0.0
 70
    32
 71
     5
 42
-1.0
  3
STANDARD
100
AcDbAlignedDimension
 13
306.7867228523683
 23
-61.99967972186954
 33
0.0
 14
328.78660920529
 24
-67.49965131009992
 34
0.0
100
AcDbRotatedDimension
  0
DIMENSION
  5
A013
330
1E
100
AcDbEntity
  8
30
100
AcDbDimension
  2
*D25
 10
425.7555246093359
 20
-71.99962806410768
 30
0.0
 11
422.755524609336
 21
-0.000000000001461
 31
0.0
 70
    32
 71
     5
 42
-1.0
  3
STANDARD
100
AcDbAlignedDimension
 13
402.2407529037673
 23
71.99962806410463
 33
0.0
 14
402.2407529037673
 24
-71.99962806410765
 34
0.0
 50
90.0
100
AcDbRotatedDimension
  0
DIMENSION
  5
A029
330
1E
100
AcDbEntity
  8
30
100
AcDbDimension
  2
*D26
 10
409.4712429321806
 20
-81.99957640634357
 30
0.0
 11
406.4712429321806
 21
-71.99962806410636
 31
0.0
 70
    32
 71
     5
 42
-1.0
  3
STANDARD
100
AcDbAlignedDimension
 13
376.1068728338158
 23
-61.99967972186928
 33
0.0
 14
376.1068728338158
 24
-81.99957640634357
 34
0.0
 50
90.0
100
AcDbRotatedDimension
  0
DIMENSION
  5
A0C7
330
1E
100
AcDbEntity
  8
30
100
AcDbDimension
  2
*D27
 10
0.0000000000000575
 20
379.8746696354486
 30
0.0
 11
-17.49990959891479
 21
382.8746696354486
 31
0.0
 70
    32
 71
     5
 42
34.9998191978297
  3
STANDARD
100
AcDbAlignedDimension
 13
-34.99981919782964
 23
337.4808152728799
 33
0.0
 14
0.0000000000000568
 24
368.9812001232139
 34
0.0
100
AcDbRotatedDimension
  0
DIMENSION
  5
A0D4
330
1E
100
AcDbEntity
  8
30
100
AcDbDimension
  2
*D28
 10
34.99981919782964
 20
379.8746696354486
 30
0.0
 11
17.49990959891485
 21
382.8746696354486
 31
0.0
 70
    32
 71
     5
 42
34.99981919782959
  3
STANDARD
100
AcDbAlignedDimension
 13
0.0000000000000568
 23
368.9812001232139
 33
0.0
 14
34.99981919782964
 24
337.4808152728799
 34
0.0
100
AcDbRotatedDimension
1001
ACAD
1000
DSTYLE
1002
{
1070
   287
1070
     4
1070
   287
1070
     4
1070
   279
1070
     1
1002
}
  0
DIMENSION
  5
A0E1
330
1E
100
AcDbEntity
  8
30
100
AcDbDimension
  2
*D29
 10
69.99963839565919
 20
379.8746696354486
 30
0.0
 11
52.49972879674442
 21
382.8746696354486
 31
0.0
 70
    32
 71
     5
 42
34.99981919782955
  3
STANDARD
100
AcDbAlignedDimension
 13
34.99981919782964
 23
337.4808152728799
 33
0.0
 14
69.99963839565919
 24
368.9812001232139
 34
0.0
100
AcDbRotatedDimension
1001
ACAD
1000
DSTYLE
1002
{
1070
   287
1070
     4
1070
   287
1070
     4
1070
   279
1070
     1
1002
}
  0
CIRCLE
  5
A1A4
330
1E
100
AcDbEntity
  8
10
  6
CONTINOUS
100
AcDbCircle
 10
26.19999999999996
 20
5.800000000000013
 30
0.0
 40
3.0
  0
LINE
  5
A1A5
330
1E
100
AcDbEntity
  8
10
  6
CONTINOUS
100
AcDbLine
 10
22.69999999999996
 20
-15.5
 30
0.0
 11
30.69999999999996
 21
-15.5
 31
0.0
  0
LINE
  5
A1A6
330
1E
100
AcDbEntity
  8
10
  6
CONTINOUS
100
AcDbLine
 10
22.69999999999996
 20
-10.5
 30
0.0
 11
30.69999999999996
 21
-10.5
 31
0.0
  0
LINE
  5
A1A7
330
1E
100
AcDbEntity
  8
10
  6
CONTINOUS
100
AcDbLine
 10
22.69999999999996
 20
-12.5
 30
0.0
 11
30.69999999999996
 21
-12.5
 31
0.0
  0
LINE
  5
A1A8
330
1E
100
AcDbEntity
  8
10
  6
CONTINOUS
100
AcDbLine
 10
22.69999999999996
 20
-7.5
 30
0.0
 11
30.69999999999996
 21
-7.5
 31
0.0
  0
LINE
  5
A1A9
330
1E
100
AcDbEntity
  8
10
  6
CONTINOUS
100
AcDbLine
 10
22.69999999999996
 20
-10.5
 30
0.0
 11
22.69999999999996
 21
-7.5
 31
0.0
  0
LINE
  5
A1AA
330
1E
100
AcDbEntity
  8
10
  6
CONTINOUS
100
AcDbLine
 10
22.69999999999996
 20
-15.5
 30
0.0
 11
22.69999999999996
 21
-12.5
 31
0.0
  0
LINE
  5
A1AB
330
1E
100
AcDbEntity
  8
10
  6
CONTINOUS
100
AcDbLine
 10
30.69999999999996
 20
-10.5
 30
0.0
 11
30.69999999999996
 21
-7.5
 31
0.0
  0
LINE
  5
A1AC
330
1E
100
AcDbEntity
  8
10
  6
CONTINOUS
100
AcDbLine
 10
30.69999999999996
 20
-15.5
 30
0.0
 11
30.69999999999996
 21
-12.5
 31
0.0
  0
CIRCLE
  5
A1AD
330
1E
100
AcDbEntity
  8
10
  6
CONTINOUS
100
AcDbCircle
 10
26.19999999999996
 20
-1.900000000000004
 30
0.0
 40
2.6
  0
CIRCLE
  5
A1AE
330
1E
100
AcDbEntity
  8
10
  6
CONTINOUS
100
AcDbCircle
 10
26.19999999999996
 20
-1.900000000000004
 30
0.0
 40
3.6
  0
MTEXT
  5
A254
330
1E
100
AcDbEntity
  8
30
100
AcDbMText
 10
203.6296797625391
 20
272.8813806210709
 30
0.0
 40
5.0
 41
141.4708
 71
     1
 72
     5
  1
ZS225-NF 4P RC\PZS225-GF 4P RC\PZS250-NF 4P RC\PZS250-GF 4P RC
  7
STANDARD1
 73
     1
 44
1.0
1001
ACAD
1000
MTEXTBEGIN
1070
    73
1070
     1
1070
    44
1040
1.0
1070
    74
1070
     0
1000
MTEXTEND
  0
VIEWPORT
  5
9AC
102
{ACAD_XDICTIONARY
360
A307
102
}
330
1A
100
AcDbEntity
 67
     1
  8
0
  6
Continuous
100
AcDbViewport
 10
171.9995348790992
 20
144.1384735538403
 30
0.0
 40
488.8676857773511
 41
292.3514905034161
 68
     1
 69
     1
 12
171.9995348790992
 22
144.1384735538403
 13
0.0
 23
0.0
 14
10.0
 24
10.0
 15
10.0
 25
10.0
 16
0.0
 26
0.0
 36
1.0
 17
0.0
 27
0.0
 37
0.0
 42
50.0
 43
0.0
 44
0.0
 45
292.3514905034161
 50
0.0
 51
0.0
 72
   100
 90
    32800
  1

281
     0
 71
     1
 74
     0
110
0.0
120
0.0
130
0.0
111
1.0
121
0.0
131
0.0
112
0.0
122
1.0
132
0.0
 79
     0
146
0.0
  0
ENDSEC
  0
SECTION
  2
OBJECTS
  0
DICTIONARY
  5
C
330
0
100
AcDbDictionary
281
     1
  3
ACAD_COLOR
350
A28B
  3
ACAD_GROUP
350
D
  3
ACAD_LAYOUT
350
19
  3
ACAD_MATERIAL
350
A25E
  3
ACAD_MLEADERSTYLE
350
A2B0
  3
ACAD_MLINESTYLE
350
16
  3
ACAD_PLOTSETTINGS
350
18
  3
ACAD_PLOTSTYLENAME
350
E
  3
ACAD_SCALELIST
350
A28E
  3
ACAD_TABLESTYLE
350
A28C
  3
ACAD_VISUALSTYLE
350
A277
  3
ACADDIM
350
92CE
  3
ACDB_RECOMPOSE_DATA
350
A305
  3
ACDBVARIABLEDICTIONARY
350
5B5E
  3
ASE_INDEX_DICTIONARY
350
A2FA
  3
DWGPROPS
350
A306
  0
DICTIONARY
  5
A2E1
330
10
100
AcDbDictionary
280
     1
281
     1
  3
ADSK_XREC_LAYER_RECONCILED
360
A2E2
  0
DICTIONARY
  5
A2E3
330
2F
100
AcDbDictionary
280
     1
281
     1
  3
ADSK_XREC_LAYER_RECONCILED
360
A2E4
  0
DICTIONARY
  5
A2E5
330
31
100
AcDbDictionary
280
     1
281
     1
  3
ADSK_XREC_LAYER_RECONCILED
360
A2E6
  0
DICTIONARY
  5
A2E7
330
35
100
AcDbDictionary
280
     1
281
     1
  3
ADSK_XREC_LAYER_RECONCILED
360
A2E8
  0
DICTIONARY
  5
A2E9
330
36
100
AcDbDictionary
280
     1
281
     1
  3
ADSK_XREC_LAYER_RECONCILED
360
A2EA
  0
DICTIONARY
  5
A2EB
330
3D
100
AcDbDictionary
280
     1
281
     1
  3
ADSK_XREC_LAYER_RECONCILED
360
A2EC
  0
DICTIONARY
  5
A2ED
330
3A2
100
AcDbDictionary
280
     1
281
     1
  3
ADSK_XREC_LAYER_RECONCILED
360
A2EE
  0
DICTIONARY
  5
A2EF
330
3BBA
100
AcDbDictionary
280
     1
281
     1
  3
ADSK_XREC_LAYER_RECONCILED
360
A2F0
  0
DICTIONARY
  5
A2F1
330
3BBB
100
AcDbDictionary
280
     1
281
     1
  3
ADSK_XREC_LAYER_RECONCILED
360
A2F2
  0
DICTIONARY
  5
A2F3
330
40E3
100
AcDbDictionary
280
     1
281
     1
  3
ADSK_XREC_LAYER_RECONCILED
360
A2F4
  0
DICTIONARY
  5
A2F5
330
9496
100
AcDbDictionary
280
     1
281
     1
  3
ADSK_XREC_LAYER_RECONCILED
360
A2F6
  0
DICTIONARY
  5
A2F7
330
98BC
100
AcDbDictionary
280
     1
281
     1
  3
ADSK_XREC_LAYER_RECONCILED
360
A2F8
  0
DICTIONARY
  5
178
330
1E
100
AcDbDictionary
280
     1
281
     1
  3
ACAD_LAYOUTSELFREF
360
A225
  0
DICTIONARY
  5
17A
330
1A
100
AcDbDictionary
280
     1
281
     1
  3
ACAD_LAYOUTSELFREF
360
A224
  0
DICTIONARY
  5
A307
330
9AC
100
AcDbDictionary
280
     1
281
     1
  3
ACAD_XREC_ROUNDTRIP
360
A308
  0
DICTIONARY
  5
A28B
102
{ACAD_REACTORS
330
C
102
}
330
C
100
AcDbDictionary
281
     1
  0
DICTIONARY
  5
D
102
{ACAD_REACTORS
330
C
102
}
330
C
100
AcDbDictionary
281
     1
  0
DICTIONARY
  5
19
102
{ACAD_REACTORS
330
C
102
}
330
C
100
AcDbDictionary
281
     1
  3
Model
350
A251
  3
ﾚｲｱｳﾄ1
350
A252
  0
DICTIONARY
  5
A25E
102
{ACAD_REACTORS
330
C
102
}
330
C
100
AcDbDictionary
281
     1
  3
ByBlock
350
A267
  3
ByLayer
350
A25F
  3
Global
350
A26F
  0
DICTIONARY
  5
A2B0
102
{ACAD_REACTORS
330
C
102
}
330
C
100
AcDbDictionary
281
     1
  3
Standard
350
A2B1
  0
DICTIONARY
  5
16
102
{ACAD_REACTORS
330
C
102
}
330
C
100
AcDbDictionary
281
     1
  3
STANDARD
350
17
  0
DICTIONARY
  5
18
102
{ACAD_REACTORS
330
C
102
}
330
C
100
AcDbDictionary
281
     1
  0
ACDBDICTIONARYWDFLT
  5
E
102
{ACAD_REACTORS
330
C
102
}
330
C
100
AcDbDictionary
281
     1
  3
Normal
350
F
100
AcDbDictionaryWithDefault
340
F
  0
DICTIONARY
  5
A28E
102
{ACAD_REACTORS
330
C
102
}
330
C
100
AcDbDictionary
281
     1
  3
A0
350
A28F
  3
A1
350
A290
  3
A2
350
A291
  3
A3
350
A292
  3
A4
350
A293
  3
A5
350
A294
  3
A6
350
A295
  3
A7
350
A296
  3
A8
350
A297
  3
A9
350
A298
  3
B0
350
A299
  3
B1
350
A29A
  3
B2
350
A29B
  3
B3
350
A29C
  3
B4
350
A29D
  3
B5
350
A29E
  3
B6
350
A29F
  3
B7
350
A2A0
  3
B8
350
A2A1
  3
B9
350
A2A2
  3
C0
350
A2A3
  3
C1
350
A2A4
  3
C2
350
A2A5
  3
C3
350
A2A6
  3
C4
350
A2A7
  3
C5
350
A2A8
  3
C6
350
A2A9
  3
C7
350
A2AA
  3
C8
350
A2AB
  3
C9
350
A2AC
  3
D0
350
A2AD
  3
D1
350
A2AE
  3
D2
350
A2AF
  0
DICTIONARY
  5
A28C
102
{ACAD_REACTORS
330
C
102
}
330
C
100
AcDbDictionary
281
     1
  3
Standard
350
A28D
  0
DICTIONARY
  5
A277
102
{ACAD_REACTORS
330
C
102
}
330
C
100
AcDbDictionary
281
     1
  3
2dWireframe
350
A27D
  3
3D Hidden
350
A27F
  3
3dWireframe
350
A27E
  3
Basic
350
A27C
  3
Brighten
350
A283
  3
ColorChange
350
A287
  3
Conceptual
350
A280
  3
Dim
350
A282
  3
EdgeColorOff
350
A28A
  3
Facepattern
350
A286
  3
Flat
350
A278
  3
FlatWithEdges
350
A279
  3
Gouraud
350
A27A
  3
GouraudWithEdges
350
A27B
  3
JitterOff
350
A288
  3
Linepattern
350
A285
  3
OverhangOff
350
A289
  3
Realistic
350
A281
  3
Thicken
350
A284
  0
XRECORD
  5
92CE
102
{ACAD_REACTORS
330
C
102
}
330
C
100
AcDbXrecord
280
     1
 90
   990106
  3

 60
     0
 61
     0
 62
     1
 63
     3
 64
     0
 65
     0
 66
     0
 67
     3
 68
     1
 69
     0
 70
     0
 71
     0
 72
     0
 40
0.0
170
     0
  0
XRECORD
  5
A305
102
{ACAD_REACTORS
330
C
102
}
330
C
100
AcDbXrecord
280
     1
 90
        1
330
A28D
  0
DICTIONARY
  5
5B5E
102
{ACAD_REACTORS
330
C
102
}
330
C
100
AcDbDictionary
281
     1
  3
CANNOSCALE
350
A2FF
  3
CMLEADERSTYLE
350
A2FE
  3
CTABLESTYLE
350
A2FD
  3
DIMASSOC
350
5B5F
  3
INDEXCTL
350
A301
  3
SORTENTS
350
A300
  3
XCLIPFRAME
350
A302
  0
DICTIONARY
  5
A2FA
102
{ACAD_REACTORS
330
C
102
}
330
C
100
AcDbDictionary
281
     1
  3
ASEBlockHierarchyIndexRecord
350
A2FC
1001
DCO15
1040
1846670910.053
  0
XRECORD
  5
A306
102
{ACAD_REACTORS
330
C
102
}
330
C
100
AcDbXrecord
280
     1
  1
DWGPROPS COOKIE
  2

  3

  4

  6

  7

  8
CAD-PC
  9

300
=
301
=
302
=
303
=
304
=
305
=
306
=
307
=
308
=
309
=
 40
1.463198472222222
 41
2452286.555658658
 42
2457176.717755243
  1

 90
        0
  0
XRECORD
  5
A2E2
102
{ACAD_REACTORS
330
A2E1
102
}
330
A2E1
100
AcDbXrecord
280
     1
290
     1
  0
XRECORD
  5
A2E4
102
{ACAD_REACTORS
330
A2E3
102
}
330
A2E3
100
AcDbXrecord
280
     1
290
     1
  0
XRECORD
  5
A2E6
102
{ACAD_REACTORS
330
A2E5
102
}
330
A2E5
100
AcDbXrecord
280
     1
290
     1
  0
XRECORD
  5
A2E8
102
{ACAD_REACTORS
330
A2E7
102
}
330
A2E7
100
AcDbXrecord
280
     1
290
     1
  0
XRECORD
  5
A2EA
102
{ACAD_REACTORS
330
A2E9
102
}
330
A2E9
100
AcDbXrecord
280
     1
290
     1
  0
XRECORD
  5
A2EC
102
{ACAD_REACTORS
330
A2EB
102
}
330
A2EB
100
AcDbXrecord
280
     1
290
     1
  0
XRECORD
  5
A2EE
102
{ACAD_REACTORS
330
A2ED
102
}
330
A2ED
100
AcDbXrecord
280
     1
290
     1
  0
XRECORD
  5
A2F0
102
{ACAD_REACTORS
330
A2EF
102
}
330
A2EF
100
AcDbXrecord
280
     1
290
     1
  0
XRECORD
  5
A2F2
102
{ACAD_REACTORS
330
A2F1
102
}
330
A2F1
100
AcDbXrecord
280
     1
290
     1
  0
XRECORD
  5
A2F4
102
{ACAD_REACTORS
330
A2F3
102
}
330
A2F3
100
AcDbXrecord
280
     1
290
     1
  0
XRECORD
  5
A2F6
102
{ACAD_REACTORS
330
A2F5
102
}
330
A2F5
100
AcDbXrecord
280
     1
290
     1
  0
XRECORD
  5
A2F8
102
{ACAD_REACTORS
330
A2F7
102
}
330
A2F7
100
AcDbXrecord
280
     1
290
     1
  0
XRECORD
  5
A225
102
{ACAD_REACTORS
330
178
102
}
330
178
100
AcDbXrecord
280
     1
340
1E
  0
XRECORD
  5
A224
102
{ACAD_REACTORS
330
17A
102
}
330
17A
100
AcDbXrecord
280
     1
340
1A
  0
XRECORD
  5
A308
102
{ACAD_REACTORS
330
A307
102
}
330
A307
100
AcDbXrecord
280
     1
102
SHADEPLOT
 70
     0
  0
LAYOUT
  5
A251
102
{ACAD_XDICTIONARY
360
A309
102
}
102
{ACAD_REACTORS
330
19
102
}
330
19
100
AcDbPlotSettings
  1

  2
Canon LBP3800 LIPSLX
  4

  6

 40
0.0
 41
0.0
 42
0.0
 43
0.0
 44
0.0
 45
0.0
 46
0.0
 47
0.0
 48
0.0
 49
0.0
140
0.0
141
0.0
142
1.0
143
1.0
 70
  1712
 72
     0
 73
     0
 74
     0
  7
monochrome.ctb
 75
     0
147
1.0
148
0.0
149
0.0
100
AcDbLayout
  1
Model
 70
     1
 71
     0
 10
0.0
 20
0.0
 11
12.0
 21
9.0
 12
0.0
 22
0.0
 32
0.0
 14
0.0
 24
0.0
 34
0.0
 15
0.0
 25
0.0
 35
0.0
146
0.0
 13
0.0
 23
0.0
 33
0.0
 16
1.0
 26
0.0
 36
0.0
 17
0.0
 27
1.0
 37
0.0
 76
     0
330
1E
331
A256
  0
LAYOUT
  5
A252
102
{ACAD_XDICTIONARY
360
A30B
102
}
102
{ACAD_REACTORS
330
19
102
}
330
19
100
AcDbPlotSettings
  1

  2
Canon LBP3800 LIPSLX
  4

  6

 40
0.0
 41
0.0
 42
0.0
 43
0.0
 44
0.0
 45
0.0
 46
0.0
 47
0.0
 48
0.0
 49
0.0
140
0.0
141
0.0
142
1.0
143
1.0
 70
   688
 72
     0
 73
     0
 74
     5
  7
monochrome.ctb
 75
    16
147
1.0
148
0.0
149
0.0
100
AcDbLayout
  1
ﾚｲｱｳﾄ1
 70
     1
 71
     1
 10
-5.873748779296875
 20
-5.873749732971191
 11
204.0995788574218
 21
291.1369009017943
 12
0.0
 22
0.0
 32
0.0
 14
4.273573370203961
 24
5.205246163471485
 34
0.0
 15
194.6100952986349
 25
283.0697008572913
 35
0.0
146
0.0
 13
0.0
 23
0.0
 33
0.0
 16
1.0
 26
0.0
 36
0.0
 17
0.0
 27
1.0
 37
0.0
 76
     0
330
1A
331
9AC
  0
MATERIAL
  5
A267
102
{ACAD_XDICTIONARY
360
A268
102
}
102
{ACAD_REACTORS
330
A25E
102
}
330
A25E
100
AcDbMaterial
  1
ByBlock
 72
     0
 43
0.0208333333333333
 43
0.0
 43
0.0
 43
0.0
 43
0.0
 43
0.0208333333333333
 43
0.0
 43
0.0
 43
0.0
 43
0.0
 43
1.0
 43
0.0
 43
0.0
 43
0.0
 43
0.0
 43
1.0
 77
     0
 47
0.0208333333333333
 47
0.0
 47
0.0
 47
0.0
 47
0.0
 47
0.0208333333333333
 47
0.0
 47
0.0
 47
0.0
 47
0.0
 47
1.0
 47
0.0
 47
0.0
 47
0.0
 47
0.0
 47
1.0
171
     0
 49
0.0208333333333333
 49
0.0
 49
0.0
 49
0.0
 49
0.0
 49
0.0208333333333333
 49
0.0
 49
0.0
 49
0.0
 49
0.0
 49
1.0
 49
0.0
 49
0.0
 49
0.0
 49
0.0
 49
1.0
175
     0
142
0.0208333333333333
142
0.0
142
0.0
142
0.0
142
0.0
142
0.0208333333333333
142
0.0
142
0.0
142
0.0
142
0.0
142
1.0
142
0.0
142
0.0
142
0.0
142
0.0
142
1.0
179
     0
144
0.0208333333333333
144
0.0
144
0.0
144
0.0
144
0.0
144
0.0208333333333333
144
0.0
144
0.0
144
0.0
144
0.0
144
1.0
144
0.0
144
0.0
144
0.0
144
0.0
144
1.0
147
0.0208333333333333
147
0.0
147
0.0
147
0.0
147
0.0
147
0.0208333333333333
147
0.0
147
0.0
147
0.0
147
0.0
147
1.0
147
0.0
147
0.0
147
0.0
147
0.0
147
1.0
  0
MATERIAL
  5
A25F
102
{ACAD_XDICTIONARY
360
A260
102
}
102
{ACAD_REACTORS
330
A25E
102
}
330
A25E
100
AcDbMaterial
  1
ByLayer
 72
     0
 43
0.0208333333333333
 43
0.0
 43
0.0
 43
0.0
 43
0.0
 43
0.0208333333333333
 43
0.0
 43
0.0
 43
0.0
 43
0.0
 43
1.0
 43
0.0
 43
0.0
 43
0.0
 43
0.0
 43
1.0
 77
     0
 47
0.0208333333333333
 47
0.0
 47
0.0
 47
0.0
 47
0.0
 47
0.0208333333333333
 47
0.0
 47
0.0
 47
0.0
 47
0.0
 47
1.0
 47
0.0
 47
0.0
 47
0.0
 47
0.0
 47
1.0
171
     0
 49
0.0208333333333333
 49
0.0
 49
0.0
 49
0.0
 49
0.0
 49
0.0208333333333333
 49
0.0
 49
0.0
 49
0.0
 49
0.0
 49
1.0
 49
0.0
 49
0.0
 49
0.0
 49
0.0
 49
1.0
175
     0
142
0.0208333333333333
142
0.0
142
0.0
142
0.0
142
0.0
142
0.0208333333333333
142
0.0
142
0.0
142
0.0
142
0.0
142
1.0
142
0.0
142
0.0
142
0.0
142
0.0
142
1.0
179
     0
144
0.0208333333333333
144
0.0
144
0.0
144
0.0
144
0.0
144
0.0208333333333333
144
0.0
144
0.0
144
0.0
144
0.0
144
1.0
144
0.0
144
0.0
144
0.0
144
0.0
144
1.0
147
0.0208333333333333
147
0.0
147
0.0
147
0.0
147
0.0
147
0.0208333333333333
147
0.0
147
0.0
147
0.0
147
0.0
147
1.0
147
0.0
147
0.0
147
0.0
147
0.0
147
1.0
  0
MATERIAL
  5
A26F
102
{ACAD_XDICTIONARY
360
A270
102
}
102
{ACAD_REACTORS
330
A25E
102
}
330
A25E
100
AcDbMaterial
  1
Global
 72
     0
 43
0.0208333333333333
 43
0.0
 43
0.0
 43
0.0
 43
0.0
 43
0.0208333333333333
 43
0.0
 43
0.0
 43
0.0
 43
0.0
 43
1.0
 43
0.0
 43
0.0
 43
0.0
 43
0.0
 43
1.0
 77
     0
 47
0.0208333333333333
 47
0.0
 47
0.0
 47
0.0
 47
0.0
 47
0.0208333333333333
 47
0.0
 47
0.0
 47
0.0
 47
0.0
 47
1.0
 47
0.0
 47
0.0
 47
0.0
 47
0.0
 47
1.0
171
     0
 49
0.0208333333333333
 49
0.0
 49
0.0
 49
0.0
 49
0.0
 49
0.0208333333333333
 49
0.0
 49
0.0
 49
0.0
 49
0.0
 49
1.0
 49
0.0
 49
0.0
 49
0.0
 49
0.0
 49
1.0
175
     0
142
0.0208333333333333
142
0.0
142
0.0
142
0.0
142
0.0
142
0.0208333333333333
142
0.0
142
0.0
142
0.0
142
0.0
142
1.0
142
0.0
142
0.0
142
0.0
142
0.0
142
1.0
179
     0
144
0.0208333333333333
144
0.0
144
0.0
144
0.0
144
0.0
144
0.0208333333333333
144
0.0
144
0.0
144
0.0
144
0.0
144
1.0
144
0.0
144
0.0
144
0.0
144
0.0
144
1.0
147
0.0208333333333333
147
0.0
147
0.0
147
0.0
147
0.0
147
0.0208333333333333
147
0.0
147
0.0
147
0.0
147
0.0
147
1.0
147
0.0
147
0.0
147
0.0
147
0.0
147
1.0
  0
MLEADERSTYLE
  5
A2B1
102
{ACAD_REACTORS
330
A2B0
102
}
330
A2B0
100
AcDbMLeaderStyle
170
     2
171
     1
172
     0
 90
        2
 40
0.0
 41
0.0
173
     1
 91
-1056964608
340
13
 92
       -2
290
     1
 42
0.09
291
     1
 43
0.36
  3
Standard
 44
0.18
300

342
11
174
     1
178
     6
175
     1
176
     0
 93
-1056964608
 45
0.18
292
     0
297
     0
 46
0.18
 94
-1056964608
 47
1.0
 49
1.0
140
1.0
293
     1
141
0.0
294
     1
177
     0
142
1.0
295
     0
296
     0
143
0.125
1001
ACAD_MLEADERVER
1070
     2
  0
MLINESTYLE
  5
17
102
{ACAD_REACTORS
330
16
102
}
330
16
100
AcDbMlineStyle
  2
STANDARD
 70
     0
  3

 62
   256
 51
90.0
 52
90.0
 71
     2
 49
0.5
 62
   256
  6
BYLAYER
 49
-0.5
 62
   256
  6
BYLAYER
  0
ACDBPLACEHOLDER
  5
F
102
{ACAD_REACTORS
330
E
102
}
330
E
  0
SCALE
  5
A28F
102
{ACAD_REACTORS
330
A28E
102
}
330
A28E
100
AcDbScale
 70
     0
300
1:1
140
1.0
141
1.0
290
     1
  0
SCALE
  5
A290
102
{ACAD_REACTORS
330
A28E
102
}
330
A28E
100
AcDbScale
 70
     0
300
1:2
140
1.0
141
2.0
290
     0
  0
SCALE
  5
A291
102
{ACAD_REACTORS
330
A28E
102
}
330
A28E
100
AcDbScale
 70
     0
300
1:4
140
1.0
141
4.0
290
     0
  0
SCALE
  5
A292
102
{ACAD_REACTORS
330
A28E
102
}
330
A28E
100
AcDbScale
 70
     0
300
1:5
140
1.0
141
5.0
290
     0
  0
SCALE
  5
A293
102
{ACAD_REACTORS
330
A28E
102
}
330
A28E
100
AcDbScale
 70
     0
300
1:8
140
1.0
141
8.0
290
     0
  0
SCALE
  5
A294
102
{ACAD_REACTORS
330
A28E
102
}
330
A28E
100
AcDbScale
 70
     0
300
1:10
140
1.0
141
10.0
290
     0
  0
SCALE
  5
A295
102
{ACAD_REACTORS
330
A28E
102
}
330
A28E
100
AcDbScale
 70
     0
300
1:16
140
1.0
141
16.0
290
     0
  0
SCALE
  5
A296
102
{ACAD_REACTORS
330
A28E
102
}
330
A28E
100
AcDbScale
 70
     0
300
1:20
140
1.0
141
20.0
290
     0
  0
SCALE
  5
A297
102
{ACAD_REACTORS
330
A28E
102
}
330
A28E
100
AcDbScale
 70
     0
300
1:30
140
1.0
141
30.0
290
     0
  0
SCALE
  5
A298
102
{ACAD_REACTORS
330
A28E
102
}
330
A28E
100
AcDbScale
 70
     0
300
1:40
140
1.0
141
40.0
290
     0
  0
SCALE
  5
A299
102
{ACAD_REACTORS
330
A28E
102
}
330
A28E
100
AcDbScale
 70
     0
300
1:50
140
1.0
141
50.0
290
     0
  0
SCALE
  5
A29A
102
{ACAD_REACTORS
330
A28E
102
}
330
A28E
100
AcDbScale
 70
     0
300
1:100
140
1.0
141
100.0
290
     0
  0
SCALE
  5
A29B
102
{ACAD_REACTORS
330
A28E
102
}
330
A28E
100
AcDbScale
 70
     0
300
2:1
140
2.0
141
1.0
290
     0
  0
SCALE
  5
A29C
102
{ACAD_REACTORS
330
A28E
102
}
330
A28E
100
AcDbScale
 70
     0
300
4:1
140
4.0
141
1.0
290
     0
  0
SCALE
  5
A29D
102
{ACAD_REACTORS
330
A28E
102
}
330
A28E
100
AcDbScale
 70
     0
300
8:1
140
8.0
141
1.0
290
     0
  0
SCALE
  5
A29E
102
{ACAD_REACTORS
330
A28E
102
}
330
A28E
100
AcDbScale
 70
     0
300
10:1
140
10.0
141
1.0
290
     0
  0
SCALE
  5
A29F
102
{ACAD_REACTORS
330
A28E
102
}
330
A28E
100
AcDbScale
 70
     0
300
100:1
140
100.0
141
1.0
290
     0
  0
SCALE
  5
A2A0
102
{ACAD_REACTORS
330
A28E
102
}
330
A28E
100
AcDbScale
 70
     0
300
1/128" = 1'-0"
140
0.0078125
141
12.0
290
     0
  0
SCALE
  5
A2A1
102
{ACAD_REACTORS
330
A28E
102
}
330
A28E
100
AcDbScale
 70
     0
300
1/64" = 1'-0"
140
0.015625
141
12.0
290
     0
  0
SCALE
  5
A2A2
102
{ACAD_REACTORS
330
A28E
102
}
330
A28E
100
AcDbScale
 70
     0
300
1/32" = 1'-0"
140
0.03125
141
12.0
290
     0
  0
SCALE
  5
A2A3
102
{ACAD_REACTORS
330
A28E
102
}
330
A28E
100
AcDbScale
 70
     0
300
1/16" = 1'-0"
140
0.0625
141
12.0
290
     0
  0
SCALE
  5
A2A4
102
{ACAD_REACTORS
330
A28E
102
}
330
A28E
100
AcDbScale
 70
     0
300
3/32" = 1'-0"
140
0.09375
141
12.0
290
     0
  0
SCALE
  5
A2A5
102
{ACAD_REACTORS
330
A28E
102
}
330
A28E
100
AcDbScale
 70
     0
300
1/8" = 1'-0"
140
0.125
141
12.0
290
     0
  0
SCALE
  5
A2A6
102
{ACAD_REACTORS
330
A28E
102
}
330
A28E
100
AcDbScale
 70
     0
300
3/16" = 1'-0"
140
0.1875
141
12.0
290
     0
  0
SCALE
  5
A2A7
102
{ACAD_REACTORS
330
A28E
102
}
330
A28E
100
AcDbScale
 70
     0
300
1/4" = 1'-0"
140
0.25
141
12.0
290
     0
  0
SCALE
  5
A2A8
102
{ACAD_REACTORS
330
A28E
102
}
330
A28E
100
AcDbScale
 70
     0
300
3/8" = 1'-0"
140
0.375
141
12.0
290
     0
  0
SCALE
  5
A2A9
102
{ACAD_REACTORS
330
A28E
102
}
330
A28E
100
AcDbScale
 70
     0
300
1/2" = 1'-0"
140
0.5
141
12.0
290
     0
  0
SCALE
  5
A2AA
102
{ACAD_REACTORS
330
A28E
102
}
330
A28E
100
AcDbScale
 70
     0
300
3/4" = 1'-0"
140
0.75
141
12.0
290
     0
  0
SCALE
  5
A2AB
102
{ACAD_REACTORS
330
A28E
102
}
330
A28E
100
AcDbScale
 70
     0
300
1" = 1'-0"
140
1.0
141
12.0
290
     0
  0
SCALE
  5
A2AC
102
{ACAD_REACTORS
330
A28E
102
}
330
A28E
100
AcDbScale
 70
     0
300
1-1/2" = 1'-0"
140
1.5
141
12.0
290
     0
  0
SCALE
  5
A2AD
102
{ACAD_REACTORS
330
A28E
102
}
330
A28E
100
AcDbScale
 70
     0
300
3" = 1'-0"
140
3.0
141
12.0
290
     0
  0
SCALE
  5
A2AE
102
{ACAD_REACTORS
330
A28E
102
}
330
A28E
100
AcDbScale
 70
     0
300
6" = 1'-0"
140
6.0
141
12.0
290
     0
  0
SCALE
  5
A2AF
102
{ACAD_REACTORS
330
A28E
102
}
330
A28E
100
AcDbScale
 70
     0
300
1'-0" = 1'-0"
140
12.0
141
12.0
290
     0
  0
TABLESTYLE
  5
A28D
102
{ACAD_XDICTIONARY
360
A303
102
}
102
{ACAD_REACTORS
330
A28C
102
}
330
A28C
100
AcDbTableStyle
  3
Standard
 70
     0
 71
     0
 40
0.06
 41
0.06
280
     0
281
     0
  7
STANDARD
140
0.18
170
     2
 62
     0
 63
     7
283
     0
274
    -2
284
     1
 64
     0
275
    -2
285
     1
 65
     0
276
    -2
286
     1
 66
     0
277
    -2
287
     1
 67
     0
278
    -2
288
     1
 68
     0
279
    -2
289
     1
 69
     0
  7
STANDARD
140
0.25
170
     5
 62
     0
 63
     7
283
     0
274
    -2
284
     1
 64
     0
275
    -2
285
     1
 65
     0
276
    -2
286
     1
 66
     0
277
    -2
287
     1
 67
     0
278
    -2
288
     1
 68
     0
279
    -2
289
     1
 69
     0
  7
STANDARD
140
0.18
170
     5
 62
     0
 63
     7
283
     0
274
    -2
284
     1
 64
     0
275
    -2
285
     1
 65
     0
276
    -2
286
     1
 66
     0
277
    -2
287
     1
 67
     0
278
    -2
288
     1
 68
     0
279
    -2
289
     1
 69
     0
  0
VISUALSTYLE
  5
A27D
102
{ACAD_XDICTIONARY
360
A31A
102
}
102
{ACAD_REACTORS
330
A277
102
}
330
A277
100
AcDbVisualStyle
  2
2dWireframe
 70
     4
 71
     0
 72
     2
 73
     0
 90
        0
 40
-0.6
 41
-30.0
 62
     5
 63
     7
 74
     1
 91
        4
 64
     7
 65
   257
 75
     1
175
     1
 42
1.0
 92
        0
 66
   257
 43
1.0
 76
     1
 77
     6
 78
     2
 67
     7
 79
     5
170
     0
171
     0
290
     0
174
     0
 93
        1
 44
0.0
173
     0
291
     0
 45
0.0
1001
ACAD
1000
AcDbSavedByObjectVersion
1070
     0
  0
VISUALSTYLE
  5
A27F
102
{ACAD_XDICTIONARY
360
A31E
102
}
102
{ACAD_REACTORS
330
A277
102
}
330
A277
100
AcDbVisualStyle
  2
3D Hidden
 70
     6
 71
     1
 72
     2
 73
     2
 90
        0
 40
-0.6
 41
-30.0
 62
     5
 63
     7
 74
     2
 91
        2
 64
     7
 65
   257
 75
     2
175
     1
 42
179.0
 92
        0
 66
   257
 43
1.0
 76
     1
 77
     6
 78
     2
 67
     7
 79
     3
170
     0
171
     0
290
     0
174
     0
 93
        1
 44
0.0
173
     0
291
     0
 45
0.0
1001
ACAD
1000
AcDbSavedByObjectVersion
1070
     0
  0
VISUALSTYLE
  5
A27E
102
{ACAD_XDICTIONARY
360
A31C
102
}
102
{ACAD_REACTORS
330
A277
102
}
330
A277
100
AcDbVisualStyle
  2
3dWireframe
 70
     5
 71
     0
 72
     2
 73
     0
 90
        0
 40
-0.6
 41
-30.0
 62
     5
 63
     7
 74
     1
 91
        4
 64
     7
 65
   257
 75
     1
175
     1
 42
1.0
 92
        0
 66
   257
 43
1.0
 76
     1
 77
     6
 78
     2
 67
     7
 79
     5
170
     0
171
     0
290
     0
174
     0
 93
        1
 44
0.0
173
     0
291
     0
 45
0.0
1001
ACAD
1000
AcDbSavedByObjectVersion
1070
     0
  0
VISUALSTYLE
  5
A27C
102
{ACAD_XDICTIONARY
360
A318
102
}
102
{ACAD_REACTORS
330
A277
102
}
330
A277
100
AcDbVisualStyle
  2
Basic
 70
     7
 71
     1
 72
     0
 73
     1
 90
        0
 40
-0.6
 41
-30.0
 62
     5
 63
     7
 74
     0
 91
        4
 64
     7
 65
   257
 75
     1
175
     1
 42
1.0
 92
        8
 66
     7
 43
1.0
 76
     1
 77
     6
 78
     2
 67
     7
 79
     5
170
     0
171
     0
290
     0
174
     0
 93
        1
 44
0.0
173
     0
291
     1
 45
0.0
1001
ACAD
1000
AcDbSavedByObjectVersion
1070
     0
  0
VISUALSTYLE
  5
A283
102
{ACAD_XDICTIONARY
360
A326
102
}
102
{ACAD_REACTORS
330
A277
102
}
330
A277
100
AcDbVisualStyle
  2
Brighten
 70
    12
 71
     2
 72
     2
 73
     0
 90
        0
 40
-0.6
 41
-30.0
 62
     5
 63
     7
 74
     1
 91
        4
 64
     7
 65
   257
 75
     1
175
     1
 42
1.0
 92
        8
 66
     7
 43
1.0
 76
     1
 77
     6
 78
     2
 67
     7
 79
     5
170
     0
171
     0
290
     0
174
     0
 93
        1
 44
50.0
173
     0
291
     1
 45
0.0
1001
ACAD
1000
AcDbSavedByObjectVersion
1070
     0
  0
VISUALSTYLE
  5
A287
102
{ACAD_XDICTIONARY
360
A32E
102
}
102
{ACAD_REACTORS
330
A277
102
}
330
A277
100
AcDbVisualStyle
  2
ColorChange
 70
    16
 71
     2
 72
     2
 73
     3
 90
        0
 40
-0.6
 41
-30.0
 62
     5
 63
     8
 74
     1
 91
        4
 64
     7
 65
   257
 75
     1
175
     1
 42
1.0
 92
        8
 66
     8
 43
1.0
 76
     1
 77
     6
 78
     2
 67
     7
 79
     5
170
     0
171
     0
290
     0
174
     0
 93
        1
 44
0.0
173
     0
291
     1
 45
0.0
1001
ACAD
1000
AcDbSavedByObjectVersion
1070
     0
  0
VISUALSTYLE
  5
A280
102
{ACAD_XDICTIONARY
360
A320
102
}
102
{ACAD_REACTORS
330
A277
102
}
330
A277
100
AcDbVisualStyle
  2
Conceptual
 70
     9
 71
     3
 72
     2
 73
     0
 90
        0
 40
-0.6
 41
-30.0
 62
     5
 63
     7
 74
     2
 91
        2
 64
     7
 65
   257
 75
     1
175
     1
 42
179.0
 92
        8
 66
     7
 43
1.0
 76
     1
 77
     6
 78
     2
 67
     7
 79
     3
170
     0
171
     0
290
     0
174
     0
 93
        1
 44
0.0
173
     0
291
     0
 45
0.0
1001
ACAD
1000
AcDbSavedByObjectVersion
1070
     0
  0
VISUALSTYLE
  5
A282
102
{ACAD_XDICTIONARY
360
A324
102
}
102
{ACAD_REACTORS
330
A277
102
}
330
A277
100
AcDbVisualStyle
  2
Dim
 70
    11
 71
     2
 72
     2
 73
     0
 90
        0
 40
-0.6
 41
-30.0
 62
     5
 63
     7
 74
     1
 91
        4
 64
     7
 65
   257
 75
     1
175
     1
 42
1.0
 92
        8
 66
     7
 43
1.0
 76
     1
 77
     6
 78
     2
 67
     7
 79
     5
170
     0
171
     0
290
     0
174
     0
 93
        1
 44
-50.0
173
     0
291
     1
 45
0.0
1001
ACAD
1000
AcDbSavedByObjectVersion
1070
     0
  0
VISUALSTYLE
  5
A28A
102
{ACAD_XDICTIONARY
360
A334
102
}
102
{ACAD_REACTORS
330
A277
102
}
330
A277
100
AcDbVisualStyle
  2
EdgeColorOff
 70
    22
 71
     2
 72
     2
 73
     0
 90
        0
 40
-0.6
 41
-30.0
 62
     5
 63
     7
 74
     1
 91
        4
 64
     7
 65
   257
 75
     1
175
     1
 42
1.0
 92
        8
 66
     7
 43
1.0
 76
     1
 77
     6
 78
     2
 67
     7
 79
     5
170
     0
171
     0
290
     0
174
     0
 93
        1
 44
0.0
173
     0
291
     1
 45
0.0
1001
ACAD
1000
AcDbSavedByObjectVersion
1070
     0
  0
VISUALSTYLE
  5
A286
102
{ACAD_XDICTIONARY
360
A32C
102
}
102
{ACAD_REACTORS
330
A277
102
}
330
A277
100
AcDbVisualStyle
  2
Facepattern
 70
    15
 71
     2
 72
     2
 73
     0
 90
        0
 40
-0.6
 41
-30.0
 62
     5
 63
     7
 74
     1
 91
        4
 64
     7
 65
   257
 75
     1
175
     1
 42
1.0
 92
        8
 66
     7
 43
1.0
 76
     1
 77
     6
 78
     2
 67
     7
 79
     5
170
     0
171
     0
290
     0
174
     0
 93
        1
 44
0.0
173
     0
291
     1
 45
0.0
1001
ACAD
1000
AcDbSavedByObjectVersion
1070
     0
  0
VISUALSTYLE
  5
A278
102
{ACAD_XDICTIONARY
360
A310
102
}
102
{ACAD_REACTORS
330
A277
102
}
330
A277
100
AcDbVisualStyle
  2
Flat
 70
     0
 71
     2
 72
     1
 73
     1
 90
        2
 40
-0.6
 41
30.0
 62
     5
 63
     7
 74
     0
 91
        4
 64
     7
 65
   257
 75
     1
175
     1
 42
1.0
 92
        8
 66
     7
 43
1.0
 76
     1
 77
     6
 78
     2
 67
     7
 79
     5
170
     0
171
     0
290
     0
174
     0
 93
       13
 44
0.0
173
     0
291
     1
 45
0.0
1001
ACAD
1000
AcDbSavedByObjectVersion
1070
     0
  0
VISUALSTYLE
  5
A279
102
{ACAD_XDICTIONARY
360
A312
102
}
102
{ACAD_REACTORS
330
A277
102
}
330
A277
100
AcDbVisualStyle
  2
FlatWithEdges
 70
     1
 71
     2
 72
     1
 73
     1
 90
        2
 40
-0.6
 41
30.0
 62
     5
 63
     7
 74
     1
 91
        4
 64
     7
 65
   257
 75
     1
175
     1
 42
1.0
 92
        0
 66
   257
 43
1.0
 76
     1
 77
     6
 78
     2
 67
     7
 79
     5
170
     0
171
     0
290
     0
174
     0
 93
       13
 44
0.0
173
     0
291
     1
 45
0.0
1001
ACAD
1000
AcDbSavedByObjectVersion
1070
     0
  0
VISUALSTYLE
  5
A27A
102
{ACAD_XDICTIONARY
360
A314
102
}
102
{ACAD_REACTORS
330
A277
102
}
330
A277
100
AcDbVisualStyle
  2
Gouraud
 70
     2
 71
     2
 72
     2
 73
     1
 90
        2
 40
-0.6
 41
30.0
 62
     5
 63
     7
 74
     0
 91
        4
 64
     7
 65
   257
 75
     1
175
     1
 42
1.0
 92
        0
 66
     7
 43
1.0
 76
     1
 77
     6
 78
     2
 67
     7
 79
     5
170
     0
171
     0
290
     0
174
     0
 93
       13
 44
0.0
173
     0
291
     1
 45
0.0
1001
ACAD
1000
AcDbSavedByObjectVersion
1070
     0
  0
VISUALSTYLE
  5
A27B
102
{ACAD_XDICTIONARY
360
A316
102
}
102
{ACAD_REACTORS
330
A277
102
}
330
A277
100
AcDbVisualStyle
  2
GouraudWithEdges
 70
     3
 71
     2
 72
     2
 73
     1
 90
        2
 40
-0.6
 41
30.0
 62
     5
 63
     7
 74
     1
 91
        4
 64
     7
 65
   257
 75
     1
175
     1
 42
1.0
 92
        0
 66
   257
 43
1.0
 76
     1
 77
     6
 78
     2
 67
     7
 79
     5
170
     0
171
     0
290
     0
174
     0
 93
       13
 44
0.0
173
     0
291
     1
 45
0.0
1001
ACAD
1000
AcDbSavedByObjectVersion
1070
     0
  0
VISUALSTYLE
  5
A288
102
{ACAD_XDICTIONARY
360
A330
102
}
102
{ACAD_REACTORS
330
A277
102
}
330
A277
100
AcDbVisualStyle
  2
JitterOff
 70
    20
 71
     2
 72
     2
 73
     0
 90
        0
 40
-0.6
 41
-30.0
 62
     5
 63
     7
 74
     1
 91
        4
 64
     7
 65
   257
 75
     1
175
     1
 42
1.0
 92
       10
 66
     7
 43
1.0
 76
     1
 77
     6
 78
     2
 67
     7
 79
     5
170
     0
171
     0
290
     0
174
     0
 93
        1
 44
0.0
173
     0
291
     1
 45
0.0
1001
ACAD
1000
AcDbSavedByObjectVersion
1070
     0
  0
VISUALSTYLE
  5
A285
102
{ACAD_XDICTIONARY
360
A32A
102
}
102
{ACAD_REACTORS
330
A277
102
}
330
A277
100
AcDbVisualStyle
  2
Linepattern
 70
    14
 71
     2
 72
     2
 73
     0
 90
        0
 40
-0.6
 41
-30.0
 62
     5
 63
     7
 74
     1
 91
        4
 64
     7
 65
   257
 75
     7
175
     7
 42
1.0
 92
        8
 66
     7
 43
1.0
 76
     1
 77
     6
 78
     2
 67
     7
 79
     5
170
     0
171
     0
290
     0
174
     0
 93
        1
 44
0.0
173
     0
291
     1
 45
0.0
1001
ACAD
1000
AcDbSavedByObjectVersion
1070
     0
  0
VISUALSTYLE
  5
A289
102
{ACAD_XDICTIONARY
360
A332
102
}
102
{ACAD_REACTORS
330
A277
102
}
330
A277
100
AcDbVisualStyle
  2
OverhangOff
 70
    21
 71
     2
 72
     2
 73
     0
 90
        0
 40
-0.6
 41
-30.0
 62
     5
 63
     7
 74
     1
 91
        4
 64
     7
 65
   257
 75
     1
175
     1
 42
1.0
 92
        9
 66
     7
 43
1.0
 76
     1
 77
     6
 78
     2
 67
     7
 79
     5
170
     0
171
     0
290
     0
174
     0
 93
        1
 44
0.0
173
     0
291
     1
 45
0.0
1001
ACAD
1000
AcDbSavedByObjectVersion
1070
     0
  0
VISUALSTYLE
  5
A281
102
{ACAD_XDICTIONARY
360
A322
102
}
102
{ACAD_REACTORS
330
A277
102
}
330
A277
100
AcDbVisualStyle
  2
Realistic
 70
     8
 71
     2
 72
     2
 73
     0
 90
        0
 40
-0.6
 41
-30.0
 62
     5
 63
     7
 74
     1
 91
        0
 64
     7
 65
   257
 75
     1
175
     1
 42
1.0
 92
        8
 66
     8
 43
1.0
 76
     1
 77
     6
 78
     2
 67
     7
 79
     5
170
     0
171
     0
290
     0
174
     0
 93
       13
 44
0.0
173
     0
291
     0
 45
0.0
1001
ACAD
1000
AcDbSavedByObjectVersion
1070
     0
  0
VISUALSTYLE
  5
A284
102
{ACAD_XDICTIONARY
360
A328
102
}
102
{ACAD_REACTORS
330
A277
102
}
330
A277
100
AcDbVisualStyle
  2
Thicken
 70
    13
 71
     2
 72
     2
 73
     0
 90
        0
 40
-0.6
 41
-30.0
 62
     5
 63
     7
 74
     1
 91
        4
 64
     7
 65
   257
 75
     1
175
     1
 42
1.0
 92
       12
 66
     7
 43
1.0
 76
     1
 77
     6
 78
     2
 67
     7
 79
     5
170
     0
171
     0
290
     0
174
     0
 93
        1
 44
0.0
173
     0
291
     1
 45
0.0
1001
ACAD
1000
AcDbSavedByObjectVersion
1070
     0
  0
DICTIONARYVAR
  5
A2FF
102
{ACAD_REACTORS
330
5B5E
102
}
330
5B5E
100
DictionaryVariables
280
     0
  1
1:1
  0
DICTIONARYVAR
  5
A2FE
102
{ACAD_REACTORS
330
5B5E
102
}
330
5B5E
100
DictionaryVariables
280
     0
  1
STANDARD
  0
DICTIONARYVAR
  5
A2FD
102
{ACAD_REACTORS
330
5B5E
102
}
330
5B5E
100
DictionaryVariables
280
     0
  1
STANDARD
  0
DICTIONARYVAR
  5
5B5F
102
{ACAD_REACTORS
330
5B5E
102
}
330
5B5E
100
DictionaryVariables
280
     0
  1
1
  0
DICTIONARYVAR
  5
A301
102
{ACAD_REACTORS
330
5B5E
102
}
330
5B5E
100
DictionaryVariables
280
     0
  1
0
  0
DICTIONARYVAR
  5
A300
102
{ACAD_REACTORS
330
5B5E
102
}
330
5B5E
100
DictionaryVariables
280
     0
  1
127
  0
DICTIONARYVAR
  5
A302
102
{ACAD_REACTORS
330
5B5E
102
}
330
5B5E
100
DictionaryVariables
280
     0
  1
2
  0
XRECORD
  5
A2FC
102
{ACAD_REACTORS
330
A2FA
102
}
330
A2FA
100
AcDbXrecord
280
     1
330
9C0D
330
9F7E
330
9F7F
330
9EE8
330
9EE9
330
9F75
330
9F76
330
A229
330
A22A
330
A232
330
A233
330
A082
330
A083
330
A079
330
A07A
330
A094
330
A095
330
A066
330
A067
330
A054
330
A055
330
A05D
330
A05E
330
A039
330
A03A
330
A04B
330
A04C
330
A042
330
A043
330
A2B8
330
A2B9
330
9F3D
330
9F3E
330
9EFE
330
9EFF
330
9F61
330
9F62
330
9F58
330
9F59
330
9F46
330
9F47
330
9F6A
330
9F6B
330
9EF3
330
9EF4
330
A00B
330
A00C
330
A018
330
A019
330
A02E
330
A02F
330
A2C2
330
A2C3
330
A2CB
330
A2CC
330
A2D4
330
A2D5
  0
DICTIONARY
  5
A309
330
A251
100
AcDbDictionary
280
     1
281
     1
  3
ACAD_XREC_ROUNDTRIP
360
A30A
  0
DICTIONARY
  5
A30B
330
A252
100
AcDbDictionary
280
     1
281
     1
  3
ACAD_XREC_ROUNDTRIP
360
A30C
  0
DICTIONARY
  5
A268
330
A267
100
AcDbDictionary
280
     1
281
     1
  3
ACAD_XREC_ROUNDTRIP
360
A30E
  3
BUMPTILE
360
A26A
  3
DIFFUSETILE
360
A269
  3
OPACITYTILE
360
A26D
  3
REFLECTIONTILE
360
A26C
  3
REFRACTIONTILE
360
A26E
  3
SPECULARTILE
360
A26B
  0
DICTIONARY
  5
A260
330
A25F
100
AcDbDictionary
280
     1
281
     1
  3
ACAD_XREC_ROUNDTRIP
360
A30D
  3
BUMPTILE
360
A262
  3
DIFFUSETILE
360
A261
  3
OPACITYTILE
360
A265
  3
REFLECTIONTILE
360
A264
  3
REFRACTIONTILE
360
A266
  3
SPECULARTILE
360
A263
  0
DICTIONARY
  5
A270
330
A26F
100
AcDbDictionary
280
     1
281
     1
  3
ACAD_XREC_ROUNDTRIP
360
A30F
  3
BUMPTILE
360
A272
  3
DIFFUSETILE
360
A271
  3
OPACITYTILE
360
A275
  3
REFLECTIONTILE
360
A274
  3
REFRACTIONTILE
360
A276
  3
SPECULARTILE
360
A273
  0
DICTIONARY
  5
A303
330
A28D
100
AcDbDictionary
280
     1
281
     1
  3
ACAD_ROUNDTRIP_2008_TABLESTYLE_CELLSTYLEMAP
360
A304
  3
ACAD_XREC_ROUNDTRIP
360
A336
  0
DICTIONARY
  5
A31A
330
A27D
100
AcDbDictionary
280
     1
281
     1
  3
ACAD_XREC_ROUNDTRIP
360
A31B
  0
DICTIONARY
  5
A31E
330
A27F
100
AcDbDictionary
280
     1
281
     1
  3
ACAD_XREC_ROUNDTRIP
360
A31F
  0
DICTIONARY
  5
A31C
330
A27E
100
AcDbDictionary
280
     1
281
     1
  3
ACAD_XREC_ROUNDTRIP
360
A31D
  0
DICTIONARY
  5
A318
330
A27C
100
AcDbDictionary
280
     1
281
     1
  3
ACAD_XREC_ROUNDTRIP
360
A319
  0
DICTIONARY
  5
A326
330
A283
100
AcDbDictionary
280
     1
281
     1
  3
ACAD_XREC_ROUNDTRIP
360
A327
  0
DICTIONARY
  5
A32E
330
A287
100
AcDbDictionary
280
     1
281
     1
  3
ACAD_XREC_ROUNDTRIP
360
A32F
  0
DICTIONARY
  5
A320
330
A280
100
AcDbDictionary
280
     1
281
     1
  3
ACAD_XREC_ROUNDTRIP
360
A321
  0
DICTIONARY
  5
A324
330
A282
100
AcDbDictionary
280
     1
281
     1
  3
ACAD_XREC_ROUNDTRIP
360
A325
  0
DICTIONARY
  5
A334
330
A28A
100
AcDbDictionary
280
     1
281
     1
  3
ACAD_XREC_ROUNDTRIP
360
A335
  0
DICTIONARY
  5
A32C
330
A286
100
AcDbDictionary
280
     1
281
     1
  3
ACAD_XREC_ROUNDTRIP
360
A32D
  0
DICTIONARY
  5
A310
330
A278
100
AcDbDictionary
280
     1
281
     1
  3
ACAD_XREC_ROUNDTRIP
360
A311
  0
DICTIONARY
  5
A312
330
A279
100
AcDbDictionary
280
     1
281
     1
  3
ACAD_XREC_ROUNDTRIP
360
A313
  0
DICTIONARY
  5
A314
330
A27A
100
AcDbDictionary
280
     1
281
     1
  3
ACAD_XREC_ROUNDTRIP
360
A315
  0
DICTIONARY
  5
A316
330
A27B
100
AcDbDictionary
280
     1
281
     1
  3
ACAD_XREC_ROUNDTRIP
360
A317
  0
DICTIONARY
  5
A330
330
A288
100
AcDbDictionary
280
     1
281
     1
  3
ACAD_XREC_ROUNDTRIP
360
A331
  0
DICTIONARY
  5
A32A
330
A285
100
AcDbDictionary
280
     1
281
     1
  3
ACAD_XREC_ROUNDTRIP
360
A32B
  0
DICTIONARY
  5
A332
330
A289
100
AcDbDictionary
280
     1
281
     1
  3
ACAD_XREC_ROUNDTRIP
360
A333
  0
DICTIONARY
  5
A322
330
A281
100
AcDbDictionary
280
     1
281
     1
  3
ACAD_XREC_ROUNDTRIP
360
A323
  0
DICTIONARY
  5
A328
330
A284
100
AcDbDictionary
280
     1
281
     1
  3
ACAD_XREC_ROUNDTRIP
360
A329
  0
XRECORD
  5
A30A
102
{ACAD_REACTORS
330
A309
102
}
330
A309
100
AcDbXrecord
280
     1
102
SHADEPLOT
 70
     0
102
SHADEPLOTRESLEVEL
 70
     2
102
SHADEPLOTCUSTOMDPI
 70
   300
  0
XRECORD
  5
A30C
102
{ACAD_REACTORS
330
A30B
102
}
330
A30B
100
AcDbXrecord
280
     1
102
SHADEPLOT
 70
     0
102
SHADEPLOTRESLEVEL
 70
     2
102
SHADEPLOTCUSTOMDPI
 70
   300
  0
XRECORD
  5
A30E
102
{ACAD_REACTORS
330
A268
102
}
330
A268
100
AcDbXrecord
280
     1
102
MATERIAL
148
0.0
149
0.0
149
0.0
 93
        0
 94
      127
282
     0
 72
     0
 77
     0
171
     0
175
     0
179
     0
273
     0
  0
XRECORD
  5
A26A
102
{ACAD_REACTORS
330
A268
102
}
330
A268
100
AcDbXrecord
280
     1
270
     1
271
     1
  0
XRECORD
  5
A269
102
{ACAD_REACTORS
330
A268
102
}
330
A268
100
AcDbXrecord
280
     1
270
     1
271
     1
  0
XRECORD
  5
A26D
102
{ACAD_REACTORS
330
A268
102
}
330
A268
100
AcDbXrecord
280
     1
270
     1
271
     1
  0
XRECORD
  5
A26C
102
{ACAD_REACTORS
330
A268
102
}
330
A268
100
AcDbXrecord
280
     1
270
     1
271
     1
  0
XRECORD
  5
A26E
102
{ACAD_REACTORS
330
A268
102
}
330
A268
100
AcDbXrecord
280
     1
270
     1
271
     1
  0
XRECORD
  5
A26B
102
{ACAD_REACTORS
330
A268
102
}
330
A268
100
AcDbXrecord
280
     1
270
     1
271
     1
  0
XRECORD
  5
A30D
102
{ACAD_REACTORS
330
A260
102
}
330
A260
100
AcDbXrecord
280
     1
102
MATERIAL
148
0.0
149
0.0
149
0.0
 93
        0
 94
      127
282
     0
 72
     0
 77
     0
171
     0
175
     0
179
     0
273
     0
  0
XRECORD
  5
A262
102
{ACAD_REACTORS
330
A260
102
}
330
A260
100
AcDbXrecord
280
     1
270
     1
271
     1
  0
XRECORD
  5
A261
102
{ACAD_REACTORS
330
A260
102
}
330
A260
100
AcDbXrecord
280
     1
270
     1
271
     1
  0
XRECORD
  5
A265
102
{ACAD_REACTORS
330
A260
102
}
330
A260
100
AcDbXrecord
280
     1
270
     1
271
     1
  0
XRECORD
  5
A264
102
{ACAD_REACTORS
330
A260
102
}
330
A260
100
AcDbXrecord
280
     1
270
     1
271
     1
  0
XRECORD
  5
A266
102
{ACAD_REACTORS
330
A260
102
}
330
A260
100
AcDbXrecord
280
     1
270
     1
271
     1
  0
XRECORD
  5
A263
102
{ACAD_REACTORS
330
A260
102
}
330
A260
100
AcDbXrecord
280
     1
270
     1
271
     1
  0
XRECORD
  5
A30F
102
{ACAD_REACTORS
330
A270
102
}
330
A270
100
AcDbXrecord
280
     1
102
MATERIAL
148
0.0
149
0.0
149
0.0
 93
        0
 94
      127
282
     0
 72
     0
 77
     0
171
     0
175
     0
179
     0
273
     0
  0
XRECORD
  5
A272
102
{ACAD_REACTORS
330
A270
102
}
330
A270
100
AcDbXrecord
280
     1
270
     1
271
     1
  0
XRECORD
  5
A271
102
{ACAD_REACTORS
330
A270
102
}
330
A270
100
AcDbXrecord
280
     1
270
     1
271
     1
  0
XRECORD
  5
A275
102
{ACAD_REACTORS
330
A270
102
}
330
A270
100
AcDbXrecord
280
     1
270
     1
271
     1
  0
XRECORD
  5
A274
102
{ACAD_REACTORS
330
A270
102
}
330
A270
100
AcDbXrecord
280
     1
270
     1
271
     1
  0
XRECORD
  5
A276
102
{ACAD_REACTORS
330
A270
102
}
330
A270
100
AcDbXrecord
280
     1
270
     1
271
     1
  0
XRECORD
  5
A273
102
{ACAD_REACTORS
330
A270
102
}
330
A270
100
AcDbXrecord
280
     1
270
     1
271
     1
  0
CELLSTYLEMAP
  5
A304
102
{ACAD_REACTORS
330
A303
102
}
330
A303
100
AcDbCellStyleMap
 90
        3
300
CELLSTYLE
  1
TABLEFORMAT_BEGIN
 90
        5
170
     1
 91
        0
 92
    32768
 62
   257
 93
        1
300
CONTENTFORMAT
  1
CONTENTFORMAT_BEGIN
 90
        0
 91
        0
 92
      512
 93
        0
300

 40
0.0
140
1.0
 94
        5
 62
     0
340
11
144
0.25
309
CONTENTFORMAT_END
171
     0
 94
        0
309
TABLEFORMAT_END
  1
CELLSTYLE_BEGIN
 90
        1
 91
        1
300
_TITLE
309
CELLSTYLE_END
300
CELLSTYLE
  1
TABLEFORMAT_BEGIN
 90
        5
170
     1
 91
        0
 92
        0
 62
   257
 93
        1
300
CONTENTFORMAT
  1
CONTENTFORMAT_BEGIN
 90
        0
 91
        0
 92
      512
 93
        0
300

 40
0.0
140
1.0
 94
        5
 62
     0
340
11
144
0.18
309
CONTENTFORMAT_END
171
     0
 94
        0
309
TABLEFORMAT_END
  1
CELLSTYLE_BEGIN
 90
        2
 91
        1
300
_HEADER
309
CELLSTYLE_END
300
CELLSTYLE
  1
TABLEFORMAT_BEGIN
 90
        5
170
     1
 91
        0
 92
        0
 62
   257
 93
        1
300
CONTENTFORMAT
  1
CONTENTFORMAT_BEGIN
 90
        0
 91
        0
 92
      512
 93
        0
300

 40
0.0
140
1.0
 94
        2
 62
     0
340
11
144
0.18
309
CONTENTFORMAT_END
171
     0
 94
        0
309
TABLEFORMAT_END
  1
CELLSTYLE_BEGIN
 90
        3
 91
        2
300
_DATA
309
CELLSTYLE_END
  0
XRECORD
  5
A336
102
{ACAD_REACTORS
330
A303
102
}
330
A303
100
AcDbXrecord
280
     1
102
ACAD_ROUNDTRIP_PRE2007_TABLESTYLE
 90
      512
 91
        0
  1

 92
      512
 93
        0
  2

 94
      512
 95
        0
  3

  0
XRECORD
  5
A31B
102
{ACAD_REACTORS
330
A31A
102
}
330
A31A
100
AcDbXrecord
280
     1
102
RTVSPropertyOp0
 70
     1
102
RTVSPropertyOp1
 70
     1
102
RTVSPropertyOp2
 70
     1
102
RTVSPropertyOp3
 70
     1
102
RTVSPropertyOp4
 70
     1
102
RTVSPropertyOp5
 70
     1
102
RTVSPropertyOp6
 70
     1
102
RTVSPropertyOp7
 70
     1
102
RTVSPropertyOp8
 70
     1
102
RTVSPropertyOp9
 70
     1
102
RTVSPropertyOp10
 70
     1
102
RTVSPropertyOp11
 70
     1
102
RTVSPropertyOp12
 70
     1
102
RTVSPropertyOp13
 70
     1
102
RTVSPropertyOp14
 70
     1
102
RTVSPropertyOp15
 70
     1
102
RTVSPropertyOp16
 70
     1
102
RTVSPropertyOp17
 70
     1
102
RTVSPropertyOp18
 70
     1
102
RTVSPropertyOp19
 70
     1
102
RTVSPropertyOp20
 70
     1
102
RTVSPropertyOp21
 70
     1
102
RTVSPropertyOp22
 70
     1
102
RTVSPropertyOp23
 70
     1
102
RTVSPropertyOp24
 70
     1
102
RTVSPropertyOp25
 70
     1
102
RTVSPropertyOp26
 70
     1
102
RTVSPropertyOp27
 70
     1
  0
XRECORD
  5
A31F
102
{ACAD_REACTORS
330
A31E
102
}
330
A31E
100
AcDbXrecord
280
     1
102
RTVSPropertyOp0
 70
     1
102
RTVSPropertyOp1
 70
     1
102
RTVSPropertyOp2
 70
     1
102
RTVSPropertyOp3
 70
     1
102
RTVSPropertyOp4
 70
     1
102
RTVSPropertyOp5
 70
     1
102
RTVSPropertyOp6
 70
     1
102
RTVSPropertyOp7
 70
     1
102
RTVSPropertyOp8
 70
     1
102
RTVSPropertyOp9
 70
     1
102
RTVSPropertyOp10
 70
     1
102
RTVSPropertyOp11
 70
     1
102
RTVSPropertyOp12
 70
     1
102
RTVSPropertyOp13
 70
     1
102
RTVSPropertyOp14
 70
     1
102
RTVSPropertyOp15
 70
     1
102
RTVSPropertyOp16
 70
     1
102
RTVSPropertyOp17
 70
     1
102
RTVSPropertyOp18
 70
     1
102
RTVSPropertyOp19
 70
     1
102
RTVSPropertyOp20
 70
     1
102
RTVSPropertyOp21
 70
     1
102
RTVSPropertyOp22
 70
     1
102
RTVSPropertyOp23
 70
     1
102
RTVSPropertyOp24
 70
     1
102
RTVSPropertyOp25
 70
     1
102
RTVSPropertyOp26
 70
     1
102
RTVSPropertyOp27
 70
     1
  0
XRECORD
  5
A31D
102
{ACAD_REACTORS
330
A31C
102
}
330
A31C
100
AcDbXrecord
280
     1
102
RTVSPropertyOp0
 70
     1
102
RTVSPropertyOp1
 70
     1
102
RTVSPropertyOp2
 70
     1
102
RTVSPropertyOp3
 70
     1
102
RTVSPropertyOp4
 70
     1
102
RTVSPropertyOp5
 70
     1
102
RTVSPropertyOp6
 70
     1
102
RTVSPropertyOp7
 70
     1
102
RTVSPropertyOp8
 70
     1
102
RTVSPropertyOp9
 70
     1
102
RTVSPropertyOp10
 70
     1
102
RTVSPropertyOp11
 70
     1
102
RTVSPropertyOp12
 70
     1
102
RTVSPropertyOp13
 70
     1
102
RTVSPropertyOp14
 70
     1
102
RTVSPropertyOp15
 70
     1
102
RTVSPropertyOp16
 70
     1
102
RTVSPropertyOp17
 70
     1
102
RTVSPropertyOp18
 70
     1
102
RTVSPropertyOp19
 70
     1
102
RTVSPropertyOp20
 70
     1
102
RTVSPropertyOp21
 70
     1
102
RTVSPropertyOp22
 70
     1
102
RTVSPropertyOp23
 70
     1
102
RTVSPropertyOp24
 70
     1
102
RTVSPropertyOp25
 70
     1
102
RTVSPropertyOp26
 70
     1
102
RTVSPropertyOp27
 70
     1
  0
XRECORD
  5
A319
102
{ACAD_REACTORS
330
A318
102
}
330
A318
100
AcDbXrecord
280
     1
102
RTVSPropertyOp0
 70
     1
102
RTVSPropertyOp1
 70
     1
102
RTVSPropertyOp2
 70
     1
102
RTVSPropertyOp3
 70
     1
102
RTVSPropertyOp4
 70
     1
102
RTVSPropertyOp5
 70
     1
102
RTVSPropertyOp6
 70
     1
102
RTVSPropertyOp7
 70
     1
102
RTVSPropertyOp8
 70
     1
102
RTVSPropertyOp9
 70
     1
102
RTVSPropertyOp10
 70
     1
102
RTVSPropertyOp11
 70
     1
102
RTVSPropertyOp12
 70
     1
102
RTVSPropertyOp13
 70
     1
102
RTVSPropertyOp14
 70
     1
102
RTVSPropertyOp15
 70
     1
102
RTVSPropertyOp16
 70
     1
102
RTVSPropertyOp17
 70
     1
102
RTVSPropertyOp18
 70
     1
102
RTVSPropertyOp19
 70
     1
102
RTVSPropertyOp20
 70
     1
102
RTVSPropertyOp21
 70
     1
102
RTVSPropertyOp22
 70
     1
102
RTVSPropertyOp23
 70
     1
102
RTVSPropertyOp24
 70
     1
102
RTVSPropertyOp25
 70
     1
102
RTVSPropertyOp26
 70
     1
102
RTVSPropertyOp27
 70
     1
  0
XRECORD
  5
A327
102
{ACAD_REACTORS
330
A326
102
}
330
A326
100
AcDbXrecord
280
     1
102
RTVSPropertyOp0
 70
     1
102
RTVSPropertyOp1
 70
     1
102
RTVSPropertyOp2
 70
     1
102
RTVSPropertyOp3
 70
     1
102
RTVSPropertyOp4
 70
     1
102
RTVSPropertyOp5
 70
     1
102
RTVSPropertyOp6
 70
     1
102
RTVSPropertyOp7
 70
     1
102
RTVSPropertyOp8
 70
     1
102
RTVSPropertyOp9
 70
     1
102
RTVSPropertyOp10
 70
     1
102
RTVSPropertyOp11
 70
     1
102
RTVSPropertyOp12
 70
     1
102
RTVSPropertyOp13
 70
     1
102
RTVSPropertyOp14
 70
     1
102
RTVSPropertyOp15
 70
     1
102
RTVSPropertyOp16
 70
     1
102
RTVSPropertyOp17
 70
     1
102
RTVSPropertyOp18
 70
     1
102
RTVSPropertyOp19
 70
     1
102
RTVSPropertyOp20
 70
     1
102
RTVSPropertyOp21
 70
     1
102
RTVSPropertyOp22
 70
     1
102
RTVSPropertyOp23
 70
     1
102
RTVSPropertyOp24
 70
     1
102
RTVSPropertyOp25
 70
     1
102
RTVSPropertyOp26
 70
     1
102
RTVSPropertyOp27
 70
     1
  0
XRECORD
  5
A32F
102
{ACAD_REACTORS
330
A32E
102
}
330
A32E
100
AcDbXrecord
280
     1
102
RTVSPropertyOp0
 70
     1
102
RTVSPropertyOp1
 70
     1
102
RTVSPropertyOp2
 70
     1
102
RTVSPropertyOp3
 70
     1
102
RTVSPropertyOp4
 70
     1
102
RTVSPropertyOp5
 70
     1
102
RTVSPropertyOp6
 70
     1
102
RTVSPropertyOp7
 70
     1
102
RTVSPropertyOp8
 70
     1
102
RTVSPropertyOp9
 70
     1
102
RTVSPropertyOp10
 70
     1
102
RTVSPropertyOp11
 70
     1
102
RTVSPropertyOp12
 70
     1
102
RTVSPropertyOp13
 70
     1
102
RTVSPropertyOp14
 70
     1
102
RTVSPropertyOp15
 70
     1
102
RTVSPropertyOp16
 70
     1
102
RTVSPropertyOp17
 70
     1
102
RTVSPropertyOp18
 70
     1
102
RTVSPropertyOp19
 70
     1
102
RTVSPropertyOp20
 70
     1
102
RTVSPropertyOp21
 70
     1
102
RTVSPropertyOp22
 70
     1
102
RTVSPropertyOp23
 70
     1
102
RTVSPropertyOp24
 70
     1
102
RTVSPropertyOp25
 70
     1
102
RTVSPropertyOp26
 70
     1
102
RTVSPropertyOp27
 70
     1
  0
XRECORD
  5
A321
102
{ACAD_REACTORS
330
A320
102
}
330
A320
100
AcDbXrecord
280
     1
102
RTVSPropertyOp0
 70
     1
102
RTVSPropertyOp1
 70
     1
102
RTVSPropertyOp2
 70
     1
102
RTVSPropertyOp3
 70
     1
102
RTVSPropertyOp4
 70
     1
102
RTVSPropertyOp5
 70
     1
102
RTVSPropertyOp6
 70
     1
102
RTVSPropertyOp7
 70
     1
102
RTVSPropertyOp8
 70
     1
102
RTVSPropertyOp9
 70
     1
102
RTVSPropertyOp10
 70
     1
102
RTVSPropertyOp11
 70
     1
102
RTVSPropertyOp12
 70
     1
102
RTVSPropertyOp13
 70
     1
102
RTVSPropertyOp14
 70
     1
102
RTVSPropertyOp15
 70
     1
102
RTVSPropertyOp16
 70
     1
102
RTVSPropertyOp17
 70
     1
102
RTVSPropertyOp18
 70
     1
102
RTVSPropertyOp19
 70
     1
102
RTVSPropertyOp20
 70
     1
102
RTVSPropertyOp21
 70
     1
102
RTVSPropertyOp22
 70
     1
102
RTVSPropertyOp23
 70
     1
102
RTVSPropertyOp24
 70
     1
102
RTVSPropertyOp25
 70
     1
102
RTVSPropertyOp26
 70
     1
102
RTVSPropertyOp27
 70
     1
  0
XRECORD
  5
A325
102
{ACAD_REACTORS
330
A324
102
}
330
A324
100
AcDbXrecord
280
     1
102
RTVSPropertyOp0
 70
     1
102
RTVSPropertyOp1
 70
     1
102
RTVSPropertyOp2
 70
     1
102
RTVSPropertyOp3
 70
     1
102
RTVSPropertyOp4
 70
     1
102
RTVSPropertyOp5
 70
     1
102
RTVSPropertyOp6
 70
     1
102
RTVSPropertyOp7
 70
     1
102
RTVSPropertyOp8
 70
     1
102
RTVSPropertyOp9
 70
     1
102
RTVSPropertyOp10
 70
     1
102
RTVSPropertyOp11
 70
     1
102
RTVSPropertyOp12
 70
     1
102
RTVSPropertyOp13
 70
     1
102
RTVSPropertyOp14
 70
     1
102
RTVSPropertyOp15
 70
     1
102
RTVSPropertyOp16
 70
     1
102
RTVSPropertyOp17
 70
     1
102
RTVSPropertyOp18
 70
     1
102
RTVSPropertyOp19
 70
     1
102
RTVSPropertyOp20
 70
     1
102
RTVSPropertyOp21
 70
     1
102
RTVSPropertyOp22
 70
     1
102
RTVSPropertyOp23
 70
     1
102
RTVSPropertyOp24
 70
     1
102
RTVSPropertyOp25
 70
     1
102
RTVSPropertyOp26
 70
     1
102
RTVSPropertyOp27
 70
     1
  0
XRECORD
  5
A335
102
{ACAD_REACTORS
330
A334
102
}
330
A334
100
AcDbXrecord
280
     1
102
RTVSPropertyOp0
 70
     0
102
RTVSPropertyOp1
 70
     0
102
RTVSPropertyOp2
 70
     0
102
RTVSPropertyOp3
 70
     0
102
RTVSPropertyOp4
 70
     0
102
RTVSPropertyOp5
 70
     0
102
RTVSPropertyOp6
 70
     0
102
RTVSPropertyOp7
 70
     0
102
RTVSPropertyOp8
 70
     0
102
RTVSPropertyOp9
 70
     0
102
RTVSPropertyOp10
 70
     0
102
RTVSPropertyOp11
 70
     0
102
RTVSPropertyOp12
 70
     0
102
RTVSPropertyOp13
 70
     0
102
RTVSPropertyOp14
 70
     2
102
RTVSPropertyOp15
 70
     0
102
RTVSPropertyOp16
 70
     0
102
RTVSPropertyOp17
 70
     0
102
RTVSPropertyOp18
 70
     0
102
RTVSPropertyOp19
 70
     0
102
RTVSPropertyOp20
 70
     0
102
RTVSPropertyOp21
 70
     0
102
RTVSPropertyOp22
 70
     0
102
RTVSPropertyOp23
 70
     0
102
RTVSPropertyOp24
 70
     0
102
RTVSPropertyOp25
 70
     0
102
RTVSPropertyOp26
 70
     0
102
RTVSPropertyOp27
 70
     0
  0
XRECORD
  5
A32D
102
{ACAD_REACTORS
330
A32C
102
}
330
A32C
100
AcDbXrecord
280
     1
102
RTVSPropertyOp0
 70
     1
102
RTVSPropertyOp1
 70
     1
102
RTVSPropertyOp2
 70
     1
102
RTVSPropertyOp3
 70
     1
102
RTVSPropertyOp4
 70
     1
102
RTVSPropertyOp5
 70
     1
102
RTVSPropertyOp6
 70
     1
102
RTVSPropertyOp7
 70
     1
102
RTVSPropertyOp8
 70
     1
102
RTVSPropertyOp9
 70
     1
102
RTVSPropertyOp10
 70
     1
102
RTVSPropertyOp11
 70
     1
102
RTVSPropertyOp12
 70
     1
102
RTVSPropertyOp13
 70
     1
102
RTVSPropertyOp14
 70
     1
102
RTVSPropertyOp15
 70
     1
102
RTVSPropertyOp16
 70
     1
102
RTVSPropertyOp17
 70
     1
102
RTVSPropertyOp18
 70
     1
102
RTVSPropertyOp19
 70
     1
102
RTVSPropertyOp20
 70
     1
102
RTVSPropertyOp21
 70
     1
102
RTVSPropertyOp22
 70
     1
102
RTVSPropertyOp23
 70
     1
102
RTVSPropertyOp24
 70
     1
102
RTVSPropertyOp25
 70
     1
102
RTVSPropertyOp26
 70
     1
102
RTVSPropertyOp27
 70
     1
  0
XRECORD
  5
A311
102
{ACAD_REACTORS
330
A310
102
}
330
A310
100
AcDbXrecord
280
     1
102
RTVSPropertyOp0
 70
     1
102
RTVSPropertyOp1
 70
     1
102
RTVSPropertyOp2
 70
     1
102
RTVSPropertyOp3
 70
     1
102
RTVSPropertyOp4
 70
     1
102
RTVSPropertyOp5
 70
     1
102
RTVSPropertyOp6
 70
     1
102
RTVSPropertyOp7
 70
     1
102
RTVSPropertyOp8
 70
     1
102
RTVSPropertyOp9
 70
     1
102
RTVSPropertyOp10
 70
     1
102
RTVSPropertyOp11
 70
     1
102
RTVSPropertyOp12
 70
     1
102
RTVSPropertyOp13
 70
     1
102
RTVSPropertyOp14
 70
     1
102
RTVSPropertyOp15
 70
     1
102
RTVSPropertyOp16
 70
     1
102
RTVSPropertyOp17
 70
     1
102
RTVSPropertyOp18
 70
     1
102
RTVSPropertyOp19
 70
     1
102
RTVSPropertyOp20
 70
     1
102
RTVSPropertyOp21
 70
     1
102
RTVSPropertyOp22
 70
     1
102
RTVSPropertyOp23
 70
     1
102
RTVSPropertyOp24
 70
     1
102
RTVSPropertyOp25
 70
     1
102
RTVSPropertyOp26
 70
     1
102
RTVSPropertyOp27
 70
     1
  0
XRECORD
  5
A313
102
{ACAD_REACTORS
330
A312
102
}
330
A312
100
AcDbXrecord
280
     1
102
RTVSPropertyOp0
 70
     1
102
RTVSPropertyOp1
 70
     1
102
RTVSPropertyOp2
 70
     1
102
RTVSPropertyOp3
 70
     1
102
RTVSPropertyOp4
 70
     1
102
RTVSPropertyOp5
 70
     1
102
RTVSPropertyOp6
 70
     1
102
RTVSPropertyOp7
 70
     1
102
RTVSPropertyOp8
 70
     1
102
RTVSPropertyOp9
 70
     1
102
RTVSPropertyOp10
 70
     1
102
RTVSPropertyOp11
 70
     1
102
RTVSPropertyOp12
 70
     1
102
RTVSPropertyOp13
 70
     1
102
RTVSPropertyOp14
 70
     1
102
RTVSPropertyOp15
 70
     1
102
RTVSPropertyOp16
 70
     1
102
RTVSPropertyOp17
 70
     1
102
RTVSPropertyOp18
 70
     1
102
RTVSPropertyOp19
 70
     1
102
RTVSPropertyOp20
 70
     1
102
RTVSPropertyOp21
 70
     1
102
RTVSPropertyOp22
 70
     1
102
RTVSPropertyOp23
 70
     1
102
RTVSPropertyOp24
 70
     1
102
RTVSPropertyOp25
 70
     1
102
RTVSPropertyOp26
 70
     1
102
RTVSPropertyOp27
 70
     1
  0
XRECORD
  5
A315
102
{ACAD_REACTORS
330
A314
102
}
330
A314
100
AcDbXrecord
280
     1
102
RTVSPropertyOp0
 70
     1
102
RTVSPropertyOp1
 70
     1
102
RTVSPropertyOp2
 70
     1
102
RTVSPropertyOp3
 70
     1
102
RTVSPropertyOp4
 70
     1
102
RTVSPropertyOp5
 70
     1
102
RTVSPropertyOp6
 70
     1
102
RTVSPropertyOp7
 70
     1
102
RTVSPropertyOp8
 70
     1
102
RTVSPropertyOp9
 70
     1
102
RTVSPropertyOp10
 70
     1
102
RTVSPropertyOp11
 70
     1
102
RTVSPropertyOp12
 70
     1
102
RTVSPropertyOp13
 70
     1
102
RTVSPropertyOp14
 70
     1
102
RTVSPropertyOp15
 70
     1
102
RTVSPropertyOp16
 70
     1
102
RTVSPropertyOp17
 70
     1
102
RTVSPropertyOp18
 70
     1
102
RTVSPropertyOp19
 70
     1
102
RTVSPropertyOp20
 70
     1
102
RTVSPropertyOp21
 70
     1
102
RTVSPropertyOp22
 70
     1
102
RTVSPropertyOp23
 70
     1
102
RTVSPropertyOp24
 70
     1
102
RTVSPropertyOp25
 70
     1
102
RTVSPropertyOp26
 70
     1
102
RTVSPropertyOp27
 70
     1
  0
XRECORD
  5
A317
102
{ACAD_REACTORS
330
A316
102
}
330
A316
100
AcDbXrecord
280
     1
102
RTVSPropertyOp0
 70
     1
102
RTVSPropertyOp1
 70
     1
102
RTVSPropertyOp2
 70
     1
102
RTVSPropertyOp3
 70
     1
102
RTVSPropertyOp4
 70
     1
102
RTVSPropertyOp5
 70
     1
102
RTVSPropertyOp6
 70
     1
102
RTVSPropertyOp7
 70
     1
102
RTVSPropertyOp8
 70
     1
102
RTVSPropertyOp9
 70
     1
102
RTVSPropertyOp10
 70
     1
102
RTVSPropertyOp11
 70
     1
102
RTVSPropertyOp12
 70
     1
102
RTVSPropertyOp13
 70
     1
102
RTVSPropertyOp14
 70
     1
102
RTVSPropertyOp15
 70
     1
102
RTVSPropertyOp16
 70
     1
102
RTVSPropertyOp17
 70
     1
102
RTVSPropertyOp18
 70
     1
102
RTVSPropertyOp19
 70
     1
102
RTVSPropertyOp20
 70
     1
102
RTVSPropertyOp21
 70
     1
102
RTVSPropertyOp22
 70
     1
102
RTVSPropertyOp23
 70
     1
102
RTVSPropertyOp24
 70
     1
102
RTVSPropertyOp25
 70
     1
102
RTVSPropertyOp26
 70
     1
102
RTVSPropertyOp27
 70
     1
  0
XRECORD
  5
A331
102
{ACAD_REACTORS
330
A330
102
}
330
A330
100
AcDbXrecord
280
     1
102
RTVSPropertyOp0
 70
     0
102
RTVSPropertyOp1
 70
     0
102
RTVSPropertyOp2
 70
     0
102
RTVSPropertyOp3
 70
     0
102
RTVSPropertyOp4
 70
     0
102
RTVSPropertyOp5
 70
     0
102
RTVSPropertyOp6
 70
     0
102
RTVSPropertyOp7
 70
     0
102
RTVSPropertyOp8
 70
     0
102
RTVSPropertyOp9
 70
     0
102
RTVSPropertyOp10
 70
     0
102
RTVSPropertyOp11
 70
     0
102
RTVSPropertyOp12
 70
     0
102
RTVSPropertyOp13
 70
     0
102
RTVSPropertyOp14
 70
     2
102
RTVSPropertyOp15
 70
     0
102
RTVSPropertyOp16
 70
     0
102
RTVSPropertyOp17
 70
     0
102
RTVSPropertyOp18
 70
     0
102
RTVSPropertyOp19
 70
     0
102
RTVSPropertyOp20
 70
     0
102
RTVSPropertyOp21
 70
     0
102
RTVSPropertyOp22
 70
     0
102
RTVSPropertyOp23
 70
     0
102
RTVSPropertyOp24
 70
     0
102
RTVSPropertyOp25
 70
     0
102
RTVSPropertyOp26
 70
     0
102
RTVSPropertyOp27
 70
     0
  0
XRECORD
  5
A32B
102
{ACAD_REACTORS
330
A32A
102
}
330
A32A
100
AcDbXrecord
280
     1
102
RTVSPropertyOp0
 70
     1
102
RTVSPropertyOp1
 70
     1
102
RTVSPropertyOp2
 70
     1
102
RTVSPropertyOp3
 70
     1
102
RTVSPropertyOp4
 70
     1
102
RTVSPropertyOp5
 70
     1
102
RTVSPropertyOp6
 70
     1
102
RTVSPropertyOp7
 70
     1
102
RTVSPropertyOp8
 70
     1
102
RTVSPropertyOp9
 70
     1
102
RTVSPropertyOp10
 70
     1
102
RTVSPropertyOp11
 70
     1
102
RTVSPropertyOp12
 70
     1
102
RTVSPropertyOp13
 70
     1
102
RTVSPropertyOp14
 70
     1
102
RTVSPropertyOp15
 70
     1
102
RTVSPropertyOp16
 70
     1
102
RTVSPropertyOp17
 70
     1
102
RTVSPropertyOp18
 70
     1
102
RTVSPropertyOp19
 70
     1
102
RTVSPropertyOp20
 70
     1
102
RTVSPropertyOp21
 70
     1
102
RTVSPropertyOp22
 70
     1
102
RTVSPropertyOp23
 70
     1
102
RTVSPropertyOp24
 70
     1
102
RTVSPropertyOp25
 70
     1
102
RTVSPropertyOp26
 70
     1
102
RTVSPropertyOp27
 70
     1
  0
XRECORD
  5
A333
102
{ACAD_REACTORS
330
A332
102
}
330
A332
100
AcDbXrecord
280
     1
102
RTVSPropertyOp0
 70
     0
102
RTVSPropertyOp1
 70
     0
102
RTVSPropertyOp2
 70
     0
102
RTVSPropertyOp3
 70
     0
102
RTVSPropertyOp4
 70
     0
102
RTVSPropertyOp5
 70
     0
102
RTVSPropertyOp6
 70
     0
102
RTVSPropertyOp7
 70
     0
102
RTVSPropertyOp8
 70
     0
102
RTVSPropertyOp9
 70
     0
102
RTVSPropertyOp10
 70
     0
102
RTVSPropertyOp11
 70
     0
102
RTVSPropertyOp12
 70
     0
102
RTVSPropertyOp13
 70
     0
102
RTVSPropertyOp14
 70
     2
102
RTVSPropertyOp15
 70
     0
102
RTVSPropertyOp16
 70
     0
102
RTVSPropertyOp17
 70
     0
102
RTVSPropertyOp18
 70
     0
102
RTVSPropertyOp19
 70
     0
102
RTVSPropertyOp20
 70
     0
102
RTVSPropertyOp21
 70
     0
102
RTVSPropertyOp22
 70
     0
102
RTVSPropertyOp23
 70
     0
102
RTVSPropertyOp24
 70
     0
102
RTVSPropertyOp25
 70
     0
102
RTVSPropertyOp26
 70
     0
102
RTVSPropertyOp27
 70
     0
  0
XRECORD
  5
A323
102
{ACAD_REACTORS
330
A322
102
}
330
A322
100
AcDbXrecord
280
     1
102
RTVSPropertyOp0
 70
     1
102
RTVSPropertyOp1
 70
     1
102
RTVSPropertyOp2
 70
     1
102
RTVSPropertyOp3
 70
     1
102
RTVSPropertyOp4
 70
     1
102
RTVSPropertyOp5
 70
     1
102
RTVSPropertyOp6
 70
     1
102
RTVSPropertyOp7
 70
     1
102
RTVSPropertyOp8
 70
     1
102
RTVSPropertyOp9
 70
     1
102
RTVSPropertyOp10
 70
     1
102
RTVSPropertyOp11
 70
     1
102
RTVSPropertyOp12
 70
     1
102
RTVSPropertyOp13
 70
     1
102
RTVSPropertyOp14
 70
     1
102
RTVSPropertyOp15
 70
     1
102
RTVSPropertyOp16
 70
     1
102
RTVSPropertyOp17
 70
     1
102
RTVSPropertyOp18
 70
     1
102
RTVSPropertyOp19
 70
     1
102
RTVSPropertyOp20
 70
     1
102
RTVSPropertyOp21
 70
     1
102
RTVSPropertyOp22
 70
     1
102
RTVSPropertyOp23
 70
     1
102
RTVSPropertyOp24
 70
     1
102
RTVSPropertyOp25
 70
     1
102
RTVSPropertyOp26
 70
     1
102
RTVSPropertyOp27
 70
     1
  0
XRECORD
  5
A329
102
{ACAD_REACTORS
330
A328
102
}
330
A328
100
AcDbXrecord
280
     1
102
RTVSPropertyOp0
 70
     1
102
RTVSPropertyOp1
 70
     1
102
RTVSPropertyOp2
 70
     1
102
RTVSPropertyOp3
 70
     1
102
RTVSPropertyOp4
 70
     1
102
RTVSPropertyOp5
 70
     1
102
RTVSPropertyOp6
 70
     1
102
RTVSPropertyOp7
 70
     1
102
RTVSPropertyOp8
 70
     1
102
RTVSPropertyOp9
 70
     1
102
RTVSPropertyOp10
 70
     1
102
RTVSPropertyOp11
 70
     1
102
RTVSPropertyOp12
 70
     1
102
RTVSPropertyOp13
 70
     1
102
RTVSPropertyOp14
 70
     1
102
RTVSPropertyOp15
 70
     1
102
RTVSPropertyOp16
 70
     1
102
RTVSPropertyOp17
 70
     1
102
RTVSPropertyOp18
 70
     1
102
RTVSPropertyOp19
 70
     1
102
RTVSPropertyOp20
 70
     1
102
RTVSPropertyOp21
 70
     1
102
RTVSPropertyOp22
 70
     1
102
RTVSPropertyOp23
 70
     1
102
RTVSPropertyOp24
 70
     1
102
RTVSPropertyOp25
 70
     1
102
RTVSPropertyOp26
 70
     1
102
RTVSPropertyOp27
 70
     1
  0
ENDSEC
  0
EOF
