  0
SECTION
  2
HEADER
  9
$ACADVER
  1
AC1015
  9
$ACADMAINTVER
 70
    20
  9
$DWGCODEPAGE
  3
ANSI_932
  9
$INSBASE
 10
0.0
 20
0.0
 30
0.0
  9
$EXTMIN
 10
-83.96411608460175
 20
-369.1241318636983
 30
-0.0015258207003583
  9
$EXTMAX
 10
301.927922386476
 20
280.2548651933869
 30
0.0000000349246037
  9
$LIMMIN
 10
-296.316999476111
 20
-370.7034300441653
  9
$LIMMAX
 10
623.3128432133979
 20
328.6261559379898
  9
$ORTHOMODE
 70
     0
  9
$REGENMODE
 70
     1
  9
$FILLMODE
 70
     1
  9
$QTEXTMODE
 70
     0
  9
$MIRRTEXT
 70
     1
  9
$LTSCALE
 40
10.0
  9
$ATTMODE
 70
     1
  9
$TEXTSIZE
 40
5.0
  9
$TRACEWID
 40
0.05
  9
$TEXTSTYLE
  7
STANDARD1
  9
$CLAYER
  8
30
  9
$CELTYPE
  6
CONTINUOUS
  9
$CECOLOR
 62
   256
  9
$CELTSCALE
 40
1.0
  9
$DISPSILH
 70
     0
  9
$DIMSCALE
 40
1.0
  9
$DIMASZ
 40
2.0
  9
$DIMEXO
 40
1.0
  9
$DIMDLI
 40
0.5
  9
$DIMRND
 40
0.0
  9
$DIMDLE
 40
0.0
  9
$DIMEXE
 40
0.5
  9
$DIMTP
 40
0.0
  9
$DIMTM
 40
0.0
  9
$DIMTXT
 40
4.0
  9
$DIMCEN
 40
0.09
  9
$DIMTSZ
 40
0.0
  9
$DIMTOL
 70
     0
  9
$DIMLIM
 70
     0
  9
$DIMTIH
 70
     0
  9
$DIMTOH
 70
     1
  9
$DIMSE1
 70
     0
  9
$DIMSE2
 70
     0
  9
$DIMTAD
 70
     3
  9
$DIMZIN
 70
    12
  9
$DIMBLK
  1
OPEN
  9
$DIMASO
 70
     1
  9
$DIMSHO
 70
     1
  9
$DIMPOST
  1

  9
$DIMAPOST
  1

  9
$DIMALT
 70
     0
  9
$DIMALTD
 70
     2
  9
$DIMALTF
 40
25.4
  9
$DIMLFAC
 40
1.0
  9
$DIMTOFL
 70
     0
  9
$DIMTVP
 40
0.0
  9
$DIMTIX
 70
     0
  9
$DIMSOXD
 70
     0
  9
$DIMSAH
 70
     0
  9
$DIMBLK1
  1

  9
$DIMBLK2
  1

  9
$DIMSTYLE
  2
STANDARD
  9
$DIMCLRD
 70
     0
  9
$DIMCLRE
 70
     0
  9
$DIMCLRT
 70
     0
  9
$DIMTFAC
 40
1.0
  9
$DIMGAP
 40
1.0
  9
$DIMJUST
 70
     0
  9
$DIMSD1
 70
     0
  9
$DIMSD2
 70
     0
  9
$DIMTOLJ
 70
     1
  9
$DIMTZIN
 70
     0
  9
$DIMALTZ
 70
     0
  9
$DIMALTTZ
 70
     0
  9
$DIMUPT
 70
     0
  9
$DIMDEC
 70
     1
  9
$DIMTDEC
 70
     1
  9
$DIMALTU
 70
     2
  9
$DIMALTTD
 70
     2
  9
$DIMTXSTY
  7
STANDARD
  9
$DIMAUNIT
 70
     0
  9
$DIMADEC
 70
     0
  9
$DIMALTRND
 40
0.0
  9
$DIMAZIN
 70
     3
  9
$DIMDSEP
 70
    46
  9
$DIMATFIT
 70
     3
  9
$DIMFRAC
 70
     0
  9
$DIMLDRBLK
  1
OPEN
  9
$DIMLUNIT
 70
     2
  9
$DIMLWD
 70
    -2
  9
$DIMLWE
 70
    -2
  9
$DIMTMOVE
 70
     0
  9
$LUNITS
 70
     2
  9
$LUPREC
 70
     4
  9
$SKETCHINC
 40
0.1
  9
$FILLETRAD
 40
0.0
  9
$AUNITS
 70
     0
  9
$AUPREC
 70
     0
  9
$MENU
  1
.
  9
$ELEVATION
 40
0.0
  9
$PELEVATION
 40
0.0
  9
$THICKNESS
 40
0.0
  9
$LIMCHECK
 70
     0
  9
$CHAMFERA
 40
0.0
  9
$CHAMFERB
 40
0.0
  9
$CHAMFERC
 40
0.0
  9
$CHAMFERD
 40
0.0
  9
$SKPOLY
 70
     0
  9
$TDCREATE
 40
2452286.555658658
  9
$TDUCREATE
 40
2452286.180658658
  9
$TDUPDATE
 40
2457458.678407685
  9
$TDUUPDATE
 40
2457458.303407686
  9
$TDINDWG
 40
1.2474191667
  9
$TDUSRTIMER
 40
1.2474182407
  9
$USRTIMER
 70
     1
  9
$ANGBASE
 50
0.0
  9
$ANGDIR
 70
     0
  9
$PDMODE
 70
     0
  9
$PDSIZE
 40
0.0
  9
$PLINEWID
 40
0.0
  9
$SPLFRAME
 70
     0
  9
$SPLINETYPE
 70
     6
  9
$SPLINESEGS
 70
     8
  9
$HANDSEED
  5
6CC7
  9
$SURFTAB1
 70
     6
  9
$SURFTAB2
 70
     6
  9
$SURFTYPE
 70
     6
  9
$SURFU
 70
     6
  9
$SURFV
 70
     6
  9
$UCSBASE
  2

  9
$UCSNAME
  2

  9
$UCSORG
 10
0.0
 20
0.0
 30
0.0
  9
$UCSXDIR
 10
1.0
 20
0.0
 30
0.0
  9
$UCSYDIR
 10
0.0
 20
1.0
 30
0.0
  9
$UCSORTHOREF
  2

  9
$UCSORTHOVIEW
 70
     0
  9
$UCSORGTOP
 10
0.0
 20
0.0
 30
0.0
  9
$UCSORGBOTTOM
 10
0.0
 20
0.0
 30
0.0
  9
$UCSORGLEFT
 10
0.0
 20
0.0
 30
0.0
  9
$UCSORGRIGHT
 10
0.0
 20
0.0
 30
0.0
  9
$UCSORGFRONT
 10
0.0
 20
0.0
 30
0.0
  9
$UCSORGBACK
 10
0.0
 20
0.0
 30
0.0
  9
$PUCSBASE
  2

  9
$PUCSNAME
  2

  9
$PUCSORG
 10
0.0
 20
0.0
 30
0.0
  9
$PUCSXDIR
 10
1.0
 20
0.0
 30
0.0
  9
$PUCSYDIR
 10
0.0
 20
1.0
 30
0.0
  9
$PUCSORTHOREF
  2

  9
$PUCSORTHOVIEW
 70
     0
  9
$PUCSORGTOP
 10
0.0
 20
0.0
 30
0.0
  9
$PUCSORGBOTTOM
 10
0.0
 20
0.0
 30
0.0
  9
$PUCSORGLEFT
 10
0.0
 20
0.0
 30
0.0
  9
$PUCSORGRIGHT
 10
0.0
 20
0.0
 30
0.0
  9
$PUCSORGFRONT
 10
0.0
 20
0.0
 30
0.0
  9
$PUCSORGBACK
 10
0.0
 20
0.0
 30
0.0
  9
$USERI1
 70
     0
  9
$USERI2
 70
     0
  9
$USERI3
 70
     0
  9
$USERI4
 70
     0
  9
$USERI5
 70
     0
  9
$USERR1
 40
0.0
  9
$USERR2
 40
0.0
  9
$USERR3
 40
0.0
  9
$USERR4
 40
0.0
  9
$USERR5
 40
0.0
  9
$WORLDVIEW
 70
     1
  9
$SHADEDGE
 70
     3
  9
$SHADEDIF
 70
    70
  9
$TILEMODE
 70
     1
  9
$MAXACTVP
 70
    48
  9
$PINSBASE
 10
0.0
 20
0.0
 30
0.0
  9
$PLIMCHECK
 70
     0
  9
$PEXTMIN
 10
4.273573
 20
5.205245999999998
 30
0.0
  9
$PEXTMAX
 10
194.610095
 20
283.0697009999996
 30
0.0
  9
$PLIMMIN
 10
-5.873749
 20
-5.87375
  9
$PLIMMAX
 10
204.099579
 20
291.1369009999999
  9
$UNITMODE
 70
     0
  9
$VISRETAIN
 70
     1
  9
$PLINEGEN
 70
     0
  9
$PSLTSCALE
 70
     1
  9
$TREEDEPTH
 70
  3020
  9
$CMLSTYLE
  2
STANDARD
  9
$CMLJUST
 70
     0
  9
$CMLSCALE
 40
1.0
  9
$PROXYGRAPHICS
 70
     1
  9
$MEASUREMENT
 70
     0
  9
$CELWEIGHT
370
    -1
  9
$ENDCAPS
280
     0
  9
$JOINSTYLE
280
     0
  9
$LWDISPLAY
290
     0
  9
$INSUNITS
 70
     0
  9
$HYPERLINKBASE
  1

  9
$STYLESHEET
  1
monochrome.ctb
  9
$XEDIT
290
     1
  9
$CEPSNTYPE
380
     0
  9
$PSTYLEMODE
290
     1
  9
$FINGERPRINTGUID
  2

  9
$VERSIONGUID
  2
{B0DC12BA-FF15-467F-8648-4BA30E2F0417}
  9
$EXTNAMES
290
     1
  9
$PSVPSCALE
 40
0.0
  9
$OLESTARTUP
290
     0
  0
ENDSEC
  0
SECTION
  2
CLASSES
  0
CLASS
  1
ACDBDICTIONARYWDFLT
  2
AcDbDictionaryWithDefault
  3
ObjectDBX Classes
 90
        0
280
     0
281
     0
  0
CLASS
  1
ACDBPLACEHOLDER
  2
AcDbPlaceHolder
  3
ObjectDBX Classes
 90
        0
280
     0
281
     0
  0
CLASS
  1
LAYOUT
  2
AcDbLayout
  3
ObjectDBX Classes
 90
        0
280
     0
281
     0
  0
CLASS
  1
DICTIONARYVAR
  2
AcDbDictionaryVar
  3
ObjectDBX Classes
 90
        0
280
     0
281
     0
  0
CLASS
  1
MATERIAL
  2
AcDbMaterial
  3
ObjectDBX Classes
 90
     1153
280
     0
281
     0
  0
CLASS
  1
VISUALSTYLE
  2
AcDbVisualStyle
  3
ObjectDBX Classes
 90
     4095
280
     0
281
     0
  0
CLASS
  1
TABLESTYLE
  2
AcDbTableStyle
  3
ObjectDBX Classes
 90
     4095
280
     0
281
     0
  0
CLASS
  1
SCALE
  2
AcDbScale
  3
ObjectDBX Classes
 90
     1153
280
     0
281
     0
  0
CLASS
  1
MLEADERSTYLE
  2
AcDbMLeaderStyle
  3
ACDB_MLEADERSTYLE_CLASS
 90
     4095
280
     0
281
     0
  0
CLASS
  1
ACDBSECTIONVIEWSTYLE
  2
AcDbSectionViewStyle
  3
ObjectDBX Classes
 90
     1025
280
     0
281
     0
  0
CLASS
  1
ACDBDETAILVIEWSTYLE
  2
AcDbDetailViewStyle
  3
ObjectDBX Classes
 90
     1025
280
     0
281
     0
  0
CLASS
  1
CELLSTYLEMAP
  2
AcDbCellStyleMap
  3
ObjectDBX Classes
 90
     1152
280
     0
281
     0
  0
ENDSEC
  0
SECTION
  2
TABLES
  0
TABLE
  2
VPORT
  5
8
330
0
100
AcDbSymbolTable
 70
     1
  0
VPORT
  5
6A38
330
8
100
AcDbSymbolTableRecord
100
AcDbViewportTableRecord
  2
*Active
 70
     0
 10
0.0
 20
0.0
 11
1.0
 21
1.0
 12
305.9207400544842
 22
25.94915852407803
 13
0.0
 23
0.0
 14
1.0
 24
1.0
 15
10.0
 25
10.0
 16
0.0
 26
0.0
 36
1.0
 17
0.0
 27
0.0
 37
0.0
 40
594.2475690870232
 41
2.108991825613078
 42
50.0
 43
0.0
 44
0.0
 50
0.0
 51
0.0
 71
     0
 72
   100
 73
     1
 74
     1
 75
     1
 76
     0
 77
     0
 78
     0
281
     0
 65
     1
110
0.0
120
0.0
130
0.0
111
1.0
121
0.0
131
0.0
112
0.0
122
1.0
132
0.0
 79
     0
146
0.0
1001
ACAD_NAV_VCDISPLAY
1070
     3
  0
ENDTAB
  0
TABLE
  2
LTYPE
  5
5
330
0
100
AcDbSymbolTable
 70
     5
  0
LTYPE
  5
13
330
5
100
AcDbSymbolTableRecord
100
AcDbLinetypeTableRecord
  2
BYBLOCK
 70
     0
  3

 72
    65
 73
     0
 40
0.0
  0
LTYPE
  5
14
330
5
100
AcDbSymbolTableRecord
100
AcDbLinetypeTableRecord
  2
BYLAYER
 70
     0
  3

 72
    65
 73
     0
 40
0.0
  0
LTYPE
  5
15
330
5
100
AcDbSymbolTableRecord
100
AcDbLinetypeTableRecord
  2
CONTINUOUS
 70
     0
  3
Solid line
 72
    65
 73
     0
 40
0.0
  0
LTYPE
  5
22
330
5
100
AcDbSymbolTableRecord
100
AcDbLinetypeTableRecord
  2
CONTINOUS
 70
     0
  3
Solid line
 72
    65
 73
     0
 40
0.0
  0
LTYPE
  5
23
330
5
100
AcDbSymbolTableRecord
100
AcDbLinetypeTableRecord
  2
DASHED
 70
     0
  3
__ __ __ __ __ __ __ __ __ __ __ __ __ __ __
 72
    65
 73
     2
 40
0.75
 49
0.5
 74
     0
 49
-0.25
 74
     0
  0
LTYPE
  5
24
330
5
100
AcDbSymbolTableRecord
100
AcDbLinetypeTableRecord
  2
DASHDOT
 70
     0
  3
__ . __ . __ . __ . __ . __ . __ . __ . __ . __
 72
    65
 73
     4
 40
1.0
 49
0.5
 74
     0
 49
-0.25
 74
     0
 49
0.0
 74
     0
 49
-0.25
 74
     0
  0
LTYPE
  5
4C47
330
5
100
AcDbSymbolTableRecord
100
AcDbLinetypeTableRecord
  2
DIVIDE
 70
     0
  3
Divide ____ . . ____ . . ____ . . ____ . . ____
 72
    65
 73
     6
 40
1.25
 49
0.5
 74
     0
 49
-0.25
 74
     0
 49
0.0
 74
     0
 49
-0.25
 74
     0
 49
0.0
 74
     0
 49
-0.25
 74
     0
  0
ENDTAB
  0
TABLE
  2
LAYER
  5
2
330
0
100
AcDbSymbolTable
 70
    13
  0
LAYER
  5
10
102
{ACAD_XDICTIONARY
360
6BCC
102
}
330
2
100
AcDbSymbolTableRecord
100
AcDbLayerTableRecord
  2
0
 70
     0
 62
     7
  6
CONTINOUS
370
    -3
390
F
  0
LAYER
  5
2F
102
{ACAD_XDICTIONARY
360
6BCE
102
}
330
2
100
AcDbSymbolTableRecord
100
AcDbLayerTableRecord
  2
10
 70
     0
 62
     4
  6
CONTINOUS
370
    -3
390
F
  0
LAYER
  5
31
102
{ACAD_XDICTIONARY
360
6BD0
102
}
330
2
100
AcDbSymbolTableRecord
100
AcDbLayerTableRecord
  2
12
 70
     0
 62
     3
  6
CONTINOUS
370
    -3
390
F
  0
LAYER
  5
35
102
{ACAD_XDICTIONARY
360
6BD2
102
}
330
2
100
AcDbSymbolTableRecord
100
AcDbLayerTableRecord
  2
16
 70
     0
 62
     6
  6
DASHDOT
370
    -3
390
F
  0
LAYER
  5
38
102
{ACAD_XDICTIONARY
360
6BD4
102
}
330
2
100
AcDbSymbolTableRecord
100
AcDbLayerTableRecord
  2
19
 70
     0
 62
     7
  6
CONTINOUS
370
    -3
390
F
  0
LAYER
  5
3C
102
{ACAD_XDICTIONARY
360
6BD6
102
}
330
2
100
AcDbSymbolTableRecord
100
AcDbLayerTableRecord
  2
11
 70
     0
 62
     1
  6
CONTINOUS
370
    -3
390
F
  0
LAYER
  5
3D
102
{ACAD_XDICTIONARY
360
6BD8
102
}
330
2
100
AcDbSymbolTableRecord
100
AcDbLayerTableRecord
  2
24
 70
     0
 62
     2
  6
CONTINOUS
370
    -3
390
F
  0
LAYER
  5
3A2
102
{ACAD_XDICTIONARY
360
6BDA
102
}
330
2
100
AcDbSymbolTableRecord
100
AcDbLayerTableRecord
  2
30
 70
     0
 62
     9
  6
CONTINUOUS
370
    -3
390
F
  0
LAYER
  5
3A4
330
2
100
AcDbSymbolTableRecord
100
AcDbLayerTableRecord
  2
DEFPOINTS
 70
     0
 62
     7
  6
CONTINUOUS
290
     0
370
    -3
390
F
  0
LAYER
  5
3BBA
102
{ACAD_XDICTIONARY
360
6BDC
102
}
330
2
100
AcDbSymbolTableRecord
100
AcDbLayerTableRecord
  2
18
 70
     0
 62
     5
  6
DIVIDE
370
    -3
390
F
  0
LAYER
  5
5116
102
{ACAD_XDICTIONARY
360
6BDE
102
}
330
2
100
AcDbSymbolTableRecord
100
AcDbLayerTableRecord
  2
1
 70
     0
 62
     7
  6
CONTINUOUS
370
    -3
390
F
  0
LAYER
  5
5117
102
{ACAD_XDICTIONARY
360
6BE0
102
}
330
2
100
AcDbSymbolTableRecord
100
AcDbLayerTableRecord
  2
TOP
 70
     0
 62
     7
  6
CONTINUOUS
370
    -3
390
F
  0
LAYER
  5
5C47
102
{ACAD_XDICTIONARY
360
6BE2
102
}
330
2
100
AcDbSymbolTableRecord
100
AcDbLayerTableRecord
  2
17
 70
     0
 62
     2
  6
DASHDOT
370
    -3
390
F
  0
ENDTAB
  0
TABLE
  2
STYLE
  5
3
330
0
100
AcDbSymbolTable
 70
     4
  0
STYLE
  5
11
330
3
100
AcDbSymbolTableRecord
100
AcDbTextStyleTableRecord
  2
STANDARD
 70
     0
 40
0.0
 41
1.0
 50
0.0
 71
     0
 42
2.0
  3
txt.shx
  4
bigfont.shx
  0
STYLE
  5
42
330
3
100
AcDbSymbolTableRecord
100
AcDbTextStyleTableRecord
  2
STANDARD1
 70
     0
 40
0.0
 41
1.0
 50
0.0
 71
     0
 42
5.0
  3
MONOTXT
  4
BIGFONT
  0
STYLE
  5
5016
330
3
100
AcDbSymbolTableRecord
100
AcDbTextStyleTableRecord
  2
UGMTXT
 70
     0
 40
0.0
 41
1.0
 50
0.0
 71
     0
 42
0.2
  3
ugmtxt
  4
bigfont
  0
ENDTAB
  0
TABLE
  2
VIEW
  5
6
330
0
100
AcDbSymbolTable
 70
     3
  0
VIEW
  5
230C
330
6
100
AcDbSymbolTableRecord
100
AcDbViewTableRecord
  2
OLE1
 70
     0
 40
148.912488
 10
429.497628
 20
2.560627
 41
103.145806
 11
0.0
 21
0.0
 31
1.0
 12
0.0
 22
0.0
 32
0.0
 42
50.0
 43
0.0
 44
0.0
 50
0.0
 71
     0
281
     0
 72
     0
  0
VIEW
  5
230E
330
6
100
AcDbSymbolTableRecord
100
AcDbViewTableRecord
  2
OLE2
 70
     0
 40
170.778692
 10
322.66497
 20
-5.978304
 41
102.467215
 11
0.0
 21
0.0
 31
1.0
 12
0.0
 22
0.0
 32
0.0
 42
50.0
 43
0.0
 44
0.0
 50
0.0
 71
     0
281
     0
 72
     0
  0
VIEW
  5
23AA
330
6
100
AcDbSymbolTableRecord
100
AcDbViewTableRecord
  2
OLE3
 70
     0
 40
591.7897389999998
 10
84.79698199999999
 20
-46.09335999999998
 41
388.792096
 11
0.0
 21
0.0
 31
1.0
 12
0.0
 22
0.0
 32
0.0
 42
50.0
 43
0.0
 44
0.0
 50
0.0
 71
     0
281
     0
 72
     0
  0
ENDTAB
  0
TABLE
  2
UCS
  5
7
330
0
100
AcDbSymbolTable
 70
     0
  0
ENDTAB
  0
TABLE
  2
APPID
  5
9
330
0
100
AcDbSymbolTable
 70
     5
  0
APPID
  5
12
330
9
100
AcDbSymbolTableRecord
100
AcDbRegAppTableRecord
  2
ACAD
 70
     0
  0
APPID
  5
ECD
330
9
100
AcDbSymbolTableRecord
100
AcDbRegAppTableRecord
  2
CONTENTBLOCKICON
 70
     0
  0
APPID
  5
6AD7
330
9
100
AcDbSymbolTableRecord
100
AcDbRegAppTableRecord
  2
ACAD_PSEXT
 70
     0
  0
APPID
  5
6AD8
330
9
100
AcDbSymbolTableRecord
100
AcDbRegAppTableRecord
  2
ACAD_NAV_VCDISPLAY
 70
     0
  0
APPID
  5
6CC2
330
9
100
AcDbSymbolTableRecord
100
AcDbRegAppTableRecord
  2
ACAD_MLEADERVER
 70
     0
  0
ENDTAB
  0
TABLE
  2
DIMSTYLE
  5
A
330
0
100
AcDbSymbolTable
 70
     2
100
AcDbDimStyleTable
 71
     1
340
175
  0
DIMSTYLE
105
175
102
{ACAD_REACTORS
330
59D1
330
59D0
330
59B9
330
59D2
330
59C6
330
59BE
330
59FD
330
59F0
330
59BB
330
59BA
330
5E29
330
5E42
330
5E41
330
5E2A
330
5EF0
330
6157
330
619F
330
61AC
330
66A1
330
6780
330
676D
330
67E9
330
6B45
330
6B46
330
6B47
330
6B48
330
6B49
330
6B4A
102
}
330
A
100
AcDbSymbolTableRecord
100
AcDbDimStyleTableRecord
  2
STANDARD
 70
     0
 41
2.0
 42
1.0
 43
0.5
 44
0.5
 73
     0
 77
     3
 78
    12
140
4.0
147
1.0
271
     1
272
     1
340
11
341
3B2
342
3B2
  0
ENDTAB
  0
TABLE
  2
BLOCK_RECORD
  5
1
330
0
100
AcDbSymbolTable
 70
    50
  0
BLOCK_RECORD
  5
1E
102
{ACAD_XDICTIONARY
360
178
102
}
330
1
100
AcDbSymbolTableRecord
100
AcDbBlockTableRecord
  2
*MODEL_SPACE
340
6A33
  0
BLOCK_RECORD
  5
1A
102
{ACAD_XDICTIONARY
360
17A
102
}
330
1
100
AcDbSymbolTableRecord
100
AcDbBlockTableRecord
  2
*PAPER_SPACE
340
6A34
  0
BLOCK_RECORD
  5
3B2
330
1
100
AcDbSymbolTableRecord
100
AcDbBlockTableRecord
  2
_OPEN
340
0
102
{BLKREFS
331
6889
331
688A
331
6948
331
6949
331
65B5
331
6877
331
6878
331
686E
331
686F
331
659A
331
659B
331
6591
331
6592
331
693F
331
6940
331
685C
331
685D
331
6A26
331
6A27
331
6901
331
6902
331
68F8
331
68F9
331
68EE
331
68EF
331
68E5
331
68E6
331
68DC
331
68DD
331
68D3
331
68D4
331
68CA
331
68CB
331
68C1
331
68C2
331
68B8
331
68B9
331
68AF
331
68B0
331
68A4
331
68A5
331
689B
331
689C
331
6892
331
6893
331
6B99
331
6B9A
331
6BA2
331
6BA3
331
6BAB
331
6BAC
331
6BB4
331
6BB5
331
6BBD
331
6BBE
331
6BC6
331
6BC7
331
684A
331
684B
331
67C0
331
67C1
331
67C9
331
67CA
331
695A
331
6951
331
6952
331
67E3
331
67E4
331
6936
331
6937
331
6AD0
331
6AD1
331
6AA0
331
6AA1
331
6AAC
331
6AAD
331
6AB8
331
6AB9
331
6AC4
331
6AC5
331
6A94
331
6A95
102
}
  0
BLOCK_RECORD
  5
58CA
330
1
100
AcDbSymbolTableRecord
100
AcDbBlockTableRecord
  2
*U1
340
0
102
{BLKREFS
331
59F3
102
}
  0
BLOCK_RECORD
  5
58CE
330
1
100
AcDbSymbolTableRecord
100
AcDbBlockTableRecord
  2
*U2
340
0
102
{BLKREFS
331
59F2
102
}
  0
BLOCK_RECORD
  5
58DA
330
1
100
AcDbSymbolTableRecord
100
AcDbBlockTableRecord
  2
*U3
340
0
  0
BLOCK_RECORD
  5
58DE
330
1
100
AcDbSymbolTableRecord
100
AcDbBlockTableRecord
  2
*U4
340
0
102
{BLKREFS
331
59F1
102
}
  0
BLOCK_RECORD
  5
58E2
330
1
100
AcDbSymbolTableRecord
100
AcDbBlockTableRecord
  2
*U5
340
0
  0
BLOCK_RECORD
  5
5A00
330
1
100
AcDbSymbolTableRecord
100
AcDbBlockTableRecord
  2
*D6
340
0
  0
BLOCK_RECORD
  5
5A0C
330
1
100
AcDbSymbolTableRecord
100
AcDbBlockTableRecord
  2
*D7
340
0
  0
BLOCK_RECORD
  5
5A19
330
1
100
AcDbSymbolTableRecord
100
AcDbBlockTableRecord
  2
*D8
340
0
  0
BLOCK_RECORD
  5
5A25
330
1
100
AcDbSymbolTableRecord
100
AcDbBlockTableRecord
  2
*D9
340
0
  0
BLOCK_RECORD
  5
5A31
330
1
100
AcDbSymbolTableRecord
100
AcDbBlockTableRecord
  2
*D10
340
0
  0
BLOCK_RECORD
  5
5A3D
330
1
100
AcDbSymbolTableRecord
100
AcDbBlockTableRecord
  2
*D11
340
0
  0
BLOCK_RECORD
  5
5A49
330
1
100
AcDbSymbolTableRecord
100
AcDbBlockTableRecord
  2
*D12
340
0
  0
BLOCK_RECORD
  5
5A55
330
1
100
AcDbSymbolTableRecord
100
AcDbBlockTableRecord
  2
*D13
340
0
  0
BLOCK_RECORD
  5
5A61
330
1
100
AcDbSymbolTableRecord
100
AcDbBlockTableRecord
  2
*D14
340
0
  0
BLOCK_RECORD
  5
5A6D
330
1
100
AcDbSymbolTableRecord
100
AcDbBlockTableRecord
  2
*D15
340
0
  0
BLOCK_RECORD
  5
5E7C
330
1
100
AcDbSymbolTableRecord
100
AcDbBlockTableRecord
  2
*D16
340
0
  0
BLOCK_RECORD
  5
5E88
330
1
100
AcDbSymbolTableRecord
100
AcDbBlockTableRecord
  2
*D17
340
0
  0
BLOCK_RECORD
  5
5E94
330
1
100
AcDbSymbolTableRecord
100
AcDbBlockTableRecord
  2
*D18
340
0
  0
BLOCK_RECORD
  5
5EA0
330
1
100
AcDbSymbolTableRecord
100
AcDbBlockTableRecord
  2
*D19
340
0
  0
BLOCK_RECORD
  5
5EF9
330
1
100
AcDbSymbolTableRecord
100
AcDbBlockTableRecord
  2
*D20
340
0
  0
BLOCK_RECORD
  5
5F2F
330
1
100
AcDbSymbolTableRecord
100
AcDbBlockTableRecord
  2
*D21
340
0
  0
BLOCK_RECORD
  5
5F6C
330
1
100
AcDbSymbolTableRecord
100
AcDbBlockTableRecord
  2
*D22
340
0
  0
BLOCK_RECORD
  5
5F79
330
1
100
AcDbSymbolTableRecord
100
AcDbBlockTableRecord
  2
*D23
340
0
  0
BLOCK_RECORD
  5
600C
330
1
100
AcDbSymbolTableRecord
100
AcDbBlockTableRecord
  2
*D24
340
0
  0
BLOCK_RECORD
  5
60BD
330
1
100
AcDbSymbolTableRecord
100
AcDbBlockTableRecord
  2
*D25
340
0
  0
BLOCK_RECORD
  5
6158
330
1
100
AcDbSymbolTableRecord
100
AcDbBlockTableRecord
  2
*D26
340
0
  0
BLOCK_RECORD
  5
61A0
330
1
100
AcDbSymbolTableRecord
100
AcDbBlockTableRecord
  2
*D27
340
0
  0
BLOCK_RECORD
  5
61AD
330
1
100
AcDbSymbolTableRecord
100
AcDbBlockTableRecord
  2
*D28
340
0
  0
BLOCK_RECORD
  5
66A2
330
1
100
AcDbSymbolTableRecord
100
AcDbBlockTableRecord
  2
*D29
340
0
  0
BLOCK_RECORD
  5
6782
330
1
100
AcDbSymbolTableRecord
100
AcDbBlockTableRecord
  2
*D30
340
0
  0
BLOCK_RECORD
  5
678E
330
1
100
AcDbSymbolTableRecord
100
AcDbBlockTableRecord
  2
*D31
340
0
  0
BLOCK_RECORD
  5
679A
330
1
100
AcDbSymbolTableRecord
100
AcDbBlockTableRecord
  2
*D32
340
0
  0
BLOCK_RECORD
  5
67A5
330
1
100
AcDbSymbolTableRecord
100
AcDbBlockTableRecord
  2
*D33
340
0
  0
BLOCK_RECORD
  5
67B1
330
1
100
AcDbSymbolTableRecord
100
AcDbBlockTableRecord
  2
*D34
340
0
  0
BLOCK_RECORD
  5
67EA
330
1
100
AcDbSymbolTableRecord
100
AcDbBlockTableRecord
  2
*D35
340
0
  0
BLOCK_RECORD
  5
6A8F
330
1
100
AcDbSymbolTableRecord
100
AcDbBlockTableRecord
  2
*D36
340
0
  0
BLOCK_RECORD
  5
6A9B
330
1
100
AcDbSymbolTableRecord
100
AcDbBlockTableRecord
  2
*D37
340
0
  0
BLOCK_RECORD
  5
6AA7
330
1
100
AcDbSymbolTableRecord
100
AcDbBlockTableRecord
  2
*D38
340
0
  0
BLOCK_RECORD
  5
6AB3
330
1
100
AcDbSymbolTableRecord
100
AcDbBlockTableRecord
  2
*D39
340
0
  0
BLOCK_RECORD
  5
6ABF
330
1
100
AcDbSymbolTableRecord
100
AcDbBlockTableRecord
  2
*D40
340
0
  0
BLOCK_RECORD
  5
6ACB
330
1
100
AcDbSymbolTableRecord
100
AcDbBlockTableRecord
  2
*D41
340
0
  0
BLOCK_RECORD
  5
6B4E
330
1
100
AcDbSymbolTableRecord
100
AcDbBlockTableRecord
  2
*D43
340
0
  0
BLOCK_RECORD
  5
6B5A
330
1
100
AcDbSymbolTableRecord
100
AcDbBlockTableRecord
  2
*D44
340
0
  0
BLOCK_RECORD
  5
6B66
330
1
100
AcDbSymbolTableRecord
100
AcDbBlockTableRecord
  2
*D45
340
0
  0
BLOCK_RECORD
  5
6B72
330
1
100
AcDbSymbolTableRecord
100
AcDbBlockTableRecord
  2
*D46
340
0
  0
BLOCK_RECORD
  5
6B7E
330
1
100
AcDbSymbolTableRecord
100
AcDbBlockTableRecord
  2
*D47
340
0
  0
BLOCK_RECORD
  5
6B8A
330
1
100
AcDbSymbolTableRecord
100
AcDbBlockTableRecord
  2
*D48
340
0
  0
ENDTAB
  0
ENDSEC
  0
SECTION
  2
BLOCKS
  0
BLOCK
  5
1F
330
1E
100
AcDbEntity
  8
0
100
AcDbBlockBegin
  2
*MODEL_SPACE
 70
     0
 10
0.0
 20
0.0
 30
0.0
  3
*MODEL_SPACE
  1

  0
ENDBLK
  5
20
330
1E
100
AcDbEntity
  8
0
100
AcDbBlockEnd
  0
BLOCK
  5
1B
330
1A
100
AcDbEntity
 67
     1
  8
0
100
AcDbBlockBegin
  2
*PAPER_SPACE
 70
     0
 10
0.0
 20
0.0
 30
0.0
  3
*PAPER_SPACE
  1

  0
ENDBLK
  5
1C
330
1A
100
AcDbEntity
 67
     1
  8
0
100
AcDbBlockEnd
  0
BLOCK
  5
3B6
330
3B2
100
AcDbEntity
  8
0
100
AcDbBlockBegin
  2
_OPEN
 70
     0
 10
0.0
 20
0.0
 30
0.0
  3
_OPEN
  1

  0
LINE
  5
3B3
330
3B2
100
AcDbEntity
  8
30
  6
Continuous
 62
     0
100
AcDbLine
 10
-1.0
 20
0.166667
 30
0.0
 11
0.0
 21
0.0
 31
0.0
  0
LINE
  5
3B4
330
3B2
100
AcDbEntity
  8
30
  6
Continuous
 62
     0
100
AcDbLine
 10
-1.0
 20
-0.166667
 30
0.0
 11
0.0
 21
0.0
 31
0.0
  0
LINE
  5
3B5
330
3B2
100
AcDbEntity
  8
30
  6
Continuous
 62
     0
100
AcDbLine
 10
0.0
 20
0.0
 30
0.0
 11
-1.0
 21
0.0
 31
0.0
  0
ENDBLK
  5
3B7
330
3B2
100
AcDbEntity
  8
0
100
AcDbBlockEnd
  0
BLOCK
  5
58CC
330
58CA
100
AcDbEntity
  8
TOP
  6
Continuous
 62
     4
100
AcDbBlockBegin
  2
*U1
 70
     1
 10
0.0
 20
0.0
 30
0.0
  3
*U1
  1

  0
TEXT
  5
58CB
330
58CA
100
AcDbEntity
  8
TOP
  6
ByBlock
 62
     0
100
AcDbText
 10
249.4949984839538
 20
103.4999999999999
 30
0.0
 40
2.500000003799998
  1
17
 41
0.78325
  7
UGMTXT
100
AcDbText
  0
ENDBLK
  5
58CD
330
58CA
100
AcDbEntity
  8
0
100
AcDbBlockEnd
  0
BLOCK
  5
58D0
330
58CE
100
AcDbEntity
  8
TOP
  6
Continuous
 62
     4
100
AcDbBlockBegin
  2
*U2
 70
     1
 10
0.0
 20
0.0
 30
0.0
  3
*U2
  1

  0
TEXT
  5
58CF
330
58CE
100
AcDbEntity
  8
TOP
  6
ByBlock
 62
     0
100
AcDbText
 10
252.6153110179847
 20
103.4999999999999
 30
0.0
 40
2.500000003799998
  1
(max.)
 41
0.7263970588235275
  7
UGMTXT
100
AcDbText
  0
ENDBLK
  5
58D1
330
58CE
100
AcDbEntity
  8
0
100
AcDbBlockEnd
  0
BLOCK
  5
58DC
330
58DA
100
AcDbEntity
  8
TOP
  6
Continuous
 62
     4
100
AcDbBlockBegin
  2
*U3
 70
     1
 10
0.0
 20
0.0
 30
0.0
  3
*U3
  1

  0
TEXT
  5
58DB
330
58DA
100
AcDbEntity
  8
TOP
  6
ByBlock
 62
     0
100
AcDbText
 10
236.6619255869728
 20
58.26042938214733
 30
0.0
 40
2.500000003799998
  1
8
 41
1.054062499999999
  7
UGMTXT
100
AcDbText
  0
ENDBLK
  5
58DD
330
58DA
100
AcDbEntity
  8
0
100
AcDbBlockEnd
  0
BLOCK
  5
58E0
330
58DE
100
AcDbEntity
  8
TOP
  6
Continuous
 62
     4
100
AcDbBlockBegin
  2
*U4
 70
     1
 10
0.0
 20
0.0
 30
0.0
  3
*U4
  1

  0
TEXT
  5
58DF
330
58DE
100
AcDbEntity
  8
TOP
  6
ByBlock
 62
     0
100
AcDbText
 10
250.6153110179847
 20
99.29999999999997
 30
0.0
 40
2.500000003799998
  1
max.t5
 41
0.7263970588235275
  7
UGMTXT
100
AcDbText
  0
ENDBLK
  5
58E1
330
58DE
100
AcDbEntity
  8
0
100
AcDbBlockEnd
  0
BLOCK
  5
58E9
330
58E2
100
AcDbEntity
  8
TOP
  6
Continuous
 62
     4
100
AcDbBlockBegin
  2
*U5
 70
     1
 10
0.0
 20
0.0
 30
0.0
  3
*U5
  1

  0
LINE
  5
58E3
330
58E2
100
AcDbEntity
  8
1
  6
ByBlock
 62
     0
100
AcDbLine
 10
235.8153110047847
 20
66.71019663782792
 30
0.0
 11
235.8153110047847
 21
56.01042938024733
 31
0.0
  0
LINE
  5
58E4
330
58E2
100
AcDbEntity
  8
1
  6
ByBlock
 62
     0
100
AcDbLine
 10
239.0153110047847
 20
69.41019663122792
 30
0.0
 11
239.0153110047847
 21
56.01042938024733
 31
0.0
  0
LINE
  5
58E5
330
58E2
100
AcDbEntity
  8
1
  6
ByBlock
 62
     0
100
AcDbLine
 10
233.3153110047847
 20
57.01042938024731
 30
0.0
 11
241.5153110047846
 21
57.01042938024731
 31
0.0
  0
SOLID
  5
58E6
330
58E2
100
AcDbEntity
  8
1
  6
ByBlock
 62
     0
100
AcDbTrace
 10
235.8153110047847
 20
57.01042938024731
 30
0.0
 11
233.8153109915847
 21
56.67709604471401
 31
0.0
 12
233.8153109915847
 22
57.34376271578065
 32
0.0
 13
233.8153109915847
 23
57.34376271578065
 33
0.0
  0
SOLID
  5
58E7
330
58E2
100
AcDbEntity
  8
1
  6
ByBlock
 62
     0
100
AcDbTrace
 10
239.0153110047847
 20
57.01042938024731
 30
0.0
 11
241.0153110179845
 21
57.34376271578065
 31
0.0
 12
241.0153110179845
 22
56.67709604471401
 32
0.0
 13
241.0153110179845
 23
56.67709604471401
 33
0.0
  0
TEXT
  5
58E8
330
58E2
100
AcDbEntity
  8
TOP
  6
ByBlock
 62
     0
100
AcDbText
 10
237.1139568381178
 20
57.51042938024731
 30
0.0
 40
1.0
  1
 
 41
1.054062499999999
  7
UGMTXT
100
AcDbText
  0
ENDBLK
  5
58EA
330
58E2
100
AcDbEntity
  8
0
100
AcDbBlockEnd
  0
BLOCK
  5
5A0A
330
5A00
100
AcDbEntity
  8
0
100
AcDbBlockBegin
  2
*D6
 70
     1
 10
0.0
 20
0.0
 30
0.0
  3
*D6
  1

  0
LINE
  5
68FE
330
5A00
100
AcDbEntity
  8
30
  6
Continuous
 62
     0
100
AcDbLine
 10
129.8144775593033
 20
-1.0
 30
0.0
 11
129.8144775593033
 21
-133.2494181439514
 31
0.0
  0
LINE
  5
68FF
330
5A00
100
AcDbEntity
  8
30
  6
Continuous
 62
     0
100
AcDbLine
 10
221.8144775593031
 20
-78.50000000000003
 30
0.0
 11
221.8144775593031
 21
-133.2494181439514
 31
0.0
  0
LINE
  5
6900
330
5A00
100
AcDbEntity
  8
30
  6
Continuous
 62
     0
100
AcDbLine
 10
131.8144775593033
 20
-132.7494181439514
 30
0.0
 11
219.8144775593031
 21
-132.7494181439514
 31
0.0
  0
INSERT
  5
6901
330
5A00
100
AcDbEntity
  8
30
  6
Continuous
 62
     0
100
AcDbBlockReference
  2
_OPEN
 10
129.8144775593033
 20
-132.7494181439514
 30
0.0
 41
2.0
 42
2.0
 43
2.0
 50
180.0
  0
INSERT
  5
6902
330
5A00
100
AcDbEntity
  8
30
  6
Continuous
 62
     0
100
AcDbBlockReference
  2
_OPEN
 10
221.8144775593031
 20
-132.7494181439514
 30
0.0
 41
2.0
 42
2.0
 43
2.0
  0
MTEXT
  5
6903
330
5A00
100
AcDbEntity
  8
30
  6
Continuous
 62
     0
100
AcDbMText
 10
175.8144775593031
 20
-129.7494181439514
 30
0.0
 40
4.0
 41
0.0
 71
     5
 72
     1
  1
\A1;92
 73
     1
 44
1.0
1001
ACAD
1000
MTEXTBEGIN
1070
    73
1070
     1
1070
    44
1040
1.0
1070
    74
1070
     0
1000
MTEXTEND
  0
POINT
  5
6904
330
5A00
100
AcDbEntity
  8
DEFPOINTS
  6
Continuous
 62
     0
100
AcDbPoint
 10
129.8144775593033
 20
0.0
 30
0.0
  0
POINT
  5
6905
330
5A00
100
AcDbEntity
  8
DEFPOINTS
  6
Continuous
 62
     0
100
AcDbPoint
 10
221.8144775593031
 20
-77.50000000000003
 30
0.0
  0
POINT
  5
6906
330
5A00
100
AcDbEntity
  8
DEFPOINTS
  6
Continuous
 62
     0
100
AcDbPoint
 10
221.8144775593031
 20
-132.7494181439514
 30
0.0
  0
ENDBLK
  5
5A0B
330
5A00
100
AcDbEntity
  8
0
100
AcDbBlockEnd
  0
BLOCK
  5
5A17
330
5A0C
100
AcDbEntity
  8
0
100
AcDbBlockBegin
  2
*D7
 70
     1
 10
0.0
 20
0.0
 30
0.0
  3
*D7
  1

  0
LINE
  5
68F4
330
5A0C
100
AcDbEntity
  8
30
  6
Continuous
 62
     0
100
AcDbLine
 10
145.8144775593031
 20
-26.0
 30
0.0
 11
145.8144775593031
 21
-121.2494181439514
 31
0.0
  0
LINE
  5
68F5
330
5A0C
100
AcDbEntity
  8
30
  6
Continuous
 62
     0
100
AcDbLine
 10
149.8144775593031
 20
-26.0
 30
0.0
 11
149.8144775593031
 21
-121.2494181439514
 31
0.0
  0
LINE
  5
68F6
330
5A0C
100
AcDbEntity
  8
30
  6
Continuous
 62
     0
100
AcDbLine
 10
143.8144775593029
 20
-120.7494181439514
 30
0.0
 11
141.8144775593028
 21
-120.7494181439514
 31
0.0
  0
LINE
  5
68F7
330
5A0C
100
AcDbEntity
  8
30
  6
Continuous
 62
     0
100
AcDbLine
 10
151.8144775593031
 20
-120.7494181439514
 30
0.0
 11
158.4811442259697
 21
-120.7494181439514
 31
0.0
  0
INSERT
  5
68F8
330
5A0C
100
AcDbEntity
  8
30
  6
Continuous
 62
     0
100
AcDbBlockReference
  2
_OPEN
 10
145.8144775593031
 20
-120.7494181439514
 30
0.0
 41
2.0
 42
2.0
 43
2.0
  0
INSERT
  5
68F9
330
5A0C
100
AcDbEntity
  8
30
  6
Continuous
 62
     0
100
AcDbBlockReference
  2
_OPEN
 10
149.8144775593031
 20
-120.7494181439514
 30
0.0
 41
2.0
 42
2.0
 43
2.0
 50
180.0
  0
MTEXT
  5
68FA
330
5A0C
100
AcDbEntity
  8
30
  6
Continuous
 62
     0
100
AcDbMText
 10
156.1478108926364
 20
-117.7494181439514
 30
0.0
 40
4.0
 41
0.0
 71
     5
 72
     1
  1
\A1;4
 73
     1
 44
1.0
1001
ACAD
1000
MTEXTBEGIN
1070
    73
1070
     1
1070
    44
1040
1.0
1070
    74
1070
     0
1000
MTEXTEND
  0
POINT
  5
68FB
330
5A0C
100
AcDbEntity
  8
DEFPOINTS
  6
Continuous
 62
     0
100
AcDbPoint
 10
145.8144775593031
 20
-25.0
 30
0.0
  0
POINT
  5
68FC
330
5A0C
100
AcDbEntity
  8
DEFPOINTS
  6
Continuous
 62
     0
100
AcDbPoint
 10
149.8144775593031
 20
-25.0
 30
0.0
  0
POINT
  5
68FD
330
5A0C
100
AcDbEntity
  8
DEFPOINTS
  6
Continuous
 62
     0
100
AcDbPoint
 10
149.8144775593031
 20
-120.7494181439514
 30
0.0
  0
ENDBLK
  5
5A18
330
5A0C
100
AcDbEntity
  8
0
100
AcDbBlockEnd
  0
BLOCK
  5
5A23
330
5A19
100
AcDbEntity
  8
0
100
AcDbBlockBegin
  2
*D8
 70
     1
 10
0.0
 20
0.0
 30
0.0
  3
*D8
  1

  0
LINE
  5
68EB
330
5A19
100
AcDbEntity
  8
30
  6
Continuous
 62
     0
100
AcDbLine
 10
149.8144775593031
 20
-26.0
 30
0.0
 11
149.8144775593031
 21
-121.2494181439514
 31
0.0
  0
LINE
  5
68EC
330
5A19
100
AcDbEntity
  8
30
  6
Continuous
 62
     0
100
AcDbLine
 10
221.8144775593031
 20
-78.50000000000003
 30
0.0
 11
221.8144775593031
 21
-121.2494181439514
 31
0.0
  0
LINE
  5
68ED
330
5A19
100
AcDbEntity
  8
30
  6
Continuous
 62
     0
100
AcDbLine
 10
151.8144775593031
 20
-120.7494181439514
 30
0.0
 11
219.8144775593031
 21
-120.7494181439514
 31
0.0
  0
INSERT
  5
68EE
330
5A19
100
AcDbEntity
  8
30
  6
Continuous
 62
     0
100
AcDbBlockReference
  2
_OPEN
 10
149.8144775593031
 20
-120.7494181439514
 30
0.0
 41
2.0
 42
2.0
 43
2.0
 50
180.0
  0
INSERT
  5
68EF
330
5A19
100
AcDbEntity
  8
30
  6
Continuous
 62
     0
100
AcDbBlockReference
  2
_OPEN
 10
221.8144775593031
 20
-120.7494181439514
 30
0.0
 41
2.0
 42
2.0
 43
2.0
  0
MTEXT
  5
68F0
330
5A19
100
AcDbEntity
  8
30
  6
Continuous
 62
     0
100
AcDbMText
 10
185.814477559303
 20
-117.7494181439514
 30
0.0
 40
4.0
 41
0.0
 71
     5
 72
     1
  1
\A1;72
 73
     1
 44
1.0
1001
ACAD
1000
MTEXTBEGIN
1070
    73
1070
     1
1070
    44
1040
1.0
1070
    74
1070
     0
1000
MTEXTEND
  0
POINT
  5
68F1
330
5A19
100
AcDbEntity
  8
DEFPOINTS
  6
Continuous
 62
     0
100
AcDbPoint
 10
149.8144775593031
 20
-25.0
 30
0.0
  0
POINT
  5
68F2
330
5A19
100
AcDbEntity
  8
DEFPOINTS
  6
Continuous
 62
     0
100
AcDbPoint
 10
221.8144775593031
 20
-77.50000000000003
 30
0.0
  0
POINT
  5
68F3
330
5A19
100
AcDbEntity
  8
DEFPOINTS
  6
Continuous
 62
     0
100
AcDbPoint
 10
221.8144775593031
 20
-120.7494181439514
 30
0.0
  0
ENDBLK
  5
5A24
330
5A19
100
AcDbEntity
  8
0
100
AcDbBlockEnd
  0
BLOCK
  5
5A2F
330
5A25
100
AcDbEntity
  8
0
100
AcDbBlockBegin
  2
*D9
 70
     1
 10
0.0
 20
0.0
 30
0.0
  3
*D9
  1

  0
LINE
  5
68E2
330
5A25
100
AcDbEntity
  8
30
  6
Continuous
 62
     0
100
AcDbLine
 10
144.8144775593029
 20
-25.0
 30
0.0
 11
104.8588555544835
 21
-24.99999999999999
 31
0.0
  0
LINE
  5
68E3
330
5A25
100
AcDbEntity
  8
30
  6
Continuous
 62
     0
100
AcDbLine
 10
144.8144775593029
 20
24.99999999999996
 30
0.0
 11
104.8588555544835
 21
24.99999999999996
 31
0.0
  0
LINE
  5
68E4
330
5A25
100
AcDbEntity
  8
30
  6
Continuous
 62
     0
100
AcDbLine
 10
105.3588555544835
 20
-22.99999999999998
 30
0.0
 11
105.3588555544835
 21
22.99999999999996
 31
0.0
  0
INSERT
  5
68E5
330
5A25
100
AcDbEntity
  8
30
  6
Continuous
 62
     0
100
AcDbBlockReference
  2
_OPEN
 10
105.3588555544835
 20
-24.99999999999999
 30
0.0
 41
2.0
 42
2.0
 43
2.0
 50
270.0
  0
INSERT
  5
68E6
330
5A25
100
AcDbEntity
  8
30
  6
Continuous
 62
     0
100
AcDbBlockReference
  2
_OPEN
 10
105.3588555544835
 20
24.99999999999996
 30
0.0
 41
2.0
 42
2.0
 43
2.0
 50
90.0
  0
MTEXT
  5
68E7
330
5A25
100
AcDbEntity
  8
30
  6
Continuous
 62
     0
100
AcDbMText
 10
102.3588555544835
 20
0.0000000000000099
 30
0.0
 40
4.0
 41
0.0
 71
     5
 72
     1
  1
\A1;50
 11
0.0000000000000001
 21
1.0
 31
0.0
 73
     1
 44
1.0
1001
ACAD
1000
MTEXTBEGIN
1070
    73
1070
     1
1070
    44
1040
1.0
1070
    74
1070
     0
1000
MTEXTEND
  0
POINT
  5
68E8
330
5A25
100
AcDbEntity
  8
DEFPOINTS
  6
Continuous
 62
     0
100
AcDbPoint
 10
145.8144775593031
 20
-25.0
 30
0.0
  0
POINT
  5
68E9
330
5A25
100
AcDbEntity
  8
DEFPOINTS
  6
Continuous
 62
     0
100
AcDbPoint
 10
145.8144775593031
 20
24.99999999999996
 30
0.0
  0
POINT
  5
68EA
330
5A25
100
AcDbEntity
  8
DEFPOINTS
  6
Continuous
 62
     0
100
AcDbPoint
 10
105.3588555544835
 20
24.99999999999996
 30
0.0
  0
ENDBLK
  5
5A30
330
5A25
100
AcDbEntity
  8
0
100
AcDbBlockEnd
  0
BLOCK
  5
5A3B
330
5A31
100
AcDbEntity
  8
0
100
AcDbBlockBegin
  2
*D10
 70
     1
 10
0.0
 20
0.0
 30
0.0
  3
*D10
  1

  0
LINE
  5
68D9
330
5A31
100
AcDbEntity
  8
30
  6
Continuous
 62
     0
100
AcDbLine
 10
197.8144775593031
 20
78.50000000000001
 30
0.0
 11
197.8144775593031
 21
108.7505818560483
 31
0.0
  0
LINE
  5
68DA
330
5A31
100
AcDbEntity
  8
30
  6
Continuous
 62
     0
100
AcDbLine
 10
221.8144775593031
 20
78.5000000000001
 30
0.0
 11
221.8144775593031
 21
108.7505818560483
 31
0.0
  0
LINE
  5
68DB
330
5A31
100
AcDbEntity
  8
30
  6
Continuous
 62
     0
100
AcDbLine
 10
199.8144775593031
 20
108.2505818560482
 30
0.0
 11
219.8144775593031
 21
108.2505818560482
 31
0.0
  0
INSERT
  5
68DC
330
5A31
100
AcDbEntity
  8
30
  6
Continuous
 62
     0
100
AcDbBlockReference
  2
_OPEN
 10
197.8144775593031
 20
108.2505818560482
 30
0.0
 41
2.0
 42
2.0
 43
2.0
 50
180.0
  0
INSERT
  5
68DD
330
5A31
100
AcDbEntity
  8
30
  6
Continuous
 62
     0
100
AcDbBlockReference
  2
_OPEN
 10
221.8144775593031
 20
108.2505818560482
 30
0.0
 41
2.0
 42
2.0
 43
2.0
  0
MTEXT
  5
68DE
330
5A31
100
AcDbEntity
  8
30
  6
Continuous
 62
     0
100
AcDbMText
 10
209.8144775593031
 20
111.2505818560483
 30
0.0
 40
4.0
 41
0.0
 71
     5
 72
     1
  1
\A1;24
 73
     1
 44
1.0
1001
ACAD
1000
MTEXTBEGIN
1070
    73
1070
     1
1070
    44
1040
1.0
1070
    74
1070
     0
1000
MTEXTEND
  0
POINT
  5
68DF
330
5A31
100
AcDbEntity
  8
DEFPOINTS
  6
Continuous
 62
     0
100
AcDbPoint
 10
197.8144775593031
 20
77.50000000000001
 30
0.0
  0
POINT
  5
68E0
330
5A31
100
AcDbEntity
  8
DEFPOINTS
  6
Continuous
 62
     0
100
AcDbPoint
 10
221.8144775593031
 20
77.5000000000001
 30
0.0
  0
POINT
  5
68E1
330
5A31
100
AcDbEntity
  8
DEFPOINTS
  6
Continuous
 62
     0
100
AcDbPoint
 10
221.8144775593031
 20
108.2505818560482
 30
0.0
  0
ENDBLK
  5
5A3C
330
5A31
100
AcDbEntity
  8
0
100
AcDbBlockEnd
  0
BLOCK
  5
5A47
330
5A3D
100
AcDbEntity
  8
0
100
AcDbBlockBegin
  2
*D11
 70
     1
 10
0.0
 20
0.0
 30
0.0
  3
*D11
  1

  0
LINE
  5
68D0
330
5A3D
100
AcDbEntity
  8
30
  6
Continuous
 62
     0
100
AcDbLine
 10
153.8144775593031
 20
-52.0000000000001
 30
0.0
 11
153.8144775593031
 21
-111.2494181439513
 31
0.0
  0
LINE
  5
68D1
330
5A3D
100
AcDbEntity
  8
30
  6
Continuous
 62
     0
100
AcDbLine
 10
221.8144775593031
 20
-78.50000000000003
 30
0.0
 11
221.8144775593031
 21
-111.2494181439513
 31
0.0
  0
LINE
  5
68D2
330
5A3D
100
AcDbEntity
  8
30
  6
Continuous
 62
     0
100
AcDbLine
 10
155.8144775593031
 20
-110.7494181439514
 30
0.0
 11
219.8144775593031
 21
-110.7494181439514
 31
0.0
  0
INSERT
  5
68D3
330
5A3D
100
AcDbEntity
  8
30
  6
Continuous
 62
     0
100
AcDbBlockReference
  2
_OPEN
 10
153.8144775593031
 20
-110.7494181439514
 30
0.0
 41
2.0
 42
2.0
 43
2.0
 50
180.0
  0
INSERT
  5
68D4
330
5A3D
100
AcDbEntity
  8
30
  6
Continuous
 62
     0
100
AcDbBlockReference
  2
_OPEN
 10
221.8144775593031
 20
-110.7494181439514
 30
0.0
 41
2.0
 42
2.0
 43
2.0
  0
MTEXT
  5
68D5
330
5A3D
100
AcDbEntity
  8
30
  6
Continuous
 62
     0
100
AcDbMText
 10
187.814477559303
 20
-107.7494181439514
 30
0.0
 40
4.0
 41
0.0
 71
     5
 72
     1
  1
\A1;68
 73
     1
 44
1.0
1001
ACAD
1000
MTEXTBEGIN
1070
    73
1070
     1
1070
    44
1040
1.0
1070
    74
1070
     0
1000
MTEXTEND
  0
POINT
  5
68D6
330
5A3D
100
AcDbEntity
  8
DEFPOINTS
  6
Continuous
 62
     0
100
AcDbPoint
 10
153.8144775593031
 20
-51.00000000000011
 30
0.0
  0
POINT
  5
68D7
330
5A3D
100
AcDbEntity
  8
DEFPOINTS
  6
Continuous
 62
     0
100
AcDbPoint
 10
221.8144775593031
 20
-77.50000000000003
 30
0.0
  0
POINT
  5
68D8
330
5A3D
100
AcDbEntity
  8
DEFPOINTS
  6
Continuous
 62
     0
100
AcDbPoint
 10
221.8144775593031
 20
-110.7494181439514
 30
0.0
  0
ENDBLK
  5
5A48
330
5A3D
100
AcDbEntity
  8
0
100
AcDbBlockEnd
  0
BLOCK
  5
5A53
330
5A49
100
AcDbEntity
  8
0
100
AcDbBlockBegin
  2
*D12
 70
     1
 10
0.0
 20
0.0
 30
0.0
  3
*D12
  1

  0
LINE
  5
68C7
330
5A49
100
AcDbEntity
  8
30
  6
Continuous
 62
     0
100
AcDbLine
 10
160.8144775593029
 20
-78.50000000000003
 30
0.0
 11
160.8144775593029
 21
-100.2494181439514
 31
0.0
  0
LINE
  5
68C8
330
5A49
100
AcDbEntity
  8
30
  6
Continuous
 62
     0
100
AcDbLine
 10
221.8144775593031
 20
-78.50000000000003
 30
0.0
 11
221.8144775593031
 21
-100.2494181439514
 31
0.0
  0
LINE
  5
68C9
330
5A49
100
AcDbEntity
  8
30
  6
Continuous
 62
     0
100
AcDbLine
 10
162.8144775593028
 20
-99.74941814395144
 30
0.0
 11
219.8144775593031
 21
-99.74941814395144
 31
0.0
  0
INSERT
  5
68CA
330
5A49
100
AcDbEntity
  8
30
  6
Continuous
 62
     0
100
AcDbBlockReference
  2
_OPEN
 10
160.8144775593029
 20
-99.74941814395144
 30
0.0
 41
2.0
 42
2.0
 43
2.0
 50
180.0
  0
INSERT
  5
68CB
330
5A49
100
AcDbEntity
  8
30
  6
Continuous
 62
     0
100
AcDbBlockReference
  2
_OPEN
 10
221.8144775593031
 20
-99.74941814395144
 30
0.0
 41
2.0
 42
2.0
 43
2.0
  0
MTEXT
  5
68CC
330
5A49
100
AcDbEntity
  8
30
  6
Continuous
 62
     0
100
AcDbMText
 10
191.314477559303
 20
-96.74941814395143
 30
0.0
 40
4.0
 41
0.0
 71
     5
 72
     1
  1
\A1;61
 73
     1
 44
1.0
1001
ACAD
1000
MTEXTBEGIN
1070
    73
1070
     1
1070
    44
1040
1.0
1070
    74
1070
     0
1000
MTEXTEND
  0
POINT
  5
68CD
330
5A49
100
AcDbEntity
  8
DEFPOINTS
  6
Continuous
 62
     0
100
AcDbPoint
 10
160.8144775593029
 20
-77.50000000000003
 30
0.0
  0
POINT
  5
68CE
330
5A49
100
AcDbEntity
  8
DEFPOINTS
  6
Continuous
 62
     0
100
AcDbPoint
 10
221.8144775593031
 20
-77.50000000000003
 30
0.0
  0
POINT
  5
68CF
330
5A49
100
AcDbEntity
  8
DEFPOINTS
  6
Continuous
 62
     0
100
AcDbPoint
 10
221.8144775593031
 20
-99.74941814395144
 30
0.0
  0
ENDBLK
  5
5A54
330
5A49
100
AcDbEntity
  8
0
100
AcDbBlockEnd
  0
BLOCK
  5
5A5F
330
5A55
100
AcDbEntity
  8
0
100
AcDbBlockBegin
  2
*D13
 70
     1
 10
0.0
 20
0.0
 30
0.0
  3
*D13
  1

  0
LINE
  5
68BE
330
5A55
100
AcDbEntity
  8
30
  6
Continuous
 62
     0
100
AcDbLine
 10
176.8144775593031
 20
-71.25000000000001
 30
0.0
 11
176.8144775593031
 21
-90.24941814395143
 31
0.0
  0
LINE
  5
68BF
330
5A55
100
AcDbEntity
  8
30
  6
Continuous
 62
     0
100
AcDbLine
 10
221.8144775593031
 20
-78.50000000000003
 30
0.0
 11
221.8144775593031
 21
-90.24941814395143
 31
0.0
  0
LINE
  5
68C0
330
5A55
100
AcDbEntity
  8
30
  6
Continuous
 62
     0
100
AcDbLine
 10
178.8144775593031
 20
-89.74941814395142
 30
0.0
 11
219.8144775593031
 21
-89.74941814395142
 31
0.0
  0
INSERT
  5
68C1
330
5A55
100
AcDbEntity
  8
30
  6
Continuous
 62
     0
100
AcDbBlockReference
  2
_OPEN
 10
176.8144775593031
 20
-89.74941814395142
 30
0.0
 41
2.0
 42
2.0
 43
2.0
 50
180.0
  0
INSERT
  5
68C2
330
5A55
100
AcDbEntity
  8
30
  6
Continuous
 62
     0
100
AcDbBlockReference
  2
_OPEN
 10
221.8144775593031
 20
-89.74941814395142
 30
0.0
 41
2.0
 42
2.0
 43
2.0
  0
MTEXT
  5
68C3
330
5A55
100
AcDbEntity
  8
30
  6
Continuous
 62
     0
100
AcDbMText
 10
199.314477559303
 20
-86.74941814395143
 30
0.0
 40
4.0
 41
0.0
 71
     5
 72
     1
  1
\A1;45
 73
     1
 44
1.0
1001
ACAD
1000
MTEXTBEGIN
1070
    73
1070
     1
1070
    44
1040
1.0
1070
    74
1070
     0
1000
MTEXTEND
  0
POINT
  5
68C4
330
5A55
100
AcDbEntity
  8
DEFPOINTS
  6
Continuous
 62
     0
100
AcDbPoint
 10
176.8144775593031
 20
-70.25000000000002
 30
0.0
  0
POINT
  5
68C5
330
5A55
100
AcDbEntity
  8
DEFPOINTS
  6
Continuous
 62
     0
100
AcDbPoint
 10
221.8144775593031
 20
-77.50000000000003
 30
0.0
  0
POINT
  5
68C6
330
5A55
100
AcDbEntity
  8
DEFPOINTS
  6
Continuous
 62
     0
100
AcDbPoint
 10
221.8144775593031
 20
-89.74941814395142
 30
0.0
  0
ENDBLK
  5
5A60
330
5A55
100
AcDbEntity
  8
0
100
AcDbBlockEnd
  0
BLOCK
  5
5A6B
330
5A61
100
AcDbEntity
  8
0
100
AcDbBlockBegin
  2
*D14
 70
     1
 10
0.0
 20
0.0
 30
0.0
  3
*D14
  1

  0
LINE
  5
68B5
330
5A61
100
AcDbEntity
  8
30
  6
Continuous
 62
     0
100
AcDbLine
 10
261.3144775593033
 20
42.0
 30
0.0
 11
261.3144775593033
 21
27.09950840068014
 31
0.0
  0
LINE
  5
68B6
330
5A61
100
AcDbEntity
  8
30
  6
Continuous
 62
     0
100
AcDbLine
 10
278.3144775593031
 20
42.0
 30
0.0
 11
278.3144775593031
 21
27.09950840068014
 31
0.0
  0
LINE
  5
68B7
330
5A61
100
AcDbEntity
  8
30
  6
Continuous
 62
     0
100
AcDbLine
 10
263.3144775593033
 20
27.59950840068014
 30
0.0
 11
276.3144775593031
 21
27.59950840068014
 31
0.0
  0
INSERT
  5
68B8
330
5A61
100
AcDbEntity
  8
30
  6
Continuous
 62
     0
100
AcDbBlockReference
  2
_OPEN
 10
261.3144775593033
 20
27.59950840068014
 30
0.0
 41
2.0
 42
2.0
 43
2.0
 50
180.0
  0
INSERT
  5
68B9
330
5A61
100
AcDbEntity
  8
30
  6
Continuous
 62
     0
100
AcDbBlockReference
  2
_OPEN
 10
278.3144775593031
 20
27.59950840068014
 30
0.0
 41
2.0
 42
2.0
 43
2.0
  0
MTEXT
  5
68BA
330
5A61
100
AcDbEntity
  8
30
  6
Continuous
 62
     0
100
AcDbMText
 10
269.8144775593031
 20
30.59950840068012
 30
0.0
 40
4.0
 41
0.0
 71
     5
 72
     1
  1
\A1;17
 73
     1
 44
1.0
1001
ACAD
1000
MTEXTBEGIN
1070
    73
1070
     1
1070
    44
1040
1.0
1070
    74
1070
     0
1000
MTEXTEND
  0
POINT
  5
68BB
330
5A61
100
AcDbEntity
  8
DEFPOINTS
  6
Continuous
 62
     0
100
AcDbPoint
 10
261.3144775593033
 20
43.0
 30
0.0
  0
POINT
  5
68BC
330
5A61
100
AcDbEntity
  8
DEFPOINTS
  6
Continuous
 62
     0
100
AcDbPoint
 10
278.3144775593031
 20
43.0
 30
0.0
  0
POINT
  5
68BD
330
5A61
100
AcDbEntity
  8
DEFPOINTS
  6
Continuous
 62
     0
100
AcDbPoint
 10
278.3144775593031
 20
27.59950840068014
 30
0.0
  0
ENDBLK
  5
5A6C
330
5A61
100
AcDbEntity
  8
0
100
AcDbBlockEnd
  0
BLOCK
  5
5A79
330
5A6D
100
AcDbEntity
  8
0
100
AcDbBlockBegin
  2
*D15
 70
     1
 10
0.0
 20
0.0
 30
0.0
  3
*D15
  1

  0
LINE
  5
68AA
330
5A6D
100
AcDbEntity
  8
30
  6
Continuous
 62
     0
100
AcDbLine
 10
279.314477559303
 20
43.0
 30
0.0
 11
293.4012000520914
 21
43.0
 31
0.0
  0
LINE
  5
68AB
330
5A6D
100
AcDbEntity
  8
30
  6
Continuous
 62
     0
100
AcDbLine
 10
273.314477575803
 20
51.49999999999997
 30
0.0
 11
293.4012000520914
 21
51.49999999999997
 31
0.0
  0
LINE
  5
68AC
330
5A6D
100
AcDbEntity
  8
30
  6
Continuous
 62
     0
100
AcDbLine
 10
292.9012000520913
 20
45.0
 30
0.0
 11
292.9012000520913
 21
49.49999999999997
 31
0.0
  0
LINE
  5
68AD
330
5A6D
100
AcDbEntity
  8
30
  6
Continuous
 62
     0
100
AcDbLine
 10
292.9012000520913
 20
51.49999999999997
 30
0.0
 11
292.9012000520913
 21
53.49999999999997
 31
0.0
  0
LINE
  5
68AE
330
5A6D
100
AcDbEntity
  8
30
  6
Continuous
 62
     0
100
AcDbLine
 10
292.9012000520913
 20
53.49999999999997
 30
0.0
 11
301.9012000520914
 21
53.49999999999997
 31
0.0
  0
INSERT
  5
68AF
330
5A6D
100
AcDbEntity
  8
30
  6
Continuous
 62
     0
100
AcDbBlockReference
  2
_OPEN
 10
292.9012000520913
 20
43.0
 30
0.0
 41
2.0
 42
2.0
 43
2.0
 50
270.0
  0
INSERT
  5
68B0
330
5A6D
100
AcDbEntity
  8
30
  6
Continuous
 62
     0
100
AcDbBlockReference
  2
_OPEN
 10
292.9012000520913
 20
51.49999999999997
 30
0.0
 41
2.0
 42
2.0
 43
2.0
 50
90.0
  0
MTEXT
  5
68B1
330
5A6D
100
AcDbEntity
  8
30
  6
Continuous
 62
     0
100
AcDbMText
 10
297.9012000520913
 20
56.50000000000002
 30
0.0
 40
4.0
 41
0.0
 71
     5
 72
     1
  1
\A1;8.5
 73
     1
 44
1.0
1001
ACAD
1000
MTEXTBEGIN
1070
    73
1070
     1
1070
    44
1040
1.0
1070
    74
1070
     0
1000
MTEXTEND
  0
POINT
  5
68B2
330
5A6D
100
AcDbEntity
  8
DEFPOINTS
  6
Continuous
 62
     0
100
AcDbPoint
 10
278.3144775593031
 20
43.0
 30
0.0
  0
POINT
  5
68B3
330
5A6D
100
AcDbEntity
  8
DEFPOINTS
  6
Continuous
 62
     0
100
AcDbPoint
 10
272.3144775758031
 20
51.49999999999997
 30
0.0
  0
POINT
  5
68B4
330
5A6D
100
AcDbEntity
  8
DEFPOINTS
  6
Continuous
 62
     0
100
AcDbPoint
 10
292.9012000520913
 20
51.49999999999997
 30
0.0
  0
ENDBLK
  5
5A7A
330
5A6D
100
AcDbEntity
  8
0
100
AcDbBlockEnd
  0
BLOCK
  5
5E86
330
5E7C
100
AcDbEntity
  8
0
100
AcDbBlockBegin
  2
*D16
 70
     1
 10
0.0
 20
0.0
 30
0.0
  3
*D16
  1

  0
LINE
  5
68A1
330
5E7C
100
AcDbEntity
  8
30
  6
Continuous
 62
     0
100
AcDbLine
 10
-41.99999999999996
 20
25.99999999999996
 30
0.0
 11
-41.99999999999996
 21
33.09950840068013
 31
0.0
  0
LINE
  5
68A2
330
5E7C
100
AcDbEntity
  8
30
  6
Continuous
 62
     0
100
AcDbLine
 10
42.00000000000001
 20
25.99999999999996
 30
0.0
 11
42.00000000000001
 21
33.09950840068013
 31
0.0
  0
LINE
  5
68A3
330
5E7C
100
AcDbEntity
  8
30
  6
Continuous
 62
     0
100
AcDbLine
 10
-39.99999999999996
 20
32.59950840068013
 30
0.0
 11
40.0
 21
32.59950840068013
 31
0.0
  0
INSERT
  5
68A4
330
5E7C
100
AcDbEntity
  8
30
  6
Continuous
 62
     0
100
AcDbBlockReference
  2
_OPEN
 10
-41.99999999999996
 20
32.59950840068013
 30
0.0
 41
2.0
 42
2.0
 43
2.0
 50
180.0
  0
INSERT
  5
68A5
330
5E7C
100
AcDbEntity
  8
30
  6
Continuous
 62
     0
100
AcDbBlockReference
  2
_OPEN
 10
42.00000000000001
 20
32.59950840068013
 30
0.0
 41
2.0
 42
2.0
 43
2.0
  0
MTEXT
  5
68A6
330
5E7C
100
AcDbEntity
  8
30
  6
Continuous
 62
     0
100
AcDbMText
 10
0.0000000000000215
 20
35.59950840068013
 30
0.0
 40
4.0
 41
0.0
 71
     5
 72
     1
  1
\A1;84
 73
     1
 44
1.0
1001
ACAD
1000
MTEXTBEGIN
1070
    73
1070
     1
1070
    44
1040
1.0
1070
    74
1070
     0
1000
MTEXTEND
  0
POINT
  5
68A7
330
5E7C
100
AcDbEntity
  8
DEFPOINTS
  6
Continuous
 62
     0
100
AcDbPoint
 10
-41.99999999999996
 20
24.99999999999996
 30
0.0
  0
POINT
  5
68A8
330
5E7C
100
AcDbEntity
  8
DEFPOINTS
  6
Continuous
 62
     0
100
AcDbPoint
 10
42.00000000000001
 20
24.99999999999996
 30
0.0
  0
POINT
  5
68A9
330
5E7C
100
AcDbEntity
  8
DEFPOINTS
  6
Continuous
 62
     0
100
AcDbPoint
 10
42.00000000000001
 20
32.59950840068013
 30
0.0
  0
ENDBLK
  5
5E87
330
5E7C
100
AcDbEntity
  8
0
100
AcDbBlockEnd
  0
BLOCK
  5
5E92
330
5E88
100
AcDbEntity
  8
0
100
AcDbBlockBegin
  2
*D17
 70
     1
 10
0.0
 20
0.0
 30
0.0
  3
*D17
  1

  0
LINE
  5
6898
330
5E88
100
AcDbEntity
  8
30
  6
Continuous
 62
     0
100
AcDbLine
 10
-44.99999999999997
 20
-78.50000000000003
 30
0.0
 11
-44.99999999999997
 21
-122.2494181439514
 31
0.0
  0
LINE
  5
6899
330
5E88
100
AcDbEntity
  8
30
  6
Continuous
 62
     0
100
AcDbLine
 10
45.0
 20
-78.50000000000003
 30
0.0
 11
45.0
 21
-122.2494181439514
 31
0.0
  0
LINE
  5
689A
330
5E88
100
AcDbEntity
  8
30
  6
Continuous
 62
     0
100
AcDbLine
 10
-42.99999999999997
 20
-121.7494181439514
 30
0.0
 11
43.0
 21
-121.7494181439514
 31
0.0
  0
INSERT
  5
689B
330
5E88
100
AcDbEntity
  8
30
  6
Continuous
 62
     0
100
AcDbBlockReference
  2
_OPEN
 10
-44.99999999999997
 20
-121.7494181439514
 30
0.0
 41
2.0
 42
2.0
 43
2.0
 50
180.0
  0
INSERT
  5
689C
330
5E88
100
AcDbEntity
  8
30
  6
Continuous
 62
     0
100
AcDbBlockReference
  2
_OPEN
 10
45.0
 20
-121.7494181439514
 30
0.0
 41
2.0
 42
2.0
 43
2.0
  0
MTEXT
  5
689D
330
5E88
100
AcDbEntity
  8
30
  6
Continuous
 62
     0
100
AcDbMText
 10
0.0000000000000144
 20
-118.7494181439514
 30
0.0
 40
4.0
 41
0.0
 71
     5
 72
     1
  1
\A1;90
 73
     1
 44
1.0
1001
ACAD
1000
MTEXTBEGIN
1070
    73
1070
     1
1070
    44
1040
1.0
1070
    74
1070
     0
1000
MTEXTEND
  0
POINT
  5
689E
330
5E88
100
AcDbEntity
  8
DEFPOINTS
  6
Continuous
 62
     0
100
AcDbPoint
 10
-44.99999999999997
 20
-77.50000000000003
 30
0.0
  0
POINT
  5
689F
330
5E88
100
AcDbEntity
  8
DEFPOINTS
  6
Continuous
 62
     0
100
AcDbPoint
 10
45.0
 20
-77.50000000000003
 30
0.0
  0
POINT
  5
68A0
330
5E88
100
AcDbEntity
  8
DEFPOINTS
  6
Continuous
 62
     0
100
AcDbPoint
 10
45.0
 20
-121.7494181439514
 30
0.0
  0
ENDBLK
  5
5E93
330
5E88
100
AcDbEntity
  8
0
100
AcDbBlockEnd
  0
BLOCK
  5
5E9E
330
5E94
100
AcDbEntity
  8
0
100
AcDbBlockBegin
  2
*D18
 70
     1
 10
0.0
 20
0.0
 30
0.0
  3
*D18
  1

  0
LINE
  5
688F
330
5E94
100
AcDbEntity
  8
30
  6
Continuous
 62
     0
100
AcDbLine
 10
-29.99999999999995
 20
-70.50000001650004
 30
0.0
 11
-29.99999999999995
 21
-102.2494181439514
 31
0.0
  0
LINE
  5
6890
330
5E94
100
AcDbEntity
  8
30
  6
Continuous
 62
     0
100
AcDbLine
 10
30.00000000000003
 20
-70.50000001650004
 30
0.0
 11
30.00000000000003
 21
-102.2494181439514
 31
0.0
  0
LINE
  5
6891
330
5E94
100
AcDbEntity
  8
30
  6
Continuous
 62
     0
100
AcDbLine
 10
-27.99999999999994
 20
-101.7494181439513
 30
0.0
 11
28.00000000000002
 21
-101.7494181439513
 31
0.0
  0
INSERT
  5
6892
330
5E94
100
AcDbEntity
  8
30
  6
Continuous
 62
     0
100
AcDbBlockReference
  2
_OPEN
 10
-29.99999999999995
 20
-101.7494181439513
 30
0.0
 41
2.0
 42
2.0
 43
2.0
 50
180.0
  0
INSERT
  5
6893
330
5E94
100
AcDbEntity
  8
30
  6
Continuous
 62
     0
100
AcDbBlockReference
  2
_OPEN
 10
30.00000000000003
 20
-101.7494181439513
 30
0.0
 41
2.0
 42
2.0
 43
2.0
  0
MTEXT
  5
6894
330
5E94
100
AcDbEntity
  8
30
  6
Continuous
 62
     0
100
AcDbMText
 10
0.000000000000041
 20
-98.7494181439515
 30
0.0
 40
4.0
 41
0.0
 71
     5
 72
     1
  1
\A1;60
 73
     1
 44
1.0
1001
ACAD
1000
MTEXTBEGIN
1070
    73
1070
     1
1070
    44
1040
1.0
1070
    74
1070
     0
1000
MTEXTEND
  0
POINT
  5
6895
330
5E94
100
AcDbEntity
  8
DEFPOINTS
  6
Continuous
 62
     0
100
AcDbPoint
 10
-29.99999999999995
 20
-69.50000001650003
 30
0.0
  0
POINT
  5
6896
330
5E94
100
AcDbEntity
  8
DEFPOINTS
  6
Continuous
 62
     0
100
AcDbPoint
 10
30.00000000000003
 20
-69.50000001650003
 30
0.0
  0
POINT
  5
6897
330
5E94
100
AcDbEntity
  8
DEFPOINTS
  6
Continuous
 62
     0
100
AcDbPoint
 10
30.00000000000003
 20
-101.7494181439513
 30
0.0
  0
ENDBLK
  5
5E9F
330
5E94
100
AcDbEntity
  8
0
100
AcDbBlockEnd
  0
BLOCK
  5
5EAA
330
5EA0
100
AcDbEntity
  8
0
100
AcDbBlockBegin
  2
*D19
 70
     1
 10
0.0
 20
0.0
 30
0.0
  3
*D19
  1

  0
LINE
  5
6886
330
5EA0
100
AcDbEntity
  8
30
  6
Continuous
 62
     0
100
AcDbLine
 10
-10.99999999999999
 20
-26.0
 30
0.0
 11
-10.99999999999999
 21
-42.2494181439515
 31
0.0
  0
LINE
  5
6887
330
5EA0
100
AcDbEntity
  8
30
  6
Continuous
 62
     0
100
AcDbLine
 10
11.00000000000002
 20
-26.0
 30
0.0
 11
11.00000000000002
 21
-42.2494181439515
 31
0.0
  0
LINE
  5
6888
330
5EA0
100
AcDbEntity
  8
30
  6
Continuous
 62
     0
100
AcDbLine
 10
-8.999999999999991
 20
-41.74941814395149
 30
0.0
 11
9.000000000000046
 21
-41.74941814395149
 31
0.0
  0
INSERT
  5
6889
330
5EA0
100
AcDbEntity
  8
30
  6
Continuous
 62
     0
100
AcDbBlockReference
  2
_OPEN
 10
-10.99999999999999
 20
-41.74941814395149
 30
0.0
 41
2.0
 42
2.0
 43
2.0
 50
180.0
  0
INSERT
  5
688A
330
5EA0
100
AcDbEntity
  8
30
  6
Continuous
 62
     0
100
AcDbBlockReference
  2
_OPEN
 10
11.00000000000002
 20
-41.74941814395149
 30
0.0
 41
2.0
 42
2.0
 43
2.0
  0
MTEXT
  5
688B
330
5EA0
100
AcDbEntity
  8
30
  6
Continuous
 62
     0
100
AcDbMText
 10
0.0000000000000277
 20
-38.7494181439515
 30
0.0
 40
4.0
 41
0.0
 71
     5
 72
     1
  1
\A1;22
 73
     1
 44
1.0
1001
ACAD
1000
MTEXTBEGIN
1070
    73
1070
     1
1070
    44
1040
1.0
1070
    74
1070
     0
1000
MTEXTEND
  0
POINT
  5
688C
330
5EA0
100
AcDbEntity
  8
DEFPOINTS
  6
Continuous
 62
     0
100
AcDbPoint
 10
-10.99999999999999
 20
-25.0
 30
0.0
  0
POINT
  5
688D
330
5EA0
100
AcDbEntity
  8
DEFPOINTS
  6
Continuous
 62
     0
100
AcDbPoint
 10
11.00000000000002
 20
-25.0
 30
0.0
  0
POINT
  5
688E
330
5EA0
100
AcDbEntity
  8
DEFPOINTS
  6
Continuous
 62
     0
100
AcDbPoint
 10
11.00000000000002
 20
-41.74941814395149
 30
0.0
  0
ENDBLK
  5
5EAB
330
5EA0
100
AcDbEntity
  8
0
100
AcDbBlockEnd
  0
BLOCK
  5
5F03
330
5EF9
100
AcDbEntity
  8
0
100
AcDbBlockBegin
  2
*D20
 70
     1
 10
0.0
 20
0.0
 30
0.0
  3
*D20
  1

  0
LINE
  5
6945
330
5EF9
100
AcDbEntity
  8
30
  6
Continuous
 62
     0
100
AcDbLine
 10
-14.99999999999999
 20
-192.5000000165002
 30
0.0
 11
-15.0
 21
-357.2494181439513
 31
0.0
  0
LINE
  5
6946
330
5EF9
100
AcDbEntity
  8
30
  6
Continuous
 62
     0
100
AcDbLine
 10
15.0
 20
-324.5000000165001
 30
0.0
 11
15.0
 21
-357.2494181439513
 31
0.0
  0
LINE
  5
6947
330
5EF9
100
AcDbEntity
  8
30
  6
Continuous
 62
     0
100
AcDbLine
 10
-13.0
 20
-356.7494181439514
 30
0.0
 11
12.99999999999999
 21
-356.7494181439514
 31
0.0
  0
INSERT
  5
6948
330
5EF9
100
AcDbEntity
  8
30
  6
Continuous
 62
     0
100
AcDbBlockReference
  2
_OPEN
 10
-15.0
 20
-356.7494181439514
 30
0.0
 41
2.0
 42
2.0
 43
2.0
 50
180.0
  0
INSERT
  5
6949
330
5EF9
100
AcDbEntity
  8
30
  6
Continuous
 62
     0
100
AcDbBlockReference
  2
_OPEN
 10
15.0
 20
-356.7494181439514
 30
0.0
 41
2.0
 42
2.0
 43
2.0
  0
MTEXT
  5
694A
330
5EF9
100
AcDbEntity
  8
30
  6
Continuous
 62
     0
100
AcDbMText
 10
-0.0000000000000016
 20
-353.7494181439513
 30
0.0
 40
4.0
 41
0.0
 71
     5
 72
     1
  1
\A1;30
 73
     1
 44
1.0
1001
ACAD
1000
MTEXTBEGIN
1070
    73
1070
     1
1070
    44
1040
1.0
1070
    74
1070
     0
1000
MTEXTEND
  0
POINT
  5
694B
330
5EF9
100
AcDbEntity
  8
DEFPOINTS
  6
Continuous
 62
     0
100
AcDbPoint
 10
-14.99999999999999
 20
-191.5000000165002
 30
0.0
  0
POINT
  5
694C
330
5EF9
100
AcDbEntity
  8
DEFPOINTS
  6
Continuous
 62
     0
100
AcDbPoint
 10
15.0
 20
-323.5000000165001
 30
0.0
  0
POINT
  5
694D
330
5EF9
100
AcDbEntity
  8
DEFPOINTS
  6
Continuous
 62
     0
100
AcDbPoint
 10
15.0
 20
-356.7494181439514
 30
0.0
  0
ENDBLK
  5
5F04
330
5EF9
100
AcDbEntity
  8
0
100
AcDbBlockEnd
  0
BLOCK
  5
5F38
330
5F2F
100
AcDbEntity
  8
0
100
AcDbBlockBegin
  2
*D21
 70
     1
 10
0.0
 20
0.0
 30
0.0
  3
*D21
  1

  0
LINE
  5
65B2
330
5F2F
100
AcDbEntity
  8
30
  6
Continuous
 62
     0
100
AcDbLine
 10
51.91960537553277
 20
-224.6187952184035
 30
0.0
 11
45.5862720421994
 21
-224.6187952184035
 31
0.0
  0
LINE
  5
65B3
330
5F2F
100
AcDbEntity
  8
30
  6
Continuous
 62
     0
100
AcDbLine
 10
45.5862720421994
 20
-224.6187952184035
 30
0.0
 11
43.99972541125129
 21
-225.8365266287836
 31
0.0
  0
MTEXT
  5
65B4
330
5F2F
100
AcDbEntity
  8
30
  6
Continuous
 62
     0
100
AcDbMText
 10
49.25293870886611
 20
-221.6187952184035
 30
0.0
 40
4.0
 41
0.0
 71
     5
 72
     1
  1
\A1;R1
 73
     1
 44
1.0
1001
ACAD
1000
MTEXTBEGIN
1070
    73
1070
     1
1070
    44
1040
1.0
1070
    74
1070
     0
1000
MTEXTEND
  0
INSERT
  5
65B5
330
5F2F
100
AcDbEntity
  8
30
  6
Continuous
 62
     0
100
AcDbBlockReference
  2
_OPEN
 10
42.41317878030318
 20
-227.0542580391643
 30
0.0
 41
2.0
 42
2.0
 43
2.0
 50
217.5075311795294
  0
LINE
  5
65B6
330
5F2F
100
AcDbEntity
  8
30
  6
Continuous
 62
     0
100
AcDbLine
 10
41.52990546482917
 20
-227.6631237443545
 30
0.0
 11
41.70990546482918
 21
-227.6631237443547
 31
0.0
  0
LINE
  5
65B7
330
5F2F
100
AcDbEntity
  8
30
  6
Continuous
 62
     0
100
AcDbLine
 10
41.61990546482917
 20
-227.7531237443545
 30
0.0
 11
41.61990546482917
 21
-227.5731237443546
 31
0.0
  0
POINT
  5
65B8
330
5F2F
100
AcDbEntity
  8
DEFPOINTS
  6
Continuous
 62
     0
100
AcDbPoint
 10
42.41317878030318
 20
-227.0542580391643
 30
0.0
  0
POINT
  5
65B9
330
5F2F
100
AcDbEntity
  8
DEFPOINTS
  6
Continuous
 62
     0
100
AcDbPoint
 10
41.61990546482917
 20
-227.6631237443547
 30
0.0
  0
ENDBLK
  5
5F39
330
5F2F
100
AcDbEntity
  8
0
100
AcDbBlockEnd
  0
BLOCK
  5
5F76
330
5F6C
100
AcDbEntity
  8
0
100
AcDbBlockBegin
  2
*D22
 70
     1
 10
0.0
 20
0.0
 30
0.0
  3
*D22
  1

  0
LINE
  5
6874
330
5F6C
100
AcDbEntity
  8
30
  6
Continuous
 62
     0
100
AcDbLine
 10
-31.01790353517123
 20
217.1349134126129
 30
0.0
 11
-31.01790353517123
 21
257.4821974718418
 31
0.0
  0
LINE
  5
6875
330
5F6C
100
AcDbEntity
  8
30
  6
Continuous
 62
     0
100
AcDbLine
 10
-1.017903535171259
 20
217.1349134126129
 30
0.0
 11
-1.017903535171257
 21
257.4821974718418
 31
0.0
  0
LINE
  5
6876
330
5F6C
100
AcDbEntity
  8
30
  6
Continuous
 62
     0
100
AcDbLine
 10
-29.01790353517123
 20
256.9821974718418
 30
0.0
 11
-3.017903535171256
 21
256.9821974718418
 31
0.0
  0
INSERT
  5
6877
330
5F6C
100
AcDbEntity
  8
30
  6
Continuous
 62
     0
100
AcDbBlockReference
  2
_OPEN
 10
-31.01790353517123
 20
256.9821974718418
 30
0.0
 41
2.0
 42
2.0
 43
2.0
 50
180.0
  0
INSERT
  5
6878
330
5F6C
100
AcDbEntity
  8
30
  6
Continuous
 62
     0
100
AcDbBlockReference
  2
_OPEN
 10
-1.017903535171257
 20
256.9821974718418
 30
0.0
 41
2.0
 42
2.0
 43
2.0
  0
MTEXT
  5
6879
330
5F6C
100
AcDbEntity
  8
30
  6
Continuous
 62
     0
100
AcDbMText
 10
-16.01790353517124
 20
259.9821974718417
 30
0.0
 40
4.0
 41
0.0
 71
     5
 72
     1
  1
\A1;30
 73
     1
 44
1.0
1001
ACAD
1000
MTEXTBEGIN
1070
    73
1070
     1
1070
    44
1040
1.0
1070
    74
1070
     0
1000
MTEXTEND
  0
POINT
  5
687A
330
5F6C
100
AcDbEntity
  8
DEFPOINTS
  6
Continuous
 62
     0
100
AcDbPoint
 10
-31.01790353517123
 20
216.1349134126129
 30
0.0
  0
POINT
  5
687B
330
5F6C
100
AcDbEntity
  8
DEFPOINTS
  6
Continuous
 62
     0
100
AcDbPoint
 10
-1.017903535171259
 20
216.1349134126129
 30
0.0
  0
POINT
  5
687C
330
5F6C
100
AcDbEntity
  8
DEFPOINTS
  6
Continuous
 62
     0
100
AcDbPoint
 10
-1.017903535171257
 20
256.9821974718418
 30
0.0
  0
ENDBLK
  5
5F77
330
5F6C
100
AcDbEntity
  8
0
100
AcDbBlockEnd
  0
BLOCK
  5
5F83
330
5F79
100
AcDbEntity
  8
0
100
AcDbBlockBegin
  2
*D23
 70
     1
 10
0.0
 20
0.0
 30
0.0
  3
*D23
  1

  0
LINE
  5
686B
330
5F79
100
AcDbEntity
  8
30
  6
Continuous
 62
     0
100
AcDbLine
 10
-1.017903535171259
 20
218.1349134126129
 30
0.0
 11
-1.017903535171257
 21
257.4821974718418
 31
0.0
  0
LINE
  5
686C
330
5F79
100
AcDbEntity
  8
30
  6
Continuous
 62
     0
100
AcDbLine
 10
28.98209646482873
 20
217.1349134126129
 30
0.0
 11
28.98209646482873
 21
257.4821974718418
 31
0.0
  0
LINE
  5
686D
330
5F79
100
AcDbEntity
  8
30
  6
Continuous
 62
     0
100
AcDbLine
 10
0.9820964648287423
 20
256.9821974718418
 30
0.0
 11
26.98209646482872
 21
256.9821974718418
 31
0.0
  0
INSERT
  5
686E
330
5F79
100
AcDbEntity
  8
30
  6
Continuous
 62
     0
100
AcDbBlockReference
  2
_OPEN
 10
-1.017903535171257
 20
256.9821974718418
 30
0.0
 41
2.0
 42
2.0
 43
2.0
 50
180.0
  0
INSERT
  5
686F
330
5F79
100
AcDbEntity
  8
30
  6
Continuous
 62
     0
100
AcDbBlockReference
  2
_OPEN
 10
28.98209646482873
 20
256.9821974718418
 30
0.0
 41
2.0
 42
2.0
 43
2.0
  0
MTEXT
  5
6870
330
5F79
100
AcDbEntity
  8
30
  6
Continuous
 62
     0
100
AcDbMText
 10
13.98209646482873
 20
259.9821974718417
 30
0.0
 40
4.0
 41
0.0
 71
     5
 72
     1
  1
\A1;30
 73
     1
 44
1.0
1001
ACAD
1000
MTEXTBEGIN
1070
    73
1070
     1
1070
    44
1040
1.0
1070
    74
1070
     0
1000
MTEXTEND
  0
POINT
  5
6871
330
5F79
100
AcDbEntity
  8
DEFPOINTS
  6
Continuous
 62
     0
100
AcDbPoint
 10
-1.017903535171259
 20
217.1349134126129
 30
0.0
  0
POINT
  5
6872
330
5F79
100
AcDbEntity
  8
DEFPOINTS
  6
Continuous
 62
     0
100
AcDbPoint
 10
28.98209646482873
 20
216.1349134126129
 30
0.0
  0
POINT
  5
6873
330
5F79
100
AcDbEntity
  8
DEFPOINTS
  6
Continuous
 62
     0
100
AcDbPoint
 10
28.98209646482873
 20
256.9821974718418
 30
0.0
  0
ENDBLK
  5
5F84
330
5F79
100
AcDbEntity
  8
0
100
AcDbBlockEnd
  0
BLOCK
  5
6016
330
600C
100
AcDbEntity
  8
0
100
AcDbBlockBegin
  2
*D24
 70
     1
 10
0.0
 20
0.0
 30
0.0
  3
*D24
  1

  0
LINE
  5
6597
330
600C
100
AcDbEntity
  8
30
  6
Continuous
 62
     0
100
AcDbLine
 10
-43.38009453517117
 20
-278.6631237443549
 30
0.0
 11
-43.38009453517117
 21
-371.8804450066013
 31
0.0
  0
LINE
  5
6598
330
600C
100
AcDbEntity
  8
30
  6
Continuous
 62
     0
100
AcDbLine
 10
42.61990546482903
 20
-278.6631237443549
 30
0.0
 11
42.61990546482902
 21
-371.8804450066013
 31
0.0
  0
LINE
  5
6599
330
600C
100
AcDbEntity
  8
30
  6
Continuous
 62
     0
100
AcDbLine
 10
-41.3800945351712
 20
-371.3804450066013
 30
0.0
 11
40.61990546482902
 21
-371.3804450066013
 31
0.0
  0
INSERT
  5
659A
330
600C
100
AcDbEntity
  8
30
  6
Continuous
 62
     0
100
AcDbBlockReference
  2
_OPEN
 10
-43.38009453517117
 20
-371.3804450066013
 30
0.0
 41
2.0
 42
2.0
 43
2.0
 50
180.0
  0
INSERT
  5
659B
330
600C
100
AcDbEntity
  8
30
  6
Continuous
 62
     0
100
AcDbBlockReference
  2
_OPEN
 10
42.61990546482902
 20
-371.3804450066013
 30
0.0
 41
2.0
 42
2.0
 43
2.0
  0
MTEXT
  5
659C
330
600C
100
AcDbEntity
  8
30
  6
Continuous
 62
     0
100
AcDbMText
 10
-0.3800945351710856
 20
-368.3804450066014
 30
0.0
 40
4.0
 41
0.0
 71
     5
 72
     1
  1
\A1;86
 73
     1
 44
1.0
1001
ACAD
1000
MTEXTBEGIN
1070
    73
1070
     1
1070
    44
1040
1.0
1070
    74
1070
     0
1000
MTEXTEND
  0
POINT
  5
659D
330
600C
100
AcDbEntity
  8
DEFPOINTS
  6
Continuous
 62
     0
100
AcDbPoint
 10
-43.38009453517117
 20
-277.6631237443548
 30
0.0
  0
POINT
  5
659E
330
600C
100
AcDbEntity
  8
DEFPOINTS
  6
Continuous
 62
     0
100
AcDbPoint
 10
42.61990546482903
 20
-277.6631237443548
 30
0.0
  0
POINT
  5
659F
330
600C
100
AcDbEntity
  8
DEFPOINTS
  6
Continuous
 62
     0
100
AcDbPoint
 10
42.61990546482902
 20
-371.3804450066013
 30
0.0
  0
ENDBLK
  5
6017
330
600C
100
AcDbEntity
  8
0
100
AcDbBlockEnd
  0
BLOCK
  5
60C7
330
60BD
100
AcDbEntity
  8
0
100
AcDbBlockBegin
  2
*D25
 70
     1
 10
0.0
 20
0.0
 30
0.0
  3
*D25
  1

  0
LINE
  5
658E
330
60BD
100
AcDbEntity
  8
30
  6
Continuous
 62
     0
100
AcDbLine
 10
42.61990546482879
 20
-226.6631237443549
 30
0.0
 11
76.13773581904563
 21
-226.6631237443549
 31
0.0
  0
LINE
  5
658F
330
60BD
100
AcDbEntity
  8
30
  6
Continuous
 62
     0
100
AcDbLine
 10
42.61990546482879
 20
-278.6631237443549
 30
0.0
 11
76.13773581904563
 21
-278.6631237443549
 31
0.0
  0
LINE
  5
6590
330
60BD
100
AcDbEntity
  8
30
  6
Continuous
 62
     0
100
AcDbLine
 10
75.63773581904563
 20
-228.6631237443549
 30
0.0
 11
75.63773581904563
 21
-276.6631237443549
 31
0.0
  0
INSERT
  5
6591
330
60BD
100
AcDbEntity
  8
30
  6
Continuous
 62
     0
100
AcDbBlockReference
  2
_OPEN
 10
75.63773581904563
 20
-226.6631237443549
 30
0.0
 41
2.0
 42
2.0
 43
2.0
 50
90.0
  0
INSERT
  5
6592
330
60BD
100
AcDbEntity
  8
30
  6
Continuous
 62
     0
100
AcDbBlockReference
  2
_OPEN
 10
75.63773581904563
 20
-278.6631237443549
 30
0.0
 41
2.0
 42
2.0
 43
2.0
 50
270.0
  0
MTEXT
  5
6593
330
60BD
100
AcDbEntity
  8
30
  6
Continuous
 62
     0
100
AcDbMText
 10
72.63773581904567
 20
-252.6631237443548
 30
0.0
 40
4.0
 41
0.0
 71
     5
 72
     1
  1
\A1;52
 11
0.0000000000000001
 21
1.0
 31
0.0
 73
     1
 44
1.0
1001
ACAD
1000
MTEXTBEGIN
1070
    73
1070
     1
1070
    44
1040
1.0
1070
    74
1070
     0
1000
MTEXTEND
  0
POINT
  5
6594
330
60BD
100
AcDbEntity
  8
DEFPOINTS
  6
Continuous
 62
     0
100
AcDbPoint
 10
41.61990546482878
 20
-226.6631237443549
 30
0.0
  0
POINT
  5
6595
330
60BD
100
AcDbEntity
  8
DEFPOINTS
  6
Continuous
 62
     0
100
AcDbPoint
 10
41.61990546482878
 20
-278.6631237443549
 30
0.0
  0
POINT
  5
6596
330
60BD
100
AcDbEntity
  8
DEFPOINTS
  6
Continuous
 62
     0
100
AcDbPoint
 10
75.63773581904563
 20
-278.6631237443549
 30
0.0
  0
ENDBLK
  5
60C8
330
60BD
100
AcDbEntity
  8
0
100
AcDbBlockEnd
  0
BLOCK
  5
6162
330
6158
100
AcDbEntity
  8
0
100
AcDbBlockBegin
  2
*D26
 70
     1
 10
0.0
 20
0.0
 30
0.0
  3
*D26
  1

  0
LINE
  5
693C
330
6158
100
AcDbEntity
  8
30
  6
Continuous
 62
     0
100
AcDbLine
 10
-8.499999999999998
 20
-189.0
 30
0.0
 11
88.41568416193036
 21
-189.0
 31
0.0
  0
LINE
  5
693D
330
6158
100
AcDbEntity
  8
30
  6
Continuous
 62
     0
100
AcDbLine
 10
21.49999999999998
 20
-320.9999999999999
 30
0.0
 11
88.41568416193036
 21
-320.9999999999999
 31
0.0
  0
LINE
  5
693E
330
6158
100
AcDbEntity
  8
30
  6
Continuous
 62
     0
100
AcDbLine
 10
87.91568416193035
 20
-191.0
 30
0.0
 11
87.91568416193033
 21
-318.9999999999999
 31
0.0
  0
INSERT
  5
693F
330
6158
100
AcDbEntity
  8
30
  6
Continuous
 62
     0
100
AcDbBlockReference
  2
_OPEN
 10
87.91568416193035
 20
-189.0
 30
0.0
 41
2.0
 42
2.0
 43
2.0
 50
90.0
  0
INSERT
  5
6940
330
6158
100
AcDbEntity
  8
30
  6
Continuous
 62
     0
100
AcDbBlockReference
  2
_OPEN
 10
87.91568416193033
 20
-320.9999999999999
 30
0.0
 41
2.0
 42
2.0
 43
2.0
 50
270.0
  0
MTEXT
  5
6941
330
6158
100
AcDbEntity
  8
30
  6
Continuous
 62
     0
100
AcDbMText
 10
84.91568416193038
 20
-255.0
 30
0.0
 40
4.0
 41
0.0
 71
     5
 72
     1
  1
\A1;132
 11
0.0000000000000001
 21
1.0
 31
0.0
 73
     1
 44
1.0
1001
ACAD
1000
MTEXTBEGIN
1070
    73
1070
     1
1070
    44
1040
1.0
1070
    74
1070
     0
1000
MTEXTEND
  0
POINT
  5
6942
330
6158
100
AcDbEntity
  8
DEFPOINTS
  6
Continuous
 62
     0
100
AcDbPoint
 10
-9.499999999999998
 20
-189.0
 30
0.0
  0
POINT
  5
6943
330
6158
100
AcDbEntity
  8
DEFPOINTS
  6
Continuous
 62
     0
100
AcDbPoint
 10
20.49999999999998
 20
-320.9999999999999
 30
0.0
  0
POINT
  5
6944
330
6158
100
AcDbEntity
  8
DEFPOINTS
  6
Continuous
 62
     0
100
AcDbPoint
 10
87.91568416193033
 20
-320.9999999999999
 30
0.0
  0
ENDBLK
  5
6163
330
6158
100
AcDbEntity
  8
0
100
AcDbBlockEnd
  0
BLOCK
  5
61AA
330
61A0
100
AcDbEntity
  8
0
100
AcDbBlockBegin
  2
*D27
 70
     1
 10
0.0
 20
0.0
 30
0.0
  3
*D27
  1

  0
LINE
  5
6859
330
61A0
100
AcDbEntity
  8
30
  6
Continuous
 62
     0
100
AcDbLine
 10
-17.5
 20
124.4999999999996
 30
0.0
 11
-68.68995837047084
 21
124.4999999999996
 31
0.0
  0
LINE
  5
685A
330
61A0
100
AcDbEntity
  8
30
  6
Continuous
 62
     0
100
AcDbLine
 10
-45.99999999999996
 20
77.49999999999997
 30
0.0
 11
-68.68995837047086
 21
77.49999999999997
 31
0.0
  0
LINE
  5
685B
330
61A0
100
AcDbEntity
  8
30
  6
Continuous
 62
     0
100
AcDbLine
 10
-68.18995837047085
 20
122.4999999999996
 30
0.0
 11
-68.18995837047086
 21
79.49999999999997
 31
0.0
  0
INSERT
  5
685C
330
61A0
100
AcDbEntity
  8
30
  6
Continuous
 62
     0
100
AcDbBlockReference
  2
_OPEN
 10
-68.18995837047085
 20
124.4999999999996
 30
0.0
 41
2.0
 42
2.0
 43
2.0
 50
90.0
  0
INSERT
  5
685D
330
61A0
100
AcDbEntity
  8
30
  6
Continuous
 62
     0
100
AcDbBlockReference
  2
_OPEN
 10
-68.18995837047086
 20
77.49999999999997
 30
0.0
 41
2.0
 42
2.0
 43
2.0
 50
270.0
  0
MTEXT
  5
685E
330
61A0
100
AcDbEntity
  8
30
  6
Continuous
 62
     0
100
AcDbMText
 10
-71.18995837047087
 20
100.9999999999997
 30
0.0
 40
4.0
 41
0.0
 71
     5
 72
     1
  1
\A1;47
 11
0.0000000000000001
 21
1.0
 31
0.0
 73
     1
 44
1.0
1001
ACAD
1000
MTEXTBEGIN
1070
    73
1070
     1
1070
    44
1040
1.0
1070
    74
1070
     0
1000
MTEXTEND
  0
POINT
  5
685F
330
61A0
100
AcDbEntity
  8
DEFPOINTS
  6
Continuous
 62
     0
100
AcDbPoint
 10
-16.5
 20
124.4999999999996
 30
0.0
  0
POINT
  5
6860
330
61A0
100
AcDbEntity
  8
DEFPOINTS
  6
Continuous
 62
     0
100
AcDbPoint
 10
-44.99999999999997
 20
77.49999999999997
 30
0.0
  0
POINT
  5
6861
330
61A0
100
AcDbEntity
  8
DEFPOINTS
  6
Continuous
 62
     0
100
AcDbPoint
 10
-68.18995837047086
 20
77.49999999999997
 30
0.0
  0
ENDBLK
  5
61AB
330
61A0
100
AcDbEntity
  8
0
100
AcDbBlockEnd
  0
BLOCK
  5
61B7
330
61AD
100
AcDbEntity
  8
0
100
AcDbBlockBegin
  2
*D28
 70
     1
 10
0.0
 20
0.0
 30
0.0
  3
*D28
  1

  0
LINE
  5
6A23
330
61AD
100
AcDbEntity
  8
30
  6
Continuous
 62
     0
100
AcDbLine
 10
-45.99999999999996
 20
77.49999999999997
 30
0.0
 11
-68.68995837047086
 21
77.49999999999997
 31
0.0
  0
LINE
  5
6A24
330
61AD
100
AcDbEntity
  8
30
  6
Continuous
 62
     0
100
AcDbLine
 10
-45.99999999999996
 20
-77.50000000000003
 30
0.0
 11
-68.68995837047089
 21
-77.50000000000003
 31
0.0
  0
LINE
  5
6A25
330
61AD
100
AcDbEntity
  8
30
  6
Continuous
 62
     0
100
AcDbLine
 10
-68.18995837047086
 20
75.49999999999997
 30
0.0
 11
-68.18995837047089
 21
-75.50000000000003
 31
0.0
  0
INSERT
  5
6A26
330
61AD
100
AcDbEntity
  8
30
  6
Continuous
 62
     0
100
AcDbBlockReference
  2
_OPEN
 10
-68.18995837047086
 20
77.49999999999997
 30
0.0
 41
2.0
 42
2.0
 43
2.0
 50
90.0
  0
INSERT
  5
6A27
330
61AD
100
AcDbEntity
  8
30
  6
Continuous
 62
     0
100
AcDbBlockReference
  2
_OPEN
 10
-68.18995837047089
 20
-77.50000000000003
 30
0.0
 41
2.0
 42
2.0
 43
2.0
 50
270.0
  0
MTEXT
  5
6A28
330
61AD
100
AcDbEntity
  8
30
  6
Continuous
 62
     0
100
AcDbMText
 10
-71.18995837047087
 20
-0.0000000000000381
 30
0.0
 40
4.0
 41
0.0
 71
     5
 72
     1
  1
\A1;155
 11
0.0000000000000001
 21
1.0
 31
0.0
 73
     1
 44
1.0
1001
ACAD
1000
MTEXTBEGIN
1070
    73
1070
     1
1070
    44
1040
1.0
1070
    74
1070
     0
1000
MTEXTEND
  0
POINT
  5
6A29
330
61AD
100
AcDbEntity
  8
DEFPOINTS
  6
Continuous
 62
     0
100
AcDbPoint
 10
-44.99999999999997
 20
77.49999999999997
 30
0.0
  0
POINT
  5
6A2A
330
61AD
100
AcDbEntity
  8
DEFPOINTS
  6
Continuous
 62
     0
100
AcDbPoint
 10
-44.99999999999997
 20
-77.50000000000003
 30
0.0
  0
POINT
  5
6A2B
330
61AD
100
AcDbEntity
  8
DEFPOINTS
  6
Continuous
 62
     0
100
AcDbPoint
 10
-68.18995837047089
 20
-77.50000000000003
 30
0.0
  0
ENDBLK
  5
61B8
330
61AD
100
AcDbEntity
  8
0
100
AcDbBlockEnd
  0
BLOCK
  5
66AC
330
66A2
100
AcDbEntity
  8
0
100
AcDbBlockBegin
  2
*D29
 70
     1
 10
0.0
 20
0.0
 30
0.0
  3
*D29
  1

  0
LINE
  5
6847
330
66A2
100
AcDbEntity
  8
30
  6
Continuous
 62
     0
100
AcDbLine
 10
221.8144775593031
 20
-78.50000000000003
 30
0.0
 11
221.8144775593031
 21
-90.41608514395143
 31
0.0
  0
LINE
  5
6848
330
66A2
100
AcDbEntity
  8
30
  6
Continuous
 62
     0
100
AcDbLine
 10
229.8144775593029
 20
-69.25000000000001
 30
0.0
 11
229.8144775593029
 21
-90.41608514395143
 31
0.0
  0
LINE
  5
6849
330
66A2
100
AcDbEntity
  8
30
  6
Continuous
 62
     0
100
AcDbLine
 10
223.8144775593031
 20
-89.91608514395144
 30
0.0
 11
227.814477559303
 21
-89.91608514395144
 31
0.0
  0
INSERT
  5
684A
330
66A2
100
AcDbEntity
  8
30
  6
Continuous
 62
     0
100
AcDbBlockReference
  2
_OPEN
 10
221.8144775593031
 20
-89.91608514395144
 30
0.0
 41
2.0
 42
2.0
 43
2.0
 50
180.0
  0
INSERT
  5
684B
330
66A2
100
AcDbEntity
  8
30
  6
Continuous
 62
     0
100
AcDbBlockReference
  2
_OPEN
 10
229.8144775593029
 20
-89.91608514395144
 30
0.0
 41
2.0
 42
2.0
 43
2.0
  0
MTEXT
  5
684C
330
66A2
100
AcDbEntity
  8
30
  6
Continuous
 62
     0
100
AcDbMText
 10
225.814477559303
 20
-86.91608514395143
 30
0.0
 40
4.0
 41
0.0
 71
     5
 72
     1
  1
\A1;8
 73
     1
 44
1.0
1001
ACAD
1000
MTEXTBEGIN
1070
    73
1070
     1
1070
    44
1040
1.0
1070
    74
1070
     0
1000
MTEXTEND
  0
POINT
  5
684D
330
66A2
100
AcDbEntity
  8
DEFPOINTS
  6
Continuous
 62
     0
100
AcDbPoint
 10
221.8144775593031
 20
-77.50000000000003
 30
0.0
  0
POINT
  5
684E
330
66A2
100
AcDbEntity
  8
DEFPOINTS
  6
Continuous
 62
     0
100
AcDbPoint
 10
229.8144775593029
 20
-68.25000000000001
 30
0.0
  0
POINT
  5
684F
330
66A2
100
AcDbEntity
  8
DEFPOINTS
  6
Continuous
 62
     0
100
AcDbPoint
 10
229.8144775593029
 20
-89.91608514395144
 30
0.0
  0
ENDBLK
  5
66AD
330
66A2
100
AcDbEntity
  8
0
100
AcDbBlockEnd
  0
BLOCK
  5
678C
330
6782
100
AcDbEntity
  8
0
100
AcDbBlockBegin
  2
*D30
 70
     1
 10
0.0
 20
0.0
 30
0.0
  3
*D30
  1

  0
LINE
  5
67BD
330
6782
100
AcDbEntity
  8
30
  6
Continuous
 62
     0
100
AcDbLine
 10
165.0
 20
-190.8833992259861
 30
0.0
 11
165.0
 21
-355.6328173534375
 31
0.0
  0
LINE
  5
67BE
330
6782
100
AcDbEntity
  8
30
  6
Continuous
 62
     0
100
AcDbLine
 10
195.0
 20
-322.883399225986
 30
0.0
 11
195.0
 21
-355.6328173534375
 31
0.0
  0
LINE
  5
67BF
330
6782
100
AcDbEntity
  8
30
  6
Continuous
 62
     0
100
AcDbLine
 10
167.0
 20
-355.1328173534374
 30
0.0
 11
193.0
 21
-355.1328173534374
 31
0.0
  0
INSERT
  5
67C0
330
6782
100
AcDbEntity
  8
30
  6
Continuous
 62
     0
100
AcDbBlockReference
  2
_OPEN
 10
165.0
 20
-355.1328173534374
 30
0.0
 41
2.0
 42
2.0
 43
2.0
 50
180.0
  0
INSERT
  5
67C1
330
6782
100
AcDbEntity
  8
30
  6
Continuous
 62
     0
100
AcDbBlockReference
  2
_OPEN
 10
195.0
 20
-355.1328173534374
 30
0.0
 41
2.0
 42
2.0
 43
2.0
  0
MTEXT
  5
67C2
330
6782
100
AcDbEntity
  8
30
  6
Continuous
 62
     0
100
AcDbMText
 10
180.0
 20
-352.1328173534373
 30
0.0
 40
4.0
 41
0.0
 71
     5
 72
     1
  1
\A1;30
 73
     1
 44
1.0
1001
ACAD
1000
MTEXTBEGIN
1070
    73
1070
     1
1070
    44
1040
1.0
1070
    74
1070
     0
1000
MTEXTEND
  0
POINT
  5
67C3
330
6782
100
AcDbEntity
  8
DEFPOINTS
  6
Continuous
 62
     0
100
AcDbPoint
 10
165.0
 20
-189.8833992259856
 30
0.0
  0
POINT
  5
67C4
330
6782
100
AcDbEntity
  8
DEFPOINTS
  6
Continuous
 62
     0
100
AcDbPoint
 10
195.0
 20
-321.883399225986
 30
0.0
  0
POINT
  5
67C5
330
6782
100
AcDbEntity
  8
DEFPOINTS
  6
Continuous
 62
     0
100
AcDbPoint
 10
195.0
 20
-355.1328173534374
 30
0.0
  0
ENDBLK
  5
678D
330
6782
100
AcDbEntity
  8
0
100
AcDbBlockEnd
  0
BLOCK
  5
6798
330
678E
100
AcDbEntity
  8
0
100
AcDbBlockBegin
  2
*D31
 70
     1
 10
0.0
 20
0.0
 30
0.0
  3
*D31
  1

  0
LINE
  5
67C6
330
678E
100
AcDbEntity
  8
30
  6
Continuous
 62
     0
100
AcDbLine
 10
137.0
 20
-279.3833992094858
 30
0.0
 11
137.0
 21
-372.6007204717323
 31
0.0
  0
LINE
  5
67C7
330
678E
100
AcDbEntity
  8
30
  6
Continuous
 62
     0
100
AcDbLine
 10
223.0000000000002
 20
-279.3833992094858
 30
0.0
 11
223.0000000000002
 21
-372.6007204717323
 31
0.0
  0
LINE
  5
67C8
330
678E
100
AcDbEntity
  8
30
  6
Continuous
 62
     0
100
AcDbLine
 10
139.0
 20
-372.1007204717323
 30
0.0
 11
221.0000000000002
 21
-372.1007204717323
 31
0.0
  0
INSERT
  5
67C9
330
678E
100
AcDbEntity
  8
30
  6
Continuous
 62
     0
100
AcDbBlockReference
  2
_OPEN
 10
137.0
 20
-372.1007204717323
 30
0.0
 41
2.0
 42
2.0
 43
2.0
 50
180.0
  0
INSERT
  5
67CA
330
678E
100
AcDbEntity
  8
30
  6
Continuous
 62
     0
100
AcDbBlockReference
  2
_OPEN
 10
223.0000000000002
 20
-372.1007204717323
 30
0.0
 41
2.0
 42
2.0
 43
2.0
  0
MTEXT
  5
67CB
330
678E
100
AcDbEntity
  8
30
  6
Continuous
 62
     0
100
AcDbMText
 10
180.0
 20
-369.1007204717323
 30
0.0
 40
4.0
 41
0.0
 71
     5
 72
     1
  1
\A1;86
 73
     1
 44
1.0
1001
ACAD
1000
MTEXTBEGIN
1070
    73
1070
     1
1070
    44
1040
1.0
1070
    74
1070
     0
1000
MTEXTEND
  0
POINT
  5
67CC
330
678E
100
AcDbEntity
  8
DEFPOINTS
  6
Continuous
 62
     0
100
AcDbPoint
 10
137.0
 20
-278.3833992094859
 30
0.0
  0
POINT
  5
67CD
330
678E
100
AcDbEntity
  8
DEFPOINTS
  6
Continuous
 62
     0
100
AcDbPoint
 10
223.0000000000002
 20
-278.3833992094859
 30
0.0
  0
POINT
  5
67CE
330
678E
100
AcDbEntity
  8
DEFPOINTS
  6
Continuous
 62
     0
100
AcDbPoint
 10
223.0000000000002
 20
-372.1007204717323
 30
0.0
  0
ENDBLK
  5
6799
330
678E
100
AcDbEntity
  8
0
100
AcDbBlockEnd
  0
BLOCK
  5
67A3
330
679A
100
AcDbEntity
  8
0
100
AcDbBlockBegin
  2
*D32
 70
     1
 10
0.0
 20
0.0
 30
0.0
  3
*D32
  1

  0
LINE
  5
6957
330
679A
100
AcDbEntity
  8
30
  6
Continuous
 62
     0
100
AcDbLine
 10
232.299699910704
 20
-226.9556714740486
 30
0.0
 11
225.9663665773707
 21
-226.9556714740486
 31
0.0
  0
LINE
  5
6958
330
679A
100
AcDbEntity
  8
30
  6
Continuous
 62
     0
100
AcDbLine
 10
225.9663665773707
 20
-226.9556714740486
 30
0.0
 11
224.3798199464225
 21
-228.173402884429
 31
0.0
  0
MTEXT
  5
6959
330
679A
100
AcDbEntity
  8
30
  6
Continuous
 62
     0
100
AcDbMText
 10
229.6330332440374
 20
-223.9556714740487
 30
0.0
 40
4.0
 41
0.0
 71
     5
 72
     1
  1
\A1;R1
 73
     1
 44
1.0
1001
ACAD
1000
MTEXTBEGIN
1070
    73
1070
     1
1070
    44
1040
1.0
1070
    74
1070
     0
1000
MTEXTEND
  0
INSERT
  5
695A
330
679A
100
AcDbEntity
  8
30
  6
Continuous
 62
     0
100
AcDbBlockReference
  2
_OPEN
 10
222.7932733154744
 20
-229.3911342948093
 30
0.0
 41
2.0
 42
2.0
 43
2.0
 50
217.5075311795259
  0
LINE
  5
695B
330
679A
100
AcDbEntity
  8
30
  6
Continuous
 62
     0
100
AcDbLine
 10
221.91
 20
-229.9999999999995
 30
0.0
 11
222.0900000000002
 21
-229.9999999999995
 31
0.0
  0
LINE
  5
695C
330
679A
100
AcDbEntity
  8
30
  6
Continuous
 62
     0
100
AcDbLine
 10
222.0000000000001
 20
-230.0899999999995
 30
0.0
 11
222.0000000000001
 21
-229.9099999999995
 31
0.0
  0
POINT
  5
695D
330
679A
100
AcDbEntity
  8
DEFPOINTS
  6
Continuous
 62
     0
100
AcDbPoint
 10
222.7932733154744
 20
-229.3911342948093
 30
0.0
  0
POINT
  5
695E
330
679A
100
AcDbEntity
  8
DEFPOINTS
  6
Continuous
 62
     0
100
AcDbPoint
 10
222.0000000000001
 20
-229.9999999999995
 30
0.0
  0
ENDBLK
  5
67A4
330
679A
100
AcDbEntity
  8
0
100
AcDbBlockEnd
  0
BLOCK
  5
67AF
330
67A5
100
AcDbEntity
  8
0
100
AcDbBlockBegin
  2
*D33
 70
     1
 10
0.0
 20
0.0
 30
0.0
  3
*D33
  1

  0
LINE
  5
694E
330
67A5
100
AcDbEntity
  8
30
  6
Continuous
 62
     0
100
AcDbLine
 10
223.0
 20
-228.9999999999998
 30
0.0
 11
256.5178303542168
 21
-228.9999999999998
 31
0.0
  0
LINE
  5
694F
330
67A5
100
AcDbEntity
  8
30
  6
Continuous
 62
     0
100
AcDbLine
 10
223.0
 20
-280.9999999999998
 30
0.0
 11
256.5178303542168
 21
-280.9999999999998
 31
0.0
  0
LINE
  5
6950
330
67A5
100
AcDbEntity
  8
30
  6
Continuous
 62
     0
100
AcDbLine
 10
256.0178303542168
 20
-230.9999999999998
 30
0.0
 11
256.0178303542168
 21
-278.9999999999998
 31
0.0
  0
INSERT
  5
6951
330
67A5
100
AcDbEntity
  8
30
  6
Continuous
 62
     0
100
AcDbBlockReference
  2
_OPEN
 10
256.0178303542168
 20
-228.9999999999998
 30
0.0
 41
2.0
 42
2.0
 43
2.0
 50
90.0
  0
INSERT
  5
6952
330
67A5
100
AcDbEntity
  8
30
  6
Continuous
 62
     0
100
AcDbBlockReference
  2
_OPEN
 10
256.0178303542168
 20
-280.9999999999998
 30
0.0
 41
2.0
 42
2.0
 43
2.0
 50
270.0
  0
MTEXT
  5
6953
330
67A5
100
AcDbEntity
  8
30
  6
Continuous
 62
     0
100
AcDbMText
 10
253.0178303542168
 20
-254.9999999999998
 30
0.0
 40
4.0
 41
0.0
 71
     5
 72
     1
  1
\A1;52
 11
0.0000000000000001
 21
1.0
 31
0.0
 73
     1
 44
1.0
1001
ACAD
1000
MTEXTBEGIN
1070
    73
1070
     1
1070
    44
1040
1.0
1070
    74
1070
     0
1000
MTEXTEND
  0
POINT
  5
6954
330
67A5
100
AcDbEntity
  8
DEFPOINTS
  6
Continuous
 62
     0
100
AcDbPoint
 10
222.0
 20
-228.9999999999998
 30
0.0
  0
POINT
  5
6955
330
67A5
100
AcDbEntity
  8
DEFPOINTS
  6
Continuous
 62
     0
100
AcDbPoint
 10
222.0
 20
-280.9999999999998
 30
0.0
  0
POINT
  5
6956
330
67A5
100
AcDbEntity
  8
DEFPOINTS
  6
Continuous
 62
     0
100
AcDbPoint
 10
256.0178303542168
 20
-280.9999999999998
 30
0.0
  0
ENDBLK
  5
67B0
330
67A5
100
AcDbEntity
  8
0
100
AcDbBlockEnd
  0
BLOCK
  5
67BB
330
67B1
100
AcDbEntity
  8
0
100
AcDbBlockBegin
  2
*D34
 70
     1
 10
0.0
 20
0.0
 30
0.0
  3
*D34
  1

  0
LINE
  5
67E0
330
67B1
100
AcDbEntity
  8
30
  6
Continuous
 62
     0
100
AcDbLine
 10
171.5
 20
-187.383399209486
 30
0.0
 11
268.4156841619302
 21
-187.383399209486
 31
0.0
  0
LINE
  5
67E1
330
67B1
100
AcDbEntity
  8
30
  6
Continuous
 62
     0
100
AcDbLine
 10
201.5
 20
-319.3833992094859
 30
0.0
 11
268.4156841619302
 21
-319.3833992094859
 31
0.0
  0
LINE
  5
67E2
330
67B1
100
AcDbEntity
  8
30
  6
Continuous
 62
     0
100
AcDbLine
 10
267.9156841619303
 20
-189.383399209486
 30
0.0
 11
267.9156841619303
 21
-317.3833992094859
 31
0.0
  0
INSERT
  5
67E3
330
67B1
100
AcDbEntity
  8
30
  6
Continuous
 62
     0
100
AcDbBlockReference
  2
_OPEN
 10
267.9156841619303
 20
-187.383399209486
 30
0.0
 41
2.0
 42
2.0
 43
2.0
 50
90.0
  0
INSERT
  5
67E4
330
67B1
100
AcDbEntity
  8
30
  6
Continuous
 62
     0
100
AcDbBlockReference
  2
_OPEN
 10
267.9156841619303
 20
-319.3833992094859
 30
0.0
 41
2.0
 42
2.0
 43
2.0
 50
270.0
  0
MTEXT
  5
67E5
330
67B1
100
AcDbEntity
  8
30
  6
Continuous
 62
     0
100
AcDbMText
 10
264.9156841619304
 20
-253.383399209486
 30
0.0
 40
4.0
 41
0.0
 71
     5
 72
     1
  1
\A1;132
 11
0.0000000000000001
 21
1.0
 31
0.0
 73
     1
 44
1.0
1001
ACAD
1000
MTEXTBEGIN
1070
    73
1070
     1
1070
    44
1040
1.0
1070
    74
1070
     0
1000
MTEXTEND
  0
POINT
  5
67E6
330
67B1
100
AcDbEntity
  8
DEFPOINTS
  6
Continuous
 62
     0
100
AcDbPoint
 10
170.5
 20
-187.383399209486
 30
0.0
  0
POINT
  5
67E7
330
67B1
100
AcDbEntity
  8
DEFPOINTS
  6
Continuous
 62
     0
100
AcDbPoint
 10
200.4999999999999
 20
-319.3833992094859
 30
0.0
  0
POINT
  5
67E8
330
67B1
100
AcDbEntity
  8
DEFPOINTS
  6
Continuous
 62
     0
100
AcDbPoint
 10
267.9156841619303
 20
-319.3833992094859
 30
0.0
  0
ENDBLK
  5
67BC
330
67B1
100
AcDbEntity
  8
0
100
AcDbBlockEnd
  0
BLOCK
  5
67F4
330
67EA
100
AcDbEntity
  8
0
100
AcDbBlockBegin
  2
*D35
 70
     1
 10
0.0
 20
0.0
 30
0.0
  3
*D35
  1

  0
LINE
  5
6933
330
67EA
100
AcDbEntity
  8
30
  6
Continuous
 62
     0
100
AcDbLine
 10
137.0
 20
-256.0
 30
0.0
 11
137.0
 21
-369.116600790514
 31
0.0
  0
LINE
  5
6934
330
67EA
100
AcDbEntity
  8
30
  6
Continuous
 62
     0
100
AcDbLine
 10
223.0000000000002
 20
-255.9999999999998
 30
0.0
 11
223.0000000000002
 21
-369.116600790514
 31
0.0
  0
LINE
  5
6935
330
67EA
100
AcDbEntity
  8
30
  6
Continuous
 62
     0
100
AcDbLine
 10
139.0
 20
-368.6166007905138
 30
0.0
 11
221.0000000000002
 21
-368.6166007905138
 31
0.0
  0
INSERT
  5
6936
330
67EA
100
AcDbEntity
  8
30
  6
Continuous
 62
     0
100
AcDbBlockReference
  2
_OPEN
 10
137.0
 20
-368.6166007905138
 30
0.0
 41
2.0
 42
2.0
 43
2.0
 50
180.0
  0
INSERT
  5
6937
330
67EA
100
AcDbEntity
  8
30
  6
Continuous
 62
     0
100
AcDbBlockReference
  2
_OPEN
 10
223.0000000000002
 20
-368.6166007905138
 30
0.0
 41
2.0
 42
2.0
 43
2.0
  0
MTEXT
  5
6938
330
67EA
100
AcDbEntity
  8
30
  6
Continuous
 62
     0
100
AcDbMText
 10
180.0
 20
-365.6166007905138
 30
0.0
 40
4.0
 41
0.0
 71
     5
 72
     1
  1
\A1;86
 73
     1
 44
1.0
1001
ACAD
1000
MTEXTBEGIN
1070
    73
1070
     1
1070
    44
1040
1.0
1070
    74
1070
     0
1000
MTEXTEND
  0
POINT
  5
6939
330
67EA
100
AcDbEntity
  8
DEFPOINTS
  6
Continuous
 62
     0
100
AcDbPoint
 10
137.0
 20
-255.0
 30
0.0
  0
POINT
  5
693A
330
67EA
100
AcDbEntity
  8
DEFPOINTS
  6
Continuous
 62
     0
100
AcDbPoint
 10
223.0000000000002
 20
-254.9999999999998
 30
0.0
  0
POINT
  5
693B
330
67EA
100
AcDbEntity
  8
DEFPOINTS
  6
Continuous
 62
     0
100
AcDbPoint
 10
223.0000000000002
 20
-368.6166007905138
 30
0.0
  0
ENDBLK
  5
67F5
330
67EA
100
AcDbEntity
  8
0
100
AcDbBlockEnd
  0
BLOCK
  5
6A90
330
6A8F
100
AcDbEntity
  8
0
100
AcDbBlockBegin
  2
*D36
 70
     1
 10
0.0
 20
0.0
 30
0.0
  3
*D36
  1

  0
LINE
  5
6A91
330
6A8F
100
AcDbEntity
  8
30
  6
Continuous
 62
     0
370
    -2
100
AcDbLine
 10
-30.01790353517123
 20
219.0
 30
0.0
 11
-30.01790353517123
 21
256.1073578546832
 31
0.0
  0
LINE
  5
6A92
330
6A8F
100
AcDbEntity
  8
30
  6
Continuous
 62
     0
370
    -2
100
AcDbLine
 10
0.0000000000000001
 20
256.6073578546832
 30
0.0
 11
0.0
 21
256.1073578546832
 31
0.0
  0
LINE
  5
6A93
330
6A8F
100
AcDbEntity
  8
30
  6
Continuous
 62
     0
370
    -2
100
AcDbLine
 10
-28.01790353517123
 20
255.6073578546832
 30
0.0
 11
-2.0
 21
255.6073578546832
 31
0.0
  0
INSERT
  5
6A94
330
6A8F
100
AcDbEntity
  8
30
  6
Continuous
 62
     0
370
    -2
100
AcDbBlockReference
  2
_OPEN
 10
-30.01790353517123
 20
255.6073578546832
 30
0.0
 41
2.0
 42
2.0
 43
2.0
 50
180.0
  0
INSERT
  5
6A95
330
6A8F
100
AcDbEntity
  8
30
  6
Continuous
 62
     0
370
    -2
100
AcDbBlockReference
  2
_OPEN
 10
0.0
 20
255.6073578546832
 30
0.0
 41
2.0
 42
2.0
 43
2.0
  0
MTEXT
  5
6A96
330
6A8F
100
AcDbEntity
  8
30
  6
Continuous
 62
     0
100
AcDbMText
 10
-15.00895176758561
 20
258.6073578546832
 30
0.0
 40
4.0
 41
0.0
 71
     5
 72
     1
  1
\A1;30
 73
     1
 44
1.0
1001
ACAD
1000
MTEXTBEGIN
1070
    73
1070
     1
1070
    44
1040
1.0
1070
    74
1070
     0
1000
MTEXTEND
  0
POINT
  5
6A97
330
6A8F
100
AcDbEntity
  8
DEFPOINTS
  6
Continuous
 62
     0
100
AcDbPoint
 10
-30.01790353517123
 20
218.0
 30
0.0
  0
POINT
  5
6A98
330
6A8F
100
AcDbEntity
  8
DEFPOINTS
  6
Continuous
 62
     0
100
AcDbPoint
 10
0.0
 20
255.6073578546832
 30
0.0
  0
POINT
  5
6A99
330
6A8F
100
AcDbEntity
  8
DEFPOINTS
  6
Continuous
 62
     0
100
AcDbPoint
 10
0.0
 20
255.6073578546832
 30
0.0
  0
ENDBLK
  5
6A9A
330
6A8F
100
AcDbEntity
  8
0
100
AcDbBlockEnd
  0
BLOCK
  5
6A9C
330
6A9B
100
AcDbEntity
  8
0
100
AcDbBlockBegin
  2
*D37
 70
     1
 10
0.0
 20
0.0
 30
0.0
  3
*D37
  1

  0
LINE
  5
6A9D
330
6A9B
100
AcDbEntity
  8
30
  6
Continuous
 62
     0
370
    -2
100
AcDbLine
 10
29.98209646482873
 20
219.0
 30
0.0
 11
29.98209646482873
 21
256.5
 31
0.0
  0
LINE
  5
6A9E
330
6A9B
100
AcDbEntity
  8
30
  6
Continuous
 62
     0
370
    -2
100
AcDbLine
 10
0.0000000000000001
 20
256.6073578546832
 30
0.0
 11
0.0000000000000001
 21
256.5
 31
0.0
  0
LINE
  5
6A9F
330
6A9B
100
AcDbEntity
  8
30
  6
Continuous
 62
     0
370
    -2
100
AcDbLine
 10
27.98209646482873
 20
256.0
 30
0.0
 11
2.0
 21
256.0
 31
0.0
  0
INSERT
  5
6AA0
330
6A9B
100
AcDbEntity
  8
30
  6
Continuous
 62
     0
370
    -2
100
AcDbBlockReference
  2
_OPEN
 10
29.98209646482873
 20
256.0
 30
0.0
 41
2.0
 42
2.0
 43
2.0
  0
INSERT
  5
6AA1
330
6A9B
100
AcDbEntity
  8
30
  6
Continuous
 62
     0
370
    -2
100
AcDbBlockReference
  2
_OPEN
 10
0.0
 20
256.0
 30
0.0
 41
2.0
 42
2.0
 43
2.0
 50
180.0
  0
MTEXT
  5
6AA2
330
6A9B
100
AcDbEntity
  8
30
  6
Continuous
 62
     0
100
AcDbMText
 10
14.99104823241436
 20
259.0
 30
0.0
 40
4.0
 41
0.0
 71
     5
 72
     1
  1
\A1;30
 73
     1
 44
1.0
1001
ACAD
1000
MTEXTBEGIN
1070
    73
1070
     1
1070
    44
1040
1.0
1070
    74
1070
     0
1000
MTEXTEND
  0
POINT
  5
6AA3
330
6A9B
100
AcDbEntity
  8
DEFPOINTS
  6
Continuous
 62
     0
100
AcDbPoint
 10
29.98209646482873
 20
218.0
 30
0.0
  0
POINT
  5
6AA4
330
6A9B
100
AcDbEntity
  8
DEFPOINTS
  6
Continuous
 62
     0
100
AcDbPoint
 10
0.0
 20
255.6073578546832
 30
0.0
  0
POINT
  5
6AA5
330
6A9B
100
AcDbEntity
  8
DEFPOINTS
  6
Continuous
 62
     0
100
AcDbPoint
 10
0.0
 20
256.0
 30
0.0
  0
ENDBLK
  5
6AA6
330
6A9B
100
AcDbEntity
  8
0
100
AcDbBlockEnd
  0
BLOCK
  5
6AA8
330
6AA7
100
AcDbEntity
  8
0
100
AcDbBlockBegin
  2
*D38
 70
     1
 10
0.0
 20
0.0
 30
0.0
  3
*D38
  1

  0
LINE
  5
6AA9
330
6AA7
100
AcDbEntity
  8
30
  6
Continuous
 62
     0
370
    -2
100
AcDbLine
 10
46.0
 20
235.1349134126127
 30
0.0
 11
54.50000000000001
 21
235.1349134126127
 31
0.0
  0
LINE
  5
6AAA
330
6AA7
100
AcDbEntity
  8
30
  6
Continuous
 62
     0
370
    -2
100
AcDbLine
 10
46.0
 20
174.134913412613
 30
0.0
 11
54.49999999999999
 21
174.134913412613
 31
0.0
  0
LINE
  5
6AAB
330
6AA7
100
AcDbEntity
  8
30
  6
Continuous
 62
     0
370
    -2
100
AcDbLine
 10
54.00000000000001
 20
233.1349134126127
 30
0.0
 11
54.0
 21
176.134913412613
 31
0.0
  0
INSERT
  5
6AAC
330
6AA7
100
AcDbEntity
  8
30
  6
Continuous
 62
     0
370
    -2
100
AcDbBlockReference
  2
_OPEN
 10
54.00000000000001
 20
235.1349134126127
 30
0.0
 41
2.0
 42
2.0
 43
2.0
 50
90.0
  0
INSERT
  5
6AAD
330
6AA7
100
AcDbEntity
  8
30
  6
Continuous
 62
     0
370
    -2
100
AcDbBlockReference
  2
_OPEN
 10
53.99999999999999
 20
174.134913412613
 30
0.0
 41
2.0
 42
2.0
 43
2.0
 50
270.0
  0
MTEXT
  5
6AAE
330
6AA7
100
AcDbEntity
  8
30
  6
Continuous
 62
     0
100
AcDbMText
 10
50.99999999999997
 20
204.6349134126128
 30
0.0
 40
4.0
 41
0.0
 71
     5
 72
     1
  1
\A1;61
 11
0.0000000000000001
 21
1.0
 31
0.0
 73
     1
 44
1.0
1001
ACAD
1000
MTEXTBEGIN
1070
    73
1070
     1
1070
    44
1040
1.0
1070
    74
1070
     0
1000
MTEXTEND
  0
POINT
  5
6AAF
330
6AA7
100
AcDbEntity
  8
DEFPOINTS
  6
Continuous
 62
     0
100
AcDbPoint
 10
45.0
 20
235.1349134126127
 30
0.0
  0
POINT
  5
6AB0
330
6AA7
100
AcDbEntity
  8
DEFPOINTS
  6
Continuous
 62
     0
100
AcDbPoint
 10
45.0
 20
174.134913412613
 30
0.0
  0
POINT
  5
6AB1
330
6AA7
100
AcDbEntity
  8
DEFPOINTS
  6
Continuous
 62
     0
100
AcDbPoint
 10
53.99999999999999
 20
174.134913412613
 30
0.0
  0
ENDBLK
  5
6AB2
330
6AA7
100
AcDbEntity
  8
0
100
AcDbBlockEnd
  0
BLOCK
  5
6AB4
330
6AB3
100
AcDbEntity
  8
0
100
AcDbBlockBegin
  2
*D39
 70
     1
 10
0.0
 20
0.0
 30
0.0
  3
*D39
  1

  0
LINE
  5
6AB5
330
6AB3
100
AcDbEntity
  8
30
  6
Continuous
 62
     0
370
    -2
100
AcDbLine
 10
46.0
 20
235.1349134126127
 30
0.0
 11
61.50000000000002
 21
235.1349134126127
 31
0.0
  0
LINE
  5
6AB6
330
6AB3
100
AcDbEntity
  8
30
  6
Continuous
 62
     0
370
    -2
100
AcDbLine
 10
46.0
 20
167.1349134126126
 30
0.0
 11
61.5
 21
167.1349134126126
 31
0.0
  0
LINE
  5
6AB7
330
6AB3
100
AcDbEntity
  8
30
  6
Continuous
 62
     0
370
    -2
100
AcDbLine
 10
61.00000000000001
 20
233.1349134126127
 30
0.0
 11
61.0
 21
169.1349134126126
 31
0.0
  0
INSERT
  5
6AB8
330
6AB3
100
AcDbEntity
  8
30
  6
Continuous
 62
     0
370
    -2
100
AcDbBlockReference
  2
_OPEN
 10
61.00000000000001
 20
235.1349134126127
 30
0.0
 41
2.0
 42
2.0
 43
2.0
 50
90.0
  0
INSERT
  5
6AB9
330
6AB3
100
AcDbEntity
  8
30
  6
Continuous
 62
     0
370
    -2
100
AcDbBlockReference
  2
_OPEN
 10
61.0
 20
167.1349134126126
 30
0.0
 41
2.0
 42
2.0
 43
2.0
 50
270.0
  0
MTEXT
  5
6ABA
330
6AB3
100
AcDbEntity
  8
30
  6
Continuous
 62
     0
100
AcDbMText
 10
57.99999999999998
 20
201.1349134126127
 30
0.0
 40
4.0
 41
0.0
 71
     5
 72
     1
  1
\A1;68
 11
0.0000000000000001
 21
1.0
 31
0.0
 73
     1
 44
1.0
1001
ACAD
1000
MTEXTBEGIN
1070
    73
1070
     1
1070
    44
1040
1.0
1070
    74
1070
     0
1000
MTEXTEND
  0
POINT
  5
6ABB
330
6AB3
100
AcDbEntity
  8
DEFPOINTS
  6
Continuous
 62
     0
100
AcDbPoint
 10
45.0
 20
235.1349134126127
 30
0.0
  0
POINT
  5
6ABC
330
6AB3
100
AcDbEntity
  8
DEFPOINTS
  6
Continuous
 62
     0
100
AcDbPoint
 10
45.0
 20
167.1349134126126
 30
0.0
  0
POINT
  5
6ABD
330
6AB3
100
AcDbEntity
  8
DEFPOINTS
  6
Continuous
 62
     0
100
AcDbPoint
 10
61.0
 20
167.1349134126126
 30
0.0
  0
ENDBLK
  5
6ABE
330
6AB3
100
AcDbEntity
  8
0
100
AcDbBlockEnd
  0
BLOCK
  5
6AC0
330
6ABF
100
AcDbEntity
  8
0
100
AcDbBlockBegin
  2
*D40
 70
     1
 10
0.0
 20
0.0
 30
0.0
  3
*D40
  1

  0
LINE
  5
6AC1
330
6ABF
100
AcDbEntity
  8
30
  6
Continuous
 62
     0
370
    -2
100
AcDbLine
 10
46.0
 20
235.1349134126127
 30
0.0
 11
69.50000000000001
 21
235.1349134126127
 31
0.0
  0
LINE
  5
6AC2
330
6ABF
100
AcDbEntity
  8
30
  6
Continuous
 62
     0
370
    -2
100
AcDbLine
 10
42.98209646482869
 20
163.1698268252254
 30
0.0
 11
69.5
 21
163.1698268252254
 31
0.0
  0
LINE
  5
6AC3
330
6ABF
100
AcDbEntity
  8
30
  6
Continuous
 62
     0
370
    -2
100
AcDbLine
 10
69.00000000000002
 20
233.1349134126126
 30
0.0
 11
69.0
 21
165.1698268252254
 31
0.0
  0
INSERT
  5
6AC4
330
6ABF
100
AcDbEntity
  8
30
  6
Continuous
 62
     0
370
    -2
100
AcDbBlockReference
  2
_OPEN
 10
69.00000000000002
 20
235.1349134126127
 30
0.0
 41
2.0
 42
2.0
 43
2.0
 50
90.0
  0
INSERT
  5
6AC5
330
6ABF
100
AcDbEntity
  8
30
  6
Continuous
 62
     0
370
    -2
100
AcDbBlockReference
  2
_OPEN
 10
69.0
 20
163.1698268252254
 30
0.0
 41
2.0
 42
2.0
 43
2.0
 50
270.0
  0
MTEXT
  5
6AC6
330
6ABF
100
AcDbEntity
  8
30
  6
Continuous
 62
     0
100
AcDbMText
 10
65.99999999999997
 20
199.152370118919
 30
0.0
 40
4.0
 41
0.0
 71
     5
 72
     1
  1
\A1;72
 11
0.0000000000000001
 21
1.0
 31
0.0
 73
     1
 44
1.0
1001
ACAD
1000
MTEXTBEGIN
1070
    73
1070
     1
1070
    44
1040
1.0
1070
    74
1070
     0
1000
MTEXTEND
  0
POINT
  5
6AC7
330
6ABF
100
AcDbEntity
  8
DEFPOINTS
  6
Continuous
 62
     0
100
AcDbPoint
 10
45.0
 20
235.1349134126127
 30
0.0
  0
POINT
  5
6AC8
330
6ABF
100
AcDbEntity
  8
DEFPOINTS
  6
Continuous
 62
     0
100
AcDbPoint
 10
41.98209646482871
 20
163.1698268252254
 30
0.0
  0
POINT
  5
6AC9
330
6ABF
100
AcDbEntity
  8
DEFPOINTS
  6
Continuous
 62
     0
100
AcDbPoint
 10
69.0
 20
163.1698268252254
 30
0.0
  0
ENDBLK
  5
6ACA
330
6ABF
100
AcDbEntity
  8
0
100
AcDbBlockEnd
  0
BLOCK
  5
6ACC
330
6ACB
100
AcDbEntity
  8
0
100
AcDbBlockBegin
  2
*D41
 70
     1
 10
0.0
 20
0.0
 30
0.0
  3
*D41
  1

  0
LINE
  5
6ACD
330
6ACB
100
AcDbEntity
  8
30
  6
Continuous
 62
     0
370
    -2
100
AcDbLine
 10
46.0
 20
235.1349134126127
 30
0.0
 11
77.50000000000001
 21
235.1349134126127
 31
0.0
  0
LINE
  5
6ACE
330
6ACB
100
AcDbEntity
  8
30
  6
Continuous
 62
     0
370
    -2
100
AcDbLine
 10
11.98209646482871
 20
159.1349134126128
 30
0.0
 11
77.49999999999999
 21
159.1349134126128
 31
0.0
  0
LINE
  5
6ACF
330
6ACB
100
AcDbEntity
  8
30
  6
Continuous
 62
     0
370
    -2
100
AcDbLine
 10
77.00000000000001
 20
233.1349134126126
 30
0.0
 11
77.0
 21
161.1349134126128
 31
0.0
  0
INSERT
  5
6AD0
330
6ACB
100
AcDbEntity
  8
30
  6
Continuous
 62
     0
370
    -2
100
AcDbBlockReference
  2
_OPEN
 10
77.00000000000001
 20
235.1349134126127
 30
0.0
 41
2.0
 42
2.0
 43
2.0
 50
90.0
  0
INSERT
  5
6AD1
330
6ACB
100
AcDbEntity
  8
30
  6
Continuous
 62
     0
370
    -2
100
AcDbBlockReference
  2
_OPEN
 10
76.99999999999999
 20
159.1349134126128
 30
0.0
 41
2.0
 42
2.0
 43
2.0
 50
270.0
  0
MTEXT
  5
6AD2
330
6ACB
100
AcDbEntity
  8
30
  6
Continuous
 62
     0
100
AcDbMText
 10
73.99999999999997
 20
197.1349134126127
 30
0.0
 40
4.0
 41
0.0
 71
     5
 72
     1
  1
\A1;76
 11
0.0000000000000001
 21
1.0
 31
0.0
 73
     1
 44
1.0
1001
ACAD
1000
MTEXTBEGIN
1070
    73
1070
     1
1070
    44
1040
1.0
1070
    74
1070
     0
1000
MTEXTEND
  0
POINT
  5
6AD3
330
6ACB
100
AcDbEntity
  8
DEFPOINTS
  6
Continuous
 62
     0
100
AcDbPoint
 10
45.0
 20
235.1349134126127
 30
0.0
  0
POINT
  5
6AD4
330
6ACB
100
AcDbEntity
  8
DEFPOINTS
  6
Continuous
 62
     0
100
AcDbPoint
 10
10.98209646482871
 20
159.1349134126128
 30
0.0
  0
POINT
  5
6AD5
330
6ACB
100
AcDbEntity
  8
DEFPOINTS
  6
Continuous
 62
     0
100
AcDbPoint
 10
76.99999999999999
 20
159.1349134126128
 30
0.0
  0
ENDBLK
  5
6AD6
330
6ACB
100
AcDbEntity
  8
0
100
AcDbBlockEnd
  0
BLOCK
  5
6B4F
330
6B4E
100
AcDbEntity
  8
0
100
AcDbBlockBegin
  2
*D43
 70
     1
 10
0.0
 20
0.0
 30
0.0
  3
*D43
  1

  0
LINE
  5
6B96
330
6B4E
100
AcDbEntity
  8
30
  6
Continuous
 62
     0
370
    -2
100
AcDbLine
 10
-30.01790353517123
 20
219.0
 30
0.0
 11
-30.01790353517123
 21
256.1073578546832
 31
0.0
  0
LINE
  5
6B97
330
6B4E
100
AcDbEntity
  8
30
  6
Continuous
 62
     0
370
    -2
100
AcDbLine
 10
0.0000000000000001
 20
256.6073578546832
 30
0.0
 11
0.0
 21
256.1073578546832
 31
0.0
  0
LINE
  5
6B98
330
6B4E
100
AcDbEntity
  8
30
  6
Continuous
 62
     0
370
    -2
100
AcDbLine
 10
-28.01790353517123
 20
255.6073578546832
 30
0.0
 11
-2.0
 21
255.6073578546832
 31
0.0
  0
INSERT
  5
6B99
330
6B4E
100
AcDbEntity
  8
30
  6
Continuous
 62
     0
370
    -2
100
AcDbBlockReference
  2
_OPEN
 10
-30.01790353517123
 20
255.6073578546832
 30
0.0
 41
2.0
 42
2.0
 43
2.0
 50
180.0
  0
INSERT
  5
6B9A
330
6B4E
100
AcDbEntity
  8
30
  6
Continuous
 62
     0
370
    -2
100
AcDbBlockReference
  2
_OPEN
 10
0.0
 20
255.6073578546832
 30
0.0
 41
2.0
 42
2.0
 43
2.0
  0
MTEXT
  5
6B9B
330
6B4E
100
AcDbEntity
  8
30
  6
Continuous
 62
     0
100
AcDbMText
 10
-15.00895176758561
 20
258.6073578546832
 30
0.0
 40
4.0
 41
0.0
 71
     5
 72
     1
  1
\A1;30
 73
     1
 44
1.0
1001
ACAD
1000
MTEXTBEGIN
1070
    73
1070
     1
1070
    44
1040
1.0
1070
    74
1070
     0
1000
MTEXTEND
  0
POINT
  5
6B9C
330
6B4E
100
AcDbEntity
  8
DEFPOINTS
  6
Continuous
 62
     0
100
AcDbPoint
 10
-30.01790353517123
 20
218.0
 30
0.0
  0
POINT
  5
6B9D
330
6B4E
100
AcDbEntity
  8
DEFPOINTS
  6
Continuous
 62
     0
100
AcDbPoint
 10
0.0
 20
255.6073578546832
 30
0.0
  0
POINT
  5
6B9E
330
6B4E
100
AcDbEntity
  8
DEFPOINTS
  6
Continuous
 62
     0
100
AcDbPoint
 10
0.0
 20
255.6073578546832
 30
0.0
  0
ENDBLK
  5
6B50
330
6B4E
100
AcDbEntity
  8
0
100
AcDbBlockEnd
  0
BLOCK
  5
6B5B
330
6B5A
100
AcDbEntity
  8
0
100
AcDbBlockBegin
  2
*D44
 70
     1
 10
0.0
 20
0.0
 30
0.0
  3
*D44
  1

  0
LINE
  5
6B9F
330
6B5A
100
AcDbEntity
  8
30
  6
Continuous
 62
     0
370
    -2
100
AcDbLine
 10
29.98209646482873
 20
219.0
 30
0.0
 11
29.98209646482873
 21
256.5
 31
0.0
  0
LINE
  5
6BA0
330
6B5A
100
AcDbEntity
  8
30
  6
Continuous
 62
     0
370
    -2
100
AcDbLine
 10
0.0000000000000001
 20
256.6073578546832
 30
0.0
 11
0.0000000000000001
 21
256.5
 31
0.0
  0
LINE
  5
6BA1
330
6B5A
100
AcDbEntity
  8
30
  6
Continuous
 62
     0
370
    -2
100
AcDbLine
 10
27.98209646482873
 20
256.0
 30
0.0
 11
2.0
 21
256.0
 31
0.0
  0
INSERT
  5
6BA2
330
6B5A
100
AcDbEntity
  8
30
  6
Continuous
 62
     0
370
    -2
100
AcDbBlockReference
  2
_OPEN
 10
29.98209646482873
 20
256.0
 30
0.0
 41
2.0
 42
2.0
 43
2.0
  0
INSERT
  5
6BA3
330
6B5A
100
AcDbEntity
  8
30
  6
Continuous
 62
     0
370
    -2
100
AcDbBlockReference
  2
_OPEN
 10
0.0
 20
256.0
 30
0.0
 41
2.0
 42
2.0
 43
2.0
 50
180.0
  0
MTEXT
  5
6BA4
330
6B5A
100
AcDbEntity
  8
30
  6
Continuous
 62
     0
100
AcDbMText
 10
14.99104823241436
 20
259.0
 30
0.0
 40
4.0
 41
0.0
 71
     5
 72
     1
  1
\A1;30
 73
     1
 44
1.0
1001
ACAD
1000
MTEXTBEGIN
1070
    73
1070
     1
1070
    44
1040
1.0
1070
    74
1070
     0
1000
MTEXTEND
  0
POINT
  5
6BA5
330
6B5A
100
AcDbEntity
  8
DEFPOINTS
  6
Continuous
 62
     0
100
AcDbPoint
 10
29.98209646482873
 20
218.0
 30
0.0
  0
POINT
  5
6BA6
330
6B5A
100
AcDbEntity
  8
DEFPOINTS
  6
Continuous
 62
     0
100
AcDbPoint
 10
0.0
 20
255.6073578546832
 30
0.0
  0
POINT
  5
6BA7
330
6B5A
100
AcDbEntity
  8
DEFPOINTS
  6
Continuous
 62
     0
100
AcDbPoint
 10
0.0
 20
256.0
 30
0.0
  0
ENDBLK
  5
6B5C
330
6B5A
100
AcDbEntity
  8
0
100
AcDbBlockEnd
  0
BLOCK
  5
6B67
330
6B66
100
AcDbEntity
  8
0
100
AcDbBlockBegin
  2
*D45
 70
     1
 10
0.0
 20
0.0
 30
0.0
  3
*D45
  1

  0
LINE
  5
6BA8
330
6B66
100
AcDbEntity
  8
30
  6
Continuous
 62
     0
370
    -2
100
AcDbLine
 10
46.0
 20
235.1349134126127
 30
0.0
 11
54.50000000000001
 21
235.1349134126127
 31
0.0
  0
LINE
  5
6BA9
330
6B66
100
AcDbEntity
  8
30
  6
Continuous
 62
     0
370
    -2
100
AcDbLine
 10
46.0
 20
174.134913412613
 30
0.0
 11
54.49999999999999
 21
174.134913412613
 31
0.0
  0
LINE
  5
6BAA
330
6B66
100
AcDbEntity
  8
30
  6
Continuous
 62
     0
370
    -2
100
AcDbLine
 10
54.00000000000001
 20
233.1349134126127
 30
0.0
 11
54.0
 21
176.134913412613
 31
0.0
  0
INSERT
  5
6BAB
330
6B66
100
AcDbEntity
  8
30
  6
Continuous
 62
     0
370
    -2
100
AcDbBlockReference
  2
_OPEN
 10
54.00000000000001
 20
235.1349134126127
 30
0.0
 41
2.0
 42
2.0
 43
2.0
 50
90.0
  0
INSERT
  5
6BAC
330
6B66
100
AcDbEntity
  8
30
  6
Continuous
 62
     0
370
    -2
100
AcDbBlockReference
  2
_OPEN
 10
53.99999999999999
 20
174.134913412613
 30
0.0
 41
2.0
 42
2.0
 43
2.0
 50
270.0
  0
MTEXT
  5
6BAD
330
6B66
100
AcDbEntity
  8
30
  6
Continuous
 62
     0
100
AcDbMText
 10
50.99999999999997
 20
204.6349134126128
 30
0.0
 40
4.0
 41
0.0
 71
     5
 72
     1
  1
\A1;61
 11
0.0000000000000001
 21
1.0
 31
0.0
 73
     1
 44
1.0
1001
ACAD
1000
MTEXTBEGIN
1070
    73
1070
     1
1070
    44
1040
1.0
1070
    74
1070
     0
1000
MTEXTEND
  0
POINT
  5
6BAE
330
6B66
100
AcDbEntity
  8
DEFPOINTS
  6
Continuous
 62
     0
100
AcDbPoint
 10
45.0
 20
235.1349134126127
 30
0.0
  0
POINT
  5
6BAF
330
6B66
100
AcDbEntity
  8
DEFPOINTS
  6
Continuous
 62
     0
100
AcDbPoint
 10
45.0
 20
174.134913412613
 30
0.0
  0
POINT
  5
6BB0
330
6B66
100
AcDbEntity
  8
DEFPOINTS
  6
Continuous
 62
     0
100
AcDbPoint
 10
53.99999999999999
 20
174.134913412613
 30
0.0
  0
ENDBLK
  5
6B68
330
6B66
100
AcDbEntity
  8
0
100
AcDbBlockEnd
  0
BLOCK
  5
6B73
330
6B72
100
AcDbEntity
  8
0
100
AcDbBlockBegin
  2
*D46
 70
     1
 10
0.0
 20
0.0
 30
0.0
  3
*D46
  1

  0
LINE
  5
6BB1
330
6B72
100
AcDbEntity
  8
30
  6
Continuous
 62
     0
370
    -2
100
AcDbLine
 10
46.0
 20
235.1349134126127
 30
0.0
 11
61.50000000000002
 21
235.1349134126127
 31
0.0
  0
LINE
  5
6BB2
330
6B72
100
AcDbEntity
  8
30
  6
Continuous
 62
     0
370
    -2
100
AcDbLine
 10
46.0
 20
167.1349134126126
 30
0.0
 11
61.5
 21
167.1349134126126
 31
0.0
  0
LINE
  5
6BB3
330
6B72
100
AcDbEntity
  8
30
  6
Continuous
 62
     0
370
    -2
100
AcDbLine
 10
61.00000000000001
 20
233.1349134126127
 30
0.0
 11
61.0
 21
169.1349134126126
 31
0.0
  0
INSERT
  5
6BB4
330
6B72
100
AcDbEntity
  8
30
  6
Continuous
 62
     0
370
    -2
100
AcDbBlockReference
  2
_OPEN
 10
61.00000000000001
 20
235.1349134126127
 30
0.0
 41
2.0
 42
2.0
 43
2.0
 50
90.0
  0
INSERT
  5
6BB5
330
6B72
100
AcDbEntity
  8
30
  6
Continuous
 62
     0
370
    -2
100
AcDbBlockReference
  2
_OPEN
 10
61.0
 20
167.1349134126126
 30
0.0
 41
2.0
 42
2.0
 43
2.0
 50
270.0
  0
MTEXT
  5
6BB6
330
6B72
100
AcDbEntity
  8
30
  6
Continuous
 62
     0
100
AcDbMText
 10
57.99999999999998
 20
201.1349134126127
 30
0.0
 40
4.0
 41
0.0
 71
     5
 72
     1
  1
\A1;68
 11
0.0000000000000001
 21
1.0
 31
0.0
 73
     1
 44
1.0
1001
ACAD
1000
MTEXTBEGIN
1070
    73
1070
     1
1070
    44
1040
1.0
1070
    74
1070
     0
1000
MTEXTEND
  0
POINT
  5
6BB7
330
6B72
100
AcDbEntity
  8
DEFPOINTS
  6
Continuous
 62
     0
100
AcDbPoint
 10
45.0
 20
235.1349134126127
 30
0.0
  0
POINT
  5
6BB8
330
6B72
100
AcDbEntity
  8
DEFPOINTS
  6
Continuous
 62
     0
100
AcDbPoint
 10
45.0
 20
167.1349134126126
 30
0.0
  0
POINT
  5
6BB9
330
6B72
100
AcDbEntity
  8
DEFPOINTS
  6
Continuous
 62
     0
100
AcDbPoint
 10
61.0
 20
167.1349134126126
 30
0.0
  0
ENDBLK
  5
6B74
330
6B72
100
AcDbEntity
  8
0
100
AcDbBlockEnd
  0
BLOCK
  5
6B7F
330
6B7E
100
AcDbEntity
  8
0
100
AcDbBlockBegin
  2
*D47
 70
     1
 10
0.0
 20
0.0
 30
0.0
  3
*D47
  1

  0
LINE
  5
6BBA
330
6B7E
100
AcDbEntity
  8
30
  6
Continuous
 62
     0
370
    -2
100
AcDbLine
 10
46.0
 20
235.1349134126127
 30
0.0
 11
69.50000000000001
 21
235.1349134126127
 31
0.0
  0
LINE
  5
6BBB
330
6B7E
100
AcDbEntity
  8
30
  6
Continuous
 62
     0
370
    -2
100
AcDbLine
 10
42.9820964648287
 20
163.1698268252254
 30
0.0
 11
69.5
 21
163.1698268252254
 31
0.0
  0
LINE
  5
6BBC
330
6B7E
100
AcDbEntity
  8
30
  6
Continuous
 62
     0
370
    -2
100
AcDbLine
 10
69.00000000000002
 20
233.1349134126126
 30
0.0
 11
69.0
 21
165.1698268252254
 31
0.0
  0
INSERT
  5
6BBD
330
6B7E
100
AcDbEntity
  8
30
  6
Continuous
 62
     0
370
    -2
100
AcDbBlockReference
  2
_OPEN
 10
69.00000000000002
 20
235.1349134126127
 30
0.0
 41
2.0
 42
2.0
 43
2.0
 50
90.0
  0
INSERT
  5
6BBE
330
6B7E
100
AcDbEntity
  8
30
  6
Continuous
 62
     0
370
    -2
100
AcDbBlockReference
  2
_OPEN
 10
69.0
 20
163.1698268252254
 30
0.0
 41
2.0
 42
2.0
 43
2.0
 50
270.0
  0
MTEXT
  5
6BBF
330
6B7E
100
AcDbEntity
  8
30
  6
Continuous
 62
     0
100
AcDbMText
 10
65.99999999999997
 20
199.152370118919
 30
0.0
 40
4.0
 41
0.0
 71
     5
 72
     1
  1
\A1;72
 11
0.0000000000000001
 21
1.0
 31
0.0
 73
     1
 44
1.0
1001
ACAD
1000
MTEXTBEGIN
1070
    73
1070
     1
1070
    44
1040
1.0
1070
    74
1070
     0
1000
MTEXTEND
  0
POINT
  5
6BC0
330
6B7E
100
AcDbEntity
  8
DEFPOINTS
  6
Continuous
 62
     0
100
AcDbPoint
 10
45.0
 20
235.1349134126127
 30
0.0
  0
POINT
  5
6BC1
330
6B7E
100
AcDbEntity
  8
DEFPOINTS
  6
Continuous
 62
     0
100
AcDbPoint
 10
41.98209646482871
 20
163.1698268252254
 30
0.0
  0
POINT
  5
6BC2
330
6B7E
100
AcDbEntity
  8
DEFPOINTS
  6
Continuous
 62
     0
100
AcDbPoint
 10
69.0
 20
163.1698268252254
 30
0.0
  0
ENDBLK
  5
6B80
330
6B7E
100
AcDbEntity
  8
0
100
AcDbBlockEnd
  0
BLOCK
  5
6B8B
330
6B8A
100
AcDbEntity
  8
0
100
AcDbBlockBegin
  2
*D48
 70
     1
 10
0.0
 20
0.0
 30
0.0
  3
*D48
  1

  0
LINE
  5
6BC3
330
6B8A
100
AcDbEntity
  8
30
  6
Continuous
 62
     0
370
    -2
100
AcDbLine
 10
46.0
 20
235.1349134126127
 30
0.0
 11
77.50000000000001
 21
235.1349134126127
 31
0.0
  0
LINE
  5
6BC4
330
6B8A
100
AcDbEntity
  8
30
  6
Continuous
 62
     0
370
    -2
100
AcDbLine
 10
11.98209646482871
 20
159.1349134126128
 30
0.0
 11
77.49999999999999
 21
159.1349134126128
 31
0.0
  0
LINE
  5
6BC5
330
6B8A
100
AcDbEntity
  8
30
  6
Continuous
 62
     0
370
    -2
100
AcDbLine
 10
77.00000000000001
 20
233.1349134126126
 30
0.0
 11
77.0
 21
161.1349134126128
 31
0.0
  0
INSERT
  5
6BC6
330
6B8A
100
AcDbEntity
  8
30
  6
Continuous
 62
     0
370
    -2
100
AcDbBlockReference
  2
_OPEN
 10
77.00000000000001
 20
235.1349134126127
 30
0.0
 41
2.0
 42
2.0
 43
2.0
 50
90.0
  0
INSERT
  5
6BC7
330
6B8A
100
AcDbEntity
  8
30
  6
Continuous
 62
     0
370
    -2
100
AcDbBlockReference
  2
_OPEN
 10
76.99999999999999
 20
159.1349134126128
 30
0.0
 41
2.0
 42
2.0
 43
2.0
 50
270.0
  0
MTEXT
  5
6BC8
330
6B8A
100
AcDbEntity
  8
30
  6
Continuous
 62
     0
100
AcDbMText
 10
73.99999999999997
 20
197.1349134126127
 30
0.0
 40
4.0
 41
0.0
 71
     5
 72
     1
  1
\A1;76
 11
0.0000000000000001
 21
1.0
 31
0.0
 73
     1
 44
1.0
1001
ACAD
1000
MTEXTBEGIN
1070
    73
1070
     1
1070
    44
1040
1.0
1070
    74
1070
     0
1000
MTEXTEND
  0
POINT
  5
6BC9
330
6B8A
100
AcDbEntity
  8
DEFPOINTS
  6
Continuous
 62
     0
100
AcDbPoint
 10
45.0
 20
235.1349134126127
 30
0.0
  0
POINT
  5
6BCA
330
6B8A
100
AcDbEntity
  8
DEFPOINTS
  6
Continuous
 62
     0
100
AcDbPoint
 10
10.98209646482871
 20
159.1349134126128
 30
0.0
  0
POINT
  5
6BCB
330
6B8A
100
AcDbEntity
  8
DEFPOINTS
  6
Continuous
 62
     0
100
AcDbPoint
 10
76.99999999999999
 20
159.1349134126128
 30
0.0
  0
ENDBLK
  5
6B8C
330
6B8A
100
AcDbEntity
  8
0
100
AcDbBlockEnd
  0
ENDSEC
  0
SECTION
  2
ENTITIES
  0
LINE
  5
B4
330
1E
100
AcDbEntity
  8
16
100
AcDbLine
 10
0.0
 20
-101.8246001220914
 30
0.0
 11
0.0
 21
105.6073578546832
 31
0.0
  0
LINE
  5
B5
330
1E
100
AcDbEntity
  8
16
100
AcDbLine
 10
71.77465564206305
 20
-0.0000000000000027
 30
0.0
 11
-83.90588178115756
 21
-0.0000000000000027
 31
0.0
  0
MTEXT
  5
BF3
330
1E
100
AcDbEntity
  8
24
  6
Continuous
100
AcDbMText
 10
140.9820964648283
 20
176.3476821548369
 30
0.0
 40
3.0
 41
0.0
 71
     1
 72
     1
  1
\A1;
 73
     1
 44
1.0
1001
ACAD
1000
MTEXTBEGIN
1070
    73
1070
     1
1070
    44
1040
1.0
1070
    74
1070
     0
1000
MTEXTEND
  0
LINE
  5
1C9B
330
1E
100
AcDbEntity
  8
16
100
AcDbLine
 10
256.0826238060848
 20
0.0
 30
0.0
 11
123.917376193915
 21
0.0
 31
0.0
  0
LINE
  5
2260
330
1E
100
AcDbEntity
  8
16
100
AcDbLine
 10
68.90389754940699
 20
-255.0
 30
0.0
 11
-80.54991320158091
 21
-255.0
 31
0.0
  0
LINE
  5
2261
330
1E
100
AcDbEntity
  8
16
100
AcDbLine
 10
0.0
 20
-352.7519397628458
 30
0.0
 11
0.0
 21
-153.6166007905139
 31
0.0
  0
LINE
  5
4C5A
330
1E
100
AcDbEntity
  8
16
100
AcDbLine
 10
88.49441808474184
 20
-0.0000000000000027
 30
0.0
 11
-83.90588178115756
 21
-0.0000000000000027
 31
0.0
  0
DIMENSION
  5
59B9
330
1E
100
AcDbEntity
  8
30
  6
Continuous
100
AcDbDimension
  2
*D6
 10
221.8144775593031
 20
-132.7494181439514
 30
0.0
 11
175.8144775593031
 21
-129.7494181439514
 31
0.0
 70
    32
 71
     5
 42
-1.0
  3
STANDARD
100
AcDbAlignedDimension
 13
129.8144775593033
 23
0.0
 33
0.0
 14
221.8144775593031
 24
-77.50000000000003
 34
0.0
 50
180.0
100
AcDbRotatedDimension
1001
ACAD
1000
DSTYLE
1002
{
1070
    79
1070
     3
1002
}
  0
DIMENSION
  5
59BA
330
1E
100
AcDbEntity
  8
30
  6
Continuous
100
AcDbDimension
  2
*D7
 10
149.8144775593031
 20
-120.7494181439514
 30
0.0
 11
156.1478108926364
 21
-117.7494181439514
 31
0.0
 70
    32
 71
     5
 42
-1.0
  3
STANDARD
100
AcDbAlignedDimension
 13
145.8144775593031
 23
-25.0
 33
0.0
 14
149.8144775593031
 24
-25.0
 34
0.0
 50
180.0
100
AcDbRotatedDimension
1001
ACAD
1000
DSTYLE
1002
{
1070
    79
1070
     3
1002
}
  0
DIMENSION
  5
59BB
330
1E
100
AcDbEntity
  8
30
  6
Continuous
100
AcDbDimension
  2
*D8
 10
221.8144775593031
 20
-120.7494181439514
 30
0.0
 11
185.814477559303
 21
-117.7494181439514
 31
0.0
 70
    32
 71
     5
 42
-1.0
  3
STANDARD
100
AcDbAlignedDimension
 13
149.8144775593031
 23
-25.0
 33
0.0
 14
221.8144775593031
 24
-77.50000000000003
 34
0.0
 50
180.0
100
AcDbRotatedDimension
1001
ACAD
1000
DSTYLE
1002
{
1070
    79
1070
     3
1002
}
  0
DIMENSION
  5
59BE
330
1E
100
AcDbEntity
  8
30
  6
Continuous
100
AcDbDimension
  2
*D9
 10
105.3588555544835
 20
24.99999999999996
 30
0.0
 11
102.3588555544835
 21
0.0000000000000099
 31
0.0
 70
    32
 71
     5
 42
-1.0
  3
STANDARD
100
AcDbAlignedDimension
 13
145.8144775593031
 23
-25.0
 33
0.0
 14
145.8144775593031
 24
24.99999999999996
 34
0.0
 50
90.0
100
AcDbRotatedDimension
1001
ACAD
1000
DSTYLE
1002
{
1070
    79
1070
     3
1002
}
  0
LINE
  5
59BF
330
1E
100
AcDbEntity
  8
10
  6
CONTINOUS
100
AcDbLine
 10
145.8144775593031
 20
14.16543683942991
 30
0.0
 11
137.2606823778141
 21
20.1548687058105
 31
0.0
  0
LINE
  5
59C0
330
1E
100
AcDbEntity
  8
10
  6
CONTINOUS
100
AcDbLine
 10
145.8144775593031
 20
6.840789306861235
 30
0.0
 11
133.8192237597079
 21
15.23995644007658
 31
0.0
  0
ARC
  5
59C2
330
1E
100
AcDbEntity
  8
30
  6
Continuous
100
AcDbCircle
 10
160.8144775593033
 20
0.0
 30
0.0
 40
31.0
100
AcDbArc
 50
150.5534441956585
 51
180.0
  0
LINE
  5
59C5
330
1E
100
AcDbEntity
  8
10
  6
CONTINOUS
100
AcDbLine
 10
133.8192237597079
 20
15.23995644007658
 30
0.0
 11
137.2606823778141
 21
20.1548687058105
 31
0.0
  0
DIMENSION
  5
59C6
330
1E
100
AcDbEntity
  8
30
  6
Continuous
100
AcDbDimension
  2
*D10
 10
221.8144775593031
 20
108.2505818560482
 30
0.0
 11
209.8144775593031
 21
111.2505818560483
 31
0.0
 70
    32
 71
     5
 42
-1.0
  3
STANDARD
100
AcDbAlignedDimension
 13
197.8144775593031
 23
77.50000000000001
 33
0.0
 14
221.8144775593031
 24
77.5000000000001
 34
0.0
100
AcDbRotatedDimension
1001
ACAD
1000
DSTYLE
1002
{
1070
    79
1070
     3
1002
}
  0
LINE
  5
59C7
330
1E
100
AcDbEntity
  8
10
  6
CONTINOUS
100
AcDbLine
 10
153.8144775593031
 20
50.99999999999989
 30
0.0
 11
153.8144775593031
 21
-51.00000000000011
 31
0.0
  0
LINE
  5
59C8
330
1E
100
AcDbEntity
  8
10
  6
CONTINOUS
100
AcDbLine
 10
149.8144775593031
 20
24.99999999999998
 30
0.0
 11
149.8144775593031
 21
-25.0
 31
0.0
  0
LINE
  5
59C9
330
1E
100
AcDbEntity
  8
10
  6
CONTINOUS
100
AcDbLine
 10
221.8144775593031
 20
77.5000000000001
 30
0.0
 11
221.8144775593031
 21
-77.50000000000003
 31
0.0
  0
LINE
  5
59CA
330
1E
100
AcDbEntity
  8
10
  6
CONTINOUS
100
AcDbLine
 10
145.8144775593031
 20
24.99999999999998
 30
0.0
 11
145.8144775593031
 21
-25.0
 31
0.0
  0
LINE
  5
59CD
330
1E
100
AcDbEntity
  8
12
  6
DASHED
100
AcDbLine
 10
221.8144775593031
 20
-63.75000000000003
 30
0.0
 11
229.8144775593029
 21
-63.75000000000003
 31
0.0
  0
LINE
  5
59CE
330
1E
100
AcDbEntity
  8
12
  6
DASHED
100
AcDbLine
 10
150.8144775593035
 20
-66.00000000000004
 30
0.0
 11
239.814477559303
 21
-66.00000000000004
 31
0.0
  0
LINE
  5
59CF
330
1E
100
AcDbEntity
  8
12
  6
DASHED
100
AcDbLine
 10
221.8144775593031
 20
-68.25000000000001
 30
0.0
 11
229.8144775593029
 21
-68.25000000000001
 31
0.0
  0
DIMENSION
  5
59D0
330
1E
100
AcDbEntity
  8
30
  6
Continuous
100
AcDbDimension
  2
*D11
 10
221.8144775593031
 20
-110.7494181439514
 30
0.0
 11
187.814477559303
 21
-107.7494181439514
 31
0.0
 70
    32
 71
     5
 42
-1.0
  3
STANDARD
100
AcDbAlignedDimension
 13
153.8144775593031
 23
-51.00000000000011
 33
0.0
 14
221.8144775593031
 24
-77.50000000000003
 34
0.0
 50
180.0
100
AcDbRotatedDimension
1001
ACAD
1000
DSTYLE
1002
{
1070
    79
1070
     3
1002
}
  0
DIMENSION
  5
59D1
330
1E
100
AcDbEntity
  8
30
  6
Continuous
100
AcDbDimension
  2
*D12
 10
221.8144775593031
 20
-99.74941814395144
 30
0.0
 11
191.314477559303
 21
-96.74941814395143
 31
0.0
 70
    32
 71
     5
 42
-1.0
  3
STANDARD
100
AcDbAlignedDimension
 13
160.8144775593029
 23
-77.50000000000003
 33
0.0
 14
221.8144775593031
 24
-77.50000000000003
 34
0.0
 50
180.0
100
AcDbRotatedDimension
1001
ACAD
1000
DSTYLE
1002
{
1070
    79
1070
     3
1002
}
  0
DIMENSION
  5
59D2
330
1E
100
AcDbEntity
  8
30
  6
Continuous
100
AcDbDimension
  2
*D13
 10
221.8144775593031
 20
-89.74941814395142
 30
0.0
 11
199.314477559303
 21
-86.74941814395143
 31
0.0
 70
    32
 71
     5
 42
-1.0
  3
STANDARD
100
AcDbAlignedDimension
 13
176.8144775593031
 23
-70.25000000000002
 33
0.0
 14
221.8144775593031
 24
-77.50000000000003
 34
0.0
 50
180.0
100
AcDbRotatedDimension
1001
ACAD
1000
DSTYLE
1002
{
1070
    79
1070
     3
1002
}
  0
LINE
  5
59D3
330
1E
100
AcDbEntity
  8
12
  6
DASHED
100
AcDbLine
 10
176.8144775593031
 20
-68.25000000000001
 30
0.0
 11
221.8144775593031
 21
-68.25000000000001
 31
0.0
  0
LINE
  5
59D4
330
1E
100
AcDbEntity
  8
12
  6
DASHED
100
AcDbLine
 10
176.8144775593031
 20
-63.75000000000003
 30
0.0
 11
221.8144775593031
 21
-63.75000000000003
 31
0.0
  0
LINE
  5
59D5
330
1E
100
AcDbEntity
  8
10
  6
CONTINOUS
100
AcDbLine
 10
160.8144775593033
 20
-77.50000000000003
 30
0.0
 11
221.8144775593031
 21
-77.50000000000003
 31
0.0
  0
LINE
  5
59D6
330
1E
100
AcDbEntity
  8
10
  6
CONTINOUS
100
AcDbLine
 10
160.8144775593033
 20
-50.99999999999996
 30
0.0
 11
160.8144775593033
 21
-77.50000000000003
 31
0.0
  0
LINE
  5
59D7
330
1E
100
AcDbEntity
  8
12
  6
DASHED
100
AcDbLine
 10
160.8144775593033
 20
-70.25000000000002
 30
0.0
 11
176.8144775593031
 21
-70.25000000000002
 31
0.0
  0
LINE
  5
59D8
330
1E
100
AcDbEntity
  8
12
  6
DASHED
100
AcDbLine
 10
160.8144775593033
 20
-61.74999999999997
 30
0.0
 11
176.8144775593031
 21
-61.74999999999997
 31
0.0
  0
LINE
  5
59D9
330
1E
100
AcDbEntity
  8
12
  6
DASHED
100
AcDbLine
 10
176.8144775593031
 20
-61.74999999999997
 30
0.0
 11
176.8144775593031
 21
-70.25000000000002
 31
0.0
  0
LINE
  5
59DA
330
1E
100
AcDbEntity
  8
12
  6
DASHED
100
AcDbLine
 10
170.8144775593031
 20
-61.74999999999997
 30
0.0
 11
170.8144775593031
 21
-70.25000000000002
 31
0.0
  0
LINE
  5
59DB
330
1E
100
AcDbEntity
  8
12
  6
DASHED
100
AcDbLine
 10
176.8144775593031
 20
-68.25
 30
0.0
 11
176.8144775593031
 21
-70.25000000000002
 31
0.0
  0
LINE
  5
59DC
330
1E
100
AcDbEntity
  8
12
  6
DASHED
100
AcDbLine
 10
176.8144775593031
 20
-61.74999999999997
 30
0.0
 11
176.8144775593031
 21
-63.75000000000003
 31
0.0
  0
LINE
  5
59DD
330
1E
100
AcDbEntity
  8
10
  6
CONTINOUS
100
AcDbLine
 10
153.8144775593031
 20
-51.00000000000011
 30
0.0
 11
160.8144775593033
 21
-51.00000000000011
 31
0.0
  0
LINE
  5
59DE
330
1E
100
AcDbEntity
  8
10
  6
CONTINOUS
100
AcDbLine
 10
145.8144775593031
 20
-25.0
 30
0.0
 11
153.8144775593031
 21
-25.0
 31
0.0
  0
LINE
  5
59DF
330
1E
100
AcDbEntity
  8
12
  6
DASHED
100
AcDbLine
 10
229.8144775593029
 20
-63.75
 30
0.0
 11
229.8144775593029
 21
-68.25
 31
0.0
  0
LINE
  5
59E0
330
1E
100
AcDbEntity
  8
10
  6
CONTINOUS
100
AcDbLine
 10
145.8144775593031
 20
24.99999999999998
 30
0.0
 11
153.8144775593031
 21
24.99999999999998
 31
0.0
  0
LINE
  5
59E1
330
1E
100
AcDbEntity
  8
10
  6
CONTINOUS
100
AcDbLine
 10
160.8144775593033
 20
77.50000000000001
 30
0.0
 11
221.8144775593031
 21
77.5000000000001
 31
0.0
  0
LINE
  5
59E2
330
1E
100
AcDbEntity
  8
10
  6
CONTINOUS
100
AcDbLine
 10
160.8144775593033
 20
77.50000000000001
 30
0.0
 11
160.8144775593033
 21
50.99999999999997
 31
0.0
  0
LINE
  5
59E3
330
1E
100
AcDbEntity
  8
10
  6
CONTINOUS
100
AcDbLine
 10
153.8144775593031
 20
50.99999999999997
 30
0.0
 11
160.8144775593033
 21
50.99999999999997
 31
0.0
  0
LINE
  5
59E4
330
1E
100
AcDbEntity
  8
24
  6
CONTINOUS
100
AcDbLine
 10
199.8144775593031
 20
77.50000000000001
 30
0.0
 11
199.8144775593031
 21
56.49999999999989
 31
0.0
  0
LINE
  5
59E5
330
1E
100
AcDbEntity
  8
24
  6
CONTINOUS
100
AcDbLine
 10
190.614477559303
 20
71.99999999999997
 30
0.0
 11
190.614477559303
 21
61.99999999999997
 31
0.0
  0
LINE
  5
59E6
330
1E
100
AcDbEntity
  8
24
  6
CONTINOUS
100
AcDbLine
 10
195.814477559303
 20
74.69999999999995
 30
0.0
 11
195.814477559303
 21
59.29999999999999
 31
0.0
  0
LINE
  5
59E7
330
1E
100
AcDbEntity
  8
24
  6
CONTINOUS
100
AcDbLine
 10
197.8144775593031
 20
77.50000000000001
 30
0.0
 11
197.8144775593031
 21
56.49999999999989
 31
0.0
  0
LINE
  5
59E8
330
1E
100
AcDbEntity
  8
24
  6
CONTINOUS
100
AcDbLine
 10
192.6144775593033
 20
59.99999999999997
 30
0.0
 11
195.814477559303
 21
59.99999999999997
 31
0.0
  0
LINE
  5
59E9
330
1E
100
AcDbEntity
  8
24
  6
CONTINOUS
100
AcDbLine
 10
185.614477559303
 20
66.99999999999997
 30
0.0
 11
202.8144775593029
 21
66.99999999999997
 31
0.0
  0
ARC
  5
59EA
330
1E
100
AcDbEntity
  8
24
  6
CONTINOUS
100
AcDbCircle
 10
192.6144775593033
 20
61.99999999999997
 30
0.0
 40
2.0
100
AcDbArc
 50
180.0
 51
270.0
  0
LINE
  5
59EB
330
1E
100
AcDbEntity
  8
24
  6
CONTINOUS
100
AcDbLine
 10
197.8144775593031
 20
56.49999999999989
 30
0.0
 11
199.8144775593031
 21
56.49999999999989
 31
0.0
  0
LINE
  5
59EC
330
1E
100
AcDbEntity
  8
24
  6
CONTINOUS
100
AcDbLine
 10
195.814477559303
 20
59.29999999999999
 30
0.0
 11
197.8144775593031
 21
59.29999999999999
 31
0.0
  0
LINE
  5
59ED
330
1E
100
AcDbEntity
  8
24
  6
CONTINOUS
100
AcDbLine
 10
192.6144775593033
 20
73.99999999999997
 30
0.0
 11
195.814477559303
 21
73.99999999999997
 31
0.0
  0
ARC
  5
59EE
330
1E
100
AcDbEntity
  8
24
  6
CONTINOUS
100
AcDbCircle
 10
192.6144775593033
 20
71.99999999999997
 30
0.0
 40
2.0
100
AcDbArc
 50
90.0
 51
180.0
  0
LINE
  5
59EF
330
1E
100
AcDbEntity
  8
24
  6
CONTINOUS
100
AcDbLine
 10
195.814477559303
 20
74.69999999999995
 30
0.0
 11
197.8144775593031
 21
74.69999999999995
 31
0.0
  0
DIMENSION
  5
59F0
330
1E
100
AcDbEntity
  8
30
  6
Continuous
100
AcDbDimension
  2
*D14
 10
278.3144775593031
 20
27.59950840068014
 30
0.0
 11
269.8144775593031
 21
30.59950840068012
 31
0.0
 70
    32
 71
     5
 42
-1.0
  3
STANDARD
100
AcDbAlignedDimension
 13
261.3144775593033
 23
43.0
 33
0.0
 14
278.3144775593031
 24
43.0
 34
0.0
 50
180.0
100
AcDbRotatedDimension
1001
ACAD
1000
DSTYLE
1002
{
1070
    79
1070
     3
1002
}
  0
INSERT
  5
59F1
330
1E
100
AcDbEntity
  8
30
  6
Continuous
100
AcDbBlockReference
  2
*U4
 10
-367.7237999526582
 20
-244.2754915945696
 30
0.0
 41
2.5
 42
2.5
 43
2.5
  0
INSERT
  5
59F2
330
1E
100
AcDbEntity
  8
30
  6
Continuous
100
AcDbBlockReference
  2
*U2
 10
-367.7237999526582
 20
-244.2754915945696
 30
0.0
 41
2.5
 42
2.5
 43
2.5
  0
INSERT
  5
59F3
330
1E
100
AcDbEntity
  8
30
  6
Continuous
100
AcDbBlockReference
  2
*U1
 10
-367.7237999526582
 20
-244.2754915945696
 30
0.0
 41
2.5
 42
2.5
 43
2.5
  0
ARC
  5
59F4
330
1E
100
AcDbEntity
  8
24
  6
Continuous
100
AcDbCircle
 10
265.4394775593033
 20
68.64548506457246
 30
0.0
 40
8.0
100
AcDbArc
 50
58.9607599896022
 51
121.0392400103977
  0
CIRCLE
  5
59F5
330
1E
100
AcDbEntity
  8
17
  6
DASHDOT
100
AcDbCircle
 10
269.8144775593033
 20
51.49999999999997
 30
0.0
 40
4.5
  0
LINE
  5
59F6
330
1E
100
AcDbEntity
  8
24
  6
Continuous
100
AcDbLine
 10
269.1390335891645
 20
75.73867089196451
 30
0.0
 11
273.6099195278402
 21
73.40681417260779
 31
0.0
  0
LINE
  5
59F7
330
1E
100
AcDbEntity
  8
17
  6
DASHDOT
100
AcDbLine
 10
263.5644775593033
 20
51.49999999999997
 30
0.0
 11
276.0644775593033
 21
51.49999999999997
 31
0.0
  0
LINE
  5
59F8
330
1E
100
AcDbEntity
  8
24
  6
Continuous
100
AcDbLine
 10
261.3144775593033
 20
43.0
 30
0.0
 11
278.3144775593031
 21
43.0
 31
0.0
  0
LINE
  5
59FA
330
1E
100
AcDbEntity
  8
24
  6
Continuous
100
AcDbLine
 10
261.3144775593033
 20
75.50000000000003
 30
0.0
 11
261.3144775593033
 21
43.0
 31
0.0
  0
LINE
  5
59FC
330
1E
100
AcDbEntity
  8
24
  6
Continuous
100
AcDbLine
 10
278.3144775593031
 20
72.5633778610307
 30
0.0
 11
278.3144775593031
 21
43.0
 31
0.0
  0
DIMENSION
  5
59FD
330
1E
100
AcDbEntity
  8
30
  6
Continuous
100
AcDbDimension
  2
*D15
 10
292.9012000520913
 20
51.49999999999997
 30
0.0
 11
297.9012000520913
 21
56.50000000000002
 31
0.0
 70
    32
 71
     5
 42
-1.0
  3
STANDARD
100
AcDbAlignedDimension
 13
278.3144775593031
 23
43.0
 33
0.0
 14
272.3144775758031
 24
51.49999999999997
 34
0.0
 50
270.0
100
AcDbRotatedDimension
1001
ACAD
1000
DSTYLE
1002
{
1070
    79
1070
     3
1002
}
  0
LINE
  5
59FE
330
1E
100
AcDbEntity
  8
17
  6
DASHDOT
100
AcDbLine
 10
269.8144775593033
 20
57.74999999999997
 30
0.0
 11
269.8144775593035
 21
45.24999999999997
 31
0.0
  0
ARC
  5
59FF
330
1E
100
AcDbEntity
  8
24
  6
Continuous
100
AcDbCircle
 10
277.3094755577016
 20
80.50000000000002
 30
0.0
 40
8.0
100
AcDbArc
 50
242.4550403035893
 51
277.2168646146247
  0
TEXT
  5
5C38
330
1E
100
AcDbEntity
  8
30
  6
Continuous
100
AcDbText
 10
169.4285447303399
 20
94.039817676845
 30
0.0
 40
5.0
  1
M8
  7
STANDARD1
100
AcDbText
  0
TEXT
  5
5C39
330
1E
100
AcDbEntity
  8
30
  6
Continuous
100
AcDbText
 10
244.3526601839093
 20
76.11649607392563
 30
0.0
 40
5.0
  1
%%c9
  7
STANDARD1
100
AcDbText
  0
MTEXT
  5
5C78
330
1E
100
AcDbEntity
  8
30
  6
Continuous
100
AcDbMText
 10
162.3297648581359
 20
88.99793930010117
 30
0.0
 40
4.0
 41
0.0
 71
     9
 72
     1
  1

 73
     1
 44
1.0
1001
ACAD
1000
MTEXTBEGIN
1070
    73
1070
     1
1070
    44
1040
1.0
1070
    74
1070
     0
1000
MTEXTEND
  0
LEADER
  5
5C79
330
1E
100
AcDbEntity
  8
30
  6
Continuous
100
AcDbLeader
  3
STANDARD
 76
     3
 10
265.6523482107051
 20
55.11720759482259
 30
0.0
 10
256.3163505821476
 20
74.22421373062309
 30
0.0
 10
242.97920705688
 20
74.66856214966412
 30
0.0
213
0.0
223
2.0
233
0.0
1001
ACAD
1000
DSTYLE
1002
{
1070
     5
1000
OPEN
1070
    77
1070
     0
1070
    79
1070
     3
1070
   147
1040
1.0
1070
   342
1005
3B2
1002
}
  0
DIMENSION
  5
5E29
330
1E
100
AcDbEntity
  8
30
  6
Continuous
100
AcDbDimension
  2
*D16
 10
42.00000000000001
 20
32.59950840068013
 30
0.0
 11
0.0000000000000215
 21
35.59950840068013
 31
0.0
 70
    32
 71
     5
 42
-1.0
  3
STANDARD
100
AcDbAlignedDimension
 13
-41.99999999999996
 23
24.99999999999996
 33
0.0
 14
42.00000000000001
 24
24.99999999999996
 34
0.0
100
AcDbRotatedDimension
1001
ACAD
1000
DSTYLE
1002
{
1070
    79
1070
     3
1002
}
  0
DIMENSION
  5
5E2A
330
1E
100
AcDbEntity
  8
30
  6
Continuous
100
AcDbDimension
  2
*D17
 10
45.0
 20
-121.7494181439514
 30
0.0
 11
0.0000000000000144
 21
-118.7494181439514
 31
0.0
 70
    32
 71
     5
 42
-1.0
  3
STANDARD
100
AcDbAlignedDimension
 13
-44.99999999999997
 23
-77.50000000000003
 33
0.0
 14
45.0
 24
-77.50000000000003
 34
0.0
 50
180.0
100
AcDbRotatedDimension
1001
ACAD
1000
DSTYLE
1002
{
1070
    79
1070
     3
1002
}
  0
ARC
  5
5E2B
330
1E
100
AcDbEntity
  8
10
  6
CONTINOUS
100
AcDbCircle
 10
-33.74999999999992
 20
-66.00000000000004
 30
0.0
 40
5.0
100
AcDbArc
 50
90.0
 51
180.0
  0
ARC
  5
5E2C
330
1E
100
AcDbEntity
  8
10
  6
CONTINOUS
100
AcDbCircle
 10
33.74999999999992
 20
65.99999999999997
 30
0.0
 40
5.0
210
0.0
220
0.0
230
-1.0
100
AcDbArc
 50
270.0
 51
0.0
  0
LINE
  5
5E2D
330
1E
100
AcDbEntity
  8
10
  6
CONTINOUS
100
AcDbLine
 10
-41.99999999999996
 20
-25.0
 30
0.0
 11
42.00000000000001
 21
-25.0
 31
0.0
  0
LINE
  5
5E2E
330
1E
100
AcDbEntity
  8
10
  6
CONTINOUS
100
AcDbLine
 10
-44.99999999999997
 20
-51.00000000000008
 30
0.0
 11
45.0
 21
-51.00000000000008
 31
0.0
  0
LINE
  5
5E2F
330
1E
100
AcDbEntity
  8
10
  6
CONTINOUS
100
AcDbLine
 10
-44.99999999999997
 20
50.99999999999996
 30
0.0
 11
45.0
 21
50.99999999999996
 31
0.0
  0
LINE
  5
5E30
330
1E
100
AcDbEntity
  8
10
  6
CONTINOUS
100
AcDbLine
 10
45.0
 20
77.49999999999997
 30
0.0
 11
-44.99999999999997
 21
77.49999999999997
 31
0.0
  0
LINE
  5
5E31
330
1E
100
AcDbEntity
  8
10
  6
CONTINOUS
100
AcDbLine
 10
-44.99999999999997
 20
-77.50000000000003
 30
0.0
 11
45.0
 21
-77.50000000000003
 31
0.0
  0
LINE
  5
5E32
330
1E
100
AcDbEntity
  8
10
  6
CONTINOUS
100
AcDbLine
 10
-41.99999999999996
 20
25.0
 30
0.0
 11
42.00000000000001
 21
25.0
 31
0.0
  0
LINE
  5
5E33
330
1E
100
AcDbEntity
  8
10
  6
CONTINOUS
100
AcDbLine
 10
-41.99999999999996
 20
25.0
 30
0.0
 11
-41.99999999999996
 21
-25.0
 31
0.0
  0
LINE
  5
5E34
330
1E
100
AcDbEntity
  8
10
  6
CONTINOUS
100
AcDbLine
 10
-44.99999999999997
 20
77.49999999999997
 30
0.0
 11
-44.99999999999997
 21
-77.50000000000003
 31
0.0
  0
LINE
  5
5E35
330
1E
100
AcDbEntity
  8
10
  6
CONTINOUS
100
AcDbLine
 10
-38.74999999999996
 20
-66.00000000000004
 30
0.0
 11
-38.74999999999996
 21
-77.50000000000003
 31
0.0
  0
LINE
  5
5E36
330
1E
100
AcDbEntity
  8
10
  6
CONTINOUS
100
AcDbLine
 10
-38.74999999999996
 20
65.99999999999997
 30
0.0
 11
-38.74999999999996
 21
77.49999999999997
 31
0.0
  0
LINE
  5
5E38
330
1E
100
AcDbEntity
  8
18
100
AcDbLine
 10
13.50000000000002
 20
124.4999999999996
 30
0.0
 11
13.50000000000002
 21
77.49999999999973
 31
0.0
  0
LINE
  5
5E39
330
1E
100
AcDbEntity
  8
18
100
AcDbLine
 10
16.5
 20
124.4999999999996
 30
0.0
 11
16.5
 21
77.49999999999973
 31
0.0
  0
LINE
  5
5E3A
330
1E
100
AcDbEntity
  8
18
100
AcDbLine
 10
-13.49999999999999
 20
124.4999999999996
 30
0.0
 11
-13.49999999999999
 21
77.49999999999973
 31
0.0
  0
LINE
  5
5E3B
330
1E
100
AcDbEntity
  8
18
100
AcDbLine
 10
-16.5
 20
124.4999999999996
 30
0.0
 11
-16.5
 21
77.49999999999973
 31
0.0
  0
LINE
  5
5E3C
330
1E
100
AcDbEntity
  8
10
  6
CONTINOUS
100
AcDbLine
 10
42.00000000000001
 20
25.0
 30
0.0
 11
42.00000000000001
 21
-25.0
 31
0.0
  0
LINE
  5
5E3E
330
1E
100
AcDbEntity
  8
10
  6
CONTINOUS
100
AcDbLine
 10
11.00000000000002
 20
25.0
 30
0.0
 11
11.00000000000002
 21
-25.0
 31
0.0
  0
LINE
  5
5E3F
330
1E
100
AcDbEntity
  8
10
  6
CONTINOUS
100
AcDbLine
 10
-10.99999999999999
 20
25.0
 30
0.0
 11
-10.99999999999999
 21
-25.0
 31
0.0
  0
LINE
  5
5E40
330
1E
100
AcDbEntity
  8
10
  6
CONTINOUS
100
AcDbLine
 10
45.0
 20
-77.50000000000003
 30
0.0
 11
45.0
 21
77.49999999999997
 31
0.0
  0
DIMENSION
  5
5E41
330
1E
100
AcDbEntity
  8
30
  6
Continuous
100
AcDbDimension
  2
*D18
 10
30.00000000000003
 20
-101.7494181439513
 30
0.0
 11
0.000000000000041
 21
-98.7494181439515
 31
0.0
 70
    32
 71
     5
 42
-1.0
  3
STANDARD
100
AcDbAlignedDimension
 13
-29.99999999999995
 23
-69.50000001650003
 33
0.0
 14
30.00000000000003
 24
-69.50000001650003
 34
0.0
 50
180.0
100
AcDbRotatedDimension
1001
ACAD
1000
DSTYLE
1002
{
1070
    79
1070
     3
1002
}
  0
DIMENSION
  5
5E42
330
1E
100
AcDbEntity
  8
30
  6
Continuous
100
AcDbDimension
  2
*D19
 10
11.00000000000002
 20
-41.74941814395149
 30
0.0
 11
0.0000000000000277
 21
-38.7494181439515
 31
0.0
 70
    32
 71
     5
 42
-1.0
  3
STANDARD
100
AcDbAlignedDimension
 13
-10.99999999999999
 23
-25.0
 33
0.0
 14
11.00000000000002
 24
-25.0
 34
0.0
 50
180.0
100
AcDbRotatedDimension
1001
ACAD
1000
DSTYLE
1002
{
1070
    79
1070
     3
1002
}
  0
ARC
  5
5E43
330
1E
100
AcDbEntity
  8
10
  6
CONTINOUS
100
AcDbCircle
 10
-3.75
 20
-66.00000000000004
 30
0.0
 40
5.0
210
0.0
220
0.0
230
-1.0
100
AcDbArc
 50
90.0
 51
180.0
  0
CIRCLE
  5
5E44
330
1E
100
AcDbEntity
  8
24
  6
CONTINOUS
100
AcDbCircle
 10
0.0
 20
-67.00000000000001
 30
0.0
 40
5.0
  0
LINE
  5
5E45
330
1E
100
AcDbEntity
  8
24
  6
CONTINOUS
100
AcDbLine
 10
-6.999999999999997
 20
-67.00000000000001
 30
0.0
 11
7.000000000000026
 21
-67.00000000000001
 31
0.0
  0
CIRCLE
  5
5E46
330
1E
100
AcDbEntity
  8
24
  6
CONTINOUS
100
AcDbCircle
 10
-29.99999999999995
 20
-67.00000000000009
 30
0.0
 40
5.0
  0
LINE
  5
5E47
330
1E
100
AcDbEntity
  8
10
  6
CONTINOUS
100
AcDbLine
 10
-21.24999999999999
 20
-66.00000000000004
 30
0.0
 11
-21.24999999999999
 21
-77.50000000000003
 31
0.0
  0
LINE
  5
5E48
330
1E
100
AcDbEntity
  8
24
  6
CONTINOUS
100
AcDbLine
 10
-29.99999999999995
 20
-74.00000000000003
 30
0.0
 11
-29.99999999999995
 21
-60.00000000000003
 31
0.0
  0
LINE
  5
5E49
330
1E
100
AcDbEntity
  8
10
  6
CONTINOUS
100
AcDbLine
 10
-33.74999999999992
 20
-61.00000000000008
 30
0.0
 11
-26.24999999999999
 21
-61.00000000000008
 31
0.0
  0
LINE
  5
5E4A
330
1E
100
AcDbEntity
  8
24
  6
CONTINOUS
100
AcDbLine
 10
-22.99999999999996
 20
-67.00000000000001
 30
0.0
 11
-36.99999999999997
 21
-67.00000000000001
 31
0.0
  0
ARC
  5
5E4B
330
1E
100
AcDbEntity
  8
10
  6
CONTINOUS
100
AcDbCircle
 10
-26.24999999999999
 20
-66.00000000000004
 30
0.0
 40
5.0
100
AcDbArc
 50
0.0
 51
90.0
  0
LINE
  5
5E4C
330
1E
100
AcDbEntity
  8
10
  6
CONTINOUS
100
AcDbLine
 10
-8.749999999999998
 20
-66.00000000000004
 30
0.0
 11
-8.749999999999998
 21
-77.50000000000003
 31
0.0
  0
ARC
  5
5E4D
330
1E
100
AcDbEntity
  8
10
  6
CONTINOUS
100
AcDbCircle
 10
3.749999999999998
 20
-66.00000000000004
 30
0.0
 40
5.0
210
0.0
220
0.0
230
-1.0
100
AcDbArc
 50
0.0
 51
90.0
  0
LINE
  5
5E4E
330
1E
100
AcDbEntity
  8
10
  6
CONTINOUS
100
AcDbLine
 10
3.75
 20
-61.00000000000008
 30
0.0
 11
-3.749999999999998
 21
-61.00000000000008
 31
0.0
  0
ARC
  5
5E4F
330
1E
100
AcDbEntity
  8
10
  6
CONTINOUS
100
AcDbCircle
 10
-26.25000000000003
 20
-66.00000000000004
 30
0.0
 40
5.0
210
0.0
220
0.0
230
-1.0
100
AcDbArc
 50
0.0
 51
90.0
  0
CIRCLE
  5
5E50
330
1E
100
AcDbEntity
  8
24
  6
CONTINOUS
100
AcDbCircle
 10
30.00000000000003
 20
-67.00000000000001
 30
0.0
 40
5.0
  0
LINE
  5
5E51
330
1E
100
AcDbEntity
  8
24
  6
CONTINOUS
100
AcDbLine
 10
23.00000000000002
 20
-67.00000000000001
 30
0.0
 11
37.00000000000001
 21
-67.00000000000001
 31
0.0
  0
CIRCLE
  5
5E52
330
1E
100
AcDbEntity
  8
12
  6
DASHED
100
AcDbCircle
 10
15.00000000000005
 20
-66.00000000000004
 30
0.0
 40
4.0
  0
LINE
  5
5E53
330
1E
100
AcDbEntity
  8
12
  6
DASHED
100
AcDbLine
 10
15.00000000000005
 20
-71.50000000000003
 30
0.0
 11
15.00000000000005
 21
-60.49999999999998
 31
0.0
  0
LINE
  5
5E54
330
1E
100
AcDbEntity
  8
10
  6
CONTINOUS
100
AcDbLine
 10
21.25000000000003
 20
-66.00000000000004
 30
0.0
 11
21.25000000000003
 21
-77.50000000000003
 31
0.0
  0
LINE
  5
5E55
330
1E
100
AcDbEntity
  8
10
  6
CONTINOUS
100
AcDbLine
 10
8.750000000000023
 20
-66.00000000000004
 30
0.0
 11
8.750000000000023
 21
-77.50000000000003
 31
0.0
  0
LINE
  5
5E56
330
1E
100
AcDbEntity
  8
12
  6
DASHED
100
AcDbLine
 10
9.500000000000078
 20
-66.00000000000004
 30
0.0
 11
20.50000000000014
 21
-66.00000000000004
 31
0.0
  0
LINE
  5
5E57
330
1E
100
AcDbEntity
  8
24
  6
CONTINOUS
100
AcDbLine
 10
30.00000000000003
 20
-74.00000000000003
 30
0.0
 11
30.00000000000003
 21
-60.00000000000003
 31
0.0
  0
LINE
  5
5E58
330
1E
100
AcDbEntity
  8
10
  6
CONTINOUS
100
AcDbLine
 10
38.75000000000003
 20
-66.00000000000004
 30
0.0
 11
38.75000000000003
 21
-77.50000000000003
 31
0.0
  0
ARC
  5
5E59
330
1E
100
AcDbEntity
  8
10
  6
CONTINOUS
100
AcDbCircle
 10
-33.75000000000003
 20
-66.00000000000004
 30
0.0
 40
5.0
210
0.0
220
0.0
230
-1.0
100
AcDbArc
 50
90.0
 51
180.0
  0
LINE
  5
5E5A
330
1E
100
AcDbEntity
  8
10
  6
CONTINOUS
100
AcDbLine
 10
33.75000000000003
 20
-61.00000000000008
 30
0.0
 11
26.25000000000003
 21
-61.00000000000008
 31
0.0
  0
LINE
  5
5E5B
330
1E
100
AcDbEntity
  8
10
  6
CONTINOUS
100
AcDbLine
 10
7.000000000000026
 20
20.15486870581028
 30
0.0
 11
-7.000000000000909
 21
20.15486870581028
 31
0.0
  0
LINE
  5
5E5C
330
1E
100
AcDbEntity
  8
10
  6
CONTINOUS
100
AcDbLine
 10
7.000000000000026
 20
15.23995644007658
 30
0.0
 11
-6.999999999999997
 21
15.23995644007658
 31
0.0
  0
LINE
  5
5E5D
330
1E
100
AcDbEntity
  8
10
  6
CONTINOUS
100
AcDbLine
 10
7.000000000000026
 20
6.840789306861434
 30
0.0
 11
-6.99999999999903
 21
6.840789306861521
 31
0.0
  0
LINE
  5
5E5E
330
1E
100
AcDbEntity
  8
10
  6
CONTINOUS
100
AcDbLine
 10
-6.999999999999997
 20
-18.50000000000001
 30
0.0
 11
7.000000000000026
 21
-18.50000000000001
 31
0.0
  0
LINE
  5
5E5F
330
1E
100
AcDbEntity
  8
10
  6
CONTINOUS
100
AcDbLine
 10
-6.999999999999997
 20
-18.50000000000001
 30
0.0
 11
-6.999999999999857
 21
20.15486870581028
 31
0.0
  0
LINE
  5
5E60
330
1E
100
AcDbEntity
  8
10
  6
CONTINOUS
100
AcDbLine
 10
7.000000000000026
 20
-18.50000000000001
 30
0.0
 11
7.000000000000079
 21
20.15486870581028
 31
0.0
  0
ARC
  5
5E62
330
1E
100
AcDbEntity
  8
10
  6
CONTINOUS
100
AcDbCircle
 10
3.75
 20
65.99999999999997
 30
0.0
 40
5.0
100
AcDbArc
 50
270.0
 51
0.0
  0
CIRCLE
  5
5E63
330
1E
100
AcDbEntity
  8
24
  6
CONTINOUS
100
AcDbCircle
 10
0.0
 20
66.99999999999997
 30
0.0
 40
5.0
  0
LINE
  5
5E64
330
1E
100
AcDbEntity
  8
24
  6
CONTINOUS
100
AcDbLine
 10
-6.999999999999997
 20
66.99999999999997
 30
0.0
 11
7.000000000000026
 21
66.99999999999997
 31
0.0
  0
CIRCLE
  5
5E65
330
1E
100
AcDbEntity
  8
24
  6
CONTINOUS
100
AcDbCircle
 10
-29.99999999999995
 20
66.99999999999997
 30
0.0
 40
5.0
  0
LINE
  5
5E66
330
1E
100
AcDbEntity
  8
10
  6
CONTINOUS
100
AcDbLine
 10
-21.24999999999999
 20
65.99999999999997
 30
0.0
 11
-21.24999999999999
 21
77.49999999999997
 31
0.0
  0
LINE
  5
5E67
330
1E
100
AcDbEntity
  8
24
  6
CONTINOUS
100
AcDbLine
 10
-29.99999999999995
 20
73.99999999999997
 30
0.0
 11
-29.99999999999995
 21
59.99999999999996
 31
0.0
  0
LINE
  5
5E68
330
1E
100
AcDbEntity
  8
10
  6
CONTINOUS
100
AcDbLine
 10
-8.749999999999998
 20
65.99999999999997
 30
0.0
 11
-8.749999999999998
 21
77.49999999999997
 31
0.0
  0
CIRCLE
  5
5E69
330
1E
100
AcDbEntity
  8
12
  6
DASHED
100
AcDbCircle
 10
-14.99999999999998
 20
65.99999999999974
 30
0.0
 40
4.0
  0
LINE
  5
5E6A
330
1E
100
AcDbEntity
  8
12
  6
DASHED
100
AcDbLine
 10
-20.49999999999996
 20
65.99999999999974
 30
0.0
 11
-9.5
 21
65.99999999999974
 31
0.0
  0
LINE
  5
5E6B
330
1E
100
AcDbEntity
  8
10
  6
CONTINOUS
100
AcDbLine
 10
-33.74999999999992
 20
60.99999999999996
 30
0.0
 11
-26.24999999999999
 21
60.99999999999996
 31
0.0
  0
LINE
  5
5E6C
330
1E
100
AcDbEntity
  8
24
  6
CONTINOUS
100
AcDbLine
 10
-22.99999999999996
 20
66.99999999999997
 30
0.0
 11
-36.99999999999997
 21
66.99999999999997
 31
0.0
  0
ARC
  5
5E6D
330
1E
100
AcDbEntity
  8
10
  6
CONTINOUS
100
AcDbCircle
 10
26.24999999999999
 20
65.99999999999997
 30
0.0
 40
5.0
210
0.0
220
0.0
230
-1.0
100
AcDbArc
 50
180.0
 51
270.0
  0
ARC
  5
5E6E
330
1E
100
AcDbEntity
  8
10
  6
CONTINOUS
100
AcDbCircle
 10
-3.749999999999998
 20
65.99999999999997
 30
0.0
 40
5.0
100
AcDbArc
 50
180.0
 51
270.0
  0
LINE
  5
5E6F
330
1E
100
AcDbEntity
  8
12
  6
DASHED
100
AcDbLine
 10
-14.99999999999998
 20
60.49999999999974
 30
0.0
 11
-14.99999999999998
 21
71.49999999999973
 31
0.0
  0
LINE
  5
5E70
330
1E
100
AcDbEntity
  8
10
  6
CONTINOUS
100
AcDbLine
 10
3.75
 20
60.99999999999996
 30
0.0
 11
-3.749999999999998
 21
60.99999999999996
 31
0.0
  0
CIRCLE
  5
5E71
330
1E
100
AcDbEntity
  8
24
  6
CONTINOUS
100
AcDbCircle
 10
30.00000000000003
 20
66.99999999999997
 30
0.0
 40
5.0
  0
LINE
  5
5E72
330
1E
100
AcDbEntity
  8
10
  6
CONTINOUS
100
AcDbLine
 10
38.75000000000003
 20
65.99999999999997
 30
0.0
 11
38.75000000000003
 21
77.49999999999997
 31
0.0
  0
LINE
  5
5E73
330
1E
100
AcDbEntity
  8
10
  6
CONTINOUS
100
AcDbLine
 10
21.25000000000003
 20
65.99999999999997
 30
0.0
 11
21.25000000000003
 21
77.49999999999997
 31
0.0
  0
LINE
  5
5E74
330
1E
100
AcDbEntity
  8
24
  6
CONTINOUS
100
AcDbLine
 10
30.00000000000003
 20
73.99999999999997
 30
0.0
 11
30.00000000000003
 21
59.99999999999996
 31
0.0
  0
LINE
  5
5E75
330
1E
100
AcDbEntity
  8
10
  6
CONTINOUS
100
AcDbLine
 10
8.750000000000023
 20
65.99999999999997
 30
0.0
 11
8.750000000000023
 21
77.49999999999997
 31
0.0
  0
ARC
  5
5E76
330
1E
100
AcDbEntity
  8
10
  6
CONTINOUS
100
AcDbCircle
 10
26.25000000000003
 20
65.99999999999997
 30
0.0
 40
5.0
100
AcDbArc
 50
180.0
 51
270.0
  0
LINE
  5
5E77
330
1E
100
AcDbEntity
  8
24
  6
CONTINOUS
100
AcDbLine
 10
23.00000000000002
 20
66.99999999999997
 30
0.0
 11
37.00000000000001
 21
66.99999999999997
 31
0.0
  0
ARC
  5
5E78
330
1E
100
AcDbEntity
  8
10
  6
CONTINOUS
100
AcDbCircle
 10
33.75000000000003
 20
65.99999999999997
 30
0.0
 40
5.0
100
AcDbArc
 50
270.0
 51
0.0
  0
LINE
  5
5E79
330
1E
100
AcDbEntity
  8
10
  6
CONTINOUS
100
AcDbLine
 10
33.75000000000003
 20
60.99999999999996
 30
0.0
 11
26.25000000000003
 21
60.99999999999996
 31
0.0
  0
LINE
  5
5E7A
330
1E
100
AcDbEntity
  8
18
100
AcDbLine
 10
-13.49999999999999
 20
124.4999999999996
 30
0.0
 11
-16.5
 21
124.4999999999996
 31
0.0
  0
LINE
  5
5E7B
330
1E
100
AcDbEntity
  8
18
100
AcDbLine
 10
13.50000000000002
 20
124.4999999999996
 30
0.0
 11
16.5
 21
124.4999999999996
 31
0.0
  0
LINE
  5
5EEE
330
1E
100
AcDbEntity
  8
18
  6
DIVIDE
100
AcDbLine
 10
45.0
 20
-177.4999999999999
 30
0.0
 11
-44.99999999999999
 21
-177.4999999999999
 31
0.0
  0
LINE
  5
5EEF
330
1E
100
AcDbEntity
  8
18
  6
DIVIDE
100
AcDbLine
 10
-44.99999999999999
 20
-332.4999999999998
 30
0.0
 11
45.0
 21
-332.4999999999998
 31
0.0
  0
DIMENSION
  5
5EF0
330
1E
100
AcDbEntity
  8
30
  6
Continuous
100
AcDbDimension
  2
*D20
 10
15.0
 20
-356.7494181439514
 30
0.0
 11
-0.0000000000000016
 21
-353.7494181439513
 31
0.0
 70
    32
 71
     5
 42
-1.0
  3
STANDARD
100
AcDbAlignedDimension
 13
-14.99999999999999
 23
-191.5000000165002
 33
0.0
 14
15.0
 24
-323.5000000165001
 34
0.0
 50
180.0
100
AcDbRotatedDimension
1001
ACAD
1000
DSTYLE
1002
{
1070
    79
1070
     3
1002
}
  0
LINE
  5
5EF1
330
1E
100
AcDbEntity
  8
18
  6
DIVIDE
100
AcDbLine
 10
-44.99999999999999
 20
-177.4999999999999
 30
0.0
 11
-44.99999999999999
 21
-332.4999999999998
 31
0.0
  0
LINE
  5
5EF2
330
1E
100
AcDbEntity
  8
12
  6
Continuous
 62
     3
100
AcDbLine
 10
9.499999999999984
 20
-320.9999999999999
 30
0.0
 11
20.49999999999998
 21
-320.9999999999999
 31
0.0
  0
LINE
  5
5EF3
330
1E
100
AcDbEntity
  8
12
  6
Continuous
 62
     3
100
AcDbLine
 10
15.0
 20
-326.4999999999998
 30
0.0
 11
15.0
 21
-315.4999999999998
 31
0.0
  0
CIRCLE
  5
5EF4
330
1E
100
AcDbEntity
  8
12
  6
Continuous
 62
     3
100
AcDbCircle
 10
15.0
 20
-320.9999999999999
 30
0.0
 40
2.0
  0
CIRCLE
  5
5EF5
330
1E
100
AcDbEntity
  8
12
  6
Continuous
 62
     3
100
AcDbCircle
 10
-14.99999999999999
 20
-189.0
 30
0.0
 40
2.0
  0
LINE
  5
5EF6
330
1E
100
AcDbEntity
  8
12
  6
Continuous
 62
     3
100
AcDbLine
 10
-20.49999999999998
 20
-189.0
 30
0.0
 11
-9.499999999999998
 21
-189.0
 31
0.0
  0
LINE
  5
5EF7
330
1E
100
AcDbEntity
  8
12
  6
Continuous
 62
     3
100
AcDbLine
 10
-14.99999999999999
 20
-194.5
 30
0.0
 11
-14.99999999999999
 21
-183.4999999999999
 31
0.0
  0
LINE
  5
5EF8
330
1E
100
AcDbEntity
  8
18
  6
DIVIDE
100
AcDbLine
 10
45.0
 20
-332.4999999999998
 30
0.0
 11
45.0
 21
-177.4999999999999
 31
0.0
  0
LEADER
  5
6067
330
1E
100
AcDbEntity
  8
30
  6
Continuous
100
AcDbLeader
  3
STANDARD
 73
     0
 40
4.0
 76
     3
 10
-14.99999999999999
 20
-189.0
 30
0.0
 10
-24.14302787963855
 20
-165.368371608535
 30
0.0
 10
-45.6199054648288
 20
-165.3368762556449
 30
0.0
340
6068
213
-12.87672171467731
223
1.90869741556051
233
0.0
1001
ACAD
1000
DSTYLE
1002
{
1070
     5
1000
OPEN
1070
    77
1070
     0
1070
    79
1070
     3
1070
   147
1040
1.0
1070
   342
1005
3B2
1002
}
  0
MTEXT
  5
6068
102
{ACAD_REACTORS
330
6067
102
}
330
1E
100
AcDbEntity
  8
30
  6
Continuous
100
AcDbMText
 10
-34.12327828532269
 20
-164.9086974155603
 30
0.0
 40
4.0
 41
0.0
 71
     9
 72
     1
  1

 73
     1
 44
1.0
1001
ACAD
1000
MTEXTBEGIN
1070
    73
1070
     1
1070
    44
1040
1.0
1070
    74
1070
     0
1000
MTEXTEND
  0
MTEXT
  5
606B
330
1E
100
AcDbEntity
  8
30
  6
Continuous
100
AcDbMText
 10
-34.17173218180357
 20
-162.1570239285006
 30
0.0
 40
4.0
 41
0.0
 71
     5
 72
     1
  1
M4\U+00D70.7
 73
     1
 44
1.0
1001
ACAD
1000
MTEXTBEGIN
1070
    73
1070
     1
1070
    44
1040
1.0
1070
    74
1070
     0
1000
MTEXTEND
  0
DIMENSION
  5
6157
330
1E
100
AcDbEntity
  8
30
  6
Continuous
100
AcDbDimension
  2
*D26
 10
87.91568416193033
 20
-320.9999999999999
 30
0.0
 11
84.91568416193038
 21
-255.0
 31
0.0
 70
    32
 71
     5
 42
-1.0
  3
STANDARD
100
AcDbAlignedDimension
 13
-9.499999999999998
 23
-189.0
 33
0.0
 14
20.49999999999998
 24
-320.9999999999999
 34
0.0
 50
90.0
100
AcDbRotatedDimension
1001
ACAD
1000
DSTYLE
1002
{
1070
    79
1070
     3
1002
}
  0
DIMENSION
  5
619F
330
1E
100
AcDbEntity
  8
30
  6
Continuous
100
AcDbDimension
  2
*D27
 10
-68.18995837047086
 20
77.49999999999997
 30
0.0
 11
-71.18995837047087
 21
100.9999999999997
 31
0.0
 70
    32
 71
     5
 42
-1.0
  3
STANDARD
100
AcDbAlignedDimension
 13
-16.5
 23
124.4999999999996
 33
0.0
 14
-44.99999999999997
 24
77.49999999999997
 34
0.0
 50
90.0
100
AcDbRotatedDimension
1001
ACAD
1000
DSTYLE
1002
{
1070
    79
1070
     3
1002
}
  0
DIMENSION
  5
61AC
330
1E
100
AcDbEntity
  8
30
  6
Continuous
100
AcDbDimension
  2
*D28
 10
-68.18995837047089
 20
-77.50000000000003
 30
0.0
 11
-71.18995837047087
 21
-0.0000000000000381
 31
0.0
 70
    32
 71
     5
 42
-1.0
  3
STANDARD
100
AcDbAlignedDimension
 13
-44.99999999999997
 23
77.49999999999997
 33
0.0
 14
-44.99999999999997
 24
-77.50000000000003
 34
0.0
 50
90.0
100
AcDbRotatedDimension
1001
ACAD
1000
DSTYLE
1002
{
1070
   287
1070
     4
1070
   287
1070
     4
1070
   287
1070
     4
1070
   287
1070
     4
1070
   287
1070
     4
1070
   279
1070
     1
1070
    79
1070
     3
1002
}
  0
DIMENSION
  5
66A1
330
1E
100
AcDbEntity
  8
30
  6
Continuous
100
AcDbDimension
  2
*D29
 10
229.8144775593029
 20
-89.91608514395144
 30
0.0
 11
225.814477559303
 21
-86.91608514395143
 31
0.0
 70
    32
 71
     5
 42
-1.0
  3
STANDARD
100
AcDbAlignedDimension
 13
221.8144775593031
 23
-77.50000000000003
 33
0.0
 14
229.8144775593029
 24
-68.25000000000001
 34
0.0
100
AcDbRotatedDimension
1001
ACAD
1000
DSTYLE
1002
{
1070
    79
1070
     3
1002
}
  0
LEADER
  5
6766
330
1E
100
AcDbEntity
  8
30
  6
Continuous
100
AcDbLeader
  3
STANDARD
 76
     3
 10
190.9105529131242
 20
73.04720618797992
 30
0.0
 10
183.0
 20
91.0
 30
0.0
 10
155.0
 20
91.0
 30
0.0
1001
ACAD
1000
DSTYLE
1002
{
1070
     5
1000
OPEN
1070
    77
1070
     0
1070
    79
1070
     3
1070
   147
1040
1.0
1070
   342
1005
3B2
1002
}
  0
LINE
  5
6767
330
1E
100
AcDbEntity
  8
16
100
AcDbLine
 10
180.0
 20
-352.7519397628458
 30
0.0
 11
180.0
 21
-153.6166007905139
 31
0.0
  0
LINE
  5
6769
330
1E
100
AcDbEntity
  8
18
  6
DIVIDE
100
AcDbLine
 10
135.0
 20
-177.4999999999998
 30
0.0
 11
135.0
 21
-332.4999999999998
 31
0.0
  0
LINE
  5
676A
330
1E
100
AcDbEntity
  8
18
  6
DIVIDE
100
AcDbLine
 10
225.0
 20
-332.4999999999998
 30
0.0
 11
225.0
 21
-177.4999999999998
 31
0.0
  0
LINE
  5
676B
330
1E
100
AcDbEntity
  8
11
 48
2.0
100
AcDbLine
 10
137.0
 20
-230.0
 30
0.0
 11
137.0
 21
-279.9999999999998
 31
0.0
  0
LINE
  5
676C
330
1E
100
AcDbEntity
  8
11
 48
2.0
100
AcDbLine
 10
223.0000000000002
 20
-230.0
 30
0.0
 11
223.0000000000002
 21
-279.9999999999998
 31
0.0
  0
DIMENSION
  5
676D
330
1E
100
AcDbEntity
  8
30
  6
Continuous
100
AcDbDimension
  2
*D33
 10
256.0178303542168
 20
-280.9999999999998
 30
0.0
 11
253.0178303542168
 21
-254.9999999999998
 31
0.0
 70
    32
 71
     5
 42
-1.0
  3
STANDARD
100
AcDbAlignedDimension
 13
222.0
 23
-228.9999999999998
 33
0.0
 14
222.0
 24
-280.9999999999998
 34
0.0
 50
90.0
100
AcDbRotatedDimension
1001
ACAD
1000
DSTYLE
1002
{
1070
    79
1070
     3
1002
}
  0
LINE
  5
676F
330
1E
100
AcDbEntity
  8
16
100
AcDbLine
 10
248.9038975494068
 20
-255.0
 30
0.0
 11
99.45008679841913
 21
-255.0
 31
0.0
  0
LINE
  5
6770
330
1E
100
AcDbEntity
  8
18
  6
DIVIDE
100
AcDbLine
 10
135.0
 20
-332.4999999999998
 30
0.0
 11
225.0
 21
-332.4999999999998
 31
0.0
  0
LINE
  5
6772
330
1E
100
AcDbEntity
  8
11
 48
2.0
100
AcDbLine
 10
138.0
 20
-280.9999999999998
 30
0.0
 11
222.0
 21
-280.9999999999998
 31
0.0
  0
ARC
  5
6776
330
1E
100
AcDbEntity
  8
11
 48
2.0
100
AcDbCircle
 10
138.0
 20
-279.9999999999998
 30
0.0
 40
1.0
100
AcDbArc
 50
180.0
 51
270.0
  0
ARC
  5
6777
330
1E
100
AcDbEntity
  8
11
 48
2.0
100
AcDbCircle
 10
222.0
 20
-279.9999999999998
 30
0.0
 40
1.0
100
AcDbArc
 50
270.0
 51
0.0
  0
LINE
  5
6778
330
1E
100
AcDbEntity
  8
18
  6
DIVIDE
100
AcDbLine
 10
225.0
 20
-177.4999999999998
 30
0.0
 11
135.0
 21
-177.4999999999998
 31
0.0
  0
LINE
  5
6779
330
1E
100
AcDbEntity
  8
11
 48
2.0
100
AcDbLine
 10
138.0
 20
-228.9999999999998
 30
0.0
 11
222.0
 21
-228.9999999999998
 31
0.0
  0
ARC
  5
677E
330
1E
100
AcDbEntity
  8
11
 48
2.0
100
AcDbCircle
 10
138.0
 20
-230.0
 30
0.0
 40
1.0
100
AcDbArc
 50
90.0
 51
180.0
  0
DIMENSION
  5
6780
330
1E
100
AcDbEntity
  8
30
  6
Continuous
100
AcDbDimension
  2
*D32
 10
222.0000000000001
 20
-229.9999999999995
 30
0.0
 11
229.6330332440374
 21
-223.9556714740487
 31
0.0
 70
    36
 71
     5
 42
-1.0
  3
STANDARD
100
AcDbRadialDimension
 15
222.7932733154744
 25
-229.3911342948093
 35
0.0
 40
0.0
1001
ACAD
1000
DSTYLE
1002
{
1070
   288
1070
     1
1002
}
  0
ARC
  5
6781
330
1E
100
AcDbEntity
  8
11
 48
2.0
100
AcDbCircle
 10
222.0
 20
-230.0
 30
0.0
 40
1.0
100
AcDbArc
 50
0.0
 51
90.0
  0
DIMENSION
  5
67E9
330
1E
100
AcDbEntity
  8
30
  6
Continuous
100
AcDbDimension
  2
*D35
 10
223.0000000000002
 20
-368.6166007905138
 30
0.0
 11
180.0
 21
-365.6166007905138
 31
0.0
 70
    32
 71
     5
 42
-1.0
  3
STANDARD
100
AcDbAlignedDimension
 13
137.0
 23
-255.0
 33
0.0
 14
223.0000000000002
 24
-254.9999999999998
 34
0.0
100
AcDbRotatedDimension
1001
ACAD
1000
DSTYLE
1002
{
1070
    79
1070
     3
1002
}
  0
CIRCLE
  5
69A5
330
1E
100
AcDbEntity
  8
10
  6
CONTINOUS
100
AcDbCircle
 10
26.19999999999996
 20
-1.900000000000004
 30
0.0
 40
3.6
  0
CIRCLE
  5
69A6
330
1E
100
AcDbEntity
  8
10
  6
CONTINOUS
100
AcDbCircle
 10
26.19999999999996
 20
-1.900000000000004
 30
0.0
 40
2.6
  0
LINE
  5
69A7
330
1E
100
AcDbEntity
  8
10
  6
CONTINOUS
100
AcDbLine
 10
22.69999999999996
 20
-7.5
 30
0.0
 11
30.69999999999996
 21
-7.5
 31
0.0
  0
LINE
  5
69A8
330
1E
100
AcDbEntity
  8
10
  6
CONTINOUS
100
AcDbLine
 10
22.69999999999996
 20
-12.5
 30
0.0
 11
30.69999999999996
 21
-12.5
 31
0.0
  0
LINE
  5
69A9
330
1E
100
AcDbEntity
  8
10
  6
CONTINOUS
100
AcDbLine
 10
22.69999999999996
 20
-10.5
 30
0.0
 11
30.69999999999996
 21
-10.5
 31
0.0
  0
LINE
  5
69AA
330
1E
100
AcDbEntity
  8
10
  6
CONTINOUS
100
AcDbLine
 10
22.69999999999996
 20
-15.5
 30
0.0
 11
22.69999999999996
 21
-12.5
 31
0.0
  0
LINE
  5
69AB
330
1E
100
AcDbEntity
  8
10
  6
CONTINOUS
100
AcDbLine
 10
30.69999999999996
 20
-15.5
 30
0.0
 11
30.69999999999996
 21
-12.5
 31
0.0
  0
LINE
  5
69AC
330
1E
100
AcDbEntity
  8
10
  6
CONTINOUS
100
AcDbLine
 10
22.69999999999996
 20
-10.5
 30
0.0
 11
22.69999999999996
 21
-7.5
 31
0.0
  0
LINE
  5
69AD
330
1E
100
AcDbEntity
  8
10
  6
CONTINOUS
100
AcDbLine
 10
30.69999999999996
 20
-10.5
 30
0.0
 11
30.69999999999996
 21
-7.5
 31
0.0
  0
LINE
  5
69AE
330
1E
100
AcDbEntity
  8
10
  6
CONTINOUS
100
AcDbLine
 10
22.69999999999996
 20
-15.5
 30
0.0
 11
30.69999999999996
 21
-15.5
 31
0.0
  0
CIRCLE
  5
69AF
330
1E
100
AcDbEntity
  8
10
  6
CONTINOUS
100
AcDbCircle
 10
26.19999999999996
 20
5.800000000000013
 30
0.0
 40
3.0
  0
ARC
  5
69F5
330
1E
100
AcDbEntity
  8
10
  6
CONTINOUS
100
AcDbCircle
 10
145.8144775593031
 20
-3.900000000000004
 30
0.0
 40
0.5
100
AcDbArc
 50
180.0
 51
270.0
  0
ARC
  5
69F6
330
1E
100
AcDbEntity
  8
10
  6
CONTINOUS
100
AcDbCircle
 10
145.8144775593031
 20
0.0999999999999943
 30
0.0
 40
0.5
100
AcDbArc
 50
90.0
 51
180.0
  0
LINE
  5
69F7
330
1E
100
AcDbEntity
  8
10
  6
CONTINOUS
100
AcDbLine
 10
145.3144775593031
 20
0.0999999999999943
 30
0.0
 11
145.3144775593031
 21
-3.900000000000004
 31
0.0
  0
LINE
  5
69F8
330
1E
100
AcDbEntity
  8
10
  6
CONTINOUS
100
AcDbLine
 10
145.8144775593031
 20
-4.400000000000003
 30
0.0
 11
147.3144775593029
 21
-4.400000000000003
 31
0.0
  0
LINE
  5
69F9
330
1E
100
AcDbEntity
  8
10
  6
CONTINOUS
100
AcDbLine
 10
145.8144775593031
 20
0.5999999999999944
 30
0.0
 11
147.3144775593029
 21
0.5999999999999944
 31
0.0
  0
LINE
  5
69FA
330
1E
100
AcDbEntity
  8
10
  6
CONTINOUS
100
AcDbLine
 10
147.8144775593031
 20
-5.5
 30
0.0
 11
149.8144775593031
 21
-5.5
 31
0.0
  0
LINE
  5
69FB
330
1E
100
AcDbEntity
  8
10
  6
CONTINOUS
100
AcDbLine
 10
147.8144775593031
 20
1.699999999999988
 30
0.0
 11
149.8144775593031
 21
1.699999999999988
 31
0.0
  0
LINE
  5
69FC
330
1E
100
AcDbEntity
  8
10
  6
CONTINOUS
100
AcDbLine
 10
147.3144775593029
 20
1.199999999999988
 30
0.0
 11
147.3144775593029
 21
-5.0
 31
0.0
  0
ARC
  5
69FD
330
1E
100
AcDbEntity
  8
10
  6
CONTINOUS
100
AcDbCircle
 10
147.8144775593031
 20
-5.0
 30
0.0
 40
0.5
100
AcDbArc
 50
180.0
 51
270.0
  0
ARC
  5
69FE
330
1E
100
AcDbEntity
  8
10
  6
CONTINOUS
100
AcDbCircle
 10
147.8144775593031
 20
1.199999999999988
 30
0.0
 40
0.5
100
AcDbArc
 50
90.0
 51
180.0
  0
MTEXT
  5
6A36
330
1E
100
AcDbEntity
  8
30
  6
Continuous
100
AcDbMText
 10
137.2504672982831
 20
231.7109861623653
 30
0.0
 40
5.0
 41
83.0
 71
     1
 72
     5
  1
ZS100-NF 3P FC\PZS100-GF 3P FC\PZS100-NM 3P FC\PZS125-NF 3P FC\PZS125-GF 3P FC
  7
STANDARD1
 73
     1
 44
1.0
1001
ACAD
1000
MTEXTBEGIN
1070
    73
1070
     1
1070
    44
1040
1.0
1070
    74
1070
     0
1000
MTEXTEND
  0
LINE
  5
6B16
330
1E
100
AcDbEntity
  8
16
100
AcDbLine
 10
-0.0179035351712551
 20
137.7384784421552
 30
0.0
 11
-0.0179035351712551
 21
280.2384784421551
 31
0.0
  0
LINE
  5
6B17
330
1E
100
AcDbEntity
  8
10
  6
CONTINOUS
100
AcDbLine
 10
-44.99999999999984
 20
174.1349134126129
 30
0.0
 11
-44.99999999999997
 21
235.1349134126127
 31
0.0
  0
LINE
  5
6B18
330
1E
100
AcDbEntity
  8
10
  6
CONTINOUS
100
AcDbLine
 10
45.0
 20
174.134913412613
 30
0.0
 11
45.0
 21
235.1349134126127
 31
0.0
  0
LINE
  5
6B19
330
1E
100
AcDbEntity
  8
10
  6
CONTINOUS
100
AcDbLine
 10
-44.99999999999975
 20
167.1349134126124
 30
0.0
 11
45.0
 21
167.1349134126126
 31
0.0
  0
LINE
  5
6B1A
330
1E
100
AcDbEntity
  8
10
  6
CONTINOUS
100
AcDbLine
 10
-44.99999999999984
 20
174.1349134126124
 30
0.0
 11
45.0
 21
174.1349134126129
 31
0.0
  0
LINE
  5
6B1B
330
1E
100
AcDbEntity
  8
10
  6
CONTINOUS
100
AcDbLine
 10
45.0
 20
167.1349134126126
 30
0.0
 11
45.0
 21
174.1349134126129
 31
0.0
  0
LINE
  5
6B1C
330
1E
100
AcDbEntity
  8
10
  6
CONTINOUS
100
AcDbLine
 10
-11.03580707034253
 20
159.1349134126128
 30
0.0
 11
10.98209646482871
 21
159.1349134126128
 31
0.0
  0
LINE
  5
6B1D
330
1E
100
AcDbEntity
  8
10
  6
CONTINOUS
100
AcDbLine
 10
10.98209646482871
 20
159.1349134126128
 30
0.0
 11
10.98209646482871
 21
163.1349134126127
 31
0.0
  0
LINE
  5
6B1E
330
1E
100
AcDbEntity
  8
10
  6
CONTINOUS
100
AcDbLine
 10
-11.03580707034253
 20
159.1349134126128
 30
0.0
 11
-11.03580707034253
 21
163.1349134126127
 31
0.0
  0
LINE
  5
6B1F
330
1E
100
AcDbEntity
  8
10
  6
CONTINOUS
100
AcDbLine
 10
-44.99999999999984
 20
167.1349134126124
 30
0.0
 11
-44.99999999999984
 21
174.1349134126124
 31
0.0
  0
LINE
  5
6B20
330
1E
100
AcDbEntity
  8
10
  6
CONTINOUS
100
AcDbLine
 10
-44.99999999999997
 20
235.1349134126127
 30
0.0
 11
45.0
 21
235.1349134126127
 31
0.0
  0
LINE
  5
6B21
330
1E
100
AcDbEntity
  8
24
  6
CONTINOUS
100
AcDbLine
 10
29.98209646482873
 20
198.9349134126126
 30
0.0
 11
29.98209646482873
 21
216.1349134126129
 31
0.0
  0
LINE
  5
6B22
330
1E
100
AcDbEntity
  8
24
  6
CONTINOUS
100
AcDbLine
 10
19.48209646482874
 20
211.1349134126129
 30
0.0
 11
40.48209646482885
 21
211.1349134126129
 31
0.0
  0
LINE
  5
6B23
330
1E
100
AcDbEntity
  8
24
  6
CONTINOUS
100
AcDbLine
 10
22.28209646482881
 20
209.1349134126128
 30
0.0
 11
37.68209646482878
 21
209.1349134126128
 31
0.0
  0
LINE
  5
6B24
330
1E
100
AcDbEntity
  8
24
  6
CONTINOUS
100
AcDbLine
 10
24.98209646482873
 20
203.9349134126128
 30
0.0
 11
34.98209646482873
 21
203.9349134126128
 31
0.0
  0
LINE
  5
6B25
330
1E
100
AcDbEntity
  8
24
  6
CONTINOUS
100
AcDbLine
 10
19.48209646482874
 20
213.1349134126129
 30
0.0
 11
40.48209646482885
 21
213.1349134126129
 31
0.0
  0
LINE
  5
6B26
330
1E
100
AcDbEntity
  8
24
  6
CONTINOUS
100
AcDbLine
 10
37.68209646482878
 20
209.1349134126128
 30
0.0
 11
37.68209646482878
 21
211.1349134126129
 31
0.0
  0
ARC
  5
6B27
330
1E
100
AcDbEntity
  8
24
  6
CONTINOUS
100
AcDbCircle
 10
34.98209646482877
 20
205.9349134126128
 30
0.0
 40
2.0
100
AcDbArc
 50
270.0
 51
0.0
  0
LINE
  5
6B28
330
1E
100
AcDbEntity
  8
24
  6
CONTINOUS
100
AcDbLine
 10
36.98209646482875
 20
205.9349134126128
 30
0.0
 11
36.98209646482875
 21
209.1349134126128
 31
0.0
  0
LINE
  5
6B29
330
1E
100
AcDbEntity
  8
24
  6
CONTINOUS
100
AcDbLine
 10
22.28209646482881
 20
209.1349134126128
 30
0.0
 11
22.28209646482881
 21
211.1349134126129
 31
0.0
  0
ARC
  5
6B2A
330
1E
100
AcDbEntity
  8
24
  6
CONTINOUS
100
AcDbCircle
 10
24.98209646482877
 20
205.9349134126128
 30
0.0
 40
2.0
100
AcDbArc
 50
180.0
 51
270.0
  0
LINE
  5
6B2B
330
1E
100
AcDbEntity
  8
24
  6
CONTINOUS
100
AcDbLine
 10
22.98209646482874
 20
205.9349134126128
 30
0.0
 11
22.98209646482874
 21
209.1349134126128
 31
0.0
  0
LINE
  5
6B2C
330
1E
100
AcDbEntity
  8
24
  6
CONTINOUS
100
AcDbLine
 10
-10.51790353517123
 20
213.1349134126129
 30
0.0
 11
10.48209646482884
 21
213.1349134126129
 31
0.0
  0
LINE
  5
6B2D
330
1E
100
AcDbEntity
  8
24
  6
CONTINOUS
100
AcDbLine
 10
-7.717903535171193
 20
209.1349134126128
 30
0.0
 11
7.682096464828785
 21
209.1349134126128
 31
0.0
  0
LINE
  5
6B2E
330
1E
100
AcDbEntity
  8
24
  6
CONTINOUS
100
AcDbLine
 10
-10.51790353517123
 20
211.1349134126129
 30
0.0
 11
10.48209646482884
 21
211.1349134126129
 31
0.0
  0
ARC
  5
6B2F
330
1E
100
AcDbEntity
  8
24
  6
CONTINOUS
100
AcDbCircle
 10
4.982096464828766
 20
205.9349134126128
 30
0.0
 40
2.0
100
AcDbArc
 50
270.0
 51
0.0
  0
LINE
  5
6B30
330
1E
100
AcDbEntity
  8
24
  6
CONTINOUS
100
AcDbLine
 10
-7.017903535171257
 20
205.9349134126128
 30
0.0
 11
-7.017903535171257
 21
209.1349134126128
 31
0.0
  0
LINE
  5
6B31
330
1E
100
AcDbEntity
  8
24
  6
CONTINOUS
100
AcDbLine
 10
-0.0179035351712591
 20
198.9349134126126
 30
0.0
 11
-0.0179035351712591
 21
216.1349134126129
 31
0.0
  0
LINE
  5
6B32
330
1E
100
AcDbEntity
  8
24
  6
CONTINOUS
100
AcDbLine
 10
-5.017903535171257
 20
203.9349134126128
 30
0.0
 11
4.982096464828741
 21
203.9349134126128
 31
0.0
  0
ARC
  5
6B33
330
1E
100
AcDbEntity
  8
24
  6
CONTINOUS
100
AcDbCircle
 10
-5.017903535171231
 20
205.9349134126128
 30
0.0
 40
2.0
100
AcDbArc
 50
180.0
 51
270.0
  0
LINE
  5
6B34
330
1E
100
AcDbEntity
  8
24
  6
CONTINOUS
100
AcDbLine
 10
-7.717903535171193
 20
209.1349134126128
 30
0.0
 11
-7.717903535171193
 21
211.1349134126129
 31
0.0
  0
LINE
  5
6B35
330
1E
100
AcDbEntity
  8
24
  6
CONTINOUS
100
AcDbLine
 10
6.982096464828741
 20
205.9349134126128
 30
0.0
 11
6.982096464828741
 21
209.1349134126128
 31
0.0
  0
LINE
  5
6B36
330
1E
100
AcDbEntity
  8
24
  6
CONTINOUS
100
AcDbLine
 10
7.682096464828785
 20
209.1349134126128
 30
0.0
 11
7.682096464828785
 21
211.1349134126129
 31
0.0
  0
LINE
  5
6B37
330
1E
100
AcDbEntity
  8
24
  6
CONTINOUS
100
AcDbLine
 10
-35.01790353517125
 20
203.9349134126128
 30
0.0
 11
-25.01790353517123
 21
203.9349134126128
 31
0.0
  0
LINE
  5
6B38
330
1E
100
AcDbEntity
  8
24
  6
CONTINOUS
100
AcDbLine
 10
-40.51790353517124
 20
211.1349134126129
 30
0.0
 11
-19.51790353517112
 21
211.1349134126129
 31
0.0
  0
LINE
  5
6B39
330
1E
100
AcDbEntity
  8
24
  6
CONTINOUS
100
AcDbLine
 10
-37.71790353517118
 20
209.1349134126128
 30
0.0
 11
-22.31790353517118
 21
209.1349134126128
 31
0.0
  0
LINE
  5
6B3A
330
1E
100
AcDbEntity
  8
24
  6
CONTINOUS
100
AcDbLine
 10
-40.51790353517124
 20
213.1349134126129
 30
0.0
 11
-19.51790353517112
 21
213.1349134126129
 31
0.0
  0
LINE
  5
6B3B
330
1E
100
AcDbEntity
  8
24
  6
CONTINOUS
100
AcDbLine
 10
-30.01790353517123
 20
198.9349134126126
 30
0.0
 11
-30.01790353517123
 21
216.1349134126129
 31
0.0
  0
LINE
  5
6B3C
330
1E
100
AcDbEntity
  8
24
  6
CONTINOUS
100
AcDbLine
 10
-37.01790353517125
 20
205.9349134126128
 30
0.0
 11
-37.01790353517125
 21
209.1349134126128
 31
0.0
  0
ARC
  5
6B3D
330
1E
100
AcDbEntity
  8
24
  6
CONTINOUS
100
AcDbCircle
 10
-35.01790353517121
 20
205.9349134126128
 30
0.0
 40
2.0
100
AcDbArc
 50
180.0
 51
270.0
  0
LINE
  5
6B3E
330
1E
100
AcDbEntity
  8
24
  6
CONTINOUS
100
AcDbLine
 10
-37.71790353517118
 20
209.1349134126128
 30
0.0
 11
-37.71790353517118
 21
211.1349134126129
 31
0.0
  0
LINE
  5
6B3F
330
1E
100
AcDbEntity
  8
24
  6
CONTINOUS
100
AcDbLine
 10
-23.01790353517123
 20
205.9349134126128
 30
0.0
 11
-23.01790353517123
 21
209.1349134126128
 31
0.0
  0
ARC
  5
6B40
330
1E
100
AcDbEntity
  8
24
  6
CONTINOUS
100
AcDbCircle
 10
-25.01790353517122
 20
205.9349134126128
 30
0.0
 40
2.0
100
AcDbArc
 50
270.0
 51
0.0
  0
LINE
  5
6B41
330
1E
100
AcDbEntity
  8
24
  6
CONTINOUS
100
AcDbLine
 10
-22.31790353517118
 20
209.1349134126128
 30
0.0
 11
-22.31790353517118
 21
211.1349134126129
 31
0.0
  0
LINE
  5
6B42
330
1E
100
AcDbEntity
  8
10
  6
CONTINOUS
100
AcDbLine
 10
-41.99999999999984
 20
163.1698268252254
 30
0.0
 11
41.98209646482871
 21
163.1698268252254
 31
0.0
  0
LINE
  5
6B43
330
1E
100
AcDbEntity
  8
10
  6
CONTINOUS
100
AcDbLine
 10
41.9820964648287
 20
163.1698268252254
 30
0.0
 11
41.9820964648287
 21
167.1349134126126
 31
0.0
  0
LINE
  5
6B44
330
1E
100
AcDbEntity
  8
10
  6
CONTINOUS
100
AcDbLine
 10
-41.99999999999984
 20
163.1698268252254
 30
0.0
 11
-41.99999999999984
 21
167.1349134126124
 31
0.0
  0
DIMENSION
  5
6B45
330
1E
100
AcDbEntity
  8
30
  6
Continuous
100
AcDbDimension
  2
*D43
 10
0.0
 20
255.6073578546832
 30
0.0
 11
-15.00895176758561
 21
258.6073578546832
 31
0.0
 70
    32
 71
     5
 42
30.01790353517123
  3
STANDARD
100
AcDbAlignedDimension
 13
-30.01790353517123
 23
218.0
 33
0.0
 14
0.0
 24
255.6073578546832
 34
0.0
100
AcDbRotatedDimension
1001
ACAD
1000
DSTYLE
1002
{
1070
    79
1070
     3
1002
}
  0
DIMENSION
  5
6B46
330
1E
100
AcDbEntity
  8
30
  6
Continuous
100
AcDbDimension
  2
*D44
 10
0.0
 20
256.0
 30
0.0
 11
14.99104823241436
 21
259.0
 31
0.0
 70
    32
 71
     5
 42
29.98209646482873
  3
STANDARD
100
AcDbAlignedDimension
 13
29.98209646482873
 23
218.0
 33
0.0
 14
0.0
 24
255.6073578546832
 34
0.0
100
AcDbRotatedDimension
1001
ACAD
1000
DSTYLE
1002
{
1070
    79
1070
     3
1002
}
  0
DIMENSION
  5
6B47
330
1E
100
AcDbEntity
  8
30
  6
Continuous
100
AcDbDimension
  2
*D45
 10
53.99999999999999
 20
174.134913412613
 30
0.0
 11
50.99999999999997
 21
204.6349134126128
 31
0.0
 70
    32
 71
     5
 42
60.99999999999969
  3
STANDARD
100
AcDbAlignedDimension
 13
45.0
 23
235.1349134126127
 33
0.0
 14
45.0
 24
174.134913412613
 34
0.0
 50
90.0
100
AcDbRotatedDimension
1001
ACAD
1000
DSTYLE
1002
{
1070
    79
1070
     3
1002
}
  0
DIMENSION
  5
6B48
330
1E
100
AcDbEntity
  8
30
  6
Continuous
100
AcDbDimension
  2
*D46
 10
61.0
 20
167.1349134126126
 30
0.0
 11
57.99999999999998
 21
201.1349134126127
 31
0.0
 70
    32
 71
     5
 42
68.00000000000008
  3
STANDARD
100
AcDbAlignedDimension
 13
45.0
 23
235.1349134126127
 33
0.0
 14
45.0
 24
167.1349134126126
 34
0.0
 50
90.0
100
AcDbRotatedDimension
1001
ACAD
1000
DSTYLE
1002
{
1070
    79
1070
     3
1002
}
  0
DIMENSION
  5
6B49
330
1E
100
AcDbEntity
  8
30
  6
Continuous
100
AcDbDimension
  2
*D47
 10
69.0
 20
163.1698268252254
 30
0.0
 11
65.99999999999997
 21
199.152370118919
 31
0.0
 70
    32
 71
     5
 42
71.96508658738728
  3
STANDARD
100
AcDbAlignedDimension
 13
45.0
 23
235.1349134126127
 33
0.0
 14
41.98209646482871
 24
163.1698268252254
 34
0.0
 50
90.0
100
AcDbRotatedDimension
1001
ACAD
1000
DSTYLE
1002
{
1070
    79
1070
     3
1002
}
  0
DIMENSION
  5
6B4A
330
1E
100
AcDbEntity
  8
30
  6
Continuous
100
AcDbDimension
  2
*D48
 10
76.99999999999999
 20
159.1349134126128
 30
0.0
 11
73.99999999999997
 21
197.1349134126127
 31
0.0
 70
    32
 71
     5
 42
75.99999999999986
  3
STANDARD
100
AcDbAlignedDimension
 13
45.0
 23
235.1349134126127
 33
0.0
 14
10.98209646482871
 24
159.1349134126128
 34
0.0
 50
90.0
100
AcDbRotatedDimension
1001
ACAD
1000
DSTYLE
1002
{
1070
    79
1070
     3
1002
}
  0
LINE
  5
6B4B
330
1E
100
AcDbEntity
  8
10
  6
CONTINOUS
100
AcDbLine
 10
-7.017903535171235
 20
159.1349134126128
 30
0.0
 11
-7.017903535171235
 21
147.1349134126128
 31
0.0
  0
LINE
  5
6B4C
330
1E
100
AcDbEntity
  8
10
  6
CONTINOUS
100
AcDbLine
 10
-7.017903535171235
 20
147.1349134126128
 30
0.0
 11
6.982096464828763
 21
147.1349134126128
 31
0.0
  0
LINE
  5
6B4D
330
1E
100
AcDbEntity
  8
10
  6
CONTINOUS
100
AcDbLine
 10
6.982096464828763
 20
147.1349134126128
 30
0.0
 11
6.982096464828763
 21
159.1349134126128
 31
0.0
  0
VIEWPORT
  5
9AC
102
{ACAD_XDICTIONARY
360
6C88
102
}
330
1A
100
AcDbEntity
 67
     1
  8
0
  6
Continuous
100
AcDbViewport
 10
171.999535
 20
144.1384739999999
 30
0.0
 40
488.867686
 41
292.351491
 68
    -1
 69
     1
 12
171.999535
 22
144.1384739999999
 13
0.0
 23
0.0
 14
10.0
 24
10.0
 15
10.0
 25
10.0
 16
0.0
 26
0.0
 36
1.0
 17
0.0
 27
0.0
 37
0.0
 42
50.0
 43
0.0
 44
0.0
 45
292.351491
 50
0.0
 51
0.0
 72
   100
 90
    32800
  1

281
     0
 71
     1
 74
     0
110
0.0
120
0.0
130
0.0
111
1.0
121
0.0
131
0.0
112
0.0
122
1.0
132
0.0
 79
     0
146
0.0
  0
ENDSEC
  0
SECTION
  2
OBJECTS
  0
DICTIONARY
  5
C
330
0
100
AcDbDictionary
281
     1
  3
ACAD_CIP_PREVIOUS_PRODUCT_INFO
350
6A8E
  3
ACAD_COLOR
350
6A72
  3
ACAD_DETAILVIEWSTYLE
350
6A8B
  3
ACAD_GROUP
350
D
  3
ACAD_LAYOUT
350
19
  3
ACAD_MATERIAL
350
6A40
  3
ACAD_MLEADERSTYLE
350
6A87
  3
ACAD_MLINESTYLE
350
16
  3
ACAD_PLOTSETTINGS
350
18
  3
ACAD_PLOTSTYLENAME
350
E
  3
ACAD_SCALELIST
350
6A75
  3
ACAD_SECTIONVIEWSTYLE
350
6A89
  3
ACAD_TABLESTYLE
350
6A73
  3
ACAD_VISUALSTYLE
350
6A59
  3
ACADDIM
350
5C76
  3
ACDB_RECOMPOSE_DATA
350
6C86
  3
ACDBVARIABLEDICTIONARY
350
5697
  3
DWGPROPS
350
6C87
  0
DICTIONARY
  5
6BCC
330
10
100
AcDbDictionary
280
     1
281
     1
  3
ADSK_XREC_LAYER_RECONCILED
360
6BCD
  0
DICTIONARY
  5
6BCE
330
2F
100
AcDbDictionary
280
     1
281
     1
  3
ADSK_XREC_LAYER_RECONCILED
360
6BCF
  0
DICTIONARY
  5
6BD0
330
31
100
AcDbDictionary
280
     1
281
     1
  3
ADSK_XREC_LAYER_RECONCILED
360
6BD1
  0
DICTIONARY
  5
6BD2
330
35
100
AcDbDictionary
280
     1
281
     1
  3
ADSK_XREC_LAYER_RECONCILED
360
6BD3
  0
DICTIONARY
  5
6BD4
330
38
100
AcDbDictionary
280
     1
281
     1
  3
ADSK_XREC_LAYER_RECONCILED
360
6BD5
  0
DICTIONARY
  5
6BD6
330
3C
100
AcDbDictionary
280
     1
281
     1
  3
ADSK_XREC_LAYER_RECONCILED
360
6BD7
  0
DICTIONARY
  5
6BD8
330
3D
100
AcDbDictionary
280
     1
281
     1
  3
ADSK_XREC_LAYER_RECONCILED
360
6BD9
  0
DICTIONARY
  5
6BDA
330
3A2
100
AcDbDictionary
280
     1
281
     1
  3
ADSK_XREC_LAYER_RECONCILED
360
6BDB
  0
DICTIONARY
  5
6BDC
330
3BBA
100
AcDbDictionary
280
     1
281
     1
  3
ADSK_XREC_LAYER_RECONCILED
360
6BDD
  0
DICTIONARY
  5
6BDE
330
5116
100
AcDbDictionary
280
     1
281
     1
  3
ADSK_XREC_LAYER_RECONCILED
360
6BDF
  0
DICTIONARY
  5
6BE0
330
5117
100
AcDbDictionary
280
     1
281
     1
  3
ADSK_XREC_LAYER_RECONCILED
360
6BE1
  0
DICTIONARY
  5
6BE2
330
5C47
100
AcDbDictionary
280
     1
281
     1
  3
ADSK_XREC_LAYER_RECONCILED
360
6BE3
  0
DICTIONARY
  5
178
330
1E
100
AcDbDictionary
280
     1
281
     1
  3
ACAD_LAYOUTSELFREF
360
6A22
  0
DICTIONARY
  5
17A
330
1A
100
AcDbDictionary
280
     1
281
     1
  3
ACAD_LAYOUTSELFREF
360
6A21
  0
DICTIONARY
  5
6C88
330
9AC
100
AcDbDictionary
280
     1
281
     1
  3
ACAD_XREC_ROUNDTRIP
360
6C89
  0
XRECORD
  5
6A8E
102
{ACAD_REACTORS
330
C
102
}
330
C
100
AcDbXrecord
280
     1
300
ACDLT
300
2015
300
ACDLT_F_S
  0
DICTIONARY
  5
6A72
102
{ACAD_REACTORS
330
C
102
}
330
C
100
AcDbDictionary
281
     1
  0
DICTIONARY
  5
6A8B
102
{ACAD_REACTORS
330
C
102
}
330
C
100
AcDbDictionary
281
     1
  3
Imperial24
350
6A8C
  0
DICTIONARY
  5
D
102
{ACAD_REACTORS
330
C
102
}
330
C
100
AcDbDictionary
281
     1
  0
DICTIONARY
  5
19
102
{ACAD_REACTORS
330
C
102
}
330
C
100
AcDbDictionary
281
     1
  3
Model
350
6A33
  3
ﾚｲｱｳﾄ1
350
6A34
  0
DICTIONARY
  5
6A40
102
{ACAD_REACTORS
330
C
102
}
330
C
100
AcDbDictionary
281
     1
  3
ByBlock
350
6A49
  3
ByLayer
350
6A41
  3
Global
350
6A51
  0
DICTIONARY
  5
6A87
102
{ACAD_REACTORS
330
C
102
}
330
C
100
AcDbDictionary
281
     1
  3
Standard
350
6A88
  0
DICTIONARY
  5
16
102
{ACAD_REACTORS
330
C
102
}
330
C
100
AcDbDictionary
281
     1
  3
STANDARD
350
17
  0
DICTIONARY
  5
18
102
{ACAD_REACTORS
330
C
102
}
330
C
100
AcDbDictionary
281
     1
  0
ACDBDICTIONARYWDFLT
  5
E
102
{ACAD_REACTORS
330
C
102
}
330
C
100
AcDbDictionary
281
     1
  3
Normal
350
F
100
AcDbDictionaryWithDefault
340
F
  0
DICTIONARY
  5
6A75
102
{ACAD_REACTORS
330
C
102
}
330
C
100
AcDbDictionary
281
     1
  3
A0
350
6A76
  3
A1
350
6A77
  3
A2
350
6A78
  3
A3
350
6A79
  3
A4
350
6A7A
  3
A5
350
6A7B
  3
A6
350
6A7C
  3
A7
350
6A7D
  3
A8
350
6A7E
  3
A9
350
6A7F
  3
B0
350
6A80
  3
B1
350
6A81
  3
B2
350
6A82
  3
B3
350
6A83
  3
B4
350
6A84
  3
B5
350
6A85
  3
B6
350
6A86
  0
DICTIONARY
  5
6A89
102
{ACAD_REACTORS
330
C
102
}
330
C
100
AcDbDictionary
281
     1
  3
Imperial24
350
6A8A
  0
DICTIONARY
  5
6A73
102
{ACAD_REACTORS
330
C
102
}
330
C
100
AcDbDictionary
281
     1
  3
Standard
350
6A74
  0
DICTIONARY
  5
6A59
102
{ACAD_REACTORS
330
C
102
}
330
C
100
AcDbDictionary
281
     1
  3
2dWireframe
350
6A5F
  3
Basic
350
6A5E
  3
Brighten
350
6A65
  3
ColorChange
350
6A69
  3
Conceptual
350
6A62
  3
Dim
350
6A64
  3
EdgeColorOff
350
6A71
  3
Facepattern
350
6A68
  3
Flat
350
6A5A
  3
FlatWithEdges
350
6A5B
  3
Gouraud
350
6A5C
  3
GouraudWithEdges
350
6A5D
  3
Hidden
350
6A61
  3
JitterOff
350
6A6F
  3
Linepattern
350
6A67
  3
OverhangOff
350
6A70
  3
Realistic
350
6A63
  3
Shaded
350
6A6E
  3
Shaded with edges
350
6A6D
  3
Shades of Gray
350
6A6A
  3
Sketchy
350
6A6B
  3
Thicken
350
6A66
  3
Wireframe
350
6A60
  3
X-Ray
350
6A6C
  0
XRECORD
  5
5C76
102
{ACAD_REACTORS
330
C
102
}
330
C
100
AcDbXrecord
280
     1
 90
   990106
  3

 60
     0
 61
     0
 62
     1
 63
     3
 64
     0
 65
     0
 66
     0
 67
     3
 68
     1
 69
     0
 70
     0
 71
     0
 72
     0
 40
0.0
170
     0
340
6068
  0
XRECORD
  5
6C86
102
{ACAD_REACTORS
330
C
102
}
330
C
100
AcDbXrecord
280
     1
 90
        1
330
6A74
  0
DICTIONARY
  5
5697
102
{ACAD_REACTORS
330
C
102
}
330
C
100
AcDbDictionary
281
     1
  3
CANNOSCALE
350
6BE8
  3
CMLEADERSTYLE
350
6BE5
  3
CTABLESTYLE
350
6BE4
  3
CVIEWDETAILSTYLE
350
6BE6
  3
CVIEWSECTIONSTYLE
350
6BE7
  3
DIMASSOC
350
5698
  3
INDEXCTL
350
6BEA
  3
SORTENTS
350
6BE9
  3
XCLIPFRAME
350
6BEB
  0
XRECORD
  5
6C87
102
{ACAD_REACTORS
330
C
102
}
330
C
100
AcDbXrecord
280
     1
  1
DWGPROPS COOKIE
  2

  3

  4

  6

  7

  8
ktomoto
  9

300
=
301
=
302
=
303
=
304
=
305
=
306
=
307
=
308
=
309
=
 40
1.247418055555555
 41
2452286.555658658
 42
2457458.678407685
  1

 90
        0
  0
XRECORD
  5
6BCD
102
{ACAD_REACTORS
330
6BCC
102
}
330
6BCC
100
AcDbXrecord
280
     1
290
     1
  0
XRECORD
  5
6BCF
102
{ACAD_REACTORS
330
6BCE
102
}
330
6BCE
100
AcDbXrecord
280
     1
290
     1
  0
XRECORD
  5
6BD1
102
{ACAD_REACTORS
330
6BD0
102
}
330
6BD0
100
AcDbXrecord
280
     1
290
     1
  0
XRECORD
  5
6BD3
102
{ACAD_REACTORS
330
6BD2
102
}
330
6BD2
100
AcDbXrecord
280
     1
290
     1
  0
XRECORD
  5
6BD5
102
{ACAD_REACTORS
330
6BD4
102
}
330
6BD4
100
AcDbXrecord
280
     1
290
     1
  0
XRECORD
  5
6BD7
102
{ACAD_REACTORS
330
6BD6
102
}
330
6BD6
100
AcDbXrecord
280
     1
290
     1
  0
XRECORD
  5
6BD9
102
{ACAD_REACTORS
330
6BD8
102
}
330
6BD8
100
AcDbXrecord
280
     1
290
     1
  0
XRECORD
  5
6BDB
102
{ACAD_REACTORS
330
6BDA
102
}
330
6BDA
100
AcDbXrecord
280
     1
290
     1
  0
XRECORD
  5
6BDD
102
{ACAD_REACTORS
330
6BDC
102
}
330
6BDC
100
AcDbXrecord
280
     1
290
     1
  0
XRECORD
  5
6BDF
102
{ACAD_REACTORS
330
6BDE
102
}
330
6BDE
100
AcDbXrecord
280
     1
290
     1
  0
XRECORD
  5
6BE1
102
{ACAD_REACTORS
330
6BE0
102
}
330
6BE0
100
AcDbXrecord
280
     1
290
     1
  0
XRECORD
  5
6BE3
102
{ACAD_REACTORS
330
6BE2
102
}
330
6BE2
100
AcDbXrecord
280
     1
290
     1
  0
XRECORD
  5
6A22
102
{ACAD_REACTORS
330
178
102
}
330
178
100
AcDbXrecord
280
     1
340
1E
  0
XRECORD
  5
6A21
102
{ACAD_REACTORS
330
17A
102
}
330
17A
100
AcDbXrecord
280
     1
340
1A
  0
XRECORD
  5
6C89
102
{ACAD_REACTORS
330
6C88
102
}
330
6C88
100
AcDbXrecord
280
     1
102
SHADEPLOT
 70
     0
  0
ACDBDETAILVIEWSTYLE
  5
6A8C
102
{ACAD_XDICTIONARY
360
6CC5
102
}
102
{ACAD_REACTORS
330
6A8B
102
}
330
6A8B
100
AcDbModelDocViewStyle
 70
     0
  3
Imperial24
290
     0
100
AcDbDetailViewStyle
 70
     0
 71
     0
 90
        3
 71
     1
340
11
 40
0.24
340
0
 40
0.24
300

 40
0.36
280
     3
 71
     2
340
15
 90
       25
 71
     3
340
11
 40
0.24
 90
        1
 40
0.75
 90
        1
300
%<\AcVar ViewType \f "%tc1">% %<\AcVar ViewDetailId>%\PSCALE %<\AcVar ViewScale \f "%sn">%
 71
     4
340
15
 90
       25
340
15
 90
       25
280
     0
  0
LAYOUT
  5
6A33
102
{ACAD_XDICTIONARY
360
6C8A
102
}
102
{ACAD_REACTORS
330
19
102
}
330
19
100
AcDbPlotSettings
  1

  2
none_device
  4
Letter_(8.50_x_11.00_Inches)
  6

 40
6.349999904632568
 41
6.349999904632568
 42
6.350006103515625
 43
6.350006103515625
 44
215.8999938964844
 45
279.3999938964844
 46
0.0
 47
0.0
 48
0.0
 49
0.0
140
0.0
141
0.0
142
1.0
143
74.6231104126234
 70
 11952
 72
     0
 73
     1
 74
     0
  7
monochrome.ctb
 75
     0
147
0.0134006743282419
148
6436.131868717682
149
2362.320101081134
100
AcDbLayout
  1
Model
 70
     1
 71
     0
 10
0.0
 20
0.0
 11
12.0
 21
9.0
 12
0.0
 22
0.0
 32
0.0
 14
0.0
 24
0.0
 34
0.0
 15
0.0
 25
0.0
 35
0.0
146
0.0
 13
0.0
 23
0.0
 33
0.0
 16
1.0
 26
0.0
 36
0.0
 17
0.0
 27
1.0
 37
0.0
 76
     0
330
1E
331
6A38
1001
ACAD_PSEXT
1000
なし
1000
なし
1000
適切ではありません
1000
新しいプロッタ環境設定名を選択しない限り、レイアウトは印刷されません。
1070
     0
  0
LAYOUT
  5
6A34
102
{ACAD_XDICTIONARY
360
6C8C
102
}
102
{ACAD_REACTORS
330
19
102
}
330
19
100
AcDbPlotSettings
  1

  2
Canon LBP3800 LIPSLX
  4

  6

 40
0.0
 41
0.0
 42
0.0
 43
0.0
 44
0.0
 45
0.0
 46
0.0
 47
0.0
 48
0.0
 49
0.0
140
0.0
141
0.0
142
1.0
143
1.0
 70
   688
 72
     0
 73
     0
 74
     5
  7
monochrome.ctb
 75
    16
147
1.0
148
0.0
149
0.0
100
AcDbLayout
  1
ﾚｲｱｳﾄ1
 70
     1
 71
     1
 10
-5.873749
 20
-5.87375
 11
204.099579
 21
291.1369009999999
 12
0.0
 22
0.0
 32
0.0
 14
4.273573
 24
5.205245999999998
 34
0.0
 15
194.610095
 25
283.0697009999996
 35
0.0
146
0.0
 13
0.0
 23
0.0
 33
0.0
 16
1.0
 26
0.0
 36
0.0
 17
0.0
 27
1.0
 37
0.0
 76
     0
330
1A
  0
MATERIAL
  5
6A49
102
{ACAD_XDICTIONARY
360
6A4A
102
}
102
{ACAD_REACTORS
330
6A40
102
}
330
6A40
100
AcDbMaterial
  1
ByBlock
 72
     0
 43
0.0208333333333333
 43
0.0
 43
0.0
 43
0.0
 43
0.0
 43
0.0208333333333333
 43
0.0
 43
0.0
 43
0.0
 43
0.0
 43
1.0
 43
0.0
 43
0.0
 43
0.0
 43
0.0
 43
1.0
 77
     0
 47
0.0208333333333333
 47
0.0
 47
0.0
 47
0.0
 47
0.0
 47
0.0208333333333333
 47
0.0
 47
0.0
 47
0.0
 47
0.0
 47
1.0
 47
0.0
 47
0.0
 47
0.0
 47
0.0
 47
1.0
171
     0
 49
0.0208333333333333
 49
0.0
 49
0.0
 49
0.0
 49
0.0
 49
0.0208333333333333
 49
0.0
 49
0.0
 49
0.0
 49
0.0
 49
1.0
 49
0.0
 49
0.0
 49
0.0
 49
0.0
 49
1.0
175
     0
142
0.0208333333333333
142
0.0
142
0.0
142
0.0
142
0.0
142
0.0208333333333333
142
0.0
142
0.0
142
0.0
142
0.0
142
1.0
142
0.0
142
0.0
142
0.0
142
0.0
142
1.0
179
     0
144
0.0208333333333333
144
0.0
144
0.0
144
0.0
144
0.0
144
0.0208333333333333
144
0.0
144
0.0
144
0.0
144
0.0
144
1.0
144
0.0
144
0.0
144
0.0
144
0.0
144
1.0
147
0.0208333333333333
147
0.0
147
0.0
147
0.0
147
0.0
147
0.0208333333333333
147
0.0
147
0.0
147
0.0
147
0.0
147
1.0
147
0.0
147
0.0
147
0.0
147
0.0
147
1.0
  0
MATERIAL
  5
6A41
102
{ACAD_XDICTIONARY
360
6A42
102
}
102
{ACAD_REACTORS
330
6A40
102
}
330
6A40
100
AcDbMaterial
  1
ByLayer
 72
     0
 43
0.0208333333333333
 43
0.0
 43
0.0
 43
0.0
 43
0.0
 43
0.0208333333333333
 43
0.0
 43
0.0
 43
0.0
 43
0.0
 43
1.0
 43
0.0
 43
0.0
 43
0.0
 43
0.0
 43
1.0
 77
     0
 47
0.0208333333333333
 47
0.0
 47
0.0
 47
0.0
 47
0.0
 47
0.0208333333333333
 47
0.0
 47
0.0
 47
0.0
 47
0.0
 47
1.0
 47
0.0
 47
0.0
 47
0.0
 47
0.0
 47
1.0
171
     0
 49
0.0208333333333333
 49
0.0
 49
0.0
 49
0.0
 49
0.0
 49
0.0208333333333333
 49
0.0
 49
0.0
 49
0.0
 49
0.0
 49
1.0
 49
0.0
 49
0.0
 49
0.0
 49
0.0
 49
1.0
175
     0
142
0.0208333333333333
142
0.0
142
0.0
142
0.0
142
0.0
142
0.0208333333333333
142
0.0
142
0.0
142
0.0
142
0.0
142
1.0
142
0.0
142
0.0
142
0.0
142
0.0
142
1.0
179
     0
144
0.0208333333333333
144
0.0
144
0.0
144
0.0
144
0.0
144
0.0208333333333333
144
0.0
144
0.0
144
0.0
144
0.0
144
1.0
144
0.0
144
0.0
144
0.0
144
0.0
144
1.0
147
0.0208333333333333
147
0.0
147
0.0
147
0.0
147
0.0
147
0.0208333333333333
147
0.0
147
0.0
147
0.0
147
0.0
147
1.0
147
0.0
147
0.0
147
0.0
147
0.0
147
1.0
  0
MATERIAL
  5
6A51
102
{ACAD_XDICTIONARY
360
6A52
102
}
102
{ACAD_REACTORS
330
6A40
102
}
330
6A40
100
AcDbMaterial
  1
Global
 72
     0
 43
0.0208333333333333
 43
0.0
 43
0.0
 43
0.0
 43
0.0
 43
0.0208333333333333
 43
0.0
 43
0.0
 43
0.0
 43
0.0
 43
1.0
 43
0.0
 43
0.0
 43
0.0
 43
0.0
 43
1.0
 77
     0
 47
0.0208333333333333
 47
0.0
 47
0.0
 47
0.0
 47
0.0
 47
0.0208333333333333
 47
0.0
 47
0.0
 47
0.0
 47
0.0
 47
1.0
 47
0.0
 47
0.0
 47
0.0
 47
0.0
 47
1.0
171
     0
 49
0.0208333333333333
 49
0.0
 49
0.0
 49
0.0
 49
0.0
 49
0.0208333333333333
 49
0.0
 49
0.0
 49
0.0
 49
0.0
 49
1.0
 49
0.0
 49
0.0
 49
0.0
 49
0.0
 49
1.0
175
     0
142
0.0208333333333333
142
0.0
142
0.0
142
0.0
142
0.0
142
0.0208333333333333
142
0.0
142
0.0
142
0.0
142
0.0
142
1.0
142
0.0
142
0.0
142
0.0
142
0.0
142
1.0
179
     0
144
0.0208333333333333
144
0.0
144
0.0
144
0.0
144
0.0
144
0.0208333333333333
144
0.0
144
0.0
144
0.0
144
0.0
144
1.0
144
0.0
144
0.0
144
0.0
144
0.0
144
1.0
147
0.0208333333333333
147
0.0
147
0.0
147
0.0
147
0.0
147
0.0208333333333333
147
0.0
147
0.0
147
0.0
147
0.0
147
1.0
147
0.0
147
0.0
147
0.0
147
0.0
147
1.0
  0
MLEADERSTYLE
  5
6A88
102
{ACAD_REACTORS
330
6A87
102
}
330
6A87
100
AcDbMLeaderStyle
170
     2
171
     1
172
     0
 90
        2
 40
0.0
 41
0.0
173
     1
 91
-1056964608
340
13
 92
       -2
290
     1
 42
0.09
291
     1
 43
0.36
  3
Standard
 44
0.18
300

342
11
174
     1
178
     6
175
     1
176
     0
 93
-1056964608
 45
0.18
292
     0
297
     0
 46
0.18
 94
-1056964608
 47
1.0
 49
1.0
140
1.0
293
     1
141
0.0
294
     1
177
     0
142
1.0
295
     0
296
     0
143
0.125
1001
ACAD_MLEADERVER
1070
     2
  0
MLINESTYLE
  5
17
102
{ACAD_REACTORS
330
16
102
}
330
16
100
AcDbMlineStyle
  2
STANDARD
 70
     0
  3

 62
   256
 51
90.0
 52
90.0
 71
     2
 49
0.5
 62
   256
  6
BYLAYER
 49
-0.5
 62
   256
  6
BYLAYER
  0
ACDBPLACEHOLDER
  5
F
102
{ACAD_REACTORS
330
E
102
}
330
E
  0
SCALE
  5
6A76
102
{ACAD_REACTORS
330
6A75
102
}
330
6A75
100
AcDbScale
 70
     0
300
1:1
140
1.0
141
1.0
290
     1
  0
SCALE
  5
6A77
102
{ACAD_REACTORS
330
6A75
102
}
330
6A75
100
AcDbScale
 70
     0
300
1/128" = 1'-0"
140
0.0078125
141
12.0
290
     0
  0
SCALE
  5
6A78
102
{ACAD_REACTORS
330
6A75
102
}
330
6A75
100
AcDbScale
 70
     0
300
1/64" = 1'-0"
140
0.015625
141
12.0
290
     0
  0
SCALE
  5
6A79
102
{ACAD_REACTORS
330
6A75
102
}
330
6A75
100
AcDbScale
 70
     0
300
1/32" = 1'-0"
140
0.03125
141
12.0
290
     0
  0
SCALE
  5
6A7A
102
{ACAD_REACTORS
330
6A75
102
}
330
6A75
100
AcDbScale
 70
     0
300
1/16" = 1'-0"
140
0.0625
141
12.0
290
     0
  0
SCALE
  5
6A7B
102
{ACAD_REACTORS
330
6A75
102
}
330
6A75
100
AcDbScale
 70
     0
300
3/32" = 1'-0"
140
0.09375
141
12.0
290
     0
  0
SCALE
  5
6A7C
102
{ACAD_REACTORS
330
6A75
102
}
330
6A75
100
AcDbScale
 70
     0
300
1/8" = 1'-0"
140
0.125
141
12.0
290
     0
  0
SCALE
  5
6A7D
102
{ACAD_REACTORS
330
6A75
102
}
330
6A75
100
AcDbScale
 70
     0
300
3/16" = 1'-0"
140
0.1875
141
12.0
290
     0
  0
SCALE
  5
6A7E
102
{ACAD_REACTORS
330
6A75
102
}
330
6A75
100
AcDbScale
 70
     0
300
1/4" = 1'-0"
140
0.25
141
12.0
290
     0
  0
SCALE
  5
6A7F
102
{ACAD_REACTORS
330
6A75
102
}
330
6A75
100
AcDbScale
 70
     0
300
3/8" = 1'-0"
140
0.375
141
12.0
290
     0
  0
SCALE
  5
6A80
102
{ACAD_REACTORS
330
6A75
102
}
330
6A75
100
AcDbScale
 70
     0
300
1/2" = 1'-0"
140
0.5
141
12.0
290
     0
  0
SCALE
  5
6A81
102
{ACAD_REACTORS
330
6A75
102
}
330
6A75
100
AcDbScale
 70
     0
300
3/4" = 1'-0"
140
0.75
141
12.0
290
     0
  0
SCALE
  5
6A82
102
{ACAD_REACTORS
330
6A75
102
}
330
6A75
100
AcDbScale
 70
     0
300
1" = 1'-0"
140
1.0
141
12.0
290
     0
  0
SCALE
  5
6A83
102
{ACAD_REACTORS
330
6A75
102
}
330
6A75
100
AcDbScale
 70
     0
300
1-1/2" = 1'-0"
140
1.5
141
12.0
290
     0
  0
SCALE
  5
6A84
102
{ACAD_REACTORS
330
6A75
102
}
330
6A75
100
AcDbScale
 70
     0
300
3" = 1'-0"
140
3.0
141
12.0
290
     0
  0
SCALE
  5
6A85
102
{ACAD_REACTORS
330
6A75
102
}
330
6A75
100
AcDbScale
 70
     0
300
6" = 1'-0"
140
6.0
141
12.0
290
     0
  0
SCALE
  5
6A86
102
{ACAD_REACTORS
330
6A75
102
}
330
6A75
100
AcDbScale
 70
     0
300
1'-0" = 1'-0"
140
12.0
141
12.0
290
     0
  0
ACDBSECTIONVIEWSTYLE
  5
6A8A
102
{ACAD_XDICTIONARY
360
6CC3
102
}
102
{ACAD_REACTORS
330
6A89
102
}
330
6A89
100
AcDbModelDocViewStyle
 70
     0
  3
Imperial24
290
     0
100
AcDbSectionViewStyle
 70
     0
 71
     0
 90
       78
 71
     1
340
11
 40
0.24
340
0
340
0
 40
0.24
300
I, O, Q, S, X, Z
 40
0.48
 90
        3
 40
0.18
 90
        1
 71
     2
340
15
 90
       25
340
15
 90
       50
 40
0.24
 40
0.0
 40
0.24
 71
     3
340
11
 40
0.24
 90
        1
 40
0.75
 90
        1
300
%<\AcVar ViewType \f "%tc1">% %<\AcVar ViewSectionStartId>%-%<\AcVar ViewSectionEndId>%\PSCALE %<\AcVar ViewScale \f "%sn">%
 71
     4
300
ANSI31
 40
1.0
 90
        0
290
     0
290
     0
 90
        6
 40
0.0
 40
1.570796326794896
 40
0.2617993877991494
 40
1.308996938995747
 40
-0.2617993877991494
 40
1.832595714594046
  0
TABLESTYLE
  5
6A74
102
{ACAD_XDICTIONARY
360
6C84
102
}
102
{ACAD_REACTORS
330
6A73
102
}
330
6A73
100
AcDbTableStyle
  3
Standard
 70
     0
 71
     0
 40
0.06
 41
0.06
280
     0
281
     0
  7
STANDARD
140
0.18
170
     2
 62
     0
 63
     7
283
     0
274
    -2
284
     1
 64
     0
275
    -2
285
     1
 65
     0
276
    -2
286
     1
 66
     0
277
    -2
287
     1
 67
     0
278
    -2
288
     1
 68
     0
279
    -2
289
     1
 69
     0
  7
STANDARD
140
0.25
170
     5
 62
     0
 63
     7
283
     0
274
    -2
284
     1
 64
     0
275
    -2
285
     1
 65
     0
276
    -2
286
     1
 66
     0
277
    -2
287
     1
 67
     0
278
    -2
288
     1
 68
     0
279
    -2
289
     1
 69
     0
  7
STANDARD
140
0.18
170
     5
 62
     0
 63
     7
283
     0
274
    -2
284
     1
 64
     0
275
    -2
285
     1
 65
     0
276
    -2
286
     1
 66
     0
277
    -2
287
     1
 67
     0
278
    -2
288
     1
 68
     0
279
    -2
289
     1
 69
     0
  0
VISUALSTYLE
  5
6A5F
102
{ACAD_XDICTIONARY
360
6C9B
102
}
102
{ACAD_REACTORS
330
6A59
102
}
330
6A59
100
AcDbVisualStyle
  2
2dWireframe
 70
     4
 71
     0
 72
     2
 73
     0
 90
        0
 40
-0.6
 41
-30.0
 62
     5
 63
     7
 74
     1
 91
        4
 64
     7
 65
   257
 75
     1
175
     1
 42
1.0
 92
        0
 66
   257
 43
1.0
 76
     1
 77
     6
 78
     2
 67
     7
 79
     5
170
     0
171
     0
290
     0
174
     0
 93
        1
 44
0.0
173
     0
291
     0
 45
0.0
1001
ACAD
1000
AcDbSavedByObjectVersion
1070
     0
  0
VISUALSTYLE
  5
6A5E
102
{ACAD_XDICTIONARY
360
6C99
102
}
102
{ACAD_REACTORS
330
6A59
102
}
330
6A59
100
AcDbVisualStyle
  2
Basic
 70
     7
 71
     1
 72
     0
 73
     1
 90
        0
 40
-0.6
 41
-30.0
 62
     5
 63
     7
 74
     0
 91
        4
 64
     7
 65
   257
 75
     1
175
     1
 42
1.0
 92
        8
 66
     7
 43
1.0
 76
     1
 77
     6
 78
     2
 67
     7
 79
     5
170
     0
171
     0
290
     0
174
     0
 93
        1
 44
0.0
173
     0
291
     1
 45
0.0
1001
ACAD
1000
AcDbSavedByObjectVersion
1070
     0
  0
VISUALSTYLE
  5
6A65
102
{ACAD_XDICTIONARY
360
6CA7
102
}
102
{ACAD_REACTORS
330
6A59
102
}
330
6A59
100
AcDbVisualStyle
  2
Brighten
 70
    12
 71
     2
 72
     2
 73
     0
 90
        0
 40
-0.6
 41
-30.0
 62
     5
 63
     7
 74
     1
 91
        4
 64
     7
 65
   257
 75
     1
175
     1
 42
1.0
 92
        8
 66
     7
 43
1.0
 76
     1
 77
     6
 78
     2
 67
     7
 79
     5
170
     0
171
     0
290
     0
174
     0
 93
        1
 44
50.0
173
     0
291
     1
 45
0.0
1001
ACAD
1000
AcDbSavedByObjectVersion
1070
     0
  0
VISUALSTYLE
  5
6A69
102
{ACAD_XDICTIONARY
360
6CAF
102
}
102
{ACAD_REACTORS
330
6A59
102
}
330
6A59
100
AcDbVisualStyle
  2
ColorChange
 70
    16
 71
     2
 72
     2
 73
     3
 90
        0
 40
-0.6
 41
-30.0
 62
     5
 63
     8
 74
     1
 91
        4
 64
     7
 65
   257
 75
     1
175
     1
 42
1.0
 92
        8
 66
     8
 43
1.0
 76
     1
 77
     6
 78
     2
 67
     7
 79
     5
170
     0
171
     0
290
     0
174
     0
 93
        1
 44
0.0
173
     0
291
     1
 45
0.0
1001
ACAD
1000
AcDbSavedByObjectVersion
1070
     0
  0
VISUALSTYLE
  5
6A62
102
{ACAD_XDICTIONARY
360
6CA1
102
}
102
{ACAD_REACTORS
330
6A59
102
}
330
6A59
100
AcDbVisualStyle
  2
Conceptual
 70
     9
 71
     3
 72
     2
 73
     0
 90
        0
 40
-0.6
 41
-30.0
 62
     5
 63
     7
 74
     2
 91
        2
 64
     7
 65
   257
 75
     1
175
     1
 42
179.0
 92
        8
 66
     7
 43
1.0
 76
     1
 77
     6
 78
     2
 67
     7
 79
     3
170
     0
171
     0
290
     0
174
     0
 93
        1
 44
0.0
173
     0
291
     0
 45
0.0
1001
ACAD
1000
AcDbSavedByObjectVersion
1070
     0
  0
VISUALSTYLE
  5
6A64
102
{ACAD_XDICTIONARY
360
6CA5
102
}
102
{ACAD_REACTORS
330
6A59
102
}
330
6A59
100
AcDbVisualStyle
  2
Dim
 70
    11
 71
     2
 72
     2
 73
     0
 90
        0
 40
-0.6
 41
-30.0
 62
     5
 63
     7
 74
     1
 91
        4
 64
     7
 65
   257
 75
     1
175
     1
 42
1.0
 92
        8
 66
     7
 43
1.0
 76
     1
 77
     6
 78
     2
 67
     7
 79
     5
170
     0
171
     0
290
     0
174
     0
 93
        1
 44
-50.0
173
     0
291
     1
 45
0.0
1001
ACAD
1000
AcDbSavedByObjectVersion
1070
     0
  0
VISUALSTYLE
  5
6A71
102
{ACAD_XDICTIONARY
360
6CBF
102
}
102
{ACAD_REACTORS
330
6A59
102
}
330
6A59
100
AcDbVisualStyle
  2
EdgeColorOff
 70
    22
 71
     2
 72
     2
 73
     0
 90
        0
 40
-0.6
 41
-30.0
 62
     5
 63
     7
 74
     1
 91
        4
 64
     7
 65
   257
 75
     1
175
     1
 42
1.0
 92
        8
 66
     7
 43
1.0
 76
     1
 77
     6
 78
     2
 67
     7
 79
     5
170
     0
171
     0
290
     0
174
     0
 93
        1
 44
0.0
173
     0
291
     1
 45
0.0
1001
ACAD
1000
AcDbSavedByObjectVersion
1070
     0
  0
VISUALSTYLE
  5
6A68
102
{ACAD_XDICTIONARY
360
6CAD
102
}
102
{ACAD_REACTORS
330
6A59
102
}
330
6A59
100
AcDbVisualStyle
  2
Facepattern
 70
    15
 71
     2
 72
     2
 73
     0
 90
        0
 40
-0.6
 41
-30.0
 62
     5
 63
     7
 74
     1
 91
        4
 64
     7
 65
   257
 75
     1
175
     1
 42
1.0
 92
        8
 66
     7
 43
1.0
 76
     1
 77
     6
 78
     2
 67
     7
 79
     5
170
     0
171
     0
290
     0
174
     0
 93
        1
 44
0.0
173
     0
291
     1
 45
0.0
1001
ACAD
1000
AcDbSavedByObjectVersion
1070
     0
  0
VISUALSTYLE
  5
6A5A
102
{ACAD_XDICTIONARY
360
6C91
102
}
102
{ACAD_REACTORS
330
6A59
102
}
330
6A59
100
AcDbVisualStyle
  2
Flat
 70
     0
 71
     2
 72
     1
 73
     1
 90
        2
 40
-0.6
 41
30.0
 62
     5
 63
     7
 74
     0
 91
        0
 64
     7
 65
   257
 75
     1
175
     1
 42
1.0
 92
        8
 66
     7
 43
1.0
 76
     1
 77
     6
 78
     2
 67
     7
 79
     5
170
     0
171
     0
290
     0
174
     0
 93
       13
 44
0.0
173
     0
291
     1
 45
0.0
1001
ACAD
1000
AcDbSavedByObjectVersion
1070
     0
  0
VISUALSTYLE
  5
6A5B
102
{ACAD_XDICTIONARY
360
6C93
102
}
102
{ACAD_REACTORS
330
6A59
102
}
330
6A59
100
AcDbVisualStyle
  2
FlatWithEdges
 70
     1
 71
     2
 72
     1
 73
     1
 90
        2
 40
-0.6
 41
30.0
 62
     5
 63
     7
 74
     1
 91
        0
 64
     7
 65
   257
 75
     1
175
     1
 42
1.0
 92
        0
 66
   257
 43
1.0
 76
     1
 77
     6
 78
     2
 67
     7
 79
     5
170
     0
171
     0
290
     0
174
     0
 93
       13
 44
0.0
173
     0
291
     1
 45
0.0
1001
ACAD
1000
AcDbSavedByObjectVersion
1070
     0
  0
VISUALSTYLE
  5
6A5C
102
{ACAD_XDICTIONARY
360
6C95
102
}
102
{ACAD_REACTORS
330
6A59
102
}
330
6A59
100
AcDbVisualStyle
  2
Gouraud
 70
     2
 71
     2
 72
     2
 73
     1
 90
        2
 40
-0.6
 41
30.0
 62
     5
 63
     7
 74
     0
 91
        0
 64
     7
 65
   257
 75
     1
175
     1
 42
1.0
 92
        0
 66
     7
 43
1.0
 76
     1
 77
     6
 78
     2
 67
     7
 79
     5
170
     0
171
     0
290
     0
174
     0
 93
       13
 44
0.0
173
     0
291
     1
 45
0.0
1001
ACAD
1000
AcDbSavedByObjectVersion
1070
     0
  0
VISUALSTYLE
  5
6A5D
102
{ACAD_XDICTIONARY
360
6C97
102
}
102
{ACAD_REACTORS
330
6A59
102
}
330
6A59
100
AcDbVisualStyle
  2
GouraudWithEdges
 70
     3
 71
     2
 72
     2
 73
     1
 90
        2
 40
-0.6
 41
30.0
 62
     5
 63
     7
 74
     1
 91
        0
 64
     7
 65
   257
 75
     1
175
     1
 42
1.0
 92
        0
 66
   257
 43
1.0
 76
     1
 77
     6
 78
     2
 67
     7
 79
     5
170
     0
171
     0
290
     0
174
     0
 93
       13
 44
0.0
173
     0
291
     1
 45
0.0
1001
ACAD
1000
AcDbSavedByObjectVersion
1070
     0
  0
VISUALSTYLE
  5
6A61
102
{ACAD_XDICTIONARY
360
6C9F
102
}
102
{ACAD_REACTORS
330
6A59
102
}
330
6A59
100
AcDbVisualStyle
  2
Hidden
 70
     6
 71
     1
 72
     2
 73
     2
 90
        0
 40
-0.6
 41
-30.0
 62
     5
 63
     7
 74
     2
 91
        2
 64
     7
 65
   257
 75
     2
175
     1
 42
40.0
 92
        0
 66
   257
 43
1.0
 76
     1
 77
     6
 78
     2
 67
     7
 79
     3
170
     0
171
     0
290
     0
174
     0
 93
        1
 44
0.0
173
     0
291
     0
 45
0.0
1001
ACAD
1000
AcDbSavedByObjectVersion
1070
     0
  0
VISUALSTYLE
  5
6A6F
102
{ACAD_XDICTIONARY
360
6CBB
102
}
102
{ACAD_REACTORS
330
6A59
102
}
330
6A59
100
AcDbVisualStyle
  2
JitterOff
 70
    20
 71
     2
 72
     2
 73
     0
 90
        0
 40
-0.6
 41
-30.0
 62
     5
 63
     7
 74
     1
 91
        4
 64
     7
 65
   257
 75
     1
175
     1
 42
1.0
 92
       10
 66
     7
 43
1.0
 76
     1
 77
     6
 78
     2
 67
     7
 79
     5
170
     0
171
     0
290
     0
174
     0
 93
        1
 44
0.0
173
     0
291
     1
 45
0.0
1001
ACAD
1000
AcDbSavedByObjectVersion
1070
     0
  0
VISUALSTYLE
  5
6A67
102
{ACAD_XDICTIONARY
360
6CAB
102
}
102
{ACAD_REACTORS
330
6A59
102
}
330
6A59
100
AcDbVisualStyle
  2
Linepattern
 70
    14
 71
     2
 72
     2
 73
     0
 90
        0
 40
-0.6
 41
-30.0
 62
     5
 63
     7
 74
     1
 91
        4
 64
     7
 65
   257
 75
     7
175
     7
 42
1.0
 92
        8
 66
     7
 43
1.0
 76
     1
 77
     6
 78
     2
 67
     7
 79
     5
170
     0
171
     0
290
     0
174
     0
 93
        1
 44
0.0
173
     0
291
     1
 45
0.0
1001
ACAD
1000
AcDbSavedByObjectVersion
1070
     0
  0
VISUALSTYLE
  5
6A70
102
{ACAD_XDICTIONARY
360
6CBD
102
}
102
{ACAD_REACTORS
330
6A59
102
}
330
6A59
100
AcDbVisualStyle
  2
OverhangOff
 70
    21
 71
     2
 72
     2
 73
     0
 90
        0
 40
-0.6
 41
-30.0
 62
     5
 63
     7
 74
     1
 91
        4
 64
     7
 65
   257
 75
     1
175
     1
 42
1.0
 92
        9
 66
     7
 43
1.0
 76
     1
 77
     6
 78
     2
 67
     7
 79
     5
170
     0
171
     0
290
     0
174
     0
 93
        1
 44
0.0
173
     0
291
     1
 45
0.0
1001
ACAD
1000
AcDbSavedByObjectVersion
1070
     0
  0
VISUALSTYLE
  5
6A63
102
{ACAD_XDICTIONARY
360
6CA3
102
}
102
{ACAD_REACTORS
330
6A59
102
}
330
6A59
100
AcDbVisualStyle
  2
Realistic
 70
     8
 71
     2
 72
     3
 73
     0
 90
        2
 40
-0.6
 41
30.0
 62
     5
 63
     7
 74
     0
 91
        0
 64
     7
 65
   257
 75
     1
175
     1
 42
1.0
 92
        8
 66
   257
 43
1.0
 76
     1
 77
     6
 78
     2
 67
     7
 79
     3
170
     0
171
     0
290
     0
174
     0
 93
       13
 44
0.0
173
     0
291
     0
 45
0.0
1001
ACAD
1000
AcDbSavedByObjectVersion
1070
     0
  0
VISUALSTYLE
  5
6A6E
102
{ACAD_XDICTIONARY
360
6CB9
102
}
102
{ACAD_REACTORS
330
6A59
102
}
330
6A59
100
AcDbVisualStyle
  2
Shaded
 70
    27
 71
     2
 72
     2
 73
     1
 90
        2
 40
-0.6
 41
30.0
 62
     5
 63
     7
 74
     0
 91
        4
 64
     7
 65
   257
 75
     1
175
     1
 42
1.0
 92
        8
 66
   257
 43
1.0
 76
     1
 77
     6
 78
     2
 67
     8
 79
     3
170
     0
171
     0
290
     0
174
     0
 93
        5
 44
0.0
173
     0
291
     0
 45
0.0
1001
ACAD
1000
AcDbSavedByObjectVersion
1070
     0
  0
VISUALSTYLE
  5
6A6D
102
{ACAD_XDICTIONARY
360
6CB7
102
}
102
{ACAD_REACTORS
330
6A59
102
}
330
6A59
100
AcDbVisualStyle
  2
Shaded with edges
 70
    26
 71
     2
 72
     2
 73
     1
 90
        2
 40
-0.6
 41
30.0
 62
     5
 63
     7
 74
     1
 91
       10
 64
     7
 65
   257
 75
     2
175
     1
 42
1.0
 92
        8
 66
   257
 43
1.0
 76
     1
 77
     6
 78
     2
 67
     7
 79
     3
170
     0
171
     0
290
     0
174
     0
 93
        5
 44
0.0
173
     0
291
     0
 45
0.0
1001
ACAD
1000
AcDbSavedByObjectVersion
1070
     0
  0
VISUALSTYLE
  5
6A6A
102
{ACAD_XDICTIONARY
360
6CB1
102
}
102
{ACAD_REACTORS
330
6A59
102
}
330
6A59
100
AcDbVisualStyle
  2
Shades of Gray
 70
    23
 71
     2
 72
     2
 73
     3
 90
        0
 40
-0.6
 41
-30.0
 62
     5
 63
     7
 74
     2
 91
        2
 64
     7
 65
     7
 75
     1
175
     1
 42
40.0
 92
        8
 66
     7
 43
1.0
 76
     1
 77
     6
 78
     2
 67
     7
 79
     3
170
     0
171
     0
290
     0
174
     0
 93
        1
 44
0.0
173
     0
291
     0
 45
0.0
1001
ACAD
1000
AcDbSavedByObjectVersion
1070
     0
  0
VISUALSTYLE
  5
6A6B
102
{ACAD_XDICTIONARY
360
6CB3
102
}
102
{ACAD_REACTORS
330
6A59
102
}
330
6A59
100
AcDbVisualStyle
  2
Sketchy
 70
    24
 71
     1
 72
     2
 73
     2
 90
        0
 40
-0.6
 41
-30.0
 62
     5
 63
     7
 74
     2
 91
        2
 64
     7
 65
     7
 75
     1
175
     1
 42
40.0
 92
       11
 66
     7
 43
1.0
 76
     1
 77
     6
 78
     2
 67
     7
 79
     6
170
     0
171
     0
290
     0
174
     0
 93
        1
 44
0.0
173
     0
291
     0
 45
0.0
1001
ACAD
1000
AcDbSavedByObjectVersion
1070
     0
  0
VISUALSTYLE
  5
6A66
102
{ACAD_XDICTIONARY
360
6CA9
102
}
102
{ACAD_REACTORS
330
6A59
102
}
330
6A59
100
AcDbVisualStyle
  2
Thicken
 70
    13
 71
     2
 72
     2
 73
     0
 90
        0
 40
-0.6
 41
-30.0
 62
     5
 63
     7
 74
     1
 91
        4
 64
     7
 65
   257
 75
     1
175
     1
 42
1.0
 92
       12
 66
     7
 43
1.0
 76
     1
 77
     6
 78
     2
 67
     7
 79
     5
170
     0
171
     0
290
     0
174
     0
 93
        1
 44
0.0
173
     0
291
     1
 45
0.0
1001
ACAD
1000
AcDbSavedByObjectVersion
1070
     0
  0
VISUALSTYLE
  5
6A60
102
{ACAD_XDICTIONARY
360
6C9D
102
}
102
{ACAD_REACTORS
330
6A59
102
}
330
6A59
100
AcDbVisualStyle
  2
Wireframe
 70
     5
 71
     0
 72
     2
 73
     0
 90
        0
 40
-0.6
 41
-30.0
 62
     5
 63
     7
 74
     1
 91
        4
 64
     7
 65
   257
 75
     1
175
     1
 42
1.0
 92
        0
 66
   257
 43
1.0
 76
     1
 77
     6
 78
     2
 67
     7
 79
     3
170
     0
171
     0
290
     0
174
     0
 93
        1
 44
0.0
173
     0
291
     0
 45
0.0
1001
ACAD
1000
AcDbSavedByObjectVersion
1070
     0
  0
VISUALSTYLE
  5
6A6C
102
{ACAD_XDICTIONARY
360
6CB5
102
}
102
{ACAD_REACTORS
330
6A59
102
}
330
6A59
100
AcDbVisualStyle
  2
X-Ray
 70
    25
 71
     2
 72
     2
 73
     1
 90
        1
 40
0.5
 41
-30.0
 62
     5
 63
     7
 74
     1
 91
        0
 64
     7
 65
   257
 75
     1
175
     1
 42
1.0
 92
        8
 66
     7
 43
1.0
 76
     1
 77
     6
 78
     2
 67
     7
 79
     3
170
     0
171
     0
290
     0
174
     0
 93
       13
 44
0.0
173
     0
291
     0
 45
0.0
1001
ACAD
1000
AcDbSavedByObjectVersion
1070
     0
  0
DICTIONARYVAR
  5
6BE8
102
{ACAD_REACTORS
330
5697
102
}
330
5697
100
DictionaryVariables
280
     0
  1
1:1
  0
DICTIONARYVAR
  5
6BE5
102
{ACAD_REACTORS
330
5697
102
}
330
5697
100
DictionaryVariables
280
     0
  1
STANDARD
  0
DICTIONARYVAR
  5
6BE4
102
{ACAD_REACTORS
330
5697
102
}
330
5697
100
DictionaryVariables
280
     0
  1
STANDARD
  0
DICTIONARYVAR
  5
6BE6
102
{ACAD_REACTORS
330
5697
102
}
330
5697
100
DictionaryVariables
280
     0
  1
Imperial24
  0
DICTIONARYVAR
  5
6BE7
102
{ACAD_REACTORS
330
5697
102
}
330
5697
100
DictionaryVariables
280
     0
  1
Imperial24
  0
DICTIONARYVAR
  5
5698
102
{ACAD_REACTORS
330
5697
102
}
330
5697
100
DictionaryVariables
280
     0
  1
1
  0
DICTIONARYVAR
  5
6BEA
102
{ACAD_REACTORS
330
5697
102
}
330
5697
100
DictionaryVariables
280
     0
  1
0
  0
DICTIONARYVAR
  5
6BE9
102
{ACAD_REACTORS
330
5697
102
}
330
5697
100
DictionaryVariables
280
     0
  1
127
  0
DICTIONARYVAR
  5
6BEB
102
{ACAD_REACTORS
330
5697
102
}
330
5697
100
DictionaryVariables
280
     0
  1
2
  0
DICTIONARY
  5
6CC5
330
6A8C
100
AcDbDictionary
280
     1
281
     1
  3
ACAD_XREC_ROUNDTRIP
360
6CC6
  0
DICTIONARY
  5
6C8A
330
6A33
100
AcDbDictionary
280
     1
281
     1
  3
ACAD_XREC_ROUNDTRIP
360
6C8B
  0
DICTIONARY
  5
6C8C
330
6A34
100
AcDbDictionary
280
     1
281
     1
  3
ACAD_XREC_ROUNDTRIP
360
6C8D
  0
DICTIONARY
  5
6A4A
330
6A49
100
AcDbDictionary
280
     1
281
     1
  3
ACAD_XREC_ROUNDTRIP
360
6C8F
  3
BUMPTILE
360
6A4C
  3
DIFFUSETILE
360
6A4B
  3
OPACITYTILE
360
6A4F
  3
REFLECTIONTILE
360
6A4E
  3
REFRACTIONTILE
360
6A50
  3
SPECULARTILE
360
6A4D
  0
DICTIONARY
  5
6A42
330
6A41
100
AcDbDictionary
280
     1
281
     1
  3
ACAD_XREC_ROUNDTRIP
360
6C8E
  3
BUMPTILE
360
6A44
  3
DIFFUSETILE
360
6A43
  3
OPACITYTILE
360
6A47
  3
REFLECTIONTILE
360
6A46
  3
REFRACTIONTILE
360
6A48
  3
SPECULARTILE
360
6A45
  0
DICTIONARY
  5
6A52
330
6A51
100
AcDbDictionary
280
     1
281
     1
  3
ACAD_XREC_ROUNDTRIP
360
6C90
  3
BUMPTILE
360
6A54
  3
DIFFUSETILE
360
6A53
  3
FBXASSET
360
6C37
  3
OPACITYTILE
360
6A57
  3
REFLECTIONTILE
360
6A56
  3
REFRACTIONTILE
360
6A58
  3
SPECULARTILE
360
6A55
  0
DICTIONARY
  5
6CC3
330
6A8A
100
AcDbDictionary
280
     1
281
     1
  3
ACAD_XREC_ROUNDTRIP
360
6CC4
  0
DICTIONARY
  5
6C84
330
6A74
100
AcDbDictionary
280
     1
281
     1
  3
ACAD_ROUNDTRIP_2008_TABLESTYLE_CELLSTYLEMAP
360
6C85
  3
ACAD_XREC_ROUNDTRIP
360
6CC1
  0
DICTIONARY
  5
6C9B
330
6A5F
100
AcDbDictionary
280
     1
281
     1
  3
ACAD_XREC_ROUNDTRIP
360
6C9C
  0
DICTIONARY
  5
6C99
330
6A5E
100
AcDbDictionary
280
     1
281
     1
  3
ACAD_XREC_ROUNDTRIP
360
6C9A
  0
DICTIONARY
  5
6CA7
330
6A65
100
AcDbDictionary
280
     1
281
     1
  3
ACAD_XREC_ROUNDTRIP
360
6CA8
  0
DICTIONARY
  5
6CAF
330
6A69
100
AcDbDictionary
280
     1
281
     1
  3
ACAD_XREC_ROUNDTRIP
360
6CB0
  0
DICTIONARY
  5
6CA1
330
6A62
100
AcDbDictionary
280
     1
281
     1
  3
ACAD_XREC_ROUNDTRIP
360
6CA2
  0
DICTIONARY
  5
6CA5
330
6A64
100
AcDbDictionary
280
     1
281
     1
  3
ACAD_XREC_ROUNDTRIP
360
6CA6
  0
DICTIONARY
  5
6CBF
330
6A71
100
AcDbDictionary
280
     1
281
     1
  3
ACAD_XREC_ROUNDTRIP
360
6CC0
  0
DICTIONARY
  5
6CAD
330
6A68
100
AcDbDictionary
280
     1
281
     1
  3
ACAD_XREC_ROUNDTRIP
360
6CAE
  0
DICTIONARY
  5
6C91
330
6A5A
100
AcDbDictionary
280
     1
281
     1
  3
ACAD_XREC_ROUNDTRIP
360
6C92
  0
DICTIONARY
  5
6C93
330
6A5B
100
AcDbDictionary
280
     1
281
     1
  3
ACAD_XREC_ROUNDTRIP
360
6C94
  0
DICTIONARY
  5
6C95
330
6A5C
100
AcDbDictionary
280
     1
281
     1
  3
ACAD_XREC_ROUNDTRIP
360
6C96
  0
DICTIONARY
  5
6C97
330
6A5D
100
AcDbDictionary
280
     1
281
     1
  3
ACAD_XREC_ROUNDTRIP
360
6C98
  0
DICTIONARY
  5
6C9F
330
6A61
100
AcDbDictionary
280
     1
281
     1
  3
ACAD_XREC_ROUNDTRIP
360
6CA0
  0
DICTIONARY
  5
6CBB
330
6A6F
100
AcDbDictionary
280
     1
281
     1
  3
ACAD_XREC_ROUNDTRIP
360
6CBC
  0
DICTIONARY
  5
6CAB
330
6A67
100
AcDbDictionary
280
     1
281
     1
  3
ACAD_XREC_ROUNDTRIP
360
6CAC
  0
DICTIONARY
  5
6CBD
330
6A70
100
AcDbDictionary
280
     1
281
     1
  3
ACAD_XREC_ROUNDTRIP
360
6CBE
  0
DICTIONARY
  5
6CA3
330
6A63
100
AcDbDictionary
280
     1
281
     1
  3
ACAD_XREC_ROUNDTRIP
360
6CA4
  0
DICTIONARY
  5
6CB9
330
6A6E
100
AcDbDictionary
280
     1
281
     1
  3
ACAD_XREC_ROUNDTRIP
360
6CBA
  0
DICTIONARY
  5
6CB7
330
6A6D
100
AcDbDictionary
280
     1
281
     1
  3
ACAD_XREC_ROUNDTRIP
360
6CB8
  0
DICTIONARY
  5
6CB1
330
6A6A
100
AcDbDictionary
280
     1
281
     1
  3
ACAD_XREC_ROUNDTRIP
360
6CB2
  0
DICTIONARY
  5
6CB3
330
6A6B
100
AcDbDictionary
280
     1
281
     1
  3
ACAD_XREC_ROUNDTRIP
360
6CB4
  0
DICTIONARY
  5
6CA9
330
6A66
100
AcDbDictionary
280
     1
281
     1
  3
ACAD_XREC_ROUNDTRIP
360
6CAA
  0
DICTIONARY
  5
6C9D
330
6A60
100
AcDbDictionary
280
     1
281
     1
  3
ACAD_XREC_ROUNDTRIP
360
6C9E
  0
DICTIONARY
  5
6CB5
330
6A6C
100
AcDbDictionary
280
     1
281
     1
  3
ACAD_XREC_ROUNDTRIP
360
6CB6
  0
XRECORD
  5
6CC6
102
{ACAD_REACTORS
330
6CC5
102
}
330
6CC5
100
AcDbXrecord
280
     1
102
DISPLAYNAME
  1
Imperial24
102
FLAGS
 90
        0
  0
XRECORD
  5
6C8B
102
{ACAD_REACTORS
330
6C8A
102
}
330
6C8A
100
AcDbXrecord
280
     1
102
SHADEPLOT
 70
     0
102
SHADEPLOTRESLEVEL
 70
     2
102
SHADEPLOTCUSTOMDPI
 70
   300
  0
XRECORD
  5
6C8D
102
{ACAD_REACTORS
330
6C8C
102
}
330
6C8C
100
AcDbXrecord
280
     1
102
SHADEPLOT
 70
     0
102
SHADEPLOTRESLEVEL
 70
     2
102
SHADEPLOTCUSTOMDPI
 70
   300
  0
XRECORD
  5
6C8F
102
{ACAD_REACTORS
330
6A4A
102
}
330
6A4A
100
AcDbXrecord
280
     1
102
MATERIAL
148
0.0
149
0.0
149
0.0
 93
        0
 94
      127
282
     0
 72
     0
 77
     0
171
     0
175
     0
179
     0
273
     0
  0
XRECORD
  5
6A4C
102
{ACAD_REACTORS
330
6A4A
102
}
330
6A4A
100
AcDbXrecord
280
     1
270
     1
271
     1
  0
XRECORD
  5
6A4B
102
{ACAD_REACTORS
330
6A4A
102
}
330
6A4A
100
AcDbXrecord
280
     1
270
     1
271
     1
  0
XRECORD
  5
6A4F
102
{ACAD_REACTORS
330
6A4A
102
}
330
6A4A
100
AcDbXrecord
280
     1
270
     1
271
     1
  0
XRECORD
  5
6A4E
102
{ACAD_REACTORS
330
6A4A
102
}
330
6A4A
100
AcDbXrecord
280
     1
270
     1
271
     1
  0
XRECORD
  5
6A50
102
{ACAD_REACTORS
330
6A4A
102
}
330
6A4A
100
AcDbXrecord
280
     1
270
     1
271
     1
  0
XRECORD
  5
6A4D
102
{ACAD_REACTORS
330
6A4A
102
}
330
6A4A
100
AcDbXrecord
280
     1
270
     1
271
     1
  0
XRECORD
  5
6C8E
102
{ACAD_REACTORS
330
6A42
102
}
330
6A42
100
AcDbXrecord
280
     1
102
MATERIAL
148
0.0
149
0.0
149
0.0
 93
        0
 94
      127
282
     0
 72
     0
 77
     0
171
     0
175
     0
179
     0
273
     0
  0
XRECORD
  5
6A44
102
{ACAD_REACTORS
330
6A42
102
}
330
6A42
100
AcDbXrecord
280
     1
270
     1
271
     1
  0
XRECORD
  5
6A43
102
{ACAD_REACTORS
330
6A42
102
}
330
6A42
100
AcDbXrecord
280
     1
270
     1
271
     1
  0
XRECORD
  5
6A47
102
{ACAD_REACTORS
330
6A42
102
}
330
6A42
100
AcDbXrecord
280
     1
270
     1
271
     1
  0
XRECORD
  5
6A46
102
{ACAD_REACTORS
330
6A42
102
}
330
6A42
100
AcDbXrecord
280
     1
270
     1
271
     1
  0
XRECORD
  5
6A48
102
{ACAD_REACTORS
330
6A42
102
}
330
6A42
100
AcDbXrecord
280
     1
270
     1
271
     1
  0
XRECORD
  5
6A45
102
{ACAD_REACTORS
330
6A42
102
}
330
6A42
100
AcDbXrecord
280
     1
270
     1
271
     1
  0
XRECORD
  5
6C90
102
{ACAD_REACTORS
330
6A52
102
}
330
6A52
100
AcDbXrecord
280
     1
102
MATERIAL
148
0.0
149
0.0
149
0.0
 93
        0
 94
      127
282
     0
 72
     0
 77
     0
171
     0
175
     0
179
     0
273
     0
  0
XRECORD
  5
6A54
102
{ACAD_REACTORS
330
6A52
102
}
330
6A52
100
AcDbXrecord
280
     1
270
     1
271
     1
  0
XRECORD
  5
6A53
102
{ACAD_REACTORS
330
6A52
102
}
330
6A52
100
AcDbXrecord
280
     1
270
     1
271
     1
  0
XRECORD
  5
6C37
102
{ACAD_REACTORS
330
6A52
102
}
330
6A52
100
AcDbXrecord
280
     1
 70
     1
 90
1959938040
 71
     1
  1
FF4E1DC2-AB9D-49DD-B5DC-5FB1D558A51F
311
504B030414000608080084806A48CCE0CBA6DA000000200100004F00000035453832374143342D354533432D343636442D413133442D4546444246464134443533312F4173736574446174612F446566696E6974696F6E4974657261746F7250726F706572746965732E62696E454E3D4FC33010350C200606FE41D5DDF883
311
2834515BD4B40D132C30B15457F71A22394E653B122323FF1ACE6A514F7AF7EEF3DDFD30C67E4F4621BB207C93BF257E4687BE356FE6133B6057A962FB2DD8EB73EF92C294AE700F838D69EBA50D06AD0587FD10EECEA3A30E22C981BD4F4B3784FF42480ACDF158BAFF4A482F2586DDA17C821030CEC47EFB25D68B4AAF1E
311
EB8A17AA5EF02CD78A4FF2E59A67937A290BA9B4CA2AE131F48337188416727352DE1C5C83B3B1F1487FECC6732D55CEE50357F25DE5A5CC4A597C4C456C3B9C4F43F4AD6B460EBA3F504B030414000608080084806A488B1353D308010000300200004500000035453832374143342D354533432D343636442D413133442D
311
4546444246464134443533312F4173736574446174612F496E7374616E636550726F706572746965732E62696EEB606060F80F0540260323103700495E20ED9E9A975A94991C9C9C919A9BA802147073337135747136D27574B274D135B17471D175327571D635757332743135B570343574634768046931363471713532B5
311
D435353131D635313332D475727372D13534373670367376B67474B5042A03DBCBA019D37FE8ABC6157B20CD04146B0062181F4C03F940F0C11EA29A8141C08141002C0426541C106CAC2CA046088033B02A030AC2157C6006F21A8018AAF50194E6010A610250382264E08660284CD9E98021862280A91564B406929A0FF6
311
2C401E28B6F88038B83CB1243943D7A928312F2535052403033A40862310FFE21562D8C1FB04268C4283CC860920AB6FE2558209C36900504B030414000608080084806A4828BB58AF800100009E0500003D00000035453832374143342D354533432D343636442D413133442D4546444246464134443533312F536368656D
311
61732F436F6D6D6F6E536368656D612E786D6CBD544D4FC23018BEFB2B96DE15493C78601010A34B880709DEDFB52FD0D8B54BD70DF6EFED3AC0B12E6442E2716BFB3CEFF3D18E26FB440405EA8C2B1992E1C323095052C5B8DC842437EBFB673219DF8DA659866649B798C078B48AE6410122242F2A4994AC7F93815DF85C
311
049C8564CA0A901499DD886B2EB9B1E02448F358701A9235880C49A0119892A20C89D1B9FD768815CAD268CB5E0355B40B1E47F3E37A2020464BED06AA57CE8FCC20C3C3446D46761A2632A8C1283D07031EFF2AE7CCB1BFEEE916E406DFAC8E36FFD99A9D60A6944090EEDC3B670C7DC13DE86B6B2C5C240D6E503BB85ACD
311
579D513F1B9F9A69DC9CC22AFA80C426D40AF0B21EA168559156B6276F0F726A6BFF04DCD513A87A62CAD41FB24FCB2858B3952E3D852084DA25B9303C15687973CC8E8AAE11DF2836C38C6A9E765E8C1BA1BFB1DC29CDFE518C8B5A7655A4ED7E77291ABEB80DBD82EC866ADE1B8D05AF9E35CF09D7A061F38A986D9EC412
311
B8F0F65E5D81534D9B231D1E5A8FE577A241F3A5FD01504B030414000608080084806A482CCEBD668A040000E01200003E00000035453832374143342D354533432D343636442D413133442D4546444246464134443533312F536368656D61732F47656E65726963536368656D612E786D6CD5586D6FDB380CFE7EBF42F0F7
311
A649B70E1B90744856B4970F450FCD7A5F05459613EDE4174872DADCAF3F522F8ED3B88D2F1D06AC4050DBA2493EE4438AF2F8EB73AEC8466823CB62928C06C384888297A92C5693A4B6D9D9E7E4EBD51FE3A931C22EF85AE4EC6AFC38BF261BA626C9AD288496DC3F4FCEAFC63366845F7A10452AF41DB320C0D44EC26EAB
311
20918735565582695670811A6A49643A49A6E9069FA4604A64B29016DC4B48552F95E4932463CA888468C1D2B250DB4962750DF7CE273069CE8363F1FF4EDB00E0A21999574AE4A2B00C353B93F3BD4777B8A61ED8F604ABFEDD79CE56A2B7BDFBDBC50996E0ADDE16FED26223C5D30956C29BDF4A55EA686E5E58B112DA45
311
CE67F76F4FA27EFA3FB672FD7372FC388FAECDCA5209E693CAD167BADCD272F943701B3812F8A3D852008B1D2E32DB927B2F833C6EA95879925356D254582695095A3CE982924720BE5774A3CB9CDCDB350427D2DF20DA1B5532EBE2D5D6288D75D4F7E4FD9890A0EF8E3D93EBB8F8BA4758158EF6FB90A6F9520281C93DE7
311
AAC6D24607DA296BB96018123F821A7D6A5C5884050C475DA4865442732C8B95684A50165CBB3A32F25F783A4A480ED59AD7F924B968AEA50131F46303223E6A397B0E52976030DC1DCA81D7E7C1EDEEA42C19FF27635C505E2BD5198A599020DF50A2330FCB3AAF28CB0124108429553EF1B228802E2265D8F7CC2401042B
311
155BCC7070F1E5C55F13B4A9577362CCCE46C32174E010C3C378C44841A4BDA00FE3A12006CE11EE6AEC59894D3526DDE1CD59D503ECC324017F8061B7F162162FA62EDD81AE3308617770796DCBDAD2B2625C5AE8A63DE20B2C8AA5E95E76E5730823955956E33E705425A2187C185D36489A1B44D3DCEC2172F6BA2105C3
311
546287A7194B2331768EBBE64F6E70A9930ABE0ADEA89E9E2C38523B810287AD67A54A039C1606EAFE68F8304610BB9093DBDDABC0B2AE4E290DCDA15376D7E39F72B556F0B32EAB5D3D498B4C41ABADEC3A1434C422D87E8025A84BDCB2B1417ED750FAE4DA8976863974C577C7F902D3F156AD354DEA3540DE6BEAE2BEA5
311
2F7A2EB4CA43802ECE5BF2CE2EDC9347179FFB023CE412E60BE16DA0BE29B374988A553F561DC04615DD35F7D2C8979F60E5955CE93DF29DED8AFA1EE6642D53418086C03C47C377910F75F7E8F5EF665F70B60FFB22AEDF897D119E8423C773E819A3C1E55E550599EE6EDCA34D0C86FD72057DF2CD46F16A470682471C16
311
4E4346D5306BF12D7D12D82CFF673D41636C347443FEB51B50D72EA171A8E4A58623A4A16E0FA2B8B10A0D23268D87C33896EE8FB73305A74BF224EDBADFA0BD674AB354D63DB7BD5D83426761C077DE767728235446A552754EB93B755891C3C4CC6CADE37CF0E912A7BB38DBA010F9DE1282EDF470CA69A9CDA482E334C4
311
A6EA4107987980B17E72F31730EBF88BBD39E7C629F56797A3C0009C2C5AE7951D9A05A02773440F02EEB4DE396A3B6A570C72CCFBCD823B0B8ED3F1D5CEDDFED772FA70236C83FB7D86C385D570B87107535572A60A96035F8F7C6A7192F13007246BBE0521855E6AC46F3E27689CEE7D186A6FD679D98CDCAD13333E04EB
311
E7ED6F55FF01504B030414000608080084806A486180134D5F0100006B0300004500000035453832374143342D354533432D343636442D413133442D4546444246464134443533312F536368656D61732F52656E6465724D6174657269616C536368656D612E786D6CA5934D6FC2300C86EFFB1551EEE343DBA41D1A103009
311
551ADAD40EAE28A4A68D9426284961FCFBE5A340113B2071746D3F765EBF4DC6BFB5407BD0862B49F0B037C0082453059725C18DDD3EBFE3F1E829991803366715D474942CD30FB4A782E00C64017A412D684E454CE3FE28995203B162A6EA5AC94B66997D225E109CD63B0135484BAD1B3C07E9080CA35DB3119C11BCA5C2
311
00461A68A1A438126C75E3E230D40FF81FB3F03C91D1E3A3A0AF79FE28E25BC39EC3E17E4C2A2D94A0833A51AF55BCCA7D88572FCBAC529C4140B020FC3AAFA886621DCED7EAD7664CC86024E806DC297DA1BB393E4156543457A4537DB8817349A70F8ACBF09B3EEE2CB2F33E91B65D60786E4E3B39B77E3FEEEF56504245
311
25DA657FB8B46BE6BF064646F0A0F7327C0BC1BC1B4CBBC1C419FA3CCB23500007872A2580CAAE5461865565294E4EDB4617B62FF579DF9A5B2F54E834076A597573A020912FED777F9B3F504B030414000608080084806A484EF3524D51000000570000004700000035453832374143342D354533432D343636442D413133
311
442D4546444246464134443533312F4173736574446174612F41737365745461626C654F66436F6E74656E74732E62696E536160607073337135747136D27574B274D135B17471D175327571D635757332743135B5703435741302AACB4D2C492DCA4CCC492C28484D2C4ACC4B4E050A82012F90744FCD03CA26072767A4E6
311
260200504B030414000608080084806A48F865834058000000680000004500000035453832374143342D354533432D343636442D413133442D4546444246464134443533312F4173736574446174612F53747265616D56657273696F6E5461626C652E696E66558CBD0A80300C06F73E4B117FB66E451741D041DC5BF98480
311
A492E4FDD18EAEC7DD4555D89EF28DF51A0B1BD8340C4DE7DD848B988C0ACF0649566493F2408C508DDEBB99D5129FF8F1AF8CF5B9503E20FAE5A16B5AF702504B030414000608080084806A4837F3A487340100009A0400003600000035453832374143342D354533432D343636442D413133442D45464442464641344435
311
33312F4173736574446174612F636E782E786D6CCD94314FC3301085FF4AE43DB603A882CA718560E904121503DBD5B914AB8E1DD91704FF1EBBCD002A62EAD0F5FCEEFCFCC9EFD4EA7370D507C664836F59C325ABD09BD059BF6BD9447D7DCBAA95563104FA21639587015B56CA4CAB5D0CD338973AEC6172A5EAACDFCFC5
311
FB949036B075F8D43F044FE829B1CA3848A965C9BCE3001C260A1DA63DEF8080373C620A53349827911D709E64220261C7F4956C16B5BCAE1BB969164B79B394776F4A14A556DB10DCACB7F9B218C6CA1C6F655A2A518EB59AA29D35E52D4CFFE5916FAD57222BB54A143393B983BEC6DC01E3E8AC01CAE8443084546711C2
311
A0C451AC95280C7E9178C4DE7A5B5AD6D9185088CFD91E46B2787144FEF37A7E326B9F08BCC1CBE571EAF0FC145E0E3FE8F518C843622E2D27A70EB9F5FD1952220E6B2487A66C15FD0D504B030414000608080084806A48298D3317070100004F0300003400000035453832374143342D354533432D343636442D41313344
311
2D4546444246464134443533312F536368656D61732F636E782E786D6CCD93BD4E042114855F65423FC0A8D9E886610B0B2B1BB5B243B8BB9205EE841FA36F2F8C14BB899D16DBC1E10B39E77011BB4FEF860F88C96298C9443919206834361C6652F27EBC25C34E8A88984F303204E561264D26521C2296A54B06F6AAB8A6
311
3A1B8E5DBC47EF313CEB77F08A0CDAA9946692D62D5525A38174A4466545271A2161891AEA0DD97AE837E8082A8321F28A4F9B915F8F137F99365B7EB3E577AF8235528A3744D7791B32445C068D7511AA1D2E583B96A244DB999681C8536FB4B6215825A44839D60E3A99BF964AAA657156AB5CAB622BF8C348C15AD4B3C0
311
0F10205A7D9989CFCCFD5BE4270806E2637DA56895BBCCE4BF79FC5B016C9DFD3A02ED2BC86F504B030414000608080084806A48410A3D5871000000A40000002C00000035453832374143342D354533432D343636442D413133442D4546444246464134443533312F636E782E786D6C55CC4D0E82301086E1AB34B31774E7
311
A22D31F1069E60020334B633A63FC6E34B0909B07DDE2F9FEE7EC1AB2FC5E4840DDC9A2B28E25E06C7938192C7CB1D54677514C9871928C640062A83D55394F2D968A0118BAFEA1DBF377CA444F98919176EAB9FEAAB9F2960DA5BBB1E2ED3FA6FFF504B030414000608080084806A48E3ADA73C7F000000A3000000070000
311
00636E782E786D6C4D8CD10E822018465F85FDF754049817822381F77089CE89D0485B8F1F342FBAFAB6B3EF9CA6FDAC1EBD5D7ACD310820A70B20171E7198C32460DF465C036A659362DCFE6E8042BF3A0105836CA614F7E7810637F6BB2FD4CF61392037F5F5A63A86B9A11D6655A5B122546363F5DD5AC534A7241BE7A2
311
E4F9F5F296BCFC02504B030414000608080084806A4816E99B5DA600000035010000130000005B436F6E74656E745F54797065735D2E786D6C9590410E82301045AFD2740F4517C6180A0BF5065E60AC53688469D30E066F6F91AD9AB89CF9FFFD3F99BA9DC7413C3026E749CB4D59498164FCCD51A7E5C4B6D84BD136F5E5
311
193089ECA5A465CF1C0E4A25D3E308A9F401292BD6C711388FB15301CC1D3A54DBAADA29E38991B8E0254336F5092D4C038BF39CD76B6FC6A538AEBEA54A4B08617006389FA516557DE4AE8E7E70DE30729138228C5F021CD93F02D4FB0DCD0B504B030414000608080084806A483DEE336E64000000790000001B00000061
311
75746F6465736B2D64657369676E2D7061636B6167652E786D6C35CBC10E83200C00D05F21DCA56CA76D41FC96062B120735B69A7DBE268BB7777961F8D5AF396893C2ADB70FE7ADA196782C2DF776D7A97B5933C430F15651E5469C55D70F80A4992A3ADC954792C525AE70A1E4D6AD9816CC044FEFDF01FE3FDE90780250
311
4B030414000608080084806A48E7BB96CEF9000000960100003700000035453832374143342D354533432D343636442D413133442D4546444246464134443533312F4173736574446174612F636F72652E786D6C8550CB6EC32010FC156BEFD8E0571EC244A44DBEA0A7DE10262E4A0C168FAA9F5F885DA93DF5B4ABD999D9
311
DDA1A7AFF9517C2AE7B53503901243A18CB4A336D30031DCD01E8A13A3CEDAF08B068511B31A20C3C0E8E46C5C36485A1394C9A8B1A3DA40E1BD0A50C8476A06F0F243CDA214312486BF978B907731A992942B8FD118F5B849F598DCF44D2B07ACE3DDE542763BD45CCF1D6AF77587F8815F51DFB7BC3E13FE72209C5659CC
311
68D0F3CF76E994086A045663D223DC2082DF487FC4ED111FDE6995998CFAE0D2CFDBD2FC1D309EAF7E1541D06A9DFE718DCBF8BF6BD42634F5E6BA2A3C30928E7C0E18AD724AA93C234C3527CABE01504B030414000608080084806A48B4A317D2F8000000940100003500000035453832374143342D354533432D34363644
311
2D413133442D4546444246464134443533312F536368656D61732F636F72652E786D6C8550CB6E833010FC15B47783CD2B21328E9C2AF981F6D49B050EB5126CE447D5CFAF0D546A4F3DED6A76667677E8F96B7E669FD23A65740F24C790493D9851E9A987E0EFE808D999516B8CFF45834C8B59F690606074B2262C3B3418
311
EDA54EA836A3DC41E19CF4900DCFD8F4E0860F398B5C041F19EE912F62788849E624DF788C86A0C65DAAC6E8A6EE4A5A600D6FAE577238A0EA7669507D2C1BC43B7E436D5BF3F242F84B47382D929851AFE69FED8395C2CB115889498B7085087E23ED09D727DCBDD322311975DEC69FF7A5E93B60AFEB9D8E16DBEC8F6758
311
C6FF3D83D2BE2A77CF4DE1809178E23A60B44819C5B206186BCA937D03504B030414000608080084806A48358FABCC03010000D70100002D00000035453832374143342D354533432D343636442D413133442D4546444246464134443533312F636F72652E786D6C95914D6EC3201085AF62B1C736FE6B1A612237B64FD055
311
7714260E4A0C9681AAC72FC4AED4EEDAD5A0C7F760DE0C3D7DCEF7E40356AB8C6E114973948016462A3DB5C8BB0B3EA0E4C4E86A8CFB81A144F3195A1465C4E8B41ABFEC9230DA818EAA361276915B0B0E25E21E0E2DB2E20A334FB97781B0B774E1E2C6274849BA718C3A357F5BC50ADC8144ACC84983F31293FC9534C7BC
311
3AE6CF6F348B24A35E695716FB6730BF834CCCE24224C46A9A6DB781F24AEE8C92A1477551B0066238144FDDB9C2F5509E71D5343DEE48D9E361EC5FC6B1ABFABA24E1916066D4BA354C667F24CEE0AFF6CDF82B995FE43F936D0E8B58ECE71199D12C8E3994C70E428D2B615F504B030414000608080084806A48CEF364EC
311
07010000B201000008000000636F72652E786D6C8D50CB6EC32010FC15B4776CF02B0F6122A74ABEA0A7DEA8212E8A0D16E0A8FDFB42EC4AEDADA74533B33BC3B0D3E734A287725E5BD302CD0820657A2BB5195A58C20DEF019D3873D6865F3240464CAA8504036783B3CBBC41BD354199841A2BD5060AEF5500D48FF1D182
311
EF3FD42432B184A8F0F76C16FD5D0C2AA3D9AAE32CE8E967B5774A0425811784369894989257DA1C497524873796272567CBA2E566A56574D737AD1CF0BAAB2F17BADBE1F27AAE71B52F6ADC1DBA2B6E9AAA2BCEB47B39D08EE56999331F5CFCF37624E60CC88B47F265F94A71F66EEDB809622889AC19BF80139627E24FE8
311
6596FF08AD4D288BEDE0BAE181D318E84944E3D4601CCF7AE34C6DF36F504B0102140014000608080084806A48CCE0CBA6DA000000200100004F000000000000000000000000000000000035453832374143342D354533432D343636442D413133442D4546444246464134443533312F4173736574446174612F446566696E
311
6974696F6E4974657261746F7250726F706572746965732E62696E504B0102140014000608080084806A488B1353D3080100003002000045000000000000000000000000004701000035453832374143342D354533432D343636442D413133442D4546444246464134443533312F4173736574446174612F496E7374616E63
311
6550726F706572746965732E62696E504B0102140014000608080084806A4828BB58AF800100009E0500003D00000000000000000000000000B202000035453832374143342D354533432D343636442D413133442D4546444246464134443533312F536368656D61732F436F6D6D6F6E536368656D612E786D6C504B010214
311
0014000608080084806A482CCEBD668A040000E01200003E000000000000000000000000008D04000035453832374143342D354533432D343636442D413133442D4546444246464134443533312F536368656D61732F47656E65726963536368656D612E786D6C504B0102140014000608080084806A486180134D5F010000
311
6B03000045000000000000000000000000007309000035453832374143342D354533432D343636442D413133442D4546444246464134443533312F536368656D61732F52656E6465724D6174657269616C536368656D612E786D6C504B0102140014000608080084806A484EF3524D51000000570000004700000000000000
311
000000000000350B000035453832374143342D354533432D343636442D413133442D4546444246464134443533312F4173736574446174612F41737365745461626C654F66436F6E74656E74732E62696E504B0102140014000608080084806A48F865834058000000680000004500000000000000000000000000EB0B0000
311
35453832374143342D354533432D343636442D413133442D4546444246464134443533312F4173736574446174612F53747265616D56657273696F6E5461626C652E696E66504B0102140014000608080084806A4837F3A487340100009A0400003600000000000000000000000000A60C000035453832374143342D354533
311
432D343636442D413133442D4546444246464134443533312F4173736574446174612F636E782E786D6C504B0102140014000608080084806A48298D3317070100004F03000034000000000000000000000000002E0E000035453832374143342D354533432D343636442D413133442D4546444246464134443533312F5363
311
68656D61732F636E782E786D6C504B0102140014000608080084806A48410A3D5871000000A40000002C00000000000000000000000000870F000035453832374143342D354533432D343636442D413133442D4546444246464134443533312F636E782E786D6C504B0102140014000608080084806A48E3ADA73C7F000000
311
A3000000070000000000000000000000000042100000636E782E786D6C504B0102140014000608080084806A4816E99B5DA6000000350100001300000000000000000000000000E61000005B436F6E74656E745F54797065735D2E786D6C504B0102140014000608080084806A483DEE336E64000000790000001B00000000
311
000000000000000000BD1100006175746F6465736B2D64657369676E2D7061636B6167652E786D6C504B0102140014000608080084806A48E7BB96CEF90000009601000037000000000000000000000000005A12000035453832374143342D354533432D343636442D413133442D4546444246464134443533312F41737365
311
74446174612F636F72652E786D6C504B0102140014000608080084806A48B4A317D2F8000000940100003500000000000000000000000000A813000035453832374143342D354533432D343636442D413133442D4546444246464134443533312F536368656D61732F636F72652E786D6C504B010214001400060808008480
311
6A48358FABCC03010000D70100002D00000000000000000000000000F314000035453832374143342D354533432D343636442D413133442D4546444246464134443533312F636F72652E786D6C504B0102140014000608080084806A48CEF364EC07010000B2010000080000000000000000000000000041160000636F7265
311
2E786D6C504B050600000000110011005A0600006E1700000000
310
504B030414000608080084806A48000000000000000000000000370000006662782F41304430394346312D344536392D343430442D393738352D3139463541353538383446322F617474726962757465732E62696E504B030414000608080084806A48000000000000000000000000350000006662782F4130443039434631
310
2D344536392D343430442D393738352D3139463541353538383446322F76657274696365732E62696E504B030414000608080084806A48F270F1330600000004000000360000006662782F41304430394346312D344536392D343430442D393738352D3139463541353538383446322F747269616E676C65732E62696E6366
310
60600000504B030414000608080084806A4851464CB48900000043010000360000006662782F41304430394346312D344536392D343430442D393738352D3139463541353538383446322F6469726563746F72792E786D6C9D8F310EC2300C45AF127987122606C71DD918B841D4B851A43646695A717C52A85029031293A5
310
A76FBF6FACEF7DA7264E43906840EF0FA03836E242F406C6DCEE4EA06AC22492573150D1F66C60C640E8938CB705396EEDD86DE9B5042FE27813D640EA63BB001C722AF6E55CB61E4863F58284D5D3F53DD715CE1C3985E63FD7F1B7EBDD617E9F1E504B030414000608080084806A48358079D32C0700001A1C0000340000
310
006662782F41304430394346312D344536392D343430442D393738352D3139463541353538383446322F6F626A656374732E786D6CDD59596FDB3810FE2B84F659978F342E14173EE2C228D20635BAD837819669851B5D20A51CFBEB774891B224CBB6926D8162132071186A38F3CDCC37C391F7E9258ED013619CA6C98DE1
310
5A8E814812A43B9A84374691EFCD6B037D9A228FA5695EDB67A004C7E4C610CBC6D40B595A646A6947F6B888DAABABF95F88072421060A22CCF98DC1830712630B1779BA23FCD1DAE11C5BE1FEC572AD7263536CC870F6D03A2AC38C2439A80AEB0948511AB8CD3FC1247BEAD9624363DBA0DFB6E1996DB634BCA9284D788E
310
93E048AB969C413FAD86EE68793B184FCCF1683434475703D79CAFE64BD3FD307416578BC564763B31D0D4DBA66954392023C90EBCF86A4C5DCF16FFA9CC572874E91DA44942028566D7861D517229E16D4C1AC0BAD2B49A434A5B6B0BC39EC69FD8D60B94864A0DB4B571FA773D7AD3EDDF0002EF13A58C1311E53C67E06B
310
857D990F8E6797AB0DBF508E629C1346718422BA65988183606BE9A08618912D42141298492F6A79755D21B02FE7529796FB228A44FE1A5399693EE423C9B9D48CFE43D841FBFA69A013585BD024BF56C6E6AF19889878B65C2CFF371CA87F9640A27D8443881630536C1A0E5A782D0417AC97C6F4CB6AFBB211FCD07D78C6
310
D28CB05C449E4C669577DA83B5D082E0EB014A896BD3770754BE03F45F01F94A17E481E7187D19BD8CB4ED0C277C9FB218BC831C643AF0C341E2E3D127CFAE1E9E22D4E0CA539842DAFE244C1B6634CEAE413AF59E20E8533654C66D021C414CDFD144E439040A8A525802BEDF6F5F8CE91AC81416E1291C81F5F0EDD9E223
310
825FA51CE09B9687BAE8B787A374C2B4F3ECE0ABCF10338C0695AB1A369EC277FC53F09D2D375F3605DBE380DCA9C45E923D4D680EC5B45BA106E88D94FFB1FE2A33F2C89EC6AE00CE0953411C1D7ED928BF20E9185045D4E1D23572E58E42BA47114E485A70B5DE4554411AA5CCDFBEFA650E779EF5A70E82F230C86F1101
310
9D6406D53D603413A01853655EC584D60127C1832A00C3D2A9FE16078F025E3F00C67A8F1E10B598B5851671E6E3382D1241DFC7E1DD36CD1A3AF2CB7527036732B89E5C6963B914AFB3475343A5BC3827C6D98943160D6F29D6D092CB3C1A015B76591040CF54E47E9AE180E6DDB1D032426528807D56E51DDDEF0B0EA4DE
310
094B4B636BE88E9153FB591D725E7B75884F631C127F8F4585EB3CAF0150255C5BD0894C18A59CD38470D9A11C31570B15C7022228E3564BED0842CAFD98E4F83DF1274B5E2BFC18D9473EF452B9E8662F479F565055CF531245E79626BEB4FFD5E738CEA2B24BBB84813B689DD089AB505A1CF104F1E6E3DC77764436DD97
310
A457BCA0F1ED257DF26EF127E061F897C3A38FA0D07A438DBCEC59D71ABB13F1750DA4723576871FB4232E61A58FCA450F1215D03505AFFE33A1E1433F42EB750E27D1DEA75154C47E590F7212430B86F382F5CAD7ABB173E47CC50BAD84A89DB4A71134C8BD4953F61EBAFB00AB64F3718A346BC7805134813B5A2F438EAC
310
E80C61E90B791F15D7AECBDE7FBBD4FFCC97F57BCA23797D4ED9AE53D3661BA13B30DD3008BA5415AE8A232979EAD5932F961797CB388CB410C56FE52D414508234F540C26E40DA8F3FEC09F711E00916EE46F730E19B123BB434FD110A7C61CC6140ED5D2749F5ABFE900D989F2D168BCD6825063983660C1B377E243F41D
310
83ABA1F3E3B6EA6AEC727D2D0A9B058395831E67647DFBBC69498195DE4FDF0B8CC8734B825A5D8846EE8CA81FEB43BFDA92A02CFAB13EF378FE50C4DB045351194558E05DF6F193BC4BDED87051B06F67F3C1F2C36A6E4EDCD5AC9C5D5C5F2D6ECDD1F56AE14C1C77E08EE636233C2D5840B83DB01D5FF74E5912EAC028A1
310
EB73A380A9C2E5AB9F8EE7B683FFC7378A28DDE253B1F8BB5E28AA764F3464AD5CEC7BA1E824EAEDDBBA7FF788A8BB8BD89B3AE77256A003FC7CD90232D2F5BE7F6BA145EB4EA25BE75A457C63E13D795BF9E535A641E89DF5A1B1A38BF29B5C0CB3A78E2AA56FB792D756ABD1ADBB5C0CCCD97CB2344793E5D29C8F970B73
310
BC9ABBCBF1F87A36765715E2AA16F6AD2BBF05876A656B63349806F334A23094273B1492146E403075E8C1AF2C265CDE6CA00150655CBF11E8F1F4533953CDF136D24F070F1806D391AAC845004351B875DC186A1DFD016350318994C329EB110A8F8A7603158CDE1810023985FA626D619C258787527A6B5C096EC34928EE
310
4CE553D5DF87C7043A102B07BBAA3D7D70519635A2138603997C4F006CA71B92F79BAED54138878FDB22AF8C392C1CAC5120E81702A57130F57B54F0BE00F19CB7CBB5E49E0624BD26F367E3A0946AE6988572BC5EC37BB6BCB7C5647CFD0D6551110A779EABF70D49A6E833A2A21C42791018CACC0C8B7BF8E2A37DCF5278
310
C514A3158520B017691CA789FA63A65E51A1CD03BC70DAD97AD8072D8BE38E6DD9F1A8813E4CAC38B1F08E3FC20238955131152DC16DB8BE22A69AEBB52F8417E0B1C6FEF51229FAAF35AFF5A6550023A7F9085248BCC5110953DF501B3D42168056E584B6FAA0173C9BC1F87BFA2F504B030414000608080084806A486046
310
60043E01000046050000300000006662782F41304430394346312D344536392D343430442D393738352D3139463541353538383446322F636E782E786D6CCD94C14E032110865F85705FD855D368C3D2C4834FE0C17863D9E98A65610383B16F2FD46DD5981A0F4DDA1B19FE49FE6FE6CF88D5FB68C91B8468BC6B69C36A4A
310
C069DF1B37B434E1BABAA5642545F01EBFC928716A849696329562083E4D73A987B54AB654AD719BB9A81083E91242A4445B15634BA37E81513195D0F71037AC57A858C302449F8286DC8F6684B95F0750083D955775B3A8EAEBAAA91F9BC5B2BE59D677CF8217A5149DF776D61B8710FC44B4CF0F97CDD482976F295230B3
310
A61050F9E58C75C6099EFFA588D9AD1B661D6EA7A29B266BB4C23C26EE35025659046A14FC532C052FBC3FA81FEE9FF60E486F0268F4617BA60134C7067030C67212FEC7BF13FE8DEDBBD78C7BAE6D1F859D6D9D0C759FD698E3FA7BFF3945CA0DF6F2427F3076FACCE75382465F1EF2DED78988F9EEE4E5A5970B283F0050
310
4B030414000608080084806A4806811AAA7D000000A30000000B0000006662782F636E782E786D6C4D8CD10AC22018465F45FE7B4B434B411DA3E57B8CE686E4346C468F9FC62EBAFAE0F09DA3BACF1AD0DBE5974F51033D10402EDED3E4E3A2A16C3316803AA3724ADBDF0D501C57A7A161306AC9A93C7734B9792CA1D1E0
310
E363873D1988BC5A8AD9ED2C316364C0F22238A6D2F29E7321983D55E3D8943ABF5EDD96375F504B030414000608080084806A48A6D797065F0000008200000007000000636E782E786D6C4DCB3B0E80201045D1AD90E9FD7516806B51190811670C8A61F982B1B0BAC9C97B72CA7B1037C6D3332918DA1E04D2CAC6935390
310
2EDB8C20262D23F3F59B81A079470595414B17391D1F19B4730A5583A7ED43BBE4025D9592775E5ADFFA01504B030414000608080084806A484FEB6A7CA0000000F4000000130000005B436F6E74656E745F54797065735D2E786D6C7D8F4B0EC2300C44AF1279DFA6B0400835ED02B8011730C16D239A8F121795DB93D02D
310
6269CFBC19BBED573B8B17C564BC53B0AB1B10E4B47F18372A5878A88E20FAAEBDBD032591BD2E299898C349CAA427B2986A1FC86565F0D122E7318E32A07EE24872DF3407A9BD63725C71C980AEBDD080CBCCE2BAE6F5D69B7110E7CD57AA146008B3D1C8F92C5954F993BB1BF787F39A89ABC491D09600F9FDA2FB00504B
310
030414000608080084806A483DEE336E64000000790000001B0000006175746F6465736B2D64657369676E2D7061636B6167652E786D6C35CBC10E83200C00D05F21DCA56CA76D41FC96062B120735B69A7DBE268BB7777961F8D5AF396893C2ADB70FE7ADA196782C2DF776D7A97B5933C430F15651E5469C55D70F80A499
310
2A3ADC954792C525AE70A1E4D6AD9816CC044FEFDF01FE3FDE907802504B030414000608080084806A4868A279ADF9000000960100003B0000006662782F41304430394346312D344536392D343430442D393738352D3139463541353538383446322F7265736F75726365732F636F72652E786D6C8550496EC3300CFC8AC1
310
BB6CC95B9A405610A3C90B7AEA4D901957482C055A8A3EBF52EC02EDA92712C3992139FCF8B5DC8B4F745E5B33002B291468949DB4990788E14A5EA0380AEEAC0DBF685018B9E0001906C16767E363839435014D468D9D7003A5F718A050F7D40CE0D5072EB294312486BF950FA96E72C692952B4FF018F5B449F594DCF455
310
A303711A77977E57D7647C6D1BD29EBB3339D59796D06E1C47BA67E7A6EB7895C58207BDFC6C570E65C009444D594F6843187D63FD81B607BA7FE755660AEE834B3F6F4BF377201C7A1B9D42CFAB75FAC7353EA6FF5DA336A1A937D755E141B074E473207895534AE51961AA3951F10D504B030414000608080084806A4823
310
089002F2000000B1010000310000006662782F41304430394346312D344536392D343430442D393738352D3139463541353538383446322F636F72652E786D6C8D50CB6EC32010FC156BEFD8E0D8AE1D61A2A8A9BFA0A7DE10101725068B47D5CF2FC4AED4DE725A343BC3CC0E3D7D2FF7E24B39AFAD198194180A658495DA
310
CC23C470453D1427469DB5E10F0D0AC31735428681D1D9D9B8EE90B02628935163A5DA41EEBD0A50887B7A8CE0C5A75A78C963480C7F2B572E6E7C562529371EA3412FBF52E1140F4A02AB31E9103E2082DF4977C4CD110F1FB4CA4C4663D472B7D232B9EBAB560ED8195FF0F03A11D4BC75036A1A7C41C34BDF22324CEDB9
310
6DFBBE996A5A6531A33EB874F3FE49BEEE59F926FC9739AEF289CCDA8443BD1B6E0A0F8CA43C8F05A3552E308D47BB69E6B2D90F504B030414000608080084806A486B12653554010000DD0200000C0000006662782F636F72652E786D6C8D52CB6EC32010FC158B3B367E254D84896235F9829E7A2398B828365818AC7C7E
310
C10FB93E34AD2C6134BB3BB333029F9E6D130C5CF742C902C4210201974C5542D605B0E60EDF407022582B657EB48140D29617C0C380E05A2BDBCD1053D270E951A92A3E83B4EFB901016BDCA5003DFBE22D0DA935AEA37F841D650F5AF3300EA73E82AD15D53C2A2AC726EE826B40CEE5FEBADB27092CDFB3146697FC02CF
310
C93583282FCB121DE24B9AE738F2C3041BD12EEA4C736A78054882E21D44298CD147BC3BA2EC880E9F38F29D04F7463BCFB3A87707C8FDF6C4D1846FF86C57FDCD6785346932F34D133D20B15B6F2C101CF97CDC6F0C6F9BA11376F9197A6B160B0F070D9C19A53357A9945D4B036D2C77D428183F1C4D55C73C12FCC693BC
310
E079CDE182A2B276AB51E3AE376BBCFA76A78E6B38986720956E69B32E37ADB89EABD0C6D232CE54A3F47FA617AB4B98917F98E41B504B030414000608080084806A481A332B6307010000B201000008000000636F72652E786D6C8D50CB6EC32010FC15B4776CF02B4D848962D5F9829E7AA3863828365880A3F6EF0B892B
310
B5B79E16CDCCEE0CC38E9FF384EECA796D4D0B3423809419ACD4666C610D17FC02E8C899B336FC92013262562D2418381B9D5D970D1AAC09CA24D458A9365078AF02A0618A8F16FC7055B3C8C41AA2C2DFB2450C3731AA8C664F1D6741CF3FAB8353222809BC20B4C1A4C494BCD1E640AA03D9BFB33C29395B572D372B2DA3
310
BBBE68E5809FBADDB9D91505EE5EAB12577DDDE35371AE30A9BBAE237BDA9775CDF2B4CC990F2EFE793B127306E4C53DF9B2FC4971F661EDB409622889AC99BE80139627E24FE87591FF08AD4D288BEDE073C303A731D08388C6A9C1381EF5C699DAE6DF504B0102140014000608080084806A480000000000000000000000
310
003700000000000000000000000000000000006662782F41304430394346312D344536392D343430442D393738352D3139463541353538383446322F617474726962757465732E62696E504B0102140014000608080084806A480000000000000000000000003500000000000000000000000000550000006662782F413044
310
30394346312D344536392D343430442D393738352D3139463541353538383446322F76657274696365732E62696E504B0102140014000608080084806A48F270F13306000000040000003600000000000000000000000000A80000006662782F41304430394346312D344536392D343430442D393738352D31394635413535
310
38383446322F747269616E676C65732E62696E504B0102140014000608080084806A4851464CB489000000430100003600000000000000000000000000020100006662782F41304430394346312D344536392D343430442D393738352D3139463541353538383446322F6469726563746F72792E786D6C504B010214001400
310
0608080084806A48358079D32C0700001A1C00003400000000000000000000000000DF0100006662782F41304430394346312D344536392D343430442D393738352D3139463541353538383446322F6F626A656374732E786D6C504B0102140014000608080084806A48604660043E01000046050000300000000000000000
310
00000000005D0900006662782F41304430394346312D344536392D343430442D393738352D3139463541353538383446322F636E782E786D6C504B0102140014000608080084806A4806811AAA7D000000A30000000B00000000000000000000000000E90A00006662782F636E782E786D6C504B0102140014000608080084
310
806A48A6D797065F0000008200000007000000000000000000000000008F0B0000636E782E786D6C504B0102140014000608080084806A484FEB6A7CA0000000F40000001300000000000000000000000000130C00005B436F6E74656E745F54797065735D2E786D6C504B0102140014000608080084806A483DEE336E6400
310
0000790000001B00000000000000000000000000E40C00006175746F6465736B2D64657369676E2D7061636B6167652E786D6C504B0102140014000608080084806A4868A279ADF9000000960100003B00000000000000000000000000810D00006662782F41304430394346312D344536392D343430442D393738352D3139
310
463541353538383446322F7265736F75726365732F636F72652E786D6C504B0102140014000608080084806A4823089002F2000000B10100003100000000000000000000000000D30E00006662782F41304430394346312D344536392D343430442D393738352D3139463541353538383446322F636F72652E786D6C504B01
310
02140014000608080084806A486B12653554010000DD0200000C00000000000000000000000000141000006662782F636F72652E786D6C504B0102140014000608080084806A481A332B6307010000B2010000080000000000000000000000000092110000636F72652E786D6C504B0506000000000E000E0080040000BF12
310
00000000
  0
XRECORD
  5
6A57
102
{ACAD_REACTORS
330
6A52
102
}
330
6A52
100
AcDbXrecord
280
     1
270
     1
271
     1
  0
XRECORD
  5
6A56
102
{ACAD_REACTORS
330
6A52
102
}
330
6A52
100
AcDbXrecord
280
     1
270
     1
271
     1
  0
XRECORD
  5
6A58
102
{ACAD_REACTORS
330
6A52
102
}
330
6A52
100
AcDbXrecord
280
     1
270
     1
271
     1
  0
XRECORD
  5
6A55
102
{ACAD_REACTORS
330
6A52
102
}
330
6A52
100
AcDbXrecord
280
     1
270
     1
271
     1
  0
XRECORD
  5
6CC4
102
{ACAD_REACTORS
330
6CC3
102
}
330
6CC3
100
AcDbXrecord
280
     1
102
DISPLAYNAME
  1
Imperial24
102
FLAGS
 90
        0
  0
CELLSTYLEMAP
  5
6C85
102
{ACAD_REACTORS
330
6C84
102
}
330
6C84
100
AcDbCellStyleMap
 90
        3
300
CELLSTYLE
  1
TABLEFORMAT_BEGIN
 90
        5
170
     1
 91
        0
 92
    32768
 62
   257
 93
        1
300
CONTENTFORMAT
  1
CONTENTFORMAT_BEGIN
 90
        0
 91
        0
 92
      512
 93
        0
300

 40
0.0
140
1.0
 94
        5
 62
     0
340
11
144
0.25
309
CONTENTFORMAT_END
171
     0
 94
        0
309
TABLEFORMAT_END
  1
CELLSTYLE_BEGIN
 90
        1
 91
        1
300
_TITLE
309
CELLSTYLE_END
300
CELLSTYLE
  1
TABLEFORMAT_BEGIN
 90
        5
170
     1
 91
        0
 92
        0
 62
   257
 93
        1
300
CONTENTFORMAT
  1
CONTENTFORMAT_BEGIN
 90
        0
 91
        0
 92
      512
 93
        0
300

 40
0.0
140
1.0
 94
        5
 62
     0
340
11
144
0.18
309
CONTENTFORMAT_END
171
     0
 94
        0
309
TABLEFORMAT_END
  1
CELLSTYLE_BEGIN
 90
        2
 91
        1
300
_HEADER
309
CELLSTYLE_END
300
CELLSTYLE
  1
TABLEFORMAT_BEGIN
 90
        5
170
     1
 91
        0
 92
        0
 62
   257
 93
        1
300
CONTENTFORMAT
  1
CONTENTFORMAT_BEGIN
 90
        0
 91
        0
 92
      512
 93
        0
300

 40
0.0
140
1.0
 94
        2
 62
     0
340
11
144
0.18
309
CONTENTFORMAT_END
171
     0
 94
        0
309
TABLEFORMAT_END
  1
CELLSTYLE_BEGIN
 90
        3
 91
        2
300
_DATA
309
CELLSTYLE_END
  0
XRECORD
  5
6CC1
102
{ACAD_REACTORS
330
6C84
102
}
330
6C84
100
AcDbXrecord
280
     1
102
ACAD_ROUNDTRIP_PRE2007_TABLESTYLE
 90
      512
 91
        0
  1

 92
      512
 93
        0
  2

 94
      512
 95
        0
  3

  0
XRECORD
  5
6C9C
102
{ACAD_REACTORS
330
6C9B
102
}
330
6C9B
100
AcDbXrecord
280
     1
102
RTVSPost2010Prop28
280
     1
102
RTVSPost2010PropOp28
 70
     1
102
RTVSPost2010Prop29
280
     1
102
RTVSPost2010PropOp29
 70
     1
102
RTVSPost2010Prop30
280
     0
102
RTVSPost2010PropOp30
 70
     1
102
RTVSPost2010Prop31
280
     0
102
RTVSPost2010PropOp31
 70
     1
102
RTVSPost2010Prop32
280
     0
102
RTVSPost2010PropOp32
 70
     1
102
RTVSPost2010Prop33
280
     0
102
RTVSPost2010PropOp33
 70
     1
102
RTVSPost2010Prop34
280
     0
102
RTVSPost2010PropOp34
 70
     1
102
RTVSPost2010Prop35
280
     0
102
RTVSPost2010PropOp35
 70
     1
102
RTVSPost2010Prop36
280
     0
102
RTVSPost2010PropOp36
 70
     1
102
RTVSPost2010Prop37
 90
       50
102
RTVSPost2010PropOp37
 70
     1
102
RTVSPost2010Prop38
140
0.0
102
RTVSPost2010PropOp38
 70
     1
102
RTVSPost2010Prop39
140
1.0
102
RTVSPost2010PropOp39
 70
     1
102
RTVSPost2010Prop40
 90
        0
102
RTVSPost2010PropOp40
 70
     1
102
RTVSPost2010Prop41ColorIndex
 90
       18
102
RTVSPost2010Prop41ColorRGB
 90
        0
102
RTVSPost2010PropOp41
 70
     1
102
RTVSPost2010Prop42
 90
       50
102
RTVSPost2010PropOp42
 70
     1
102
RTVSPost2010Prop43
 90
        3
102
RTVSPost2010PropOp43
 70
     1
102
RTVSPost2010Prop44ColorIndex
 90
        5
102
RTVSPost2010Prop44ColorRGB
 90
      255
102
RTVSPost2010PropOp44
 70
     1
102
RTVSPost2010Prop45
280
     0
102
RTVSPost2010PropOp45
 70
     1
102
RTVSPost2010Prop46
 90
       50
102
RTVSPost2010PropOp46
 70
     1
102
RTVSPost2010Prop47
 90
       50
102
RTVSPost2010PropOp47
 70
     1
102
RTVSPost2010Prop48
 90
       50
102
RTVSPost2010PropOp48
 70
     1
102
RTVSPost2010Prop49
280
     0
102
RTVSPost2010PropOp49
 70
     1
102
RTVSPost2010Prop50
 90
       50
102
RTVSPost2010PropOp50
 70
     1
102
RTVSPost2010Prop51ColorIndex
 90
      256
102
RTVSPost2010Prop51ColorRGB
 90
-16777216
102
RTVSPost2010PropOp51
 70
     0
102
RTVSPost2010Prop52
140
1.0
102
RTVSPost2010PropOp52
 70
     0
102
RTVSPost2010Prop53
 90
        2
102
RTVSPost2010PropOp53
 70
     1
102
RTVSPost2010Prop54
  1
strokes_ogs.tif
102
RTVSPost2010PropOp54
 70
     1
102
RTVSPost2010Prop55
280
     0
102
RTVSPost2010PropOp55
 70
     1
102
RTVSPost2010Prop56
140
1.0
102
RTVSPost2010PropOp56
 70
     1
102
RTVSPost2010Prop57
140
1.0
102
RTVSPost2010PropOp57
 70
     1
102
RTVSPropertyOp0
 70
     1
102
RTVSPropertyOp1
 70
     1
102
RTVSPropertyOp2
 70
     1
102
RTVSPropertyOp3
 70
     1
102
RTVSPropertyOp4
 70
     1
102
RTVSPropertyOp5
 70
     1
102
RTVSPropertyOp6
 70
     1
102
RTVSPropertyOp7
 70
     1
102
RTVSPropertyOp8
 70
     1
102
RTVSPropertyOp9
 70
     1
102
RTVSPropertyOp10
 70
     1
102
RTVSPropertyOp11
 70
     1
102
RTVSPropertyOp12
 70
     1
102
RTVSPropertyOp13
 70
     1
102
RTVSPropertyOp14
 70
     1
102
RTVSPropertyOp15
 70
     1
102
RTVSPropertyOp16
 70
     1
102
RTVSPropertyOp17
 70
     1
102
RTVSPropertyOp18
 70
     1
102
RTVSPropertyOp19
 70
     1
102
RTVSPropertyOp20
 70
     1
102
RTVSPropertyOp21
 70
     1
102
RTVSPropertyOp22
 70
     1
102
RTVSPropertyOp23
 70
     1
102
RTVSPropertyOp24
 70
     1
102
RTVSPropertyOp25
 70
     1
102
RTVSPropertyOp26
 70
     1
102
RTVSPropertyOp27
 70
     1
102
RTVSPropertyOp28
 70
     1
102
RTVSPropertyOp29
 70
     1
102
RTVSPropertyOp30
 70
     1
102
RTVSPropertyOp31
 70
     1
102
RTVSPropertyOp32
 70
     1
102
RTVSPropertyOp33
 70
     1
102
RTVSPropertyOp34
 70
     1
102
RTVSPropertyOp35
 70
     1
102
RTVSPropertyOp36
 70
     1
102
RTVSPropertyOp37
 70
     1
102
RTVSPropertyOp38
 70
     1
102
RTVSPropertyOp39
 70
     1
102
RTVSPropertyOp40
 70
     1
102
RTVSPropertyOp41
 70
     1
102
RTVSPropertyOp42
 70
     1
102
RTVSPropertyOp43
 70
     1
102
RTVSPropertyOp44
 70
     1
102
RTVSPropertyOp45
 70
     1
102
RTVSPropertyOp46
 70
     1
102
RTVSPropertyOp47
 70
     1
102
RTVSPropertyOp48
 70
     1
102
RTVSPropertyOp49
 70
     1
102
RTVSPropertyOp50
 70
     1
102
RTVSPropertyOp51
 70
     0
102
RTVSPropertyOp52
 70
     0
102
RTVSPropertyOp53
 70
     1
102
RTVSPropertyOp54
 70
     1
102
RTVSPropertyOp55
 70
     1
102
RTVSPropertyOp56
 70
     1
102
RTVSPropertyOp57
 70
     1
102
RTVSPropertyOp58
 70
     1
102
RTVSPropertyOp59
 70
     1
102
RTVSPropertyOp60
 70
     1
102
RTVSPropertyOp61
 70
     1
102
RTVSPropertyOp62
 70
     1
  0
XRECORD
  5
6C9A
102
{ACAD_REACTORS
330
6C99
102
}
330
6C99
100
AcDbXrecord
280
     1
102
RTVSPost2010Prop28
280
     0
102
RTVSPost2010PropOp28
 70
     1
102
RTVSPost2010Prop29
280
     1
102
RTVSPost2010PropOp29
 70
     1
102
RTVSPost2010Prop30
280
     1
102
RTVSPost2010PropOp30
 70
     1
102
RTVSPost2010Prop31
280
     0
102
RTVSPost2010PropOp31
 70
     1
102
RTVSPost2010Prop32
280
     0
102
RTVSPost2010PropOp32
 70
     1
102
RTVSPost2010Prop33
280
     0
102
RTVSPost2010PropOp33
 70
     1
102
RTVSPost2010Prop34
280
     0
102
RTVSPost2010PropOp34
 70
     1
102
RTVSPost2010Prop35
280
     0
102
RTVSPost2010PropOp35
 70
     1
102
RTVSPost2010Prop36
280
     0
102
RTVSPost2010PropOp36
 70
     1
102
RTVSPost2010Prop37
 90
       50
102
RTVSPost2010PropOp37
 70
     1
102
RTVSPost2010Prop38
140
0.0
102
RTVSPost2010PropOp38
 70
     1
102
RTVSPost2010Prop39
140
1.0
102
RTVSPost2010PropOp39
 70
     1
102
RTVSPost2010Prop40
 90
        0
102
RTVSPost2010PropOp40
 70
     1
102
RTVSPost2010Prop41ColorIndex
 90
       18
102
RTVSPost2010Prop41ColorRGB
 90
        0
102
RTVSPost2010PropOp41
 70
     1
102
RTVSPost2010Prop42
 90
       50
102
RTVSPost2010PropOp42
 70
     1
102
RTVSPost2010Prop43
 90
        3
102
RTVSPost2010PropOp43
 70
     1
102
RTVSPost2010Prop44ColorIndex
 90
        5
102
RTVSPost2010Prop44ColorRGB
 90
      255
102
RTVSPost2010PropOp44
 70
     1
102
RTVSPost2010Prop45
280
     0
102
RTVSPost2010PropOp45
 70
     1
102
RTVSPost2010Prop46
 90
       50
102
RTVSPost2010PropOp46
 70
     1
102
RTVSPost2010Prop47
 90
       50
102
RTVSPost2010PropOp47
 70
     1
102
RTVSPost2010Prop48
 90
       50
102
RTVSPost2010PropOp48
 70
     1
102
RTVSPost2010Prop49
280
     0
102
RTVSPost2010PropOp49
 70
     1
102
RTVSPost2010Prop50
 90
       50
102
RTVSPost2010PropOp50
 70
     1
102
RTVSPost2010Prop51ColorIndex
 90
      256
102
RTVSPost2010Prop51ColorRGB
 90
-16777216
102
RTVSPost2010PropOp51
 70
     0
102
RTVSPost2010Prop52
140
1.0
102
RTVSPost2010PropOp52
 70
     0
102
RTVSPost2010Prop53
 90
        2
102
RTVSPost2010PropOp53
 70
     1
102
RTVSPost2010Prop54
  1
strokes_ogs.tif
102
RTVSPost2010PropOp54
 70
     1
102
RTVSPost2010Prop55
280
     0
102
RTVSPost2010PropOp55
 70
     1
102
RTVSPost2010Prop56
140
1.0
102
RTVSPost2010PropOp56
 70
     1
102
RTVSPost2010Prop57
140
1.0
102
RTVSPost2010PropOp57
 70
     1
102
RTVSPropertyOp0
 70
     1
102
RTVSPropertyOp1
 70
     1
102
RTVSPropertyOp2
 70
     1
102
RTVSPropertyOp3
 70
     1
102
RTVSPropertyOp4
 70
     1
102
RTVSPropertyOp5
 70
     1
102
RTVSPropertyOp6
 70
     1
102
RTVSPropertyOp7
 70
     1
102
RTVSPropertyOp8
 70
     1
102
RTVSPropertyOp9
 70
     1
102
RTVSPropertyOp10
 70
     1
102
RTVSPropertyOp11
 70
     1
102
RTVSPropertyOp12
 70
     1
102
RTVSPropertyOp13
 70
     1
102
RTVSPropertyOp14
 70
     1
102
RTVSPropertyOp15
 70
     1
102
RTVSPropertyOp16
 70
     1
102
RTVSPropertyOp17
 70
     1
102
RTVSPropertyOp18
 70
     1
102
RTVSPropertyOp19
 70
     1
102
RTVSPropertyOp20
 70
     1
102
RTVSPropertyOp21
 70
     1
102
RTVSPropertyOp22
 70
     1
102
RTVSPropertyOp23
 70
     1
102
RTVSPropertyOp24
 70
     1
102
RTVSPropertyOp25
 70
     1
102
RTVSPropertyOp26
 70
     1
102
RTVSPropertyOp27
 70
     1
102
RTVSPropertyOp28
 70
     1
102
RTVSPropertyOp29
 70
     1
102
RTVSPropertyOp30
 70
     1
102
RTVSPropertyOp31
 70
     1
102
RTVSPropertyOp32
 70
     1
102
RTVSPropertyOp33
 70
     1
102
RTVSPropertyOp34
 70
     1
102
RTVSPropertyOp35
 70
     1
102
RTVSPropertyOp36
 70
     1
102
RTVSPropertyOp37
 70
     1
102
RTVSPropertyOp38
 70
     1
102
RTVSPropertyOp39
 70
     1
102
RTVSPropertyOp40
 70
     1
102
RTVSPropertyOp41
 70
     1
102
RTVSPropertyOp42
 70
     1
102
RTVSPropertyOp43
 70
     1
102
RTVSPropertyOp44
 70
     1
102
RTVSPropertyOp45
 70
     1
102
RTVSPropertyOp46
 70
     1
102
RTVSPropertyOp47
 70
     1
102
RTVSPropertyOp48
 70
     1
102
RTVSPropertyOp49
 70
     1
102
RTVSPropertyOp50
 70
     1
102
RTVSPropertyOp51
 70
     0
102
RTVSPropertyOp52
 70
     0
102
RTVSPropertyOp53
 70
     1
102
RTVSPropertyOp54
 70
     1
102
RTVSPropertyOp55
 70
     1
102
RTVSPropertyOp56
 70
     1
102
RTVSPropertyOp57
 70
     1
102
RTVSPropertyOp58
 70
     1
102
RTVSPropertyOp59
 70
     1
102
RTVSPropertyOp60
 70
     1
102
RTVSPropertyOp61
 70
     1
102
RTVSPropertyOp62
 70
     1
  0
XRECORD
  5
6CA8
102
{ACAD_REACTORS
330
6CA7
102
}
330
6CA7
100
AcDbXrecord
280
     1
102
RTVSPost2010Prop28
280
     0
102
RTVSPost2010PropOp28
 70
     1
102
RTVSPost2010Prop29
280
     1
102
RTVSPost2010PropOp29
 70
     1
102
RTVSPost2010Prop30
280
     1
102
RTVSPost2010PropOp30
 70
     1
102
RTVSPost2010Prop31
280
     0
102
RTVSPost2010PropOp31
 70
     1
102
RTVSPost2010Prop32
280
     0
102
RTVSPost2010PropOp32
 70
     1
102
RTVSPost2010Prop33
280
     0
102
RTVSPost2010PropOp33
 70
     1
102
RTVSPost2010Prop34
280
     0
102
RTVSPost2010PropOp34
 70
     1
102
RTVSPost2010Prop35
280
     0
102
RTVSPost2010PropOp35
 70
     1
102
RTVSPost2010Prop36
280
     0
102
RTVSPost2010PropOp36
 70
     1
102
RTVSPost2010Prop37
 90
       50
102
RTVSPost2010PropOp37
 70
     1
102
RTVSPost2010Prop38
140
0.0
102
RTVSPost2010PropOp38
 70
     1
102
RTVSPost2010Prop39
140
1.0
102
RTVSPost2010PropOp39
 70
     1
102
RTVSPost2010Prop40
 90
        0
102
RTVSPost2010PropOp40
 70
     1
102
RTVSPost2010Prop41ColorIndex
 90
       18
102
RTVSPost2010Prop41ColorRGB
 90
        0
102
RTVSPost2010PropOp41
 70
     1
102
RTVSPost2010Prop42
 90
       50
102
RTVSPost2010PropOp42
 70
     1
102
RTVSPost2010Prop43
 90
        3
102
RTVSPost2010PropOp43
 70
     1
102
RTVSPost2010Prop44ColorIndex
 90
        5
102
RTVSPost2010Prop44ColorRGB
 90
      255
102
RTVSPost2010PropOp44
 70
     1
102
RTVSPost2010Prop45
280
     0
102
RTVSPost2010PropOp45
 70
     1
102
RTVSPost2010Prop46
 90
       50
102
RTVSPost2010PropOp46
 70
     1
102
RTVSPost2010Prop47
 90
       50
102
RTVSPost2010PropOp47
 70
     1
102
RTVSPost2010Prop48
 90
       50
102
RTVSPost2010PropOp48
 70
     1
102
RTVSPost2010Prop49
280
     0
102
RTVSPost2010PropOp49
 70
     1
102
RTVSPost2010Prop50
 90
       50
102
RTVSPost2010PropOp50
 70
     1
102
RTVSPost2010Prop51ColorIndex
 90
      256
102
RTVSPost2010Prop51ColorRGB
 90
-16777216
102
RTVSPost2010PropOp51
 70
     0
102
RTVSPost2010Prop52
140
1.0
102
RTVSPost2010PropOp52
 70
     0
102
RTVSPost2010Prop53
 90
        2
102
RTVSPost2010PropOp53
 70
     1
102
RTVSPost2010Prop54
  1
strokes_ogs.tif
102
RTVSPost2010PropOp54
 70
     1
102
RTVSPost2010Prop55
280
     0
102
RTVSPost2010PropOp55
 70
     1
102
RTVSPost2010Prop56
140
1.0
102
RTVSPost2010PropOp56
 70
     1
102
RTVSPost2010Prop57
140
1.0
102
RTVSPost2010PropOp57
 70
     1
102
RTVSPropertyOp0
 70
     1
102
RTVSPropertyOp1
 70
     1
102
RTVSPropertyOp2
 70
     1
102
RTVSPropertyOp3
 70
     1
102
RTVSPropertyOp4
 70
     1
102
RTVSPropertyOp5
 70
     1
102
RTVSPropertyOp6
 70
     1
102
RTVSPropertyOp7
 70
     1
102
RTVSPropertyOp8
 70
     1
102
RTVSPropertyOp9
 70
     1
102
RTVSPropertyOp10
 70
     1
102
RTVSPropertyOp11
 70
     1
102
RTVSPropertyOp12
 70
     1
102
RTVSPropertyOp13
 70
     1
102
RTVSPropertyOp14
 70
     1
102
RTVSPropertyOp15
 70
     1
102
RTVSPropertyOp16
 70
     1
102
RTVSPropertyOp17
 70
     1
102
RTVSPropertyOp18
 70
     1
102
RTVSPropertyOp19
 70
     1
102
RTVSPropertyOp20
 70
     1
102
RTVSPropertyOp21
 70
     1
102
RTVSPropertyOp22
 70
     1
102
RTVSPropertyOp23
 70
     1
102
RTVSPropertyOp24
 70
     1
102
RTVSPropertyOp25
 70
     1
102
RTVSPropertyOp26
 70
     1
102
RTVSPropertyOp27
 70
     1
102
RTVSPropertyOp28
 70
     1
102
RTVSPropertyOp29
 70
     1
102
RTVSPropertyOp30
 70
     1
102
RTVSPropertyOp31
 70
     1
102
RTVSPropertyOp32
 70
     1
102
RTVSPropertyOp33
 70
     1
102
RTVSPropertyOp34
 70
     1
102
RTVSPropertyOp35
 70
     1
102
RTVSPropertyOp36
 70
     1
102
RTVSPropertyOp37
 70
     1
102
RTVSPropertyOp38
 70
     1
102
RTVSPropertyOp39
 70
     1
102
RTVSPropertyOp40
 70
     1
102
RTVSPropertyOp41
 70
     1
102
RTVSPropertyOp42
 70
     1
102
RTVSPropertyOp43
 70
     1
102
RTVSPropertyOp44
 70
     1
102
RTVSPropertyOp45
 70
     1
102
RTVSPropertyOp46
 70
     1
102
RTVSPropertyOp47
 70
     1
102
RTVSPropertyOp48
 70
     1
102
RTVSPropertyOp49
 70
     1
102
RTVSPropertyOp50
 70
     1
102
RTVSPropertyOp51
 70
     0
102
RTVSPropertyOp52
 70
     0
102
RTVSPropertyOp53
 70
     1
102
RTVSPropertyOp54
 70
     1
102
RTVSPropertyOp55
 70
     1
102
RTVSPropertyOp56
 70
     1
102
RTVSPropertyOp57
 70
     1
102
RTVSPropertyOp58
 70
     1
102
RTVSPropertyOp59
 70
     1
102
RTVSPropertyOp60
 70
     1
102
RTVSPropertyOp61
 70
     1
102
RTVSPropertyOp62
 70
     1
  0
XRECORD
  5
6CB0
102
{ACAD_REACTORS
330
6CAF
102
}
330
6CAF
100
AcDbXrecord
280
     1
102
RTVSPost2010Prop28
280
     0
102
RTVSPost2010PropOp28
 70
     1
102
RTVSPost2010Prop29
280
     1
102
RTVSPost2010PropOp29
 70
     1
102
RTVSPost2010Prop30
280
     1
102
RTVSPost2010PropOp30
 70
     1
102
RTVSPost2010Prop31
280
     0
102
RTVSPost2010PropOp31
 70
     1
102
RTVSPost2010Prop32
280
     0
102
RTVSPost2010PropOp32
 70
     1
102
RTVSPost2010Prop33
280
     0
102
RTVSPost2010PropOp33
 70
     1
102
RTVSPost2010Prop34
280
     0
102
RTVSPost2010PropOp34
 70
     1
102
RTVSPost2010Prop35
280
     0
102
RTVSPost2010PropOp35
 70
     1
102
RTVSPost2010Prop36
280
     0
102
RTVSPost2010PropOp36
 70
     1
102
RTVSPost2010Prop37
 90
       50
102
RTVSPost2010PropOp37
 70
     1
102
RTVSPost2010Prop38
140
0.0
102
RTVSPost2010PropOp38
 70
     1
102
RTVSPost2010Prop39
140
1.0
102
RTVSPost2010PropOp39
 70
     1
102
RTVSPost2010Prop40
 90
        0
102
RTVSPost2010PropOp40
 70
     1
102
RTVSPost2010Prop41ColorIndex
 90
       18
102
RTVSPost2010Prop41ColorRGB
 90
        0
102
RTVSPost2010PropOp41
 70
     1
102
RTVSPost2010Prop42
 90
       50
102
RTVSPost2010PropOp42
 70
     1
102
RTVSPost2010Prop43
 90
        3
102
RTVSPost2010PropOp43
 70
     1
102
RTVSPost2010Prop44ColorIndex
 90
        5
102
RTVSPost2010Prop44ColorRGB
 90
      255
102
RTVSPost2010PropOp44
 70
     1
102
RTVSPost2010Prop45
280
     0
102
RTVSPost2010PropOp45
 70
     1
102
RTVSPost2010Prop46
 90
       50
102
RTVSPost2010PropOp46
 70
     1
102
RTVSPost2010Prop47
 90
       50
102
RTVSPost2010PropOp47
 70
     1
102
RTVSPost2010Prop48
 90
       50
102
RTVSPost2010PropOp48
 70
     1
102
RTVSPost2010Prop49
280
     0
102
RTVSPost2010PropOp49
 70
     1
102
RTVSPost2010Prop50
 90
       50
102
RTVSPost2010PropOp50
 70
     1
102
RTVSPost2010Prop51ColorIndex
 90
      256
102
RTVSPost2010Prop51ColorRGB
 90
-16777216
102
RTVSPost2010PropOp51
 70
     0
102
RTVSPost2010Prop52
140
1.0
102
RTVSPost2010PropOp52
 70
     0
102
RTVSPost2010Prop53
 90
        2
102
RTVSPost2010PropOp53
 70
     1
102
RTVSPost2010Prop54
  1
strokes_ogs.tif
102
RTVSPost2010PropOp54
 70
     1
102
RTVSPost2010Prop55
280
     0
102
RTVSPost2010PropOp55
 70
     1
102
RTVSPost2010Prop56
140
1.0
102
RTVSPost2010PropOp56
 70
     1
102
RTVSPost2010Prop57
140
1.0
102
RTVSPost2010PropOp57
 70
     1
102
RTVSPropertyOp0
 70
     1
102
RTVSPropertyOp1
 70
     1
102
RTVSPropertyOp2
 70
     1
102
RTVSPropertyOp3
 70
     1
102
RTVSPropertyOp4
 70
     1
102
RTVSPropertyOp5
 70
     1
102
RTVSPropertyOp6
 70
     1
102
RTVSPropertyOp7
 70
     1
102
RTVSPropertyOp8
 70
     1
102
RTVSPropertyOp9
 70
     1
102
RTVSPropertyOp10
 70
     1
102
RTVSPropertyOp11
 70
     1
102
RTVSPropertyOp12
 70
     1
102
RTVSPropertyOp13
 70
     1
102
RTVSPropertyOp14
 70
     1
102
RTVSPropertyOp15
 70
     1
102
RTVSPropertyOp16
 70
     1
102
RTVSPropertyOp17
 70
     1
102
RTVSPropertyOp18
 70
     1
102
RTVSPropertyOp19
 70
     1
102
RTVSPropertyOp20
 70
     1
102
RTVSPropertyOp21
 70
     1
102
RTVSPropertyOp22
 70
     1
102
RTVSPropertyOp23
 70
     1
102
RTVSPropertyOp24
 70
     1
102
RTVSPropertyOp25
 70
     1
102
RTVSPropertyOp26
 70
     1
102
RTVSPropertyOp27
 70
     1
102
RTVSPropertyOp28
 70
     1
102
RTVSPropertyOp29
 70
     1
102
RTVSPropertyOp30
 70
     1
102
RTVSPropertyOp31
 70
     1
102
RTVSPropertyOp32
 70
     1
102
RTVSPropertyOp33
 70
     1
102
RTVSPropertyOp34
 70
     1
102
RTVSPropertyOp35
 70
     1
102
RTVSPropertyOp36
 70
     1
102
RTVSPropertyOp37
 70
     1
102
RTVSPropertyOp38
 70
     1
102
RTVSPropertyOp39
 70
     1
102
RTVSPropertyOp40
 70
     1
102
RTVSPropertyOp41
 70
     1
102
RTVSPropertyOp42
 70
     1
102
RTVSPropertyOp43
 70
     1
102
RTVSPropertyOp44
 70
     1
102
RTVSPropertyOp45
 70
     1
102
RTVSPropertyOp46
 70
     1
102
RTVSPropertyOp47
 70
     1
102
RTVSPropertyOp48
 70
     1
102
RTVSPropertyOp49
 70
     1
102
RTVSPropertyOp50
 70
     1
102
RTVSPropertyOp51
 70
     0
102
RTVSPropertyOp52
 70
     0
102
RTVSPropertyOp53
 70
     1
102
RTVSPropertyOp54
 70
     1
102
RTVSPropertyOp55
 70
     1
102
RTVSPropertyOp56
 70
     1
102
RTVSPropertyOp57
 70
     1
102
RTVSPropertyOp58
 70
     1
102
RTVSPropertyOp59
 70
     1
102
RTVSPropertyOp60
 70
     1
102
RTVSPropertyOp61
 70
     1
102
RTVSPropertyOp62
 70
     1
  0
XRECORD
  5
6CA2
102
{ACAD_REACTORS
330
6CA1
102
}
330
6CA1
100
AcDbXrecord
280
     1
102
RTVSPost2010Prop28
280
     0
102
RTVSPost2010PropOp28
 70
     1
102
RTVSPost2010Prop29
280
     1
102
RTVSPost2010PropOp29
 70
     1
102
RTVSPost2010Prop30
280
     1
102
RTVSPost2010PropOp30
 70
     1
102
RTVSPost2010Prop31
280
     0
102
RTVSPost2010PropOp31
 70
     1
102
RTVSPost2010Prop32
280
     0
102
RTVSPost2010PropOp32
 70
     1
102
RTVSPost2010Prop33
280
     0
102
RTVSPost2010PropOp33
 70
     1
102
RTVSPost2010Prop34
280
     0
102
RTVSPost2010PropOp34
 70
     1
102
RTVSPost2010Prop35
280
     0
102
RTVSPost2010PropOp35
 70
     1
102
RTVSPost2010Prop36
280
     0
102
RTVSPost2010PropOp36
 70
     1
102
RTVSPost2010Prop37
 90
       50
102
RTVSPost2010PropOp37
 70
     1
102
RTVSPost2010Prop38
140
0.0
102
RTVSPost2010PropOp38
 70
     1
102
RTVSPost2010Prop39
140
1.0
102
RTVSPost2010PropOp39
 70
     1
102
RTVSPost2010Prop40
 90
        0
102
RTVSPost2010PropOp40
 70
     1
102
RTVSPost2010Prop41ColorIndex
 90
       18
102
RTVSPost2010Prop41ColorRGB
 90
        0
102
RTVSPost2010PropOp41
 70
     1
102
RTVSPost2010Prop42
 90
       50
102
RTVSPost2010PropOp42
 70
     1
102
RTVSPost2010Prop43
 90
        3
102
RTVSPost2010PropOp43
 70
     1
102
RTVSPost2010Prop44ColorIndex
 90
        5
102
RTVSPost2010Prop44ColorRGB
 90
      255
102
RTVSPost2010PropOp44
 70
     1
102
RTVSPost2010Prop45
280
     0
102
RTVSPost2010PropOp45
 70
     1
102
RTVSPost2010Prop46
 90
       50
102
RTVSPost2010PropOp46
 70
     1
102
RTVSPost2010Prop47
 90
       50
102
RTVSPost2010PropOp47
 70
     1
102
RTVSPost2010Prop48
 90
       50
102
RTVSPost2010PropOp48
 70
     1
102
RTVSPost2010Prop49
280
     0
102
RTVSPost2010PropOp49
 70
     1
102
RTVSPost2010Prop50
 90
       50
102
RTVSPost2010PropOp50
 70
     1
102
RTVSPost2010Prop51ColorIndex
 90
      256
102
RTVSPost2010Prop51ColorRGB
 90
-16777216
102
RTVSPost2010PropOp51
 70
     0
102
RTVSPost2010Prop52
140
1.0
102
RTVSPost2010PropOp52
 70
     0
102
RTVSPost2010Prop53
 90
        2
102
RTVSPost2010PropOp53
 70
     1
102
RTVSPost2010Prop54
  1
strokes_ogs.tif
102
RTVSPost2010PropOp54
 70
     1
102
RTVSPost2010Prop55
280
     0
102
RTVSPost2010PropOp55
 70
     1
102
RTVSPost2010Prop56
140
1.0
102
RTVSPost2010PropOp56
 70
     1
102
RTVSPost2010Prop57
140
1.0
102
RTVSPost2010PropOp57
 70
     1
102
RTVSPropertyOp0
 70
     1
102
RTVSPropertyOp1
 70
     1
102
RTVSPropertyOp2
 70
     1
102
RTVSPropertyOp3
 70
     1
102
RTVSPropertyOp4
 70
     1
102
RTVSPropertyOp5
 70
     1
102
RTVSPropertyOp6
 70
     1
102
RTVSPropertyOp7
 70
     1
102
RTVSPropertyOp8
 70
     1
102
RTVSPropertyOp9
 70
     1
102
RTVSPropertyOp10
 70
     1
102
RTVSPropertyOp11
 70
     1
102
RTVSPropertyOp12
 70
     1
102
RTVSPropertyOp13
 70
     1
102
RTVSPropertyOp14
 70
     1
102
RTVSPropertyOp15
 70
     1
102
RTVSPropertyOp16
 70
     1
102
RTVSPropertyOp17
 70
     1
102
RTVSPropertyOp18
 70
     1
102
RTVSPropertyOp19
 70
     1
102
RTVSPropertyOp20
 70
     1
102
RTVSPropertyOp21
 70
     1
102
RTVSPropertyOp22
 70
     1
102
RTVSPropertyOp23
 70
     1
102
RTVSPropertyOp24
 70
     1
102
RTVSPropertyOp25
 70
     1
102
RTVSPropertyOp26
 70
     1
102
RTVSPropertyOp27
 70
     1
102
RTVSPropertyOp28
 70
     1
102
RTVSPropertyOp29
 70
     1
102
RTVSPropertyOp30
 70
     1
102
RTVSPropertyOp31
 70
     1
102
RTVSPropertyOp32
 70
     1
102
RTVSPropertyOp33
 70
     1
102
RTVSPropertyOp34
 70
     1
102
RTVSPropertyOp35
 70
     1
102
RTVSPropertyOp36
 70
     1
102
RTVSPropertyOp37
 70
     1
102
RTVSPropertyOp38
 70
     1
102
RTVSPropertyOp39
 70
     1
102
RTVSPropertyOp40
 70
     1
102
RTVSPropertyOp41
 70
     1
102
RTVSPropertyOp42
 70
     1
102
RTVSPropertyOp43
 70
     1
102
RTVSPropertyOp44
 70
     1
102
RTVSPropertyOp45
 70
     1
102
RTVSPropertyOp46
 70
     1
102
RTVSPropertyOp47
 70
     1
102
RTVSPropertyOp48
 70
     1
102
RTVSPropertyOp49
 70
     1
102
RTVSPropertyOp50
 70
     1
102
RTVSPropertyOp51
 70
     0
102
RTVSPropertyOp52
 70
     0
102
RTVSPropertyOp53
 70
     1
102
RTVSPropertyOp54
 70
     1
102
RTVSPropertyOp55
 70
     1
102
RTVSPropertyOp56
 70
     1
102
RTVSPropertyOp57
 70
     1
102
RTVSPropertyOp58
 70
     1
102
RTVSPropertyOp59
 70
     1
102
RTVSPropertyOp60
 70
     1
102
RTVSPropertyOp61
 70
     1
102
RTVSPropertyOp62
 70
     1
  0
XRECORD
  5
6CA6
102
{ACAD_REACTORS
330
6CA5
102
}
330
6CA5
100
AcDbXrecord
280
     1
102
RTVSPost2010Prop28
280
     0
102
RTVSPost2010PropOp28
 70
     1
102
RTVSPost2010Prop29
280
     1
102
RTVSPost2010PropOp29
 70
     1
102
RTVSPost2010Prop30
280
     1
102
RTVSPost2010PropOp30
 70
     1
102
RTVSPost2010Prop31
280
     0
102
RTVSPost2010PropOp31
 70
     1
102
RTVSPost2010Prop32
280
     0
102
RTVSPost2010PropOp32
 70
     1
102
RTVSPost2010Prop33
280
     0
102
RTVSPost2010PropOp33
 70
     1
102
RTVSPost2010Prop34
280
     0
102
RTVSPost2010PropOp34
 70
     1
102
RTVSPost2010Prop35
280
     0
102
RTVSPost2010PropOp35
 70
     1
102
RTVSPost2010Prop36
280
     0
102
RTVSPost2010PropOp36
 70
     1
102
RTVSPost2010Prop37
 90
       50
102
RTVSPost2010PropOp37
 70
     1
102
RTVSPost2010Prop38
140
0.0
102
RTVSPost2010PropOp38
 70
     1
102
RTVSPost2010Prop39
140
1.0
102
RTVSPost2010PropOp39
 70
     1
102
RTVSPost2010Prop40
 90
        0
102
RTVSPost2010PropOp40
 70
     1
102
RTVSPost2010Prop41ColorIndex
 90
       18
102
RTVSPost2010Prop41ColorRGB
 90
        0
102
RTVSPost2010PropOp41
 70
     1
102
RTVSPost2010Prop42
 90
       50
102
RTVSPost2010PropOp42
 70
     1
102
RTVSPost2010Prop43
 90
        3
102
RTVSPost2010PropOp43
 70
     1
102
RTVSPost2010Prop44ColorIndex
 90
        5
102
RTVSPost2010Prop44ColorRGB
 90
      255
102
RTVSPost2010PropOp44
 70
     1
102
RTVSPost2010Prop45
280
     0
102
RTVSPost2010PropOp45
 70
     1
102
RTVSPost2010Prop46
 90
       50
102
RTVSPost2010PropOp46
 70
     1
102
RTVSPost2010Prop47
 90
       50
102
RTVSPost2010PropOp47
 70
     1
102
RTVSPost2010Prop48
 90
       50
102
RTVSPost2010PropOp48
 70
     1
102
RTVSPost2010Prop49
280
     0
102
RTVSPost2010PropOp49
 70
     1
102
RTVSPost2010Prop50
 90
       50
102
RTVSPost2010PropOp50
 70
     1
102
RTVSPost2010Prop51ColorIndex
 90
      256
102
RTVSPost2010Prop51ColorRGB
 90
-16777216
102
RTVSPost2010PropOp51
 70
     0
102
RTVSPost2010Prop52
140
1.0
102
RTVSPost2010PropOp52
 70
     0
102
RTVSPost2010Prop53
 90
        2
102
RTVSPost2010PropOp53
 70
     1
102
RTVSPost2010Prop54
  1
strokes_ogs.tif
102
RTVSPost2010PropOp54
 70
     1
102
RTVSPost2010Prop55
280
     0
102
RTVSPost2010PropOp55
 70
     1
102
RTVSPost2010Prop56
140
1.0
102
RTVSPost2010PropOp56
 70
     1
102
RTVSPost2010Prop57
140
1.0
102
RTVSPost2010PropOp57
 70
     1
102
RTVSPropertyOp0
 70
     1
102
RTVSPropertyOp1
 70
     1
102
RTVSPropertyOp2
 70
     1
102
RTVSPropertyOp3
 70
     1
102
RTVSPropertyOp4
 70
     1
102
RTVSPropertyOp5
 70
     1
102
RTVSPropertyOp6
 70
     1
102
RTVSPropertyOp7
 70
     1
102
RTVSPropertyOp8
 70
     1
102
RTVSPropertyOp9
 70
     1
102
RTVSPropertyOp10
 70
     1
102
RTVSPropertyOp11
 70
     1
102
RTVSPropertyOp12
 70
     1
102
RTVSPropertyOp13
 70
     1
102
RTVSPropertyOp14
 70
     1
102
RTVSPropertyOp15
 70
     1
102
RTVSPropertyOp16
 70
     1
102
RTVSPropertyOp17
 70
     1
102
RTVSPropertyOp18
 70
     1
102
RTVSPropertyOp19
 70
     1
102
RTVSPropertyOp20
 70
     1
102
RTVSPropertyOp21
 70
     1
102
RTVSPropertyOp22
 70
     1
102
RTVSPropertyOp23
 70
     1
102
RTVSPropertyOp24
 70
     1
102
RTVSPropertyOp25
 70
     1
102
RTVSPropertyOp26
 70
     1
102
RTVSPropertyOp27
 70
     1
102
RTVSPropertyOp28
 70
     1
102
RTVSPropertyOp29
 70
     1
102
RTVSPropertyOp30
 70
     1
102
RTVSPropertyOp31
 70
     1
102
RTVSPropertyOp32
 70
     1
102
RTVSPropertyOp33
 70
     1
102
RTVSPropertyOp34
 70
     1
102
RTVSPropertyOp35
 70
     1
102
RTVSPropertyOp36
 70
     1
102
RTVSPropertyOp37
 70
     1
102
RTVSPropertyOp38
 70
     1
102
RTVSPropertyOp39
 70
     1
102
RTVSPropertyOp40
 70
     1
102
RTVSPropertyOp41
 70
     1
102
RTVSPropertyOp42
 70
     1
102
RTVSPropertyOp43
 70
     1
102
RTVSPropertyOp44
 70
     1
102
RTVSPropertyOp45
 70
     1
102
RTVSPropertyOp46
 70
     1
102
RTVSPropertyOp47
 70
     1
102
RTVSPropertyOp48
 70
     1
102
RTVSPropertyOp49
 70
     1
102
RTVSPropertyOp50
 70
     1
102
RTVSPropertyOp51
 70
     0
102
RTVSPropertyOp52
 70
     0
102
RTVSPropertyOp53
 70
     1
102
RTVSPropertyOp54
 70
     1
102
RTVSPropertyOp55
 70
     1
102
RTVSPropertyOp56
 70
     1
102
RTVSPropertyOp57
 70
     1
102
RTVSPropertyOp58
 70
     1
102
RTVSPropertyOp59
 70
     1
102
RTVSPropertyOp60
 70
     1
102
RTVSPropertyOp61
 70
     1
102
RTVSPropertyOp62
 70
     1
  0
XRECORD
  5
6CC0
102
{ACAD_REACTORS
330
6CBF
102
}
330
6CBF
100
AcDbXrecord
280
     1
102
RTVSPost2010Prop28
280
     0
102
RTVSPost2010PropOp28
 70
     1
102
RTVSPost2010Prop29
280
     1
102
RTVSPost2010PropOp29
 70
     1
102
RTVSPost2010Prop30
280
     1
102
RTVSPost2010PropOp30
 70
     1
102
RTVSPost2010Prop31
280
     0
102
RTVSPost2010PropOp31
 70
     1
102
RTVSPost2010Prop32
280
     0
102
RTVSPost2010PropOp32
 70
     1
102
RTVSPost2010Prop33
280
     0
102
RTVSPost2010PropOp33
 70
     1
102
RTVSPost2010Prop34
280
     0
102
RTVSPost2010PropOp34
 70
     1
102
RTVSPost2010Prop35
280
     0
102
RTVSPost2010PropOp35
 70
     1
102
RTVSPost2010Prop36
280
     0
102
RTVSPost2010PropOp36
 70
     1
102
RTVSPost2010Prop37
 90
       50
102
RTVSPost2010PropOp37
 70
     0
102
RTVSPost2010Prop38
140
0.0
102
RTVSPost2010PropOp38
 70
     0
102
RTVSPost2010Prop39
140
1.0
102
RTVSPost2010PropOp39
 70
     0
102
RTVSPost2010Prop40
 90
        0
102
RTVSPost2010PropOp40
 70
     0
102
RTVSPost2010Prop41ColorIndex
 90
       18
102
RTVSPost2010Prop41ColorRGB
 90
        0
102
RTVSPost2010PropOp41
 70
     0
102
RTVSPost2010Prop42
 90
       50
102
RTVSPost2010PropOp42
 70
     0
102
RTVSPost2010Prop43
 90
        3
102
RTVSPost2010PropOp43
 70
     0
102
RTVSPost2010Prop44ColorIndex
 90
        5
102
RTVSPost2010Prop44ColorRGB
 90
      255
102
RTVSPost2010PropOp44
 70
     0
102
RTVSPost2010Prop45
280
     0
102
RTVSPost2010PropOp45
 70
     1
102
RTVSPost2010Prop46
 90
       50
102
RTVSPost2010PropOp46
 70
     0
102
RTVSPost2010Prop47
 90
       50
102
RTVSPost2010PropOp47
 70
     0
102
RTVSPost2010Prop48
 90
       50
102
RTVSPost2010PropOp48
 70
     0
102
RTVSPost2010Prop49
280
     0
102
RTVSPost2010PropOp49
 70
     1
102
RTVSPost2010Prop50
 90
       50
102
RTVSPost2010PropOp50
 70
     0
102
RTVSPost2010Prop51ColorIndex
 90
      256
102
RTVSPost2010Prop51ColorRGB
 90
-16777216
102
RTVSPost2010PropOp51
 70
     0
102
RTVSPost2010Prop52
140
1.0
102
RTVSPost2010PropOp52
 70
     0
102
RTVSPost2010Prop53
 90
        2
102
RTVSPost2010PropOp53
 70
     0
102
RTVSPost2010Prop54
  1
strokes_ogs.tif
102
RTVSPost2010PropOp54
 70
     0
102
RTVSPost2010Prop55
280
     0
102
RTVSPost2010PropOp55
 70
     1
102
RTVSPost2010Prop56
140
1.0
102
RTVSPost2010PropOp56
 70
     0
102
RTVSPost2010Prop57
140
1.0
102
RTVSPost2010PropOp57
 70
     0
102
RTVSPropertyOp0
 70
     0
102
RTVSPropertyOp1
 70
     0
102
RTVSPropertyOp2
 70
     0
102
RTVSPropertyOp3
 70
     0
102
RTVSPropertyOp4
 70
     0
102
RTVSPropertyOp5
 70
     0
102
RTVSPropertyOp6
 70
     0
102
RTVSPropertyOp7
 70
     0
102
RTVSPropertyOp8
 70
     0
102
RTVSPropertyOp9
 70
     0
102
RTVSPropertyOp10
 70
     0
102
RTVSPropertyOp11
 70
     0
102
RTVSPropertyOp12
 70
     0
102
RTVSPropertyOp13
 70
     0
102
RTVSPropertyOp14
 70
     2
102
RTVSPropertyOp15
 70
     0
102
RTVSPropertyOp16
 70
     0
102
RTVSPropertyOp17
 70
     0
102
RTVSPropertyOp18
 70
     0
102
RTVSPropertyOp19
 70
     0
102
RTVSPropertyOp20
 70
     0
102
RTVSPropertyOp21
 70
     0
102
RTVSPropertyOp22
 70
     0
102
RTVSPropertyOp23
 70
     0
102
RTVSPropertyOp24
 70
     0
102
RTVSPropertyOp25
 70
     0
102
RTVSPropertyOp26
 70
     0
102
RTVSPropertyOp27
 70
     0
102
RTVSPropertyOp28
 70
     1
102
RTVSPropertyOp29
 70
     1
102
RTVSPropertyOp30
 70
     1
102
RTVSPropertyOp31
 70
     1
102
RTVSPropertyOp32
 70
     1
102
RTVSPropertyOp33
 70
     1
102
RTVSPropertyOp34
 70
     1
102
RTVSPropertyOp35
 70
     1
102
RTVSPropertyOp36
 70
     1
102
RTVSPropertyOp37
 70
     0
102
RTVSPropertyOp38
 70
     0
102
RTVSPropertyOp39
 70
     0
102
RTVSPropertyOp40
 70
     0
102
RTVSPropertyOp41
 70
     0
102
RTVSPropertyOp42
 70
     0
102
RTVSPropertyOp43
 70
     0
102
RTVSPropertyOp44
 70
     0
102
RTVSPropertyOp45
 70
     1
102
RTVSPropertyOp46
 70
     0
102
RTVSPropertyOp47
 70
     0
102
RTVSPropertyOp48
 70
     0
102
RTVSPropertyOp49
 70
     1
102
RTVSPropertyOp50
 70
     0
102
RTVSPropertyOp51
 70
     0
102
RTVSPropertyOp52
 70
     0
102
RTVSPropertyOp53
 70
     0
102
RTVSPropertyOp54
 70
     0
102
RTVSPropertyOp55
 70
     1
102
RTVSPropertyOp56
 70
     0
102
RTVSPropertyOp57
 70
     0
102
RTVSPropertyOp58
 70
     0
102
RTVSPropertyOp59
 70
     0
102
RTVSPropertyOp60
 70
     0
102
RTVSPropertyOp61
 70
     0
102
RTVSPropertyOp62
 70
     0
  0
XRECORD
  5
6CAE
102
{ACAD_REACTORS
330
6CAD
102
}
330
6CAD
100
AcDbXrecord
280
     1
102
RTVSPost2010Prop28
280
     0
102
RTVSPost2010PropOp28
 70
     1
102
RTVSPost2010Prop29
280
     1
102
RTVSPost2010PropOp29
 70
     1
102
RTVSPost2010Prop30
280
     1
102
RTVSPost2010PropOp30
 70
     1
102
RTVSPost2010Prop31
280
     0
102
RTVSPost2010PropOp31
 70
     1
102
RTVSPost2010Prop32
280
     0
102
RTVSPost2010PropOp32
 70
     1
102
RTVSPost2010Prop33
280
     0
102
RTVSPost2010PropOp33
 70
     1
102
RTVSPost2010Prop34
280
     0
102
RTVSPost2010PropOp34
 70
     1
102
RTVSPost2010Prop35
280
     0
102
RTVSPost2010PropOp35
 70
     1
102
RTVSPost2010Prop36
280
     0
102
RTVSPost2010PropOp36
 70
     1
102
RTVSPost2010Prop37
 90
       50
102
RTVSPost2010PropOp37
 70
     1
102
RTVSPost2010Prop38
140
0.0
102
RTVSPost2010PropOp38
 70
     1
102
RTVSPost2010Prop39
140
1.0
102
RTVSPost2010PropOp39
 70
     1
102
RTVSPost2010Prop40
 90
        0
102
RTVSPost2010PropOp40
 70
     1
102
RTVSPost2010Prop41ColorIndex
 90
       18
102
RTVSPost2010Prop41ColorRGB
 90
        0
102
RTVSPost2010PropOp41
 70
     1
102
RTVSPost2010Prop42
 90
       50
102
RTVSPost2010PropOp42
 70
     1
102
RTVSPost2010Prop43
 90
        3
102
RTVSPost2010PropOp43
 70
     1
102
RTVSPost2010Prop44ColorIndex
 90
        5
102
RTVSPost2010Prop44ColorRGB
 90
      255
102
RTVSPost2010PropOp44
 70
     1
102
RTVSPost2010Prop45
280
     0
102
RTVSPost2010PropOp45
 70
     1
102
RTVSPost2010Prop46
 90
       50
102
RTVSPost2010PropOp46
 70
     1
102
RTVSPost2010Prop47
 90
       50
102
RTVSPost2010PropOp47
 70
     1
102
RTVSPost2010Prop48
 90
       50
102
RTVSPost2010PropOp48
 70
     1
102
RTVSPost2010Prop49
280
     0
102
RTVSPost2010PropOp49
 70
     1
102
RTVSPost2010Prop50
 90
       50
102
RTVSPost2010PropOp50
 70
     1
102
RTVSPost2010Prop51ColorIndex
 90
      256
102
RTVSPost2010Prop51ColorRGB
 90
-16777216
102
RTVSPost2010PropOp51
 70
     0
102
RTVSPost2010Prop52
140
1.0
102
RTVSPost2010PropOp52
 70
     0
102
RTVSPost2010Prop53
 90
        2
102
RTVSPost2010PropOp53
 70
     1
102
RTVSPost2010Prop54
  1
strokes_ogs.tif
102
RTVSPost2010PropOp54
 70
     1
102
RTVSPost2010Prop55
280
     0
102
RTVSPost2010PropOp55
 70
     1
102
RTVSPost2010Prop56
140
1.0
102
RTVSPost2010PropOp56
 70
     1
102
RTVSPost2010Prop57
140
1.0
102
RTVSPost2010PropOp57
 70
     1
102
RTVSPropertyOp0
 70
     1
102
RTVSPropertyOp1
 70
     1
102
RTVSPropertyOp2
 70
     1
102
RTVSPropertyOp3
 70
     1
102
RTVSPropertyOp4
 70
     1
102
RTVSPropertyOp5
 70
     1
102
RTVSPropertyOp6
 70
     1
102
RTVSPropertyOp7
 70
     1
102
RTVSPropertyOp8
 70
     1
102
RTVSPropertyOp9
 70
     1
102
RTVSPropertyOp10
 70
     1
102
RTVSPropertyOp11
 70
     1
102
RTVSPropertyOp12
 70
     1
102
RTVSPropertyOp13
 70
     1
102
RTVSPropertyOp14
 70
     1
102
RTVSPropertyOp15
 70
     1
102
RTVSPropertyOp16
 70
     1
102
RTVSPropertyOp17
 70
     1
102
RTVSPropertyOp18
 70
     1
102
RTVSPropertyOp19
 70
     1
102
RTVSPropertyOp20
 70
     1
102
RTVSPropertyOp21
 70
     1
102
RTVSPropertyOp22
 70
     1
102
RTVSPropertyOp23
 70
     1
102
RTVSPropertyOp24
 70
     1
102
RTVSPropertyOp25
 70
     1
102
RTVSPropertyOp26
 70
     1
102
RTVSPropertyOp27
 70
     1
102
RTVSPropertyOp28
 70
     1
102
RTVSPropertyOp29
 70
     1
102
RTVSPropertyOp30
 70
     1
102
RTVSPropertyOp31
 70
     1
102
RTVSPropertyOp32
 70
     1
102
RTVSPropertyOp33
 70
     1
102
RTVSPropertyOp34
 70
     1
102
RTVSPropertyOp35
 70
     1
102
RTVSPropertyOp36
 70
     1
102
RTVSPropertyOp37
 70
     1
102
RTVSPropertyOp38
 70
     1
102
RTVSPropertyOp39
 70
     1
102
RTVSPropertyOp40
 70
     1
102
RTVSPropertyOp41
 70
     1
102
RTVSPropertyOp42
 70
     1
102
RTVSPropertyOp43
 70
     1
102
RTVSPropertyOp44
 70
     1
102
RTVSPropertyOp45
 70
     1
102
RTVSPropertyOp46
 70
     1
102
RTVSPropertyOp47
 70
     1
102
RTVSPropertyOp48
 70
     1
102
RTVSPropertyOp49
 70
     1
102
RTVSPropertyOp50
 70
     1
102
RTVSPropertyOp51
 70
     0
102
RTVSPropertyOp52
 70
     0
102
RTVSPropertyOp53
 70
     1
102
RTVSPropertyOp54
 70
     1
102
RTVSPropertyOp55
 70
     1
102
RTVSPropertyOp56
 70
     1
102
RTVSPropertyOp57
 70
     1
102
RTVSPropertyOp58
 70
     1
102
RTVSPropertyOp59
 70
     1
102
RTVSPropertyOp60
 70
     1
102
RTVSPropertyOp61
 70
     1
102
RTVSPropertyOp62
 70
     1
  0
XRECORD
  5
6C92
102
{ACAD_REACTORS
330
6C91
102
}
330
6C91
100
AcDbXrecord
280
     1
102
RTVSPost2010Prop28
280
     0
102
RTVSPost2010PropOp28
 70
     1
102
RTVSPost2010Prop29
280
     1
102
RTVSPost2010PropOp29
 70
     1
102
RTVSPost2010Prop30
280
     1
102
RTVSPost2010PropOp30
 70
     1
102
RTVSPost2010Prop31
280
     0
102
RTVSPost2010PropOp31
 70
     1
102
RTVSPost2010Prop32
280
     0
102
RTVSPost2010PropOp32
 70
     1
102
RTVSPost2010Prop33
280
     0
102
RTVSPost2010PropOp33
 70
     1
102
RTVSPost2010Prop34
280
     0
102
RTVSPost2010PropOp34
 70
     1
102
RTVSPost2010Prop35
280
     0
102
RTVSPost2010PropOp35
 70
     1
102
RTVSPost2010Prop36
280
     0
102
RTVSPost2010PropOp36
 70
     1
102
RTVSPost2010Prop37
 90
       50
102
RTVSPost2010PropOp37
 70
     1
102
RTVSPost2010Prop38
140
0.0
102
RTVSPost2010PropOp38
 70
     1
102
RTVSPost2010Prop39
140
1.0
102
RTVSPost2010PropOp39
 70
     1
102
RTVSPost2010Prop40
 90
        0
102
RTVSPost2010PropOp40
 70
     1
102
RTVSPost2010Prop41ColorIndex
 90
       18
102
RTVSPost2010Prop41ColorRGB
 90
        0
102
RTVSPost2010PropOp41
 70
     1
102
RTVSPost2010Prop42
 90
       50
102
RTVSPost2010PropOp42
 70
     1
102
RTVSPost2010Prop43
 90
        3
102
RTVSPost2010PropOp43
 70
     1
102
RTVSPost2010Prop44ColorIndex
 90
        5
102
RTVSPost2010Prop44ColorRGB
 90
      255
102
RTVSPost2010PropOp44
 70
     1
102
RTVSPost2010Prop45
280
     0
102
RTVSPost2010PropOp45
 70
     1
102
RTVSPost2010Prop46
 90
       50
102
RTVSPost2010PropOp46
 70
     1
102
RTVSPost2010Prop47
 90
       50
102
RTVSPost2010PropOp47
 70
     1
102
RTVSPost2010Prop48
 90
       50
102
RTVSPost2010PropOp48
 70
     1
102
RTVSPost2010Prop49
280
     0
102
RTVSPost2010PropOp49
 70
     1
102
RTVSPost2010Prop50
 90
       50
102
RTVSPost2010PropOp50
 70
     1
102
RTVSPost2010Prop51ColorIndex
 90
      256
102
RTVSPost2010Prop51ColorRGB
 90
-16777216
102
RTVSPost2010PropOp51
 70
     0
102
RTVSPost2010Prop52
140
1.0
102
RTVSPost2010PropOp52
 70
     0
102
RTVSPost2010Prop53
 90
        2
102
RTVSPost2010PropOp53
 70
     1
102
RTVSPost2010Prop54
  1
strokes_ogs.tif
102
RTVSPost2010PropOp54
 70
     1
102
RTVSPost2010Prop55
280
     0
102
RTVSPost2010PropOp55
 70
     1
102
RTVSPost2010Prop56
140
1.0
102
RTVSPost2010PropOp56
 70
     1
102
RTVSPost2010Prop57
140
1.0
102
RTVSPost2010PropOp57
 70
     1
102
RTVSPropertyOp0
 70
     1
102
RTVSPropertyOp1
 70
     1
102
RTVSPropertyOp2
 70
     1
102
RTVSPropertyOp3
 70
     1
102
RTVSPropertyOp4
 70
     1
102
RTVSPropertyOp5
 70
     1
102
RTVSPropertyOp6
 70
     1
102
RTVSPropertyOp7
 70
     1
102
RTVSPropertyOp8
 70
     1
102
RTVSPropertyOp9
 70
     1
102
RTVSPropertyOp10
 70
     1
102
RTVSPropertyOp11
 70
     1
102
RTVSPropertyOp12
 70
     1
102
RTVSPropertyOp13
 70
     1
102
RTVSPropertyOp14
 70
     1
102
RTVSPropertyOp15
 70
     1
102
RTVSPropertyOp16
 70
     1
102
RTVSPropertyOp17
 70
     1
102
RTVSPropertyOp18
 70
     1
102
RTVSPropertyOp19
 70
     1
102
RTVSPropertyOp20
 70
     1
102
RTVSPropertyOp21
 70
     1
102
RTVSPropertyOp22
 70
     1
102
RTVSPropertyOp23
 70
     1
102
RTVSPropertyOp24
 70
     1
102
RTVSPropertyOp25
 70
     1
102
RTVSPropertyOp26
 70
     1
102
RTVSPropertyOp27
 70
     1
102
RTVSPropertyOp28
 70
     1
102
RTVSPropertyOp29
 70
     1
102
RTVSPropertyOp30
 70
     1
102
RTVSPropertyOp31
 70
     1
102
RTVSPropertyOp32
 70
     1
102
RTVSPropertyOp33
 70
     1
102
RTVSPropertyOp34
 70
     1
102
RTVSPropertyOp35
 70
     1
102
RTVSPropertyOp36
 70
     1
102
RTVSPropertyOp37
 70
     1
102
RTVSPropertyOp38
 70
     1
102
RTVSPropertyOp39
 70
     1
102
RTVSPropertyOp40
 70
     1
102
RTVSPropertyOp41
 70
     1
102
RTVSPropertyOp42
 70
     1
102
RTVSPropertyOp43
 70
     1
102
RTVSPropertyOp44
 70
     1
102
RTVSPropertyOp45
 70
     1
102
RTVSPropertyOp46
 70
     1
102
RTVSPropertyOp47
 70
     1
102
RTVSPropertyOp48
 70
     1
102
RTVSPropertyOp49
 70
     1
102
RTVSPropertyOp50
 70
     1
102
RTVSPropertyOp51
 70
     0
102
RTVSPropertyOp52
 70
     0
102
RTVSPropertyOp53
 70
     1
102
RTVSPropertyOp54
 70
     1
102
RTVSPropertyOp55
 70
     1
102
RTVSPropertyOp56
 70
     1
102
RTVSPropertyOp57
 70
     1
102
RTVSPropertyOp58
 70
     1
102
RTVSPropertyOp59
 70
     1
102
RTVSPropertyOp60
 70
     1
102
RTVSPropertyOp61
 70
     1
102
RTVSPropertyOp62
 70
     1
  0
XRECORD
  5
6C94
102
{ACAD_REACTORS
330
6C93
102
}
330
6C93
100
AcDbXrecord
280
     1
102
RTVSPost2010Prop28
280
     0
102
RTVSPost2010PropOp28
 70
     1
102
RTVSPost2010Prop29
280
     1
102
RTVSPost2010PropOp29
 70
     1
102
RTVSPost2010Prop30
280
     1
102
RTVSPost2010PropOp30
 70
     1
102
RTVSPost2010Prop31
280
     0
102
RTVSPost2010PropOp31
 70
     1
102
RTVSPost2010Prop32
280
     0
102
RTVSPost2010PropOp32
 70
     1
102
RTVSPost2010Prop33
280
     0
102
RTVSPost2010PropOp33
 70
     1
102
RTVSPost2010Prop34
280
     0
102
RTVSPost2010PropOp34
 70
     1
102
RTVSPost2010Prop35
280
     0
102
RTVSPost2010PropOp35
 70
     1
102
RTVSPost2010Prop36
280
     0
102
RTVSPost2010PropOp36
 70
     1
102
RTVSPost2010Prop37
 90
       50
102
RTVSPost2010PropOp37
 70
     1
102
RTVSPost2010Prop38
140
0.0
102
RTVSPost2010PropOp38
 70
     1
102
RTVSPost2010Prop39
140
1.0
102
RTVSPost2010PropOp39
 70
     1
102
RTVSPost2010Prop40
 90
        0
102
RTVSPost2010PropOp40
 70
     1
102
RTVSPost2010Prop41ColorIndex
 90
       18
102
RTVSPost2010Prop41ColorRGB
 90
        0
102
RTVSPost2010PropOp41
 70
     1
102
RTVSPost2010Prop42
 90
       50
102
RTVSPost2010PropOp42
 70
     1
102
RTVSPost2010Prop43
 90
        3
102
RTVSPost2010PropOp43
 70
     1
102
RTVSPost2010Prop44ColorIndex
 90
        5
102
RTVSPost2010Prop44ColorRGB
 90
      255
102
RTVSPost2010PropOp44
 70
     1
102
RTVSPost2010Prop45
280
     0
102
RTVSPost2010PropOp45
 70
     1
102
RTVSPost2010Prop46
 90
       50
102
RTVSPost2010PropOp46
 70
     1
102
RTVSPost2010Prop47
 90
       50
102
RTVSPost2010PropOp47
 70
     1
102
RTVSPost2010Prop48
 90
       50
102
RTVSPost2010PropOp48
 70
     1
102
RTVSPost2010Prop49
280
     0
102
RTVSPost2010PropOp49
 70
     1
102
RTVSPost2010Prop50
 90
       50
102
RTVSPost2010PropOp50
 70
     1
102
RTVSPost2010Prop51ColorIndex
 90
      256
102
RTVSPost2010Prop51ColorRGB
 90
-16777216
102
RTVSPost2010PropOp51
 70
     0
102
RTVSPost2010Prop52
140
1.0
102
RTVSPost2010PropOp52
 70
     0
102
RTVSPost2010Prop53
 90
        2
102
RTVSPost2010PropOp53
 70
     1
102
RTVSPost2010Prop54
  1
strokes_ogs.tif
102
RTVSPost2010PropOp54
 70
     1
102
RTVSPost2010Prop55
280
     0
102
RTVSPost2010PropOp55
 70
     1
102
RTVSPost2010Prop56
140
1.0
102
RTVSPost2010PropOp56
 70
     1
102
RTVSPost2010Prop57
140
1.0
102
RTVSPost2010PropOp57
 70
     1
102
RTVSPropertyOp0
 70
     1
102
RTVSPropertyOp1
 70
     1
102
RTVSPropertyOp2
 70
     1
102
RTVSPropertyOp3
 70
     1
102
RTVSPropertyOp4
 70
     1
102
RTVSPropertyOp5
 70
     1
102
RTVSPropertyOp6
 70
     1
102
RTVSPropertyOp7
 70
     1
102
RTVSPropertyOp8
 70
     1
102
RTVSPropertyOp9
 70
     1
102
RTVSPropertyOp10
 70
     1
102
RTVSPropertyOp11
 70
     1
102
RTVSPropertyOp12
 70
     1
102
RTVSPropertyOp13
 70
     1
102
RTVSPropertyOp14
 70
     1
102
RTVSPropertyOp15
 70
     1
102
RTVSPropertyOp16
 70
     1
102
RTVSPropertyOp17
 70
     1
102
RTVSPropertyOp18
 70
     1
102
RTVSPropertyOp19
 70
     1
102
RTVSPropertyOp20
 70
     1
102
RTVSPropertyOp21
 70
     1
102
RTVSPropertyOp22
 70
     1
102
RTVSPropertyOp23
 70
     1
102
RTVSPropertyOp24
 70
     1
102
RTVSPropertyOp25
 70
     1
102
RTVSPropertyOp26
 70
     1
102
RTVSPropertyOp27
 70
     1
102
RTVSPropertyOp28
 70
     1
102
RTVSPropertyOp29
 70
     1
102
RTVSPropertyOp30
 70
     1
102
RTVSPropertyOp31
 70
     1
102
RTVSPropertyOp32
 70
     1
102
RTVSPropertyOp33
 70
     1
102
RTVSPropertyOp34
 70
     1
102
RTVSPropertyOp35
 70
     1
102
RTVSPropertyOp36
 70
     1
102
RTVSPropertyOp37
 70
     1
102
RTVSPropertyOp38
 70
     1
102
RTVSPropertyOp39
 70
     1
102
RTVSPropertyOp40
 70
     1
102
RTVSPropertyOp41
 70
     1
102
RTVSPropertyOp42
 70
     1
102
RTVSPropertyOp43
 70
     1
102
RTVSPropertyOp44
 70
     1
102
RTVSPropertyOp45
 70
     1
102
RTVSPropertyOp46
 70
     1
102
RTVSPropertyOp47
 70
     1
102
RTVSPropertyOp48
 70
     1
102
RTVSPropertyOp49
 70
     1
102
RTVSPropertyOp50
 70
     1
102
RTVSPropertyOp51
 70
     0
102
RTVSPropertyOp52
 70
     0
102
RTVSPropertyOp53
 70
     1
102
RTVSPropertyOp54
 70
     1
102
RTVSPropertyOp55
 70
     1
102
RTVSPropertyOp56
 70
     1
102
RTVSPropertyOp57
 70
     1
102
RTVSPropertyOp58
 70
     1
102
RTVSPropertyOp59
 70
     1
102
RTVSPropertyOp60
 70
     1
102
RTVSPropertyOp61
 70
     1
102
RTVSPropertyOp62
 70
     1
  0
XRECORD
  5
6C96
102
{ACAD_REACTORS
330
6C95
102
}
330
6C95
100
AcDbXrecord
280
     1
102
RTVSPost2010Prop28
280
     0
102
RTVSPost2010PropOp28
 70
     1
102
RTVSPost2010Prop29
280
     1
102
RTVSPost2010PropOp29
 70
     1
102
RTVSPost2010Prop30
280
     1
102
RTVSPost2010PropOp30
 70
     1
102
RTVSPost2010Prop31
280
     0
102
RTVSPost2010PropOp31
 70
     1
102
RTVSPost2010Prop32
280
     0
102
RTVSPost2010PropOp32
 70
     1
102
RTVSPost2010Prop33
280
     0
102
RTVSPost2010PropOp33
 70
     1
102
RTVSPost2010Prop34
280
     0
102
RTVSPost2010PropOp34
 70
     1
102
RTVSPost2010Prop35
280
     0
102
RTVSPost2010PropOp35
 70
     1
102
RTVSPost2010Prop36
280
     0
102
RTVSPost2010PropOp36
 70
     1
102
RTVSPost2010Prop37
 90
       50
102
RTVSPost2010PropOp37
 70
     1
102
RTVSPost2010Prop38
140
0.0
102
RTVSPost2010PropOp38
 70
     1
102
RTVSPost2010Prop39
140
1.0
102
RTVSPost2010PropOp39
 70
     1
102
RTVSPost2010Prop40
 90
        0
102
RTVSPost2010PropOp40
 70
     1
102
RTVSPost2010Prop41ColorIndex
 90
       18
102
RTVSPost2010Prop41ColorRGB
 90
        0
102
RTVSPost2010PropOp41
 70
     1
102
RTVSPost2010Prop42
 90
       50
102
RTVSPost2010PropOp42
 70
     1
102
RTVSPost2010Prop43
 90
        3
102
RTVSPost2010PropOp43
 70
     1
102
RTVSPost2010Prop44ColorIndex
 90
        5
102
RTVSPost2010Prop44ColorRGB
 90
      255
102
RTVSPost2010PropOp44
 70
     1
102
RTVSPost2010Prop45
280
     0
102
RTVSPost2010PropOp45
 70
     1
102
RTVSPost2010Prop46
 90
       50
102
RTVSPost2010PropOp46
 70
     1
102
RTVSPost2010Prop47
 90
       50
102
RTVSPost2010PropOp47
 70
     1
102
RTVSPost2010Prop48
 90
       50
102
RTVSPost2010PropOp48
 70
     1
102
RTVSPost2010Prop49
280
     0
102
RTVSPost2010PropOp49
 70
     1
102
RTVSPost2010Prop50
 90
       50
102
RTVSPost2010PropOp50
 70
     1
102
RTVSPost2010Prop51ColorIndex
 90
      256
102
RTVSPost2010Prop51ColorRGB
 90
-16777216
102
RTVSPost2010PropOp51
 70
     0
102
RTVSPost2010Prop52
140
1.0
102
RTVSPost2010PropOp52
 70
     0
102
RTVSPost2010Prop53
 90
        2
102
RTVSPost2010PropOp53
 70
     1
102
RTVSPost2010Prop54
  1
strokes_ogs.tif
102
RTVSPost2010PropOp54
 70
     1
102
RTVSPost2010Prop55
280
     0
102
RTVSPost2010PropOp55
 70
     1
102
RTVSPost2010Prop56
140
1.0
102
RTVSPost2010PropOp56
 70
     1
102
RTVSPost2010Prop57
140
1.0
102
RTVSPost2010PropOp57
 70
     1
102
RTVSPropertyOp0
 70
     1
102
RTVSPropertyOp1
 70
     1
102
RTVSPropertyOp2
 70
     1
102
RTVSPropertyOp3
 70
     1
102
RTVSPropertyOp4
 70
     1
102
RTVSPropertyOp5
 70
     1
102
RTVSPropertyOp6
 70
     1
102
RTVSPropertyOp7
 70
     1
102
RTVSPropertyOp8
 70
     1
102
RTVSPropertyOp9
 70
     1
102
RTVSPropertyOp10
 70
     1
102
RTVSPropertyOp11
 70
     1
102
RTVSPropertyOp12
 70
     1
102
RTVSPropertyOp13
 70
     1
102
RTVSPropertyOp14
 70
     1
102
RTVSPropertyOp15
 70
     1
102
RTVSPropertyOp16
 70
     1
102
RTVSPropertyOp17
 70
     1
102
RTVSPropertyOp18
 70
     1
102
RTVSPropertyOp19
 70
     1
102
RTVSPropertyOp20
 70
     1
102
RTVSPropertyOp21
 70
     1
102
RTVSPropertyOp22
 70
     1
102
RTVSPropertyOp23
 70
     1
102
RTVSPropertyOp24
 70
     1
102
RTVSPropertyOp25
 70
     1
102
RTVSPropertyOp26
 70
     1
102
RTVSPropertyOp27
 70
     1
102
RTVSPropertyOp28
 70
     1
102
RTVSPropertyOp29
 70
     1
102
RTVSPropertyOp30
 70
     1
102
RTVSPropertyOp31
 70
     1
102
RTVSPropertyOp32
 70
     1
102
RTVSPropertyOp33
 70
     1
102
RTVSPropertyOp34
 70
     1
102
RTVSPropertyOp35
 70
     1
102
RTVSPropertyOp36
 70
     1
102
RTVSPropertyOp37
 70
     1
102
RTVSPropertyOp38
 70
     1
102
RTVSPropertyOp39
 70
     1
102
RTVSPropertyOp40
 70
     1
102
RTVSPropertyOp41
 70
     1
102
RTVSPropertyOp42
 70
     1
102
RTVSPropertyOp43
 70
     1
102
RTVSPropertyOp44
 70
     1
102
RTVSPropertyOp45
 70
     1
102
RTVSPropertyOp46
 70
     1
102
RTVSPropertyOp47
 70
     1
102
RTVSPropertyOp48
 70
     1
102
RTVSPropertyOp49
 70
     1
102
RTVSPropertyOp50
 70
     1
102
RTVSPropertyOp51
 70
     0
102
RTVSPropertyOp52
 70
     0
102
RTVSPropertyOp53
 70
     1
102
RTVSPropertyOp54
 70
     1
102
RTVSPropertyOp55
 70
     1
102
RTVSPropertyOp56
 70
     1
102
RTVSPropertyOp57
 70
     1
102
RTVSPropertyOp58
 70
     1
102
RTVSPropertyOp59
 70
     1
102
RTVSPropertyOp60
 70
     1
102
RTVSPropertyOp61
 70
     1
102
RTVSPropertyOp62
 70
     1
  0
XRECORD
  5
6C98
102
{ACAD_REACTORS
330
6C97
102
}
330
6C97
100
AcDbXrecord
280
     1
102
RTVSPost2010Prop28
280
     0
102
RTVSPost2010PropOp28
 70
     1
102
RTVSPost2010Prop29
280
     1
102
RTVSPost2010PropOp29
 70
     1
102
RTVSPost2010Prop30
280
     1
102
RTVSPost2010PropOp30
 70
     1
102
RTVSPost2010Prop31
280
     0
102
RTVSPost2010PropOp31
 70
     1
102
RTVSPost2010Prop32
280
     0
102
RTVSPost2010PropOp32
 70
     1
102
RTVSPost2010Prop33
280
     0
102
RTVSPost2010PropOp33
 70
     1
102
RTVSPost2010Prop34
280
     0
102
RTVSPost2010PropOp34
 70
     1
102
RTVSPost2010Prop35
280
     0
102
RTVSPost2010PropOp35
 70
     1
102
RTVSPost2010Prop36
280
     0
102
RTVSPost2010PropOp36
 70
     1
102
RTVSPost2010Prop37
 90
       50
102
RTVSPost2010PropOp37
 70
     1
102
RTVSPost2010Prop38
140
0.0
102
RTVSPost2010PropOp38
 70
     1
102
RTVSPost2010Prop39
140
1.0
102
RTVSPost2010PropOp39
 70
     1
102
RTVSPost2010Prop40
 90
        0
102
RTVSPost2010PropOp40
 70
     1
102
RTVSPost2010Prop41ColorIndex
 90
       18
102
RTVSPost2010Prop41ColorRGB
 90
        0
102
RTVSPost2010PropOp41
 70
     1
102
RTVSPost2010Prop42
 90
       50
102
RTVSPost2010PropOp42
 70
     1
102
RTVSPost2010Prop43
 90
        3
102
RTVSPost2010PropOp43
 70
     1
102
RTVSPost2010Prop44ColorIndex
 90
        5
102
RTVSPost2010Prop44ColorRGB
 90
      255
102
RTVSPost2010PropOp44
 70
     1
102
RTVSPost2010Prop45
280
     0
102
RTVSPost2010PropOp45
 70
     1
102
RTVSPost2010Prop46
 90
       50
102
RTVSPost2010PropOp46
 70
     1
102
RTVSPost2010Prop47
 90
       50
102
RTVSPost2010PropOp47
 70
     1
102
RTVSPost2010Prop48
 90
       50
102
RTVSPost2010PropOp48
 70
     1
102
RTVSPost2010Prop49
280
     0
102
RTVSPost2010PropOp49
 70
     1
102
RTVSPost2010Prop50
 90
       50
102
RTVSPost2010PropOp50
 70
     1
102
RTVSPost2010Prop51ColorIndex
 90
      256
102
RTVSPost2010Prop51ColorRGB
 90
-16777216
102
RTVSPost2010PropOp51
 70
     0
102
RTVSPost2010Prop52
140
1.0
102
RTVSPost2010PropOp52
 70
     0
102
RTVSPost2010Prop53
 90
        2
102
RTVSPost2010PropOp53
 70
     1
102
RTVSPost2010Prop54
  1
strokes_ogs.tif
102
RTVSPost2010PropOp54
 70
     1
102
RTVSPost2010Prop55
280
     0
102
RTVSPost2010PropOp55
 70
     1
102
RTVSPost2010Prop56
140
1.0
102
RTVSPost2010PropOp56
 70
     1
102
RTVSPost2010Prop57
140
1.0
102
RTVSPost2010PropOp57
 70
     1
102
RTVSPropertyOp0
 70
     1
102
RTVSPropertyOp1
 70
     1
102
RTVSPropertyOp2
 70
     1
102
RTVSPropertyOp3
 70
     1
102
RTVSPropertyOp4
 70
     1
102
RTVSPropertyOp5
 70
     1
102
RTVSPropertyOp6
 70
     1
102
RTVSPropertyOp7
 70
     1
102
RTVSPropertyOp8
 70
     1
102
RTVSPropertyOp9
 70
     1
102
RTVSPropertyOp10
 70
     1
102
RTVSPropertyOp11
 70
     1
102
RTVSPropertyOp12
 70
     1
102
RTVSPropertyOp13
 70
     1
102
RTVSPropertyOp14
 70
     1
102
RTVSPropertyOp15
 70
     1
102
RTVSPropertyOp16
 70
     1
102
RTVSPropertyOp17
 70
     1
102
RTVSPropertyOp18
 70
     1
102
RTVSPropertyOp19
 70
     1
102
RTVSPropertyOp20
 70
     1
102
RTVSPropertyOp21
 70
     1
102
RTVSPropertyOp22
 70
     1
102
RTVSPropertyOp23
 70
     1
102
RTVSPropertyOp24
 70
     1
102
RTVSPropertyOp25
 70
     1
102
RTVSPropertyOp26
 70
     1
102
RTVSPropertyOp27
 70
     1
102
RTVSPropertyOp28
 70
     1
102
RTVSPropertyOp29
 70
     1
102
RTVSPropertyOp30
 70
     1
102
RTVSPropertyOp31
 70
     1
102
RTVSPropertyOp32
 70
     1
102
RTVSPropertyOp33
 70
     1
102
RTVSPropertyOp34
 70
     1
102
RTVSPropertyOp35
 70
     1
102
RTVSPropertyOp36
 70
     1
102
RTVSPropertyOp37
 70
     1
102
RTVSPropertyOp38
 70
     1
102
RTVSPropertyOp39
 70
     1
102
RTVSPropertyOp40
 70
     1
102
RTVSPropertyOp41
 70
     1
102
RTVSPropertyOp42
 70
     1
102
RTVSPropertyOp43
 70
     1
102
RTVSPropertyOp44
 70
     1
102
RTVSPropertyOp45
 70
     1
102
RTVSPropertyOp46
 70
     1
102
RTVSPropertyOp47
 70
     1
102
RTVSPropertyOp48
 70
     1
102
RTVSPropertyOp49
 70
     1
102
RTVSPropertyOp50
 70
     1
102
RTVSPropertyOp51
 70
     0
102
RTVSPropertyOp52
 70
     0
102
RTVSPropertyOp53
 70
     1
102
RTVSPropertyOp54
 70
     1
102
RTVSPropertyOp55
 70
     1
102
RTVSPropertyOp56
 70
     1
102
RTVSPropertyOp57
 70
     1
102
RTVSPropertyOp58
 70
     1
102
RTVSPropertyOp59
 70
     1
102
RTVSPropertyOp60
 70
     1
102
RTVSPropertyOp61
 70
     1
102
RTVSPropertyOp62
 70
     1
  0
XRECORD
  5
6CA0
102
{ACAD_REACTORS
330
6C9F
102
}
330
6C9F
100
AcDbXrecord
280
     1
102
RTVSPost2010Prop28
280
     0
102
RTVSPost2010PropOp28
 70
     1
102
RTVSPost2010Prop29
280
     1
102
RTVSPost2010PropOp29
 70
     1
102
RTVSPost2010Prop30
280
     1
102
RTVSPost2010PropOp30
 70
     1
102
RTVSPost2010Prop31
280
     0
102
RTVSPost2010PropOp31
 70
     1
102
RTVSPost2010Prop32
280
     0
102
RTVSPost2010PropOp32
 70
     1
102
RTVSPost2010Prop33
280
     0
102
RTVSPost2010PropOp33
 70
     1
102
RTVSPost2010Prop34
280
     0
102
RTVSPost2010PropOp34
 70
     1
102
RTVSPost2010Prop35
280
     0
102
RTVSPost2010PropOp35
 70
     1
102
RTVSPost2010Prop36
280
     0
102
RTVSPost2010PropOp36
 70
     1
102
RTVSPost2010Prop37
 90
       50
102
RTVSPost2010PropOp37
 70
     1
102
RTVSPost2010Prop38
140
0.0
102
RTVSPost2010PropOp38
 70
     1
102
RTVSPost2010Prop39
140
1.0
102
RTVSPost2010PropOp39
 70
     1
102
RTVSPost2010Prop40
 90
        0
102
RTVSPost2010PropOp40
 70
     1
102
RTVSPost2010Prop41ColorIndex
 90
       18
102
RTVSPost2010Prop41ColorRGB
 90
        0
102
RTVSPost2010PropOp41
 70
     1
102
RTVSPost2010Prop42
 90
       50
102
RTVSPost2010PropOp42
 70
     1
102
RTVSPost2010Prop43
 90
        3
102
RTVSPost2010PropOp43
 70
     1
102
RTVSPost2010Prop44ColorIndex
 90
        5
102
RTVSPost2010Prop44ColorRGB
 90
      255
102
RTVSPost2010PropOp44
 70
     1
102
RTVSPost2010Prop45
280
     0
102
RTVSPost2010PropOp45
 70
     1
102
RTVSPost2010Prop46
 90
       50
102
RTVSPost2010PropOp46
 70
     1
102
RTVSPost2010Prop47
 90
       50
102
RTVSPost2010PropOp47
 70
     1
102
RTVSPost2010Prop48
 90
       50
102
RTVSPost2010PropOp48
 70
     1
102
RTVSPost2010Prop49
280
     0
102
RTVSPost2010PropOp49
 70
     1
102
RTVSPost2010Prop50
 90
       50
102
RTVSPost2010PropOp50
 70
     1
102
RTVSPost2010Prop51ColorIndex
 90
      256
102
RTVSPost2010Prop51ColorRGB
 90
-16777216
102
RTVSPost2010PropOp51
 70
     0
102
RTVSPost2010Prop52
140
1.0
102
RTVSPost2010PropOp52
 70
     0
102
RTVSPost2010Prop53
 90
        2
102
RTVSPost2010PropOp53
 70
     1
102
RTVSPost2010Prop54
  1
strokes_ogs.tif
102
RTVSPost2010PropOp54
 70
     1
102
RTVSPost2010Prop55
280
     0
102
RTVSPost2010PropOp55
 70
     1
102
RTVSPost2010Prop56
140
1.0
102
RTVSPost2010PropOp56
 70
     1
102
RTVSPost2010Prop57
140
1.0
102
RTVSPost2010PropOp57
 70
     1
102
RTVSPropertyOp0
 70
     1
102
RTVSPropertyOp1
 70
     1
102
RTVSPropertyOp2
 70
     1
102
RTVSPropertyOp3
 70
     1
102
RTVSPropertyOp4
 70
     1
102
RTVSPropertyOp5
 70
     1
102
RTVSPropertyOp6
 70
     1
102
RTVSPropertyOp7
 70
     1
102
RTVSPropertyOp8
 70
     1
102
RTVSPropertyOp9
 70
     1
102
RTVSPropertyOp10
 70
     1
102
RTVSPropertyOp11
 70
     1
102
RTVSPropertyOp12
 70
     1
102
RTVSPropertyOp13
 70
     1
102
RTVSPropertyOp14
 70
     1
102
RTVSPropertyOp15
 70
     1
102
RTVSPropertyOp16
 70
     1
102
RTVSPropertyOp17
 70
     1
102
RTVSPropertyOp18
 70
     1
102
RTVSPropertyOp19
 70
     1
102
RTVSPropertyOp20
 70
     1
102
RTVSPropertyOp21
 70
     1
102
RTVSPropertyOp22
 70
     1
102
RTVSPropertyOp23
 70
     1
102
RTVSPropertyOp24
 70
     1
102
RTVSPropertyOp25
 70
     1
102
RTVSPropertyOp26
 70
     1
102
RTVSPropertyOp27
 70
     1
102
RTVSPropertyOp28
 70
     1
102
RTVSPropertyOp29
 70
     1
102
RTVSPropertyOp30
 70
     1
102
RTVSPropertyOp31
 70
     1
102
RTVSPropertyOp32
 70
     1
102
RTVSPropertyOp33
 70
     1
102
RTVSPropertyOp34
 70
     1
102
RTVSPropertyOp35
 70
     1
102
RTVSPropertyOp36
 70
     1
102
RTVSPropertyOp37
 70
     1
102
RTVSPropertyOp38
 70
     1
102
RTVSPropertyOp39
 70
     1
102
RTVSPropertyOp40
 70
     1
102
RTVSPropertyOp41
 70
     1
102
RTVSPropertyOp42
 70
     1
102
RTVSPropertyOp43
 70
     1
102
RTVSPropertyOp44
 70
     1
102
RTVSPropertyOp45
 70
     1
102
RTVSPropertyOp46
 70
     1
102
RTVSPropertyOp47
 70
     1
102
RTVSPropertyOp48
 70
     1
102
RTVSPropertyOp49
 70
     1
102
RTVSPropertyOp50
 70
     1
102
RTVSPropertyOp51
 70
     0
102
RTVSPropertyOp52
 70
     0
102
RTVSPropertyOp53
 70
     1
102
RTVSPropertyOp54
 70
     1
102
RTVSPropertyOp55
 70
     1
102
RTVSPropertyOp56
 70
     1
102
RTVSPropertyOp57
 70
     1
102
RTVSPropertyOp58
 70
     1
102
RTVSPropertyOp59
 70
     1
102
RTVSPropertyOp60
 70
     1
102
RTVSPropertyOp61
 70
     1
102
RTVSPropertyOp62
 70
     1
  0
XRECORD
  5
6CBC
102
{ACAD_REACTORS
330
6CBB
102
}
330
6CBB
100
AcDbXrecord
280
     1
102
RTVSPost2010Prop28
280
     0
102
RTVSPost2010PropOp28
 70
     1
102
RTVSPost2010Prop29
280
     1
102
RTVSPost2010PropOp29
 70
     1
102
RTVSPost2010Prop30
280
     1
102
RTVSPost2010PropOp30
 70
     1
102
RTVSPost2010Prop31
280
     0
102
RTVSPost2010PropOp31
 70
     1
102
RTVSPost2010Prop32
280
     0
102
RTVSPost2010PropOp32
 70
     1
102
RTVSPost2010Prop33
280
     0
102
RTVSPost2010PropOp33
 70
     1
102
RTVSPost2010Prop34
280
     0
102
RTVSPost2010PropOp34
 70
     1
102
RTVSPost2010Prop35
280
     0
102
RTVSPost2010PropOp35
 70
     1
102
RTVSPost2010Prop36
280
     0
102
RTVSPost2010PropOp36
 70
     1
102
RTVSPost2010Prop37
 90
       50
102
RTVSPost2010PropOp37
 70
     0
102
RTVSPost2010Prop38
140
0.0
102
RTVSPost2010PropOp38
 70
     0
102
RTVSPost2010Prop39
140
1.0
102
RTVSPost2010PropOp39
 70
     0
102
RTVSPost2010Prop40
 90
        0
102
RTVSPost2010PropOp40
 70
     0
102
RTVSPost2010Prop41ColorIndex
 90
       18
102
RTVSPost2010Prop41ColorRGB
 90
        0
102
RTVSPost2010PropOp41
 70
     0
102
RTVSPost2010Prop42
 90
       50
102
RTVSPost2010PropOp42
 70
     0
102
RTVSPost2010Prop43
 90
        3
102
RTVSPost2010PropOp43
 70
     0
102
RTVSPost2010Prop44ColorIndex
 90
        5
102
RTVSPost2010Prop44ColorRGB
 90
      255
102
RTVSPost2010PropOp44
 70
     0
102
RTVSPost2010Prop45
280
     0
102
RTVSPost2010PropOp45
 70
     1
102
RTVSPost2010Prop46
 90
       50
102
RTVSPost2010PropOp46
 70
     0
102
RTVSPost2010Prop47
 90
       50
102
RTVSPost2010PropOp47
 70
     0
102
RTVSPost2010Prop48
 90
       50
102
RTVSPost2010PropOp48
 70
     0
102
RTVSPost2010Prop49
280
     0
102
RTVSPost2010PropOp49
 70
     1
102
RTVSPost2010Prop50
 90
       50
102
RTVSPost2010PropOp50
 70
     0
102
RTVSPost2010Prop51ColorIndex
 90
      256
102
RTVSPost2010Prop51ColorRGB
 90
-16777216
102
RTVSPost2010PropOp51
 70
     0
102
RTVSPost2010Prop52
140
1.0
102
RTVSPost2010PropOp52
 70
     0
102
RTVSPost2010Prop53
 90
        2
102
RTVSPost2010PropOp53
 70
     0
102
RTVSPost2010Prop54
  1
strokes_ogs.tif
102
RTVSPost2010PropOp54
 70
     0
102
RTVSPost2010Prop55
280
     0
102
RTVSPost2010PropOp55
 70
     1
102
RTVSPost2010Prop56
140
1.0
102
RTVSPost2010PropOp56
 70
     0
102
RTVSPost2010Prop57
140
1.0
102
RTVSPost2010PropOp57
 70
     0
102
RTVSPropertyOp0
 70
     0
102
RTVSPropertyOp1
 70
     0
102
RTVSPropertyOp2
 70
     0
102
RTVSPropertyOp3
 70
     0
102
RTVSPropertyOp4
 70
     0
102
RTVSPropertyOp5
 70
     0
102
RTVSPropertyOp6
 70
     0
102
RTVSPropertyOp7
 70
     0
102
RTVSPropertyOp8
 70
     0
102
RTVSPropertyOp9
 70
     0
102
RTVSPropertyOp10
 70
     0
102
RTVSPropertyOp11
 70
     0
102
RTVSPropertyOp12
 70
     0
102
RTVSPropertyOp13
 70
     0
102
RTVSPropertyOp14
 70
     2
102
RTVSPropertyOp15
 70
     0
102
RTVSPropertyOp16
 70
     0
102
RTVSPropertyOp17
 70
     0
102
RTVSPropertyOp18
 70
     0
102
RTVSPropertyOp19
 70
     0
102
RTVSPropertyOp20
 70
     0
102
RTVSPropertyOp21
 70
     0
102
RTVSPropertyOp22
 70
     0
102
RTVSPropertyOp23
 70
     0
102
RTVSPropertyOp24
 70
     0
102
RTVSPropertyOp25
 70
     0
102
RTVSPropertyOp26
 70
     0
102
RTVSPropertyOp27
 70
     0
102
RTVSPropertyOp28
 70
     1
102
RTVSPropertyOp29
 70
     1
102
RTVSPropertyOp30
 70
     1
102
RTVSPropertyOp31
 70
     1
102
RTVSPropertyOp32
 70
     1
102
RTVSPropertyOp33
 70
     1
102
RTVSPropertyOp34
 70
     1
102
RTVSPropertyOp35
 70
     1
102
RTVSPropertyOp36
 70
     1
102
RTVSPropertyOp37
 70
     0
102
RTVSPropertyOp38
 70
     0
102
RTVSPropertyOp39
 70
     0
102
RTVSPropertyOp40
 70
     0
102
RTVSPropertyOp41
 70
     0
102
RTVSPropertyOp42
 70
     0
102
RTVSPropertyOp43
 70
     0
102
RTVSPropertyOp44
 70
     0
102
RTVSPropertyOp45
 70
     1
102
RTVSPropertyOp46
 70
     0
102
RTVSPropertyOp47
 70
     0
102
RTVSPropertyOp48
 70
     0
102
RTVSPropertyOp49
 70
     1
102
RTVSPropertyOp50
 70
     0
102
RTVSPropertyOp51
 70
     0
102
RTVSPropertyOp52
 70
     0
102
RTVSPropertyOp53
 70
     0
102
RTVSPropertyOp54
 70
     0
102
RTVSPropertyOp55
 70
     1
102
RTVSPropertyOp56
 70
     0
102
RTVSPropertyOp57
 70
     0
102
RTVSPropertyOp58
 70
     0
102
RTVSPropertyOp59
 70
     0
102
RTVSPropertyOp60
 70
     0
102
RTVSPropertyOp61
 70
     0
102
RTVSPropertyOp62
 70
     0
  0
XRECORD
  5
6CAC
102
{ACAD_REACTORS
330
6CAB
102
}
330
6CAB
100
AcDbXrecord
280
     1
102
RTVSPost2010Prop28
280
     0
102
RTVSPost2010PropOp28
 70
     1
102
RTVSPost2010Prop29
280
     1
102
RTVSPost2010PropOp29
 70
     1
102
RTVSPost2010Prop30
280
     1
102
RTVSPost2010PropOp30
 70
     1
102
RTVSPost2010Prop31
280
     0
102
RTVSPost2010PropOp31
 70
     1
102
RTVSPost2010Prop32
280
     0
102
RTVSPost2010PropOp32
 70
     1
102
RTVSPost2010Prop33
280
     0
102
RTVSPost2010PropOp33
 70
     1
102
RTVSPost2010Prop34
280
     0
102
RTVSPost2010PropOp34
 70
     1
102
RTVSPost2010Prop35
280
     0
102
RTVSPost2010PropOp35
 70
     1
102
RTVSPost2010Prop36
280
     0
102
RTVSPost2010PropOp36
 70
     1
102
RTVSPost2010Prop37
 90
       50
102
RTVSPost2010PropOp37
 70
     1
102
RTVSPost2010Prop38
140
0.0
102
RTVSPost2010PropOp38
 70
     1
102
RTVSPost2010Prop39
140
1.0
102
RTVSPost2010PropOp39
 70
     1
102
RTVSPost2010Prop40
 90
        0
102
RTVSPost2010PropOp40
 70
     1
102
RTVSPost2010Prop41ColorIndex
 90
       18
102
RTVSPost2010Prop41ColorRGB
 90
        0
102
RTVSPost2010PropOp41
 70
     1
102
RTVSPost2010Prop42
 90
       50
102
RTVSPost2010PropOp42
 70
     1
102
RTVSPost2010Prop43
 90
        3
102
RTVSPost2010PropOp43
 70
     1
102
RTVSPost2010Prop44ColorIndex
 90
        5
102
RTVSPost2010Prop44ColorRGB
 90
      255
102
RTVSPost2010PropOp44
 70
     1
102
RTVSPost2010Prop45
280
     0
102
RTVSPost2010PropOp45
 70
     1
102
RTVSPost2010Prop46
 90
       50
102
RTVSPost2010PropOp46
 70
     1
102
RTVSPost2010Prop47
 90
       50
102
RTVSPost2010PropOp47
 70
     1
102
RTVSPost2010Prop48
 90
       50
102
RTVSPost2010PropOp48
 70
     1
102
RTVSPost2010Prop49
280
     0
102
RTVSPost2010PropOp49
 70
     1
102
RTVSPost2010Prop50
 90
       50
102
RTVSPost2010PropOp50
 70
     1
102
RTVSPost2010Prop51ColorIndex
 90
      256
102
RTVSPost2010Prop51ColorRGB
 90
-16777216
102
RTVSPost2010PropOp51
 70
     0
102
RTVSPost2010Prop52
140
1.0
102
RTVSPost2010PropOp52
 70
     0
102
RTVSPost2010Prop53
 90
        2
102
RTVSPost2010PropOp53
 70
     1
102
RTVSPost2010Prop54
  1
strokes_ogs.tif
102
RTVSPost2010PropOp54
 70
     1
102
RTVSPost2010Prop55
280
     0
102
RTVSPost2010PropOp55
 70
     1
102
RTVSPost2010Prop56
140
1.0
102
RTVSPost2010PropOp56
 70
     1
102
RTVSPost2010Prop57
140
1.0
102
RTVSPost2010PropOp57
 70
     1
102
RTVSPropertyOp0
 70
     1
102
RTVSPropertyOp1
 70
     1
102
RTVSPropertyOp2
 70
     1
102
RTVSPropertyOp3
 70
     1
102
RTVSPropertyOp4
 70
     1
102
RTVSPropertyOp5
 70
     1
102
RTVSPropertyOp6
 70
     1
102
RTVSPropertyOp7
 70
     1
102
RTVSPropertyOp8
 70
     1
102
RTVSPropertyOp9
 70
     1
102
RTVSPropertyOp10
 70
     1
102
RTVSPropertyOp11
 70
     1
102
RTVSPropertyOp12
 70
     1
102
RTVSPropertyOp13
 70
     1
102
RTVSPropertyOp14
 70
     1
102
RTVSPropertyOp15
 70
     1
102
RTVSPropertyOp16
 70
     1
102
RTVSPropertyOp17
 70
     1
102
RTVSPropertyOp18
 70
     1
102
RTVSPropertyOp19
 70
     1
102
RTVSPropertyOp20
 70
     1
102
RTVSPropertyOp21
 70
     1
102
RTVSPropertyOp22
 70
     1
102
RTVSPropertyOp23
 70
     1
102
RTVSPropertyOp24
 70
     1
102
RTVSPropertyOp25
 70
     1
102
RTVSPropertyOp26
 70
     1
102
RTVSPropertyOp27
 70
     1
102
RTVSPropertyOp28
 70
     1
102
RTVSPropertyOp29
 70
     1
102
RTVSPropertyOp30
 70
     1
102
RTVSPropertyOp31
 70
     1
102
RTVSPropertyOp32
 70
     1
102
RTVSPropertyOp33
 70
     1
102
RTVSPropertyOp34
 70
     1
102
RTVSPropertyOp35
 70
     1
102
RTVSPropertyOp36
 70
     1
102
RTVSPropertyOp37
 70
     1
102
RTVSPropertyOp38
 70
     1
102
RTVSPropertyOp39
 70
     1
102
RTVSPropertyOp40
 70
     1
102
RTVSPropertyOp41
 70
     1
102
RTVSPropertyOp42
 70
     1
102
RTVSPropertyOp43
 70
     1
102
RTVSPropertyOp44
 70
     1
102
RTVSPropertyOp45
 70
     1
102
RTVSPropertyOp46
 70
     1
102
RTVSPropertyOp47
 70
     1
102
RTVSPropertyOp48
 70
     1
102
RTVSPropertyOp49
 70
     1
102
RTVSPropertyOp50
 70
     1
102
RTVSPropertyOp51
 70
     0
102
RTVSPropertyOp52
 70
     0
102
RTVSPropertyOp53
 70
     1
102
RTVSPropertyOp54
 70
     1
102
RTVSPropertyOp55
 70
     1
102
RTVSPropertyOp56
 70
     1
102
RTVSPropertyOp57
 70
     1
102
RTVSPropertyOp58
 70
     1
102
RTVSPropertyOp59
 70
     1
102
RTVSPropertyOp60
 70
     1
102
RTVSPropertyOp61
 70
     1
102
RTVSPropertyOp62
 70
     1
  0
XRECORD
  5
6CBE
102
{ACAD_REACTORS
330
6CBD
102
}
330
6CBD
100
AcDbXrecord
280
     1
102
RTVSPost2010Prop28
280
     0
102
RTVSPost2010PropOp28
 70
     1
102
RTVSPost2010Prop29
280
     1
102
RTVSPost2010PropOp29
 70
     1
102
RTVSPost2010Prop30
280
     1
102
RTVSPost2010PropOp30
 70
     1
102
RTVSPost2010Prop31
280
     0
102
RTVSPost2010PropOp31
 70
     1
102
RTVSPost2010Prop32
280
     0
102
RTVSPost2010PropOp32
 70
     1
102
RTVSPost2010Prop33
280
     0
102
RTVSPost2010PropOp33
 70
     1
102
RTVSPost2010Prop34
280
     0
102
RTVSPost2010PropOp34
 70
     1
102
RTVSPost2010Prop35
280
     0
102
RTVSPost2010PropOp35
 70
     1
102
RTVSPost2010Prop36
280
     0
102
RTVSPost2010PropOp36
 70
     1
102
RTVSPost2010Prop37
 90
       50
102
RTVSPost2010PropOp37
 70
     0
102
RTVSPost2010Prop38
140
0.0
102
RTVSPost2010PropOp38
 70
     0
102
RTVSPost2010Prop39
140
1.0
102
RTVSPost2010PropOp39
 70
     0
102
RTVSPost2010Prop40
 90
        0
102
RTVSPost2010PropOp40
 70
     0
102
RTVSPost2010Prop41ColorIndex
 90
       18
102
RTVSPost2010Prop41ColorRGB
 90
        0
102
RTVSPost2010PropOp41
 70
     0
102
RTVSPost2010Prop42
 90
       50
102
RTVSPost2010PropOp42
 70
     0
102
RTVSPost2010Prop43
 90
        3
102
RTVSPost2010PropOp43
 70
     0
102
RTVSPost2010Prop44ColorIndex
 90
        5
102
RTVSPost2010Prop44ColorRGB
 90
      255
102
RTVSPost2010PropOp44
 70
     0
102
RTVSPost2010Prop45
280
     0
102
RTVSPost2010PropOp45
 70
     1
102
RTVSPost2010Prop46
 90
       50
102
RTVSPost2010PropOp46
 70
     0
102
RTVSPost2010Prop47
 90
       50
102
RTVSPost2010PropOp47
 70
     0
102
RTVSPost2010Prop48
 90
       50
102
RTVSPost2010PropOp48
 70
     0
102
RTVSPost2010Prop49
280
     0
102
RTVSPost2010PropOp49
 70
     1
102
RTVSPost2010Prop50
 90
       50
102
RTVSPost2010PropOp50
 70
     0
102
RTVSPost2010Prop51ColorIndex
 90
      256
102
RTVSPost2010Prop51ColorRGB
 90
-16777216
102
RTVSPost2010PropOp51
 70
     0
102
RTVSPost2010Prop52
140
1.0
102
RTVSPost2010PropOp52
 70
     0
102
RTVSPost2010Prop53
 90
        2
102
RTVSPost2010PropOp53
 70
     0
102
RTVSPost2010Prop54
  1
strokes_ogs.tif
102
RTVSPost2010PropOp54
 70
     0
102
RTVSPost2010Prop55
280
     0
102
RTVSPost2010PropOp55
 70
     1
102
RTVSPost2010Prop56
140
1.0
102
RTVSPost2010PropOp56
 70
     0
102
RTVSPost2010Prop57
140
1.0
102
RTVSPost2010PropOp57
 70
     0
102
RTVSPropertyOp0
 70
     0
102
RTVSPropertyOp1
 70
     0
102
RTVSPropertyOp2
 70
     0
102
RTVSPropertyOp3
 70
     0
102
RTVSPropertyOp4
 70
     0
102
RTVSPropertyOp5
 70
     0
102
RTVSPropertyOp6
 70
     0
102
RTVSPropertyOp7
 70
     0
102
RTVSPropertyOp8
 70
     0
102
RTVSPropertyOp9
 70
     0
102
RTVSPropertyOp10
 70
     0
102
RTVSPropertyOp11
 70
     0
102
RTVSPropertyOp12
 70
     0
102
RTVSPropertyOp13
 70
     0
102
RTVSPropertyOp14
 70
     2
102
RTVSPropertyOp15
 70
     0
102
RTVSPropertyOp16
 70
     0
102
RTVSPropertyOp17
 70
     0
102
RTVSPropertyOp18
 70
     0
102
RTVSPropertyOp19
 70
     0
102
RTVSPropertyOp20
 70
     0
102
RTVSPropertyOp21
 70
     0
102
RTVSPropertyOp22
 70
     0
102
RTVSPropertyOp23
 70
     0
102
RTVSPropertyOp24
 70
     0
102
RTVSPropertyOp25
 70
     0
102
RTVSPropertyOp26
 70
     0
102
RTVSPropertyOp27
 70
     0
102
RTVSPropertyOp28
 70
     1
102
RTVSPropertyOp29
 70
     1
102
RTVSPropertyOp30
 70
     1
102
RTVSPropertyOp31
 70
     1
102
RTVSPropertyOp32
 70
     1
102
RTVSPropertyOp33
 70
     1
102
RTVSPropertyOp34
 70
     1
102
RTVSPropertyOp35
 70
     1
102
RTVSPropertyOp36
 70
     1
102
RTVSPropertyOp37
 70
     0
102
RTVSPropertyOp38
 70
     0
102
RTVSPropertyOp39
 70
     0
102
RTVSPropertyOp40
 70
     0
102
RTVSPropertyOp41
 70
     0
102
RTVSPropertyOp42
 70
     0
102
RTVSPropertyOp43
 70
     0
102
RTVSPropertyOp44
 70
     0
102
RTVSPropertyOp45
 70
     1
102
RTVSPropertyOp46
 70
     0
102
RTVSPropertyOp47
 70
     0
102
RTVSPropertyOp48
 70
     0
102
RTVSPropertyOp49
 70
     1
102
RTVSPropertyOp50
 70
     0
102
RTVSPropertyOp51
 70
     0
102
RTVSPropertyOp52
 70
     0
102
RTVSPropertyOp53
 70
     0
102
RTVSPropertyOp54
 70
     0
102
RTVSPropertyOp55
 70
     1
102
RTVSPropertyOp56
 70
     0
102
RTVSPropertyOp57
 70
     0
102
RTVSPropertyOp58
 70
     0
102
RTVSPropertyOp59
 70
     0
102
RTVSPropertyOp60
 70
     0
102
RTVSPropertyOp61
 70
     0
102
RTVSPropertyOp62
 70
     0
  0
XRECORD
  5
6CA4
102
{ACAD_REACTORS
330
6CA3
102
}
330
6CA3
100
AcDbXrecord
280
     1
102
RTVSPost2010Prop28
280
     0
102
RTVSPost2010PropOp28
 70
     1
102
RTVSPost2010Prop29
280
     1
102
RTVSPost2010PropOp29
 70
     1
102
RTVSPost2010Prop30
280
     1
102
RTVSPost2010PropOp30
 70
     1
102
RTVSPost2010Prop31
280
     0
102
RTVSPost2010PropOp31
 70
     1
102
RTVSPost2010Prop32
280
     0
102
RTVSPost2010PropOp32
 70
     1
102
RTVSPost2010Prop33
280
     0
102
RTVSPost2010PropOp33
 70
     1
102
RTVSPost2010Prop34
280
     0
102
RTVSPost2010PropOp34
 70
     1
102
RTVSPost2010Prop35
280
     0
102
RTVSPost2010PropOp35
 70
     1
102
RTVSPost2010Prop36
280
     0
102
RTVSPost2010PropOp36
 70
     1
102
RTVSPost2010Prop37
 90
       50
102
RTVSPost2010PropOp37
 70
     1
102
RTVSPost2010Prop38
140
0.0
102
RTVSPost2010PropOp38
 70
     1
102
RTVSPost2010Prop39
140
1.0
102
RTVSPost2010PropOp39
 70
     1
102
RTVSPost2010Prop40
 90
        0
102
RTVSPost2010PropOp40
 70
     1
102
RTVSPost2010Prop41ColorIndex
 90
       18
102
RTVSPost2010Prop41ColorRGB
 90
        0
102
RTVSPost2010PropOp41
 70
     1
102
RTVSPost2010Prop42
 90
       50
102
RTVSPost2010PropOp42
 70
     1
102
RTVSPost2010Prop43
 90
        3
102
RTVSPost2010PropOp43
 70
     1
102
RTVSPost2010Prop44ColorIndex
 90
        5
102
RTVSPost2010Prop44ColorRGB
 90
      255
102
RTVSPost2010PropOp44
 70
     1
102
RTVSPost2010Prop45
280
     0
102
RTVSPost2010PropOp45
 70
     1
102
RTVSPost2010Prop46
 90
       50
102
RTVSPost2010PropOp46
 70
     1
102
RTVSPost2010Prop47
 90
       50
102
RTVSPost2010PropOp47
 70
     1
102
RTVSPost2010Prop48
 90
       50
102
RTVSPost2010PropOp48
 70
     1
102
RTVSPost2010Prop49
280
     0
102
RTVSPost2010PropOp49
 70
     1
102
RTVSPost2010Prop50
 90
       50
102
RTVSPost2010PropOp50
 70
     1
102
RTVSPost2010Prop51ColorIndex
 90
      256
102
RTVSPost2010Prop51ColorRGB
 90
-16777216
102
RTVSPost2010PropOp51
 70
     0
102
RTVSPost2010Prop52
140
1.0
102
RTVSPost2010PropOp52
 70
     0
102
RTVSPost2010Prop53
 90
        2
102
RTVSPost2010PropOp53
 70
     1
102
RTVSPost2010Prop54
  1
strokes_ogs.tif
102
RTVSPost2010PropOp54
 70
     1
102
RTVSPost2010Prop55
280
     0
102
RTVSPost2010PropOp55
 70
     1
102
RTVSPost2010Prop56
140
1.0
102
RTVSPost2010PropOp56
 70
     1
102
RTVSPost2010Prop57
140
1.0
102
RTVSPost2010PropOp57
 70
     1
102
RTVSPropertyOp0
 70
     1
102
RTVSPropertyOp1
 70
     1
102
RTVSPropertyOp2
 70
     1
102
RTVSPropertyOp3
 70
     1
102
RTVSPropertyOp4
 70
     1
102
RTVSPropertyOp5
 70
     1
102
RTVSPropertyOp6
 70
     1
102
RTVSPropertyOp7
 70
     1
102
RTVSPropertyOp8
 70
     1
102
RTVSPropertyOp9
 70
     1
102
RTVSPropertyOp10
 70
     1
102
RTVSPropertyOp11
 70
     1
102
RTVSPropertyOp12
 70
     1
102
RTVSPropertyOp13
 70
     1
102
RTVSPropertyOp14
 70
     1
102
RTVSPropertyOp15
 70
     1
102
RTVSPropertyOp16
 70
     1
102
RTVSPropertyOp17
 70
     1
102
RTVSPropertyOp18
 70
     1
102
RTVSPropertyOp19
 70
     1
102
RTVSPropertyOp20
 70
     1
102
RTVSPropertyOp21
 70
     1
102
RTVSPropertyOp22
 70
     1
102
RTVSPropertyOp23
 70
     1
102
RTVSPropertyOp24
 70
     1
102
RTVSPropertyOp25
 70
     1
102
RTVSPropertyOp26
 70
     1
102
RTVSPropertyOp27
 70
     1
102
RTVSPropertyOp28
 70
     1
102
RTVSPropertyOp29
 70
     1
102
RTVSPropertyOp30
 70
     1
102
RTVSPropertyOp31
 70
     1
102
RTVSPropertyOp32
 70
     1
102
RTVSPropertyOp33
 70
     1
102
RTVSPropertyOp34
 70
     1
102
RTVSPropertyOp35
 70
     1
102
RTVSPropertyOp36
 70
     1
102
RTVSPropertyOp37
 70
     1
102
RTVSPropertyOp38
 70
     1
102
RTVSPropertyOp39
 70
     1
102
RTVSPropertyOp40
 70
     1
102
RTVSPropertyOp41
 70
     1
102
RTVSPropertyOp42
 70
     1
102
RTVSPropertyOp43
 70
     1
102
RTVSPropertyOp44
 70
     1
102
RTVSPropertyOp45
 70
     1
102
RTVSPropertyOp46
 70
     1
102
RTVSPropertyOp47
 70
     1
102
RTVSPropertyOp48
 70
     1
102
RTVSPropertyOp49
 70
     1
102
RTVSPropertyOp50
 70
     1
102
RTVSPropertyOp51
 70
     0
102
RTVSPropertyOp52
 70
     0
102
RTVSPropertyOp53
 70
     1
102
RTVSPropertyOp54
 70
     1
102
RTVSPropertyOp55
 70
     1
102
RTVSPropertyOp56
 70
     1
102
RTVSPropertyOp57
 70
     1
102
RTVSPropertyOp58
 70
     1
102
RTVSPropertyOp59
 70
     1
102
RTVSPropertyOp60
 70
     1
102
RTVSPropertyOp61
 70
     1
102
RTVSPropertyOp62
 70
     1
  0
XRECORD
  5
6CBA
102
{ACAD_REACTORS
330
6CB9
102
}
330
6CB9
100
AcDbXrecord
280
     1
102
RTVSPost2010Prop28
280
     0
102
RTVSPost2010PropOp28
 70
     1
102
RTVSPost2010Prop29
280
     1
102
RTVSPost2010PropOp29
 70
     1
102
RTVSPost2010Prop30
280
     1
102
RTVSPost2010PropOp30
 70
     1
102
RTVSPost2010Prop31
280
     0
102
RTVSPost2010PropOp31
 70
     1
102
RTVSPost2010Prop32
280
     0
102
RTVSPost2010PropOp32
 70
     1
102
RTVSPost2010Prop33
280
     0
102
RTVSPost2010PropOp33
 70
     1
102
RTVSPost2010Prop34
280
     0
102
RTVSPost2010PropOp34
 70
     1
102
RTVSPost2010Prop35
280
     0
102
RTVSPost2010PropOp35
 70
     1
102
RTVSPost2010Prop36
280
     0
102
RTVSPost2010PropOp36
 70
     1
102
RTVSPost2010Prop37
 90
       50
102
RTVSPost2010PropOp37
 70
     1
102
RTVSPost2010Prop38
140
0.0
102
RTVSPost2010PropOp38
 70
     1
102
RTVSPost2010Prop39
140
1.0
102
RTVSPost2010PropOp39
 70
     1
102
RTVSPost2010Prop40
 90
        0
102
RTVSPost2010PropOp40
 70
     1
102
RTVSPost2010Prop41ColorIndex
 90
       18
102
RTVSPost2010Prop41ColorRGB
 90
        0
102
RTVSPost2010PropOp41
 70
     1
102
RTVSPost2010Prop42
 90
       50
102
RTVSPost2010PropOp42
 70
     1
102
RTVSPost2010Prop43
 90
        3
102
RTVSPost2010PropOp43
 70
     1
102
RTVSPost2010Prop44ColorIndex
 90
        5
102
RTVSPost2010Prop44ColorRGB
 90
      255
102
RTVSPost2010PropOp44
 70
     1
102
RTVSPost2010Prop45
280
     0
102
RTVSPost2010PropOp45
 70
     1
102
RTVSPost2010Prop46
 90
       50
102
RTVSPost2010PropOp46
 70
     1
102
RTVSPost2010Prop47
 90
       50
102
RTVSPost2010PropOp47
 70
     1
102
RTVSPost2010Prop48
 90
       50
102
RTVSPost2010PropOp48
 70
     1
102
RTVSPost2010Prop49
280
     0
102
RTVSPost2010PropOp49
 70
     1
102
RTVSPost2010Prop50
 90
       50
102
RTVSPost2010PropOp50
 70
     1
102
RTVSPost2010Prop51ColorIndex
 90
      256
102
RTVSPost2010Prop51ColorRGB
 90
-16777216
102
RTVSPost2010PropOp51
 70
     0
102
RTVSPost2010Prop52
140
1.0
102
RTVSPost2010PropOp52
 70
     0
102
RTVSPost2010Prop53
 90
        2
102
RTVSPost2010PropOp53
 70
     1
102
RTVSPost2010Prop54
  1
strokes_ogs.tif
102
RTVSPost2010PropOp54
 70
     1
102
RTVSPost2010Prop55
280
     0
102
RTVSPost2010PropOp55
 70
     1
102
RTVSPost2010Prop56
140
1.0
102
RTVSPost2010PropOp56
 70
     1
102
RTVSPost2010Prop57
140
1.0
102
RTVSPost2010PropOp57
 70
     1
102
RTVSPropertyOp0
 70
     1
102
RTVSPropertyOp1
 70
     1
102
RTVSPropertyOp2
 70
     1
102
RTVSPropertyOp3
 70
     1
102
RTVSPropertyOp4
 70
     1
102
RTVSPropertyOp5
 70
     1
102
RTVSPropertyOp6
 70
     1
102
RTVSPropertyOp7
 70
     1
102
RTVSPropertyOp8
 70
     1
102
RTVSPropertyOp9
 70
     1
102
RTVSPropertyOp10
 70
     1
102
RTVSPropertyOp11
 70
     1
102
RTVSPropertyOp12
 70
     1
102
RTVSPropertyOp13
 70
     1
102
RTVSPropertyOp14
 70
     1
102
RTVSPropertyOp15
 70
     1
102
RTVSPropertyOp16
 70
     1
102
RTVSPropertyOp17
 70
     1
102
RTVSPropertyOp18
 70
     1
102
RTVSPropertyOp19
 70
     1
102
RTVSPropertyOp20
 70
     1
102
RTVSPropertyOp21
 70
     1
102
RTVSPropertyOp22
 70
     1
102
RTVSPropertyOp23
 70
     1
102
RTVSPropertyOp24
 70
     1
102
RTVSPropertyOp25
 70
     1
102
RTVSPropertyOp26
 70
     1
102
RTVSPropertyOp27
 70
     1
102
RTVSPropertyOp28
 70
     1
102
RTVSPropertyOp29
 70
     1
102
RTVSPropertyOp30
 70
     1
102
RTVSPropertyOp31
 70
     1
102
RTVSPropertyOp32
 70
     1
102
RTVSPropertyOp33
 70
     1
102
RTVSPropertyOp34
 70
     1
102
RTVSPropertyOp35
 70
     1
102
RTVSPropertyOp36
 70
     1
102
RTVSPropertyOp37
 70
     1
102
RTVSPropertyOp38
 70
     1
102
RTVSPropertyOp39
 70
     1
102
RTVSPropertyOp40
 70
     1
102
RTVSPropertyOp41
 70
     1
102
RTVSPropertyOp42
 70
     1
102
RTVSPropertyOp43
 70
     1
102
RTVSPropertyOp44
 70
     1
102
RTVSPropertyOp45
 70
     1
102
RTVSPropertyOp46
 70
     1
102
RTVSPropertyOp47
 70
     1
102
RTVSPropertyOp48
 70
     1
102
RTVSPropertyOp49
 70
     1
102
RTVSPropertyOp50
 70
     1
102
RTVSPropertyOp51
 70
     0
102
RTVSPropertyOp52
 70
     0
102
RTVSPropertyOp53
 70
     1
102
RTVSPropertyOp54
 70
     1
102
RTVSPropertyOp55
 70
     1
102
RTVSPropertyOp56
 70
     1
102
RTVSPropertyOp57
 70
     1
102
RTVSPropertyOp58
 70
     1
102
RTVSPropertyOp59
 70
     1
102
RTVSPropertyOp60
 70
     1
102
RTVSPropertyOp61
 70
     1
102
RTVSPropertyOp62
 70
     1
  0
XRECORD
  5
6CB8
102
{ACAD_REACTORS
330
6CB7
102
}
330
6CB7
100
AcDbXrecord
280
     1
102
RTVSPost2010Prop28
280
     0
102
RTVSPost2010PropOp28
 70
     1
102
RTVSPost2010Prop29
280
     1
102
RTVSPost2010PropOp29
 70
     1
102
RTVSPost2010Prop30
280
     1
102
RTVSPost2010PropOp30
 70
     1
102
RTVSPost2010Prop31
280
     0
102
RTVSPost2010PropOp31
 70
     1
102
RTVSPost2010Prop32
280
     0
102
RTVSPost2010PropOp32
 70
     1
102
RTVSPost2010Prop33
280
     0
102
RTVSPost2010PropOp33
 70
     1
102
RTVSPost2010Prop34
280
     0
102
RTVSPost2010PropOp34
 70
     1
102
RTVSPost2010Prop35
280
     0
102
RTVSPost2010PropOp35
 70
     1
102
RTVSPost2010Prop36
280
     0
102
RTVSPost2010PropOp36
 70
     1
102
RTVSPost2010Prop37
 90
       50
102
RTVSPost2010PropOp37
 70
     1
102
RTVSPost2010Prop38
140
0.0
102
RTVSPost2010PropOp38
 70
     1
102
RTVSPost2010Prop39
140
1.0
102
RTVSPost2010PropOp39
 70
     1
102
RTVSPost2010Prop40
 90
        0
102
RTVSPost2010PropOp40
 70
     1
102
RTVSPost2010Prop41ColorIndex
 90
       18
102
RTVSPost2010Prop41ColorRGB
 90
        0
102
RTVSPost2010PropOp41
 70
     1
102
RTVSPost2010Prop42
 90
       50
102
RTVSPost2010PropOp42
 70
     1
102
RTVSPost2010Prop43
 90
        3
102
RTVSPost2010PropOp43
 70
     1
102
RTVSPost2010Prop44ColorIndex
 90
        5
102
RTVSPost2010Prop44ColorRGB
 90
      255
102
RTVSPost2010PropOp44
 70
     1
102
RTVSPost2010Prop45
280
     0
102
RTVSPost2010PropOp45
 70
     1
102
RTVSPost2010Prop46
 90
       50
102
RTVSPost2010PropOp46
 70
     1
102
RTVSPost2010Prop47
 90
       50
102
RTVSPost2010PropOp47
 70
     1
102
RTVSPost2010Prop48
 90
       50
102
RTVSPost2010PropOp48
 70
     1
102
RTVSPost2010Prop49
280
     0
102
RTVSPost2010PropOp49
 70
     1
102
RTVSPost2010Prop50
 90
       50
102
RTVSPost2010PropOp50
 70
     1
102
RTVSPost2010Prop51ColorIndex
 90
      256
102
RTVSPost2010Prop51ColorRGB
 90
-16777216
102
RTVSPost2010PropOp51
 70
     0
102
RTVSPost2010Prop52
140
1.0
102
RTVSPost2010PropOp52
 70
     0
102
RTVSPost2010Prop53
 90
        2
102
RTVSPost2010PropOp53
 70
     1
102
RTVSPost2010Prop54
  1
strokes_ogs.tif
102
RTVSPost2010PropOp54
 70
     1
102
RTVSPost2010Prop55
280
     0
102
RTVSPost2010PropOp55
 70
     1
102
RTVSPost2010Prop56
140
1.0
102
RTVSPost2010PropOp56
 70
     1
102
RTVSPost2010Prop57
140
1.0
102
RTVSPost2010PropOp57
 70
     1
102
RTVSPropertyOp0
 70
     1
102
RTVSPropertyOp1
 70
     1
102
RTVSPropertyOp2
 70
     1
102
RTVSPropertyOp3
 70
     1
102
RTVSPropertyOp4
 70
     1
102
RTVSPropertyOp5
 70
     1
102
RTVSPropertyOp6
 70
     1
102
RTVSPropertyOp7
 70
     1
102
RTVSPropertyOp8
 70
     1
102
RTVSPropertyOp9
 70
     1
102
RTVSPropertyOp10
 70
     1
102
RTVSPropertyOp11
 70
     1
102
RTVSPropertyOp12
 70
     1
102
RTVSPropertyOp13
 70
     1
102
RTVSPropertyOp14
 70
     1
102
RTVSPropertyOp15
 70
     1
102
RTVSPropertyOp16
 70
     1
102
RTVSPropertyOp17
 70
     1
102
RTVSPropertyOp18
 70
     1
102
RTVSPropertyOp19
 70
     1
102
RTVSPropertyOp20
 70
     1
102
RTVSPropertyOp21
 70
     1
102
RTVSPropertyOp22
 70
     1
102
RTVSPropertyOp23
 70
     1
102
RTVSPropertyOp24
 70
     1
102
RTVSPropertyOp25
 70
     1
102
RTVSPropertyOp26
 70
     1
102
RTVSPropertyOp27
 70
     1
102
RTVSPropertyOp28
 70
     1
102
RTVSPropertyOp29
 70
     1
102
RTVSPropertyOp30
 70
     1
102
RTVSPropertyOp31
 70
     1
102
RTVSPropertyOp32
 70
     1
102
RTVSPropertyOp33
 70
     1
102
RTVSPropertyOp34
 70
     1
102
RTVSPropertyOp35
 70
     1
102
RTVSPropertyOp36
 70
     1
102
RTVSPropertyOp37
 70
     1
102
RTVSPropertyOp38
 70
     1
102
RTVSPropertyOp39
 70
     1
102
RTVSPropertyOp40
 70
     1
102
RTVSPropertyOp41
 70
     1
102
RTVSPropertyOp42
 70
     1
102
RTVSPropertyOp43
 70
     1
102
RTVSPropertyOp44
 70
     1
102
RTVSPropertyOp45
 70
     1
102
RTVSPropertyOp46
 70
     1
102
RTVSPropertyOp47
 70
     1
102
RTVSPropertyOp48
 70
     1
102
RTVSPropertyOp49
 70
     1
102
RTVSPropertyOp50
 70
     1
102
RTVSPropertyOp51
 70
     0
102
RTVSPropertyOp52
 70
     0
102
RTVSPropertyOp53
 70
     1
102
RTVSPropertyOp54
 70
     1
102
RTVSPropertyOp55
 70
     1
102
RTVSPropertyOp56
 70
     1
102
RTVSPropertyOp57
 70
     1
102
RTVSPropertyOp58
 70
     1
102
RTVSPropertyOp59
 70
     1
102
RTVSPropertyOp60
 70
     1
102
RTVSPropertyOp61
 70
     1
102
RTVSPropertyOp62
 70
     1
  0
XRECORD
  5
6CB2
102
{ACAD_REACTORS
330
6CB1
102
}
330
6CB1
100
AcDbXrecord
280
     1
102
RTVSPost2010Prop28
280
     0
102
RTVSPost2010PropOp28
 70
     1
102
RTVSPost2010Prop29
280
     1
102
RTVSPost2010PropOp29
 70
     1
102
RTVSPost2010Prop30
280
     1
102
RTVSPost2010PropOp30
 70
     1
102
RTVSPost2010Prop31
280
     0
102
RTVSPost2010PropOp31
 70
     1
102
RTVSPost2010Prop32
280
     0
102
RTVSPost2010PropOp32
 70
     1
102
RTVSPost2010Prop33
280
     0
102
RTVSPost2010PropOp33
 70
     1
102
RTVSPost2010Prop34
280
     0
102
RTVSPost2010PropOp34
 70
     1
102
RTVSPost2010Prop35
280
     0
102
RTVSPost2010PropOp35
 70
     1
102
RTVSPost2010Prop36
280
     0
102
RTVSPost2010PropOp36
 70
     1
102
RTVSPost2010Prop37
 90
       50
102
RTVSPost2010PropOp37
 70
     1
102
RTVSPost2010Prop38
140
0.0
102
RTVSPost2010PropOp38
 70
     1
102
RTVSPost2010Prop39
140
1.0
102
RTVSPost2010PropOp39
 70
     1
102
RTVSPost2010Prop40
 90
        0
102
RTVSPost2010PropOp40
 70
     1
102
RTVSPost2010Prop41ColorIndex
 90
       18
102
RTVSPost2010Prop41ColorRGB
 90
        0
102
RTVSPost2010PropOp41
 70
     1
102
RTVSPost2010Prop42
 90
       50
102
RTVSPost2010PropOp42
 70
     1
102
RTVSPost2010Prop43
 90
        3
102
RTVSPost2010PropOp43
 70
     1
102
RTVSPost2010Prop44ColorIndex
 90
        5
102
RTVSPost2010Prop44ColorRGB
 90
      255
102
RTVSPost2010PropOp44
 70
     1
102
RTVSPost2010Prop45
280
     0
102
RTVSPost2010PropOp45
 70
     1
102
RTVSPost2010Prop46
 90
       50
102
RTVSPost2010PropOp46
 70
     1
102
RTVSPost2010Prop47
 90
       50
102
RTVSPost2010PropOp47
 70
     1
102
RTVSPost2010Prop48
 90
       50
102
RTVSPost2010PropOp48
 70
     1
102
RTVSPost2010Prop49
280
     0
102
RTVSPost2010PropOp49
 70
     1
102
RTVSPost2010Prop50
 90
       50
102
RTVSPost2010PropOp50
 70
     1
102
RTVSPost2010Prop51ColorIndex
 90
      256
102
RTVSPost2010Prop51ColorRGB
 90
-16777216
102
RTVSPost2010PropOp51
 70
     0
102
RTVSPost2010Prop52
140
1.0
102
RTVSPost2010PropOp52
 70
     0
102
RTVSPost2010Prop53
 90
        2
102
RTVSPost2010PropOp53
 70
     1
102
RTVSPost2010Prop54
  1
strokes_ogs.tif
102
RTVSPost2010PropOp54
 70
     1
102
RTVSPost2010Prop55
280
     0
102
RTVSPost2010PropOp55
 70
     1
102
RTVSPost2010Prop56
140
1.0
102
RTVSPost2010PropOp56
 70
     1
102
RTVSPost2010Prop57
140
1.0
102
RTVSPost2010PropOp57
 70
     1
102
RTVSPropertyOp0
 70
     1
102
RTVSPropertyOp1
 70
     1
102
RTVSPropertyOp2
 70
     1
102
RTVSPropertyOp3
 70
     1
102
RTVSPropertyOp4
 70
     1
102
RTVSPropertyOp5
 70
     1
102
RTVSPropertyOp6
 70
     1
102
RTVSPropertyOp7
 70
     1
102
RTVSPropertyOp8
 70
     1
102
RTVSPropertyOp9
 70
     1
102
RTVSPropertyOp10
 70
     1
102
RTVSPropertyOp11
 70
     1
102
RTVSPropertyOp12
 70
     1
102
RTVSPropertyOp13
 70
     1
102
RTVSPropertyOp14
 70
     1
102
RTVSPropertyOp15
 70
     1
102
RTVSPropertyOp16
 70
     1
102
RTVSPropertyOp17
 70
     1
102
RTVSPropertyOp18
 70
     1
102
RTVSPropertyOp19
 70
     1
102
RTVSPropertyOp20
 70
     1
102
RTVSPropertyOp21
 70
     1
102
RTVSPropertyOp22
 70
     1
102
RTVSPropertyOp23
 70
     1
102
RTVSPropertyOp24
 70
     1
102
RTVSPropertyOp25
 70
     1
102
RTVSPropertyOp26
 70
     1
102
RTVSPropertyOp27
 70
     1
102
RTVSPropertyOp28
 70
     1
102
RTVSPropertyOp29
 70
     1
102
RTVSPropertyOp30
 70
     1
102
RTVSPropertyOp31
 70
     1
102
RTVSPropertyOp32
 70
     1
102
RTVSPropertyOp33
 70
     1
102
RTVSPropertyOp34
 70
     1
102
RTVSPropertyOp35
 70
     1
102
RTVSPropertyOp36
 70
     1
102
RTVSPropertyOp37
 70
     1
102
RTVSPropertyOp38
 70
     1
102
RTVSPropertyOp39
 70
     1
102
RTVSPropertyOp40
 70
     1
102
RTVSPropertyOp41
 70
     1
102
RTVSPropertyOp42
 70
     1
102
RTVSPropertyOp43
 70
     1
102
RTVSPropertyOp44
 70
     1
102
RTVSPropertyOp45
 70
     1
102
RTVSPropertyOp46
 70
     1
102
RTVSPropertyOp47
 70
     1
102
RTVSPropertyOp48
 70
     1
102
RTVSPropertyOp49
 70
     1
102
RTVSPropertyOp50
 70
     1
102
RTVSPropertyOp51
 70
     0
102
RTVSPropertyOp52
 70
     0
102
RTVSPropertyOp53
 70
     1
102
RTVSPropertyOp54
 70
     1
102
RTVSPropertyOp55
 70
     1
102
RTVSPropertyOp56
 70
     1
102
RTVSPropertyOp57
 70
     1
102
RTVSPropertyOp58
 70
     1
102
RTVSPropertyOp59
 70
     1
102
RTVSPropertyOp60
 70
     1
102
RTVSPropertyOp61
 70
     1
102
RTVSPropertyOp62
 70
     1
  0
XRECORD
  5
6CB4
102
{ACAD_REACTORS
330
6CB3
102
}
330
6CB3
100
AcDbXrecord
280
     1
102
RTVSPost2010Prop28
280
     0
102
RTVSPost2010PropOp28
 70
     1
102
RTVSPost2010Prop29
280
     1
102
RTVSPost2010PropOp29
 70
     1
102
RTVSPost2010Prop30
280
     1
102
RTVSPost2010PropOp30
 70
     1
102
RTVSPost2010Prop31
280
     0
102
RTVSPost2010PropOp31
 70
     1
102
RTVSPost2010Prop32
280
     0
102
RTVSPost2010PropOp32
 70
     1
102
RTVSPost2010Prop33
280
     0
102
RTVSPost2010PropOp33
 70
     1
102
RTVSPost2010Prop34
280
     0
102
RTVSPost2010PropOp34
 70
     1
102
RTVSPost2010Prop35
280
     0
102
RTVSPost2010PropOp35
 70
     1
102
RTVSPost2010Prop36
280
     0
102
RTVSPost2010PropOp36
 70
     1
102
RTVSPost2010Prop37
 90
       50
102
RTVSPost2010PropOp37
 70
     1
102
RTVSPost2010Prop38
140
0.0
102
RTVSPost2010PropOp38
 70
     1
102
RTVSPost2010Prop39
140
1.0
102
RTVSPost2010PropOp39
 70
     1
102
RTVSPost2010Prop40
 90
        0
102
RTVSPost2010PropOp40
 70
     1
102
RTVSPost2010Prop41ColorIndex
 90
       18
102
RTVSPost2010Prop41ColorRGB
 90
        0
102
RTVSPost2010PropOp41
 70
     1
102
RTVSPost2010Prop42
 90
       50
102
RTVSPost2010PropOp42
 70
     1
102
RTVSPost2010Prop43
 90
        3
102
RTVSPost2010PropOp43
 70
     1
102
RTVSPost2010Prop44ColorIndex
 90
        5
102
RTVSPost2010Prop44ColorRGB
 90
      255
102
RTVSPost2010PropOp44
 70
     1
102
RTVSPost2010Prop45
280
     0
102
RTVSPost2010PropOp45
 70
     1
102
RTVSPost2010Prop46
 90
       50
102
RTVSPost2010PropOp46
 70
     1
102
RTVSPost2010Prop47
 90
       50
102
RTVSPost2010PropOp47
 70
     1
102
RTVSPost2010Prop48
 90
       50
102
RTVSPost2010PropOp48
 70
     1
102
RTVSPost2010Prop49
280
     0
102
RTVSPost2010PropOp49
 70
     1
102
RTVSPost2010Prop50
 90
       50
102
RTVSPost2010PropOp50
 70
     1
102
RTVSPost2010Prop51ColorIndex
 90
      256
102
RTVSPost2010Prop51ColorRGB
 90
-16777216
102
RTVSPost2010PropOp51
 70
     0
102
RTVSPost2010Prop52
140
1.0
102
RTVSPost2010PropOp52
 70
     0
102
RTVSPost2010Prop53
 90
        2
102
RTVSPost2010PropOp53
 70
     1
102
RTVSPost2010Prop54
  1
strokes_ogs.tif
102
RTVSPost2010PropOp54
 70
     1
102
RTVSPost2010Prop55
280
     0
102
RTVSPost2010PropOp55
 70
     1
102
RTVSPost2010Prop56
140
1.0
102
RTVSPost2010PropOp56
 70
     1
102
RTVSPost2010Prop57
140
1.0
102
RTVSPost2010PropOp57
 70
     1
102
RTVSPropertyOp0
 70
     1
102
RTVSPropertyOp1
 70
     1
102
RTVSPropertyOp2
 70
     1
102
RTVSPropertyOp3
 70
     1
102
RTVSPropertyOp4
 70
     1
102
RTVSPropertyOp5
 70
     1
102
RTVSPropertyOp6
 70
     1
102
RTVSPropertyOp7
 70
     1
102
RTVSPropertyOp8
 70
     1
102
RTVSPropertyOp9
 70
     1
102
RTVSPropertyOp10
 70
     1
102
RTVSPropertyOp11
 70
     1
102
RTVSPropertyOp12
 70
     1
102
RTVSPropertyOp13
 70
     1
102
RTVSPropertyOp14
 70
     1
102
RTVSPropertyOp15
 70
     1
102
RTVSPropertyOp16
 70
     1
102
RTVSPropertyOp17
 70
     1
102
RTVSPropertyOp18
 70
     1
102
RTVSPropertyOp19
 70
     1
102
RTVSPropertyOp20
 70
     1
102
RTVSPropertyOp21
 70
     1
102
RTVSPropertyOp22
 70
     1
102
RTVSPropertyOp23
 70
     1
102
RTVSPropertyOp24
 70
     1
102
RTVSPropertyOp25
 70
     1
102
RTVSPropertyOp26
 70
     1
102
RTVSPropertyOp27
 70
     1
102
RTVSPropertyOp28
 70
     1
102
RTVSPropertyOp29
 70
     1
102
RTVSPropertyOp30
 70
     1
102
RTVSPropertyOp31
 70
     1
102
RTVSPropertyOp32
 70
     1
102
RTVSPropertyOp33
 70
     1
102
RTVSPropertyOp34
 70
     1
102
RTVSPropertyOp35
 70
     1
102
RTVSPropertyOp36
 70
     1
102
RTVSPropertyOp37
 70
     1
102
RTVSPropertyOp38
 70
     1
102
RTVSPropertyOp39
 70
     1
102
RTVSPropertyOp40
 70
     1
102
RTVSPropertyOp41
 70
     1
102
RTVSPropertyOp42
 70
     1
102
RTVSPropertyOp43
 70
     1
102
RTVSPropertyOp44
 70
     1
102
RTVSPropertyOp45
 70
     1
102
RTVSPropertyOp46
 70
     1
102
RTVSPropertyOp47
 70
     1
102
RTVSPropertyOp48
 70
     1
102
RTVSPropertyOp49
 70
     1
102
RTVSPropertyOp50
 70
     1
102
RTVSPropertyOp51
 70
     0
102
RTVSPropertyOp52
 70
     0
102
RTVSPropertyOp53
 70
     1
102
RTVSPropertyOp54
 70
     1
102
RTVSPropertyOp55
 70
     1
102
RTVSPropertyOp56
 70
     1
102
RTVSPropertyOp57
 70
     1
102
RTVSPropertyOp58
 70
     1
102
RTVSPropertyOp59
 70
     1
102
RTVSPropertyOp60
 70
     1
102
RTVSPropertyOp61
 70
     1
102
RTVSPropertyOp62
 70
     1
  0
XRECORD
  5
6CAA
102
{ACAD_REACTORS
330
6CA9
102
}
330
6CA9
100
AcDbXrecord
280
     1
102
RTVSPost2010Prop28
280
     0
102
RTVSPost2010PropOp28
 70
     1
102
RTVSPost2010Prop29
280
     1
102
RTVSPost2010PropOp29
 70
     1
102
RTVSPost2010Prop30
280
     1
102
RTVSPost2010PropOp30
 70
     1
102
RTVSPost2010Prop31
280
     0
102
RTVSPost2010PropOp31
 70
     1
102
RTVSPost2010Prop32
280
     0
102
RTVSPost2010PropOp32
 70
     1
102
RTVSPost2010Prop33
280
     0
102
RTVSPost2010PropOp33
 70
     1
102
RTVSPost2010Prop34
280
     0
102
RTVSPost2010PropOp34
 70
     1
102
RTVSPost2010Prop35
280
     0
102
RTVSPost2010PropOp35
 70
     1
102
RTVSPost2010Prop36
280
     0
102
RTVSPost2010PropOp36
 70
     1
102
RTVSPost2010Prop37
 90
       50
102
RTVSPost2010PropOp37
 70
     1
102
RTVSPost2010Prop38
140
0.0
102
RTVSPost2010PropOp38
 70
     1
102
RTVSPost2010Prop39
140
1.0
102
RTVSPost2010PropOp39
 70
     1
102
RTVSPost2010Prop40
 90
        0
102
RTVSPost2010PropOp40
 70
     1
102
RTVSPost2010Prop41ColorIndex
 90
       18
102
RTVSPost2010Prop41ColorRGB
 90
        0
102
RTVSPost2010PropOp41
 70
     1
102
RTVSPost2010Prop42
 90
       50
102
RTVSPost2010PropOp42
 70
     1
102
RTVSPost2010Prop43
 90
        3
102
RTVSPost2010PropOp43
 70
     1
102
RTVSPost2010Prop44ColorIndex
 90
        5
102
RTVSPost2010Prop44ColorRGB
 90
      255
102
RTVSPost2010PropOp44
 70
     1
102
RTVSPost2010Prop45
280
     0
102
RTVSPost2010PropOp45
 70
     1
102
RTVSPost2010Prop46
 90
       50
102
RTVSPost2010PropOp46
 70
     1
102
RTVSPost2010Prop47
 90
       50
102
RTVSPost2010PropOp47
 70
     1
102
RTVSPost2010Prop48
 90
       50
102
RTVSPost2010PropOp48
 70
     1
102
RTVSPost2010Prop49
280
     0
102
RTVSPost2010PropOp49
 70
     1
102
RTVSPost2010Prop50
 90
       50
102
RTVSPost2010PropOp50
 70
     1
102
RTVSPost2010Prop51ColorIndex
 90
      256
102
RTVSPost2010Prop51ColorRGB
 90
-16777216
102
RTVSPost2010PropOp51
 70
     0
102
RTVSPost2010Prop52
140
1.0
102
RTVSPost2010PropOp52
 70
     0
102
RTVSPost2010Prop53
 90
        2
102
RTVSPost2010PropOp53
 70
     1
102
RTVSPost2010Prop54
  1
strokes_ogs.tif
102
RTVSPost2010PropOp54
 70
     1
102
RTVSPost2010Prop55
280
     0
102
RTVSPost2010PropOp55
 70
     1
102
RTVSPost2010Prop56
140
1.0
102
RTVSPost2010PropOp56
 70
     1
102
RTVSPost2010Prop57
140
1.0
102
RTVSPost2010PropOp57
 70
     1
102
RTVSPropertyOp0
 70
     1
102
RTVSPropertyOp1
 70
     1
102
RTVSPropertyOp2
 70
     1
102
RTVSPropertyOp3
 70
     1
102
RTVSPropertyOp4
 70
     1
102
RTVSPropertyOp5
 70
     1
102
RTVSPropertyOp6
 70
     1
102
RTVSPropertyOp7
 70
     1
102
RTVSPropertyOp8
 70
     1
102
RTVSPropertyOp9
 70
     1
102
RTVSPropertyOp10
 70
     1
102
RTVSPropertyOp11
 70
     1
102
RTVSPropertyOp12
 70
     1
102
RTVSPropertyOp13
 70
     1
102
RTVSPropertyOp14
 70
     1
102
RTVSPropertyOp15
 70
     1
102
RTVSPropertyOp16
 70
     1
102
RTVSPropertyOp17
 70
     1
102
RTVSPropertyOp18
 70
     1
102
RTVSPropertyOp19
 70
     1
102
RTVSPropertyOp20
 70
     1
102
RTVSPropertyOp21
 70
     1
102
RTVSPropertyOp22
 70
     1
102
RTVSPropertyOp23
 70
     1
102
RTVSPropertyOp24
 70
     1
102
RTVSPropertyOp25
 70
     1
102
RTVSPropertyOp26
 70
     1
102
RTVSPropertyOp27
 70
     1
102
RTVSPropertyOp28
 70
     1
102
RTVSPropertyOp29
 70
     1
102
RTVSPropertyOp30
 70
     1
102
RTVSPropertyOp31
 70
     1
102
RTVSPropertyOp32
 70
     1
102
RTVSPropertyOp33
 70
     1
102
RTVSPropertyOp34
 70
     1
102
RTVSPropertyOp35
 70
     1
102
RTVSPropertyOp36
 70
     1
102
RTVSPropertyOp37
 70
     1
102
RTVSPropertyOp38
 70
     1
102
RTVSPropertyOp39
 70
     1
102
RTVSPropertyOp40
 70
     1
102
RTVSPropertyOp41
 70
     1
102
RTVSPropertyOp42
 70
     1
102
RTVSPropertyOp43
 70
     1
102
RTVSPropertyOp44
 70
     1
102
RTVSPropertyOp45
 70
     1
102
RTVSPropertyOp46
 70
     1
102
RTVSPropertyOp47
 70
     1
102
RTVSPropertyOp48
 70
     1
102
RTVSPropertyOp49
 70
     1
102
RTVSPropertyOp50
 70
     1
102
RTVSPropertyOp51
 70
     0
102
RTVSPropertyOp52
 70
     0
102
RTVSPropertyOp53
 70
     1
102
RTVSPropertyOp54
 70
     1
102
RTVSPropertyOp55
 70
     1
102
RTVSPropertyOp56
 70
     1
102
RTVSPropertyOp57
 70
     1
102
RTVSPropertyOp58
 70
     1
102
RTVSPropertyOp59
 70
     1
102
RTVSPropertyOp60
 70
     1
102
RTVSPropertyOp61
 70
     1
102
RTVSPropertyOp62
 70
     1
  0
XRECORD
  5
6C9E
102
{ACAD_REACTORS
330
6C9D
102
}
330
6C9D
100
AcDbXrecord
280
     1
102
RTVSPost2010Prop28
280
     0
102
RTVSPost2010PropOp28
 70
     1
102
RTVSPost2010Prop29
280
     1
102
RTVSPost2010PropOp29
 70
     1
102
RTVSPost2010Prop30
280
     1
102
RTVSPost2010PropOp30
 70
     1
102
RTVSPost2010Prop31
280
     0
102
RTVSPost2010PropOp31
 70
     1
102
RTVSPost2010Prop32
280
     0
102
RTVSPost2010PropOp32
 70
     1
102
RTVSPost2010Prop33
280
     0
102
RTVSPost2010PropOp33
 70
     1
102
RTVSPost2010Prop34
280
     0
102
RTVSPost2010PropOp34
 70
     1
102
RTVSPost2010Prop35
280
     0
102
RTVSPost2010PropOp35
 70
     1
102
RTVSPost2010Prop36
280
     0
102
RTVSPost2010PropOp36
 70
     1
102
RTVSPost2010Prop37
 90
       50
102
RTVSPost2010PropOp37
 70
     1
102
RTVSPost2010Prop38
140
0.0
102
RTVSPost2010PropOp38
 70
     1
102
RTVSPost2010Prop39
140
1.0
102
RTVSPost2010PropOp39
 70
     1
102
RTVSPost2010Prop40
 90
        0
102
RTVSPost2010PropOp40
 70
     1
102
RTVSPost2010Prop41ColorIndex
 90
       18
102
RTVSPost2010Prop41ColorRGB
 90
        0
102
RTVSPost2010PropOp41
 70
     1
102
RTVSPost2010Prop42
 90
       50
102
RTVSPost2010PropOp42
 70
     1
102
RTVSPost2010Prop43
 90
        3
102
RTVSPost2010PropOp43
 70
     1
102
RTVSPost2010Prop44ColorIndex
 90
        5
102
RTVSPost2010Prop44ColorRGB
 90
      255
102
RTVSPost2010PropOp44
 70
     1
102
RTVSPost2010Prop45
280
     0
102
RTVSPost2010PropOp45
 70
     1
102
RTVSPost2010Prop46
 90
       50
102
RTVSPost2010PropOp46
 70
     1
102
RTVSPost2010Prop47
 90
       50
102
RTVSPost2010PropOp47
 70
     1
102
RTVSPost2010Prop48
 90
       50
102
RTVSPost2010PropOp48
 70
     1
102
RTVSPost2010Prop49
280
     0
102
RTVSPost2010PropOp49
 70
     1
102
RTVSPost2010Prop50
 90
       50
102
RTVSPost2010PropOp50
 70
     1
102
RTVSPost2010Prop51ColorIndex
 90
      256
102
RTVSPost2010Prop51ColorRGB
 90
-16777216
102
RTVSPost2010PropOp51
 70
     0
102
RTVSPost2010Prop52
140
1.0
102
RTVSPost2010PropOp52
 70
     0
102
RTVSPost2010Prop53
 90
        2
102
RTVSPost2010PropOp53
 70
     1
102
RTVSPost2010Prop54
  1
strokes_ogs.tif
102
RTVSPost2010PropOp54
 70
     1
102
RTVSPost2010Prop55
280
     0
102
RTVSPost2010PropOp55
 70
     1
102
RTVSPost2010Prop56
140
1.0
102
RTVSPost2010PropOp56
 70
     1
102
RTVSPost2010Prop57
140
1.0
102
RTVSPost2010PropOp57
 70
     1
102
RTVSPropertyOp0
 70
     1
102
RTVSPropertyOp1
 70
     1
102
RTVSPropertyOp2
 70
     1
102
RTVSPropertyOp3
 70
     1
102
RTVSPropertyOp4
 70
     1
102
RTVSPropertyOp5
 70
     1
102
RTVSPropertyOp6
 70
     1
102
RTVSPropertyOp7
 70
     1
102
RTVSPropertyOp8
 70
     1
102
RTVSPropertyOp9
 70
     1
102
RTVSPropertyOp10
 70
     1
102
RTVSPropertyOp11
 70
     1
102
RTVSPropertyOp12
 70
     1
102
RTVSPropertyOp13
 70
     1
102
RTVSPropertyOp14
 70
     1
102
RTVSPropertyOp15
 70
     1
102
RTVSPropertyOp16
 70
     1
102
RTVSPropertyOp17
 70
     1
102
RTVSPropertyOp18
 70
     1
102
RTVSPropertyOp19
 70
     1
102
RTVSPropertyOp20
 70
     1
102
RTVSPropertyOp21
 70
     1
102
RTVSPropertyOp22
 70
     1
102
RTVSPropertyOp23
 70
     1
102
RTVSPropertyOp24
 70
     1
102
RTVSPropertyOp25
 70
     1
102
RTVSPropertyOp26
 70
     1
102
RTVSPropertyOp27
 70
     1
102
RTVSPropertyOp28
 70
     1
102
RTVSPropertyOp29
 70
     1
102
RTVSPropertyOp30
 70
     1
102
RTVSPropertyOp31
 70
     1
102
RTVSPropertyOp32
 70
     1
102
RTVSPropertyOp33
 70
     1
102
RTVSPropertyOp34
 70
     1
102
RTVSPropertyOp35
 70
     1
102
RTVSPropertyOp36
 70
     1
102
RTVSPropertyOp37
 70
     1
102
RTVSPropertyOp38
 70
     1
102
RTVSPropertyOp39
 70
     1
102
RTVSPropertyOp40
 70
     1
102
RTVSPropertyOp41
 70
     1
102
RTVSPropertyOp42
 70
     1
102
RTVSPropertyOp43
 70
     1
102
RTVSPropertyOp44
 70
     1
102
RTVSPropertyOp45
 70
     1
102
RTVSPropertyOp46
 70
     1
102
RTVSPropertyOp47
 70
     1
102
RTVSPropertyOp48
 70
     1
102
RTVSPropertyOp49
 70
     1
102
RTVSPropertyOp50
 70
     1
102
RTVSPropertyOp51
 70
     0
102
RTVSPropertyOp52
 70
     0
102
RTVSPropertyOp53
 70
     1
102
RTVSPropertyOp54
 70
     1
102
RTVSPropertyOp55
 70
     1
102
RTVSPropertyOp56
 70
     1
102
RTVSPropertyOp57
 70
     1
102
RTVSPropertyOp58
 70
     1
102
RTVSPropertyOp59
 70
     1
102
RTVSPropertyOp60
 70
     1
102
RTVSPropertyOp61
 70
     1
102
RTVSPropertyOp62
 70
     1
  0
XRECORD
  5
6CB6
102
{ACAD_REACTORS
330
6CB5
102
}
330
6CB5
100
AcDbXrecord
280
     1
102
RTVSPost2010Prop28
280
     0
102
RTVSPost2010PropOp28
 70
     1
102
RTVSPost2010Prop29
280
     1
102
RTVSPost2010PropOp29
 70
     1
102
RTVSPost2010Prop30
280
     1
102
RTVSPost2010PropOp30
 70
     1
102
RTVSPost2010Prop31
280
     0
102
RTVSPost2010PropOp31
 70
     1
102
RTVSPost2010Prop32
280
     0
102
RTVSPost2010PropOp32
 70
     1
102
RTVSPost2010Prop33
280
     0
102
RTVSPost2010PropOp33
 70
     1
102
RTVSPost2010Prop34
280
     0
102
RTVSPost2010PropOp34
 70
     1
102
RTVSPost2010Prop35
280
     0
102
RTVSPost2010PropOp35
 70
     1
102
RTVSPost2010Prop36
280
     0
102
RTVSPost2010PropOp36
 70
     1
102
RTVSPost2010Prop37
 90
       50
102
RTVSPost2010PropOp37
 70
     1
102
RTVSPost2010Prop38
140
0.0
102
RTVSPost2010PropOp38
 70
     1
102
RTVSPost2010Prop39
140
1.0
102
RTVSPost2010PropOp39
 70
     1
102
RTVSPost2010Prop40
 90
        0
102
RTVSPost2010PropOp40
 70
     1
102
RTVSPost2010Prop41ColorIndex
 90
       18
102
RTVSPost2010Prop41ColorRGB
 90
        0
102
RTVSPost2010PropOp41
 70
     1
102
RTVSPost2010Prop42
 90
       50
102
RTVSPost2010PropOp42
 70
     1
102
RTVSPost2010Prop43
 90
        3
102
RTVSPost2010PropOp43
 70
     1
102
RTVSPost2010Prop44ColorIndex
 90
        5
102
RTVSPost2010Prop44ColorRGB
 90
      255
102
RTVSPost2010PropOp44
 70
     1
102
RTVSPost2010Prop45
280
     0
102
RTVSPost2010PropOp45
 70
     1
102
RTVSPost2010Prop46
 90
       50
102
RTVSPost2010PropOp46
 70
     1
102
RTVSPost2010Prop47
 90
       50
102
RTVSPost2010PropOp47
 70
     1
102
RTVSPost2010Prop48
 90
       50
102
RTVSPost2010PropOp48
 70
     1
102
RTVSPost2010Prop49
280
     0
102
RTVSPost2010PropOp49
 70
     1
102
RTVSPost2010Prop50
 90
       50
102
RTVSPost2010PropOp50
 70
     1
102
RTVSPost2010Prop51ColorIndex
 90
      256
102
RTVSPost2010Prop51ColorRGB
 90
-16777216
102
RTVSPost2010PropOp51
 70
     0
102
RTVSPost2010Prop52
140
1.0
102
RTVSPost2010PropOp52
 70
     0
102
RTVSPost2010Prop53
 90
        2
102
RTVSPost2010PropOp53
 70
     1
102
RTVSPost2010Prop54
  1
strokes_ogs.tif
102
RTVSPost2010PropOp54
 70
     1
102
RTVSPost2010Prop55
280
     0
102
RTVSPost2010PropOp55
 70
     1
102
RTVSPost2010Prop56
140
1.0
102
RTVSPost2010PropOp56
 70
     1
102
RTVSPost2010Prop57
140
1.0
102
RTVSPost2010PropOp57
 70
     1
102
RTVSPropertyOp0
 70
     1
102
RTVSPropertyOp1
 70
     1
102
RTVSPropertyOp2
 70
     1
102
RTVSPropertyOp3
 70
     1
102
RTVSPropertyOp4
 70
     1
102
RTVSPropertyOp5
 70
     1
102
RTVSPropertyOp6
 70
     1
102
RTVSPropertyOp7
 70
     1
102
RTVSPropertyOp8
 70
     1
102
RTVSPropertyOp9
 70
     1
102
RTVSPropertyOp10
 70
     1
102
RTVSPropertyOp11
 70
     1
102
RTVSPropertyOp12
 70
     1
102
RTVSPropertyOp13
 70
     1
102
RTVSPropertyOp14
 70
     1
102
RTVSPropertyOp15
 70
     1
102
RTVSPropertyOp16
 70
     1
102
RTVSPropertyOp17
 70
     1
102
RTVSPropertyOp18
 70
     1
102
RTVSPropertyOp19
 70
     1
102
RTVSPropertyOp20
 70
     1
102
RTVSPropertyOp21
 70
     1
102
RTVSPropertyOp22
 70
     1
102
RTVSPropertyOp23
 70
     1
102
RTVSPropertyOp24
 70
     1
102
RTVSPropertyOp25
 70
     1
102
RTVSPropertyOp26
 70
     1
102
RTVSPropertyOp27
 70
     1
102
RTVSPropertyOp28
 70
     1
102
RTVSPropertyOp29
 70
     1
102
RTVSPropertyOp30
 70
     1
102
RTVSPropertyOp31
 70
     1
102
RTVSPropertyOp32
 70
     1
102
RTVSPropertyOp33
 70
     1
102
RTVSPropertyOp34
 70
     1
102
RTVSPropertyOp35
 70
     1
102
RTVSPropertyOp36
 70
     1
102
RTVSPropertyOp37
 70
     1
102
RTVSPropertyOp38
 70
     1
102
RTVSPropertyOp39
 70
     1
102
RTVSPropertyOp40
 70
     1
102
RTVSPropertyOp41
 70
     1
102
RTVSPropertyOp42
 70
     1
102
RTVSPropertyOp43
 70
     1
102
RTVSPropertyOp44
 70
     1
102
RTVSPropertyOp45
 70
     1
102
RTVSPropertyOp46
 70
     1
102
RTVSPropertyOp47
 70
     1
102
RTVSPropertyOp48
 70
     1
102
RTVSPropertyOp49
 70
     1
102
RTVSPropertyOp50
 70
     1
102
RTVSPropertyOp51
 70
     0
102
RTVSPropertyOp52
 70
     0
102
RTVSPropertyOp53
 70
     1
102
RTVSPropertyOp54
 70
     1
102
RTVSPropertyOp55
 70
     1
102
RTVSPropertyOp56
 70
     1
102
RTVSPropertyOp57
 70
     1
102
RTVSPropertyOp58
 70
     1
102
RTVSPropertyOp59
 70
     1
102
RTVSPropertyOp60
 70
     1
102
RTVSPropertyOp61
 70
     1
102
RTVSPropertyOp62
 70
     1
  0
ENDSEC
  0
EOF
