  0
SECTION
  2
HEADER
  9
$ACADVER
  1
AC1015
  9
$ACADMAINTVER
 70
    10
  9
$DWGCODEPAGE
  3
ANSI_932
  9
$INSBASE
 10
0.0
 20
0.0
 30
0.0
  9
$EXTMIN
 10
-85.0165489197152
 20
-350.5033718392917
 30
-0.0015258207003583
  9
$EXTMAX
 10
352.0938875268925
 20
325.019385710513
 30
0.0000000349246037
  9
$LIMMIN
 10
-296.316999476111
 20
-370.7034300441653
  9
$LIMMAX
 10
623.3128432133979
 20
328.6261559379898
  9
$ORTHOMODE
 70
     0
  9
$REGENMODE
 70
     1
  9
$FILLMODE
 70
     1
  9
$QTEXTMODE
 70
     0
  9
$MIRRTEXT
 70
     1
  9
$LTSCALE
 40
10.0
  9
$ATTMODE
 70
     1
  9
$TEXTSIZE
 40
5.0
  9
$TRACEWID
 40
0.05
  9
$TEXTSTYLE
  7
STANDARD1
  9
$CLAYER
  8
30
  9
$CELTYPE
  6
CONTINUOUS
  9
$CECOLOR
 62
   256
  9
$CELTSCALE
 40
1.0
  9
$DISPSILH
 70
     0
  9
$DIMSCALE
 40
1.0
  9
$DIMASZ
 40
2.0
  9
$DIMEXO
 40
1.0
  9
$DIMDLI
 40
0.5
  9
$DIMRND
 40
0.0
  9
$DIMDLE
 40
0.0
  9
$DIMEXE
 40
0.5
  9
$DIMTP
 40
0.0
  9
$DIMTM
 40
0.0
  9
$DIMTXT
 40
4.0
  9
$DIMCEN
 40
0.09
  9
$DIMTSZ
 40
0.0
  9
$DIMTOL
 70
     0
  9
$DIMLIM
 70
     0
  9
$DIMTIH
 70
     0
  9
$DIMTOH
 70
     1
  9
$DIMSE1
 70
     0
  9
$DIMSE2
 70
     0
  9
$DIMTAD
 70
     3
  9
$DIMZIN
 70
    12
  9
$DIMBLK
  1
OPEN
  9
$DIMASO
 70
     1
  9
$DIMSHO
 70
     1
  9
$DIMPOST
  1

  9
$DIMAPOST
  1

  9
$DIMALT
 70
     0
  9
$DIMALTD
 70
     2
  9
$DIMALTF
 40
25.4
  9
$DIMLFAC
 40
1.0
  9
$DIMTOFL
 70
     0
  9
$DIMTVP
 40
0.0
  9
$DIMTIX
 70
     0
  9
$DIMSOXD
 70
     0
  9
$DIMSAH
 70
     0
  9
$DIMBLK1
  1

  9
$DIMBLK2
  1

  9
$DIMSTYLE
  2
STANDARD
  9
$DIMCLRD
 70
     0
  9
$DIMCLRE
 70
     0
  9
$DIMCLRT
 70
     0
  9
$DIMTFAC
 40
1.0
  9
$DIMGAP
 40
1.0
  9
$DIMJUST
 70
     0
  9
$DIMSD1
 70
     0
  9
$DIMSD2
 70
     0
  9
$DIMTOLJ
 70
     1
  9
$DIMTZIN
 70
     0
  9
$DIMALTZ
 70
     0
  9
$DIMALTTZ
 70
     0
  9
$DIMUPT
 70
     0
  9
$DIMDEC
 70
     1
  9
$DIMTDEC
 70
     1
  9
$DIMALTU
 70
     2
  9
$DIMALTTD
 70
     2
  9
$DIMTXSTY
  7
STANDARD
  9
$DIMAUNIT
 70
     0
  9
$DIMADEC
 70
     0
  9
$DIMALTRND
 40
0.0
  9
$DIMAZIN
 70
     3
  9
$DIMDSEP
 70
    46
  9
$DIMATFIT
 70
     3
  9
$DIMFRAC
 70
     0
  9
$DIMLDRBLK
  1
OPEN
  9
$DIMLUNIT
 70
     2
  9
$DIMLWD
 70
    -2
  9
$DIMLWE
 70
    -2
  9
$DIMTMOVE
 70
     0
  9
$LUNITS
 70
     2
  9
$LUPREC
 70
     4
  9
$SKETCHINC
 40
0.1
  9
$FILLETRAD
 40
1.0
  9
$AUNITS
 70
     0
  9
$AUPREC
 70
     0
  9
$MENU
  1
.
  9
$ELEVATION
 40
0.0
  9
$PELEVATION
 40
0.0
  9
$THICKNESS
 40
0.0
  9
$LIMCHECK
 70
     0
  9
$CHAMFERA
 40
0.0
  9
$CHAMFERB
 40
0.0
  9
$CHAMFERC
 40
0.0
  9
$CHAMFERD
 40
0.0
  9
$SKPOLY
 70
     0
  9
$TDCREATE
 40
2452286.555658657
  9
$TDUCREATE
 40
2452286.180658657
  9
$TDUPDATE
 40
2455852.136378391
  9
$TDUUPDATE
 40
2455851.761378391
  9
$TDINDWG
 40
1.2583596296
  9
$TDUSRTIMER
 40
1.2583589005
  9
$USRTIMER
 70
     1
  9
$ANGBASE
 50
0.0
  9
$ANGDIR
 70
     0
  9
$PDMODE
 70
     0
  9
$PDSIZE
 40
0.0
  9
$PLINEWID
 40
0.0
  9
$SPLFRAME
 70
     0
  9
$SPLINETYPE
 70
     6
  9
$SPLINESEGS
 70
     8
  9
$HANDSEED
  5
80BD
  9
$SURFTAB1
 70
     6
  9
$SURFTAB2
 70
     6
  9
$SURFTYPE
 70
     6
  9
$SURFU
 70
     6
  9
$SURFV
 70
     6
  9
$UCSBASE
  2

  9
$UCSNAME
  2

  9
$UCSORG
 10
0.0
 20
0.0
 30
0.0
  9
$UCSXDIR
 10
1.0
 20
0.0
 30
0.0
  9
$UCSYDIR
 10
0.0
 20
1.0
 30
0.0
  9
$UCSORTHOREF
  2

  9
$UCSORTHOVIEW
 70
     0
  9
$UCSORGTOP
 10
0.0
 20
0.0
 30
0.0
  9
$UCSORGBOTTOM
 10
0.0
 20
0.0
 30
0.0
  9
$UCSORGLEFT
 10
0.0
 20
0.0
 30
0.0
  9
$UCSORGRIGHT
 10
0.0
 20
0.0
 30
0.0
  9
$UCSORGFRONT
 10
0.0
 20
0.0
 30
0.0
  9
$UCSORGBACK
 10
0.0
 20
0.0
 30
0.0
  9
$PUCSBASE
  2

  9
$PUCSNAME
  2

  9
$PUCSORG
 10
0.0
 20
0.0
 30
0.0
  9
$PUCSXDIR
 10
1.0
 20
0.0
 30
0.0
  9
$PUCSYDIR
 10
0.0
 20
1.0
 30
0.0
  9
$PUCSORTHOREF
  2

  9
$PUCSORTHOVIEW
 70
     0
  9
$PUCSORGTOP
 10
0.0
 20
0.0
 30
0.0
  9
$PUCSORGBOTTOM
 10
0.0
 20
0.0
 30
0.0
  9
$PUCSORGLEFT
 10
0.0
 20
0.0
 30
0.0
  9
$PUCSORGRIGHT
 10
0.0
 20
0.0
 30
0.0
  9
$PUCSORGFRONT
 10
0.0
 20
0.0
 30
0.0
  9
$PUCSORGBACK
 10
0.0
 20
0.0
 30
0.0
  9
$USERI1
 70
     0
  9
$USERI2
 70
     0
  9
$USERI3
 70
     0
  9
$USERI4
 70
     0
  9
$USERI5
 70
     0
  9
$USERR1
 40
0.0
  9
$USERR2
 40
0.0
  9
$USERR3
 40
0.0
  9
$USERR4
 40
0.0
  9
$USERR5
 40
0.0
  9
$WORLDVIEW
 70
     1
  9
$SHADEDGE
 70
     3
  9
$SHADEDIF
 70
    70
  9
$TILEMODE
 70
     1
  9
$MAXACTVP
 70
    48
  9
$PINSBASE
 10
0.0
 20
0.0
 30
0.0
  9
$PLIMCHECK
 70
     0
  9
$PEXTMIN
 10
4.273573
 20
5.205245999999998
 30
0.0
  9
$PEXTMAX
 10
194.610095
 20
283.0697009999996
 30
0.0
  9
$PLIMMIN
 10
-5.873749
 20
-5.87375
  9
$PLIMMAX
 10
204.099579
 20
291.1369009999999
  9
$UNITMODE
 70
     0
  9
$VISRETAIN
 70
     1
  9
$PLINEGEN
 70
     0
  9
$PSLTSCALE
 70
     1
  9
$TREEDEPTH
 70
  3020
  9
$CMLSTYLE
  2
STANDARD
  9
$CMLJUST
 70
     0
  9
$CMLSCALE
 40
1.0
  9
$PROXYGRAPHICS
 70
     1
  9
$MEASUREMENT
 70
     0
  9
$CELWEIGHT
370
    -1
  9
$ENDCAPS
280
     0
  9
$JOINSTYLE
280
     0
  9
$LWDISPLAY
290
     0
  9
$INSUNITS
 70
     0
  9
$HYPERLINKBASE
  1

  9
$STYLESHEET
  1
KIKI.CTB
  9
$XEDIT
290
     1
  9
$CEPSNTYPE
380
     0
  9
$PSTYLEMODE
290
     1
  9
$FINGERPRINTGUID
  2

  9
$VERSIONGUID
  2
{598F7163-668A-495C-B959-D49E4B85C5B2}
  9
$EXTNAMES
290
     1
  9
$PSVPSCALE
 40
0.0
  9
$OLESTARTUP
290
     0
  0
ENDSEC
  0
SECTION
  2
CLASSES
  0
CLASS
  1
ACDBDICTIONARYWDFLT
  2
AcDbDictionaryWithDefault
  3
AutoCAD 2000
 90
        0
280
     0
281
     0
  0
CLASS
  1
ACDBPLACEHOLDER
  2
AcDbPlaceHolder
  3
AutoCAD 2000
 90
        0
280
     0
281
     0
  0
CLASS
  1
LAYOUT
  2
AcDbLayout
  3
AutoCAD 2000
 90
        0
280
     0
281
     0
  0
CLASS
  1
LONG_TRANSACTION
  2
AcDbLongTransaction
  3
AutoCAD 2000
 90
    32768
280
     0
281
     0
  0
CLASS
  1
LWPOLYLINE
  2
AcDbPolyline
  3
AutoCAD 2000
 90
    32768
280
     0
281
     1
  0
CLASS
  1
HATCH
  2
AcDbHatch
  3
AutoCAD 2000
 90
    32768
280
     0
281
     1
  0
CLASS
  1
XRECORD
  2
AcDbXrecord
  3
AutoCAD 2000
 90
    32768
280
     0
281
     0
  0
CLASS
  1
LONG_TRANSACTION
  2
AcDbLongTransaction
  3
AutoCAD 2000
 90
    32768
280
     0
281
     0
  0
CLASS
  1
LWPOLYLINE
  2
AcDbPolyline
  3
AutoCAD 2000
 90
    32768
280
     0
281
     1
  0
CLASS
  1
HATCH
  2
AcDbHatch
  3
AutoCAD 2000
 90
    32768
280
     0
281
     1
  0
CLASS
  1
XRECORD
  2
AcDbXrecord
  3
AutoCAD 2000
 90
    32768
280
     0
281
     0
  0
CLASS
  1
LONG_TRANSACTION
  2
AcDbLongTransaction
  3
AutoCAD 2000
 90
    32768
280
     0
281
     0
  0
CLASS
  1
LWPOLYLINE
  2
AcDbPolyline
  3
AutoCAD 2000
 90
    32768
280
     0
281
     1
  0
CLASS
  1
HATCH
  2
AcDbHatch
  3
AutoCAD 2000
 90
    32768
280
     0
281
     1
  0
CLASS
  1
XRECORD
  2
AcDbXrecord
  3
AutoCAD 2000
 90
    32768
280
     0
281
     0
  0
CLASS
  1
LONG_TRANSACTION
  2
AcDbLongTransaction
  3
AutoCAD 2000
 90
    32768
280
     0
281
     0
  0
CLASS
  1
LWPOLYLINE
  2
AcDbPolyline
  3
AutoCAD 2000
 90
    32768
280
     0
281
     1
  0
CLASS
  1
HATCH
  2
AcDbHatch
  3
AutoCAD 2000
 90
    32768
280
     0
281
     1
  0
CLASS
  1
XRECORD
  2
AcDbXrecord
  3
AutoCAD 2000
 90
    32768
280
     0
281
     0
  0
CLASS
  1
LONG_TRANSACTION
  2
AcDbLongTransaction
  3
AutoCAD 2000
 90
    32768
280
     0
281
     0
  0
CLASS
  1
LWPOLYLINE
  2
AcDbPolyline
  3
AutoCAD 2000
 90
    32768
280
     0
281
     1
  0
CLASS
  1
HATCH
  2
AcDbHatch
  3
AutoCAD 2000
 90
    32768
280
     0
281
     1
  0
CLASS
  1
XRECORD
  2
AcDbXrecord
  3
AutoCAD 2000
 90
    32768
280
     0
281
     0
  0
CLASS
  1
LONG_TRANSACTION
  2
AcDbLongTransaction
  3
AutoCAD 2000
 90
    32768
280
     0
281
     0
  0
CLASS
  1
LWPOLYLINE
  2
AcDbPolyline
  3
AutoCAD 2000
 90
    32768
280
     0
281
     1
  0
CLASS
  1
HATCH
  2
AcDbHatch
  3
AutoCAD 2000
 90
    32768
280
     0
281
     1
  0
CLASS
  1
XRECORD
  2
AcDbXrecord
  3
AutoCAD 2000
 90
    32768
280
     0
281
     0
  0
CLASS
  1
LONG_TRANSACTION
  2
AcDbLongTransaction
  3
AutoCAD 2000
 90
    32768
280
     0
281
     0
  0
CLASS
  1
LWPOLYLINE
  2
AcDbPolyline
  3
AutoCAD 2000
 90
    32768
280
     0
281
     1
  0
CLASS
  1
HATCH
  2
AcDbHatch
  3
AutoCAD 2000
 90
    32768
280
     0
281
     1
  0
CLASS
  1
XRECORD
  2
AcDbXrecord
  3
AutoCAD 2000
 90
    32768
280
     0
281
     0
  0
CLASS
  1
LONG_TRANSACTION
  2
AcDbLongTransaction
  3
AutoCAD 2000
 90
    32768
280
     0
281
     0
  0
CLASS
  1
LWPOLYLINE
  2
AcDbPolyline
  3
AutoCAD 2000
 90
    32768
280
     0
281
     1
  0
CLASS
  1
HATCH
  2
AcDbHatch
  3
AutoCAD 2000
 90
    32768
280
     0
281
     1
  0
CLASS
  1
XRECORD
  2
AcDbXrecord
  3
AutoCAD 2000
 90
    32768
280
     0
281
     0
  0
CLASS
  1
LONG_TRANSACTION
  2
AcDbLongTransaction
  3
AutoCAD 2000
 90
    32768
280
     0
281
     0
  0
CLASS
  1
LWPOLYLINE
  2
AcDbPolyline
  3
AutoCAD 2000
 90
    32768
280
     0
281
     1
  0
CLASS
  1
HATCH
  2
AcDbHatch
  3
AutoCAD 2000
 90
    32768
280
     0
281
     1
  0
CLASS
  1
XRECORD
  2
AcDbXrecord
  3
AutoCAD 2000
 90
    32768
280
     0
281
     0
  0
CLASS
  1
LONG_TRANSACTION
  2
AcDbLongTransaction
  3
AutoCAD 2000
 90
    32768
280
     0
281
     0
  0
CLASS
  1
LWPOLYLINE
  2
AcDbPolyline
  3
AutoCAD 2000
 90
    32768
280
     0
281
     1
  0
CLASS
  1
HATCH
  2
AcDbHatch
  3
AutoCAD 2000
 90
    32768
280
     0
281
     1
  0
CLASS
  1
XRECORD
  2
AcDbXrecord
  3
AutoCAD 2000
 90
    32768
280
     0
281
     0
  0
CLASS
  1
LONG_TRANSACTION
  2
AcDbLongTransaction
  3
AutoCAD 2000
 90
    32768
280
     0
281
     0
  0
CLASS
  1
LWPOLYLINE
  2
AcDbPolyline
  3
AutoCAD 2000
 90
    32768
280
     0
281
     1
  0
CLASS
  1
HATCH
  2
AcDbHatch
  3
AutoCAD 2000
 90
    32768
280
     0
281
     1
  0
CLASS
  1
XRECORD
  2
AcDbXrecord
  3
AutoCAD 2000
 90
    32768
280
     0
281
     0
  0
CLASS
  1
LONG_TRANSACTION
  2
AcDbLongTransaction
  3
AutoCAD 2000
 90
    32768
280
     0
281
     0
  0
CLASS
  1
LWPOLYLINE
  2
AcDbPolyline
  3
AutoCAD 2000
 90
    32768
280
     0
281
     1
  0
CLASS
  1
HATCH
  2
AcDbHatch
  3
AutoCAD 2000
 90
    32768
280
     0
281
     1
  0
CLASS
  1
XRECORD
  2
AcDbXrecord
  3
AutoCAD 2000
 90
    32768
280
     0
281
     0
  0
CLASS
  1
LONG_TRANSACTION
  2
AcDbLongTransaction
  3
AutoCAD 2000
 90
    32768
280
     0
281
     0
  0
CLASS
  1
LWPOLYLINE
  2
AcDbPolyline
  3
AutoCAD 2000
 90
    32768
280
     0
281
     1
  0
CLASS
  1
HATCH
  2
AcDbHatch
  3
AutoCAD 2000
 90
    32768
280
     0
281
     1
  0
CLASS
  1
XRECORD
  2
AcDbXrecord
  3
AutoCAD 2000
 90
    32768
280
     0
281
     0
  0
CLASS
  1
LONG_TRANSACTION
  2
AcDbLongTransaction
  3
AutoCAD 2000
 90
    32768
280
     0
281
     0
  0
CLASS
  1
LWPOLYLINE
  2
AcDbPolyline
  3
AutoCAD 2000
 90
    32768
280
     0
281
     1
  0
CLASS
  1
HATCH
  2
AcDbHatch
  3
AutoCAD 2000
 90
    32768
280
     0
281
     1
  0
CLASS
  1
XRECORD
  2
AcDbXrecord
  3
AutoCAD 2000
 90
    32768
280
     0
281
     0
  0
CLASS
  1
LONG_TRANSACTION
  2
AcDbLongTransaction
  3
AutoCAD 2000
 90
    32768
280
     0
281
     0
  0
CLASS
  1
LWPOLYLINE
  2
AcDbPolyline
  3
AutoCAD 2000
 90
    32768
280
     0
281
     1
  0
CLASS
  1
HATCH
  2
AcDbHatch
  3
AutoCAD 2000
 90
    32768
280
     0
281
     1
  0
CLASS
  1
XRECORD
  2
AcDbXrecord
  3
AutoCAD 2000
 90
    32768
280
     0
281
     0
  0
CLASS
  1
LONG_TRANSACTION
  2
AcDbLongTransaction
  3
AutoCAD 2000
 90
    32768
280
     0
281
     0
  0
CLASS
  1
LWPOLYLINE
  2
AcDbPolyline
  3
AutoCAD 2000
 90
    32768
280
     0
281
     1
  0
CLASS
  1
HATCH
  2
AcDbHatch
  3
AutoCAD 2000
 90
    32768
280
     0
281
     1
  0
CLASS
  1
XRECORD
  2
AcDbXrecord
  3
AutoCAD 2000
 90
    32768
280
     0
281
     0
  0
CLASS
  1
LONG_TRANSACTION
  2
AcDbLongTransaction
  3
AutoCAD 2000
 90
    32768
280
     0
281
     0
  0
CLASS
  1
LWPOLYLINE
  2
AcDbPolyline
  3
AutoCAD 2000
 90
    32768
280
     0
281
     1
  0
CLASS
  1
HATCH
  2
AcDbHatch
  3
AutoCAD 2000
 90
    32768
280
     0
281
     1
  0
CLASS
  1
XRECORD
  2
AcDbXrecord
  3
AutoCAD 2000
 90
    32768
280
     0
281
     0
  0
CLASS
  1
LONG_TRANSACTION
  2
AcDbLongTransaction
  3
AutoCAD 2000
 90
    32768
280
     0
281
     0
  0
CLASS
  1
LWPOLYLINE
  2
AcDbPolyline
  3
AutoCAD 2000
 90
    32768
280
     0
281
     1
  0
CLASS
  1
HATCH
  2
AcDbHatch
  3
AutoCAD 2000
 90
    32768
280
     0
281
     1
  0
CLASS
  1
XRECORD
  2
AcDbXrecord
  3
AutoCAD 2000
 90
    32768
280
     0
281
     0
  0
CLASS
  1
LONG_TRANSACTION
  2
AcDbLongTransaction
  3
AutoCAD 2000
 90
    32768
280
     0
281
     0
  0
CLASS
  1
LWPOLYLINE
  2
AcDbPolyline
  3
AutoCAD 2000
 90
    32768
280
     0
281
     1
  0
CLASS
  1
HATCH
  2
AcDbHatch
  3
AutoCAD 2000
 90
    32768
280
     0
281
     1
  0
CLASS
  1
XRECORD
  2
AcDbXrecord
  3
AutoCAD 2000
 90
    32768
280
     0
281
     0
  0
CLASS
  1
LONG_TRANSACTION
  2
AcDbLongTransaction
  3
AutoCAD 2000
 90
    32768
280
     0
281
     0
  0
CLASS
  1
LWPOLYLINE
  2
AcDbPolyline
  3
AutoCAD 2000
 90
    32768
280
     0
281
     1
  0
CLASS
  1
HATCH
  2
AcDbHatch
  3
AutoCAD 2000
 90
    32768
280
     0
281
     1
  0
CLASS
  1
XRECORD
  2
AcDbXrecord
  3
AutoCAD 2000
 90
    32768
280
     0
281
     0
  0
CLASS
  1
LONG_TRANSACTION
  2
AcDbLongTransaction
  3
AutoCAD 2000
 90
    32768
280
     0
281
     0
  0
CLASS
  1
LWPOLYLINE
  2
AcDbPolyline
  3
AutoCAD 2000
 90
    32768
280
     0
281
     1
  0
CLASS
  1
HATCH
  2
AcDbHatch
  3
AutoCAD 2000
 90
    32768
280
     0
281
     1
  0
CLASS
  1
XRECORD
  2
AcDbXrecord
  3
AutoCAD 2000
 90
    32768
280
     0
281
     0
  0
CLASS
  1
LONG_TRANSACTION
  2
AcDbLongTransaction
  3
AutoCAD 2000
 90
    32768
280
     0
281
     0
  0
CLASS
  1
LWPOLYLINE
  2
AcDbPolyline
  3
AutoCAD 2000
 90
    32768
280
     0
281
     1
  0
CLASS
  1
HATCH
  2
AcDbHatch
  3
AutoCAD 2000
 90
    32768
280
     0
281
     1
  0
CLASS
  1
XRECORD
  2
AcDbXrecord
  3
AutoCAD 2000
 90
    32768
280
     0
281
     0
  0
CLASS
  1
LONG_TRANSACTION
  2
AcDbLongTransaction
  3
AutoCAD 2000
 90
    32768
280
     0
281
     0
  0
CLASS
  1
LWPOLYLINE
  2
AcDbPolyline
  3
AutoCAD 2000
 90
    32768
280
     0
281
     1
  0
CLASS
  1
HATCH
  2
AcDbHatch
  3
AutoCAD 2000
 90
    32768
280
     0
281
     1
  0
CLASS
  1
XRECORD
  2
AcDbXrecord
  3
AutoCAD 2000
 90
    32768
280
     0
281
     0
  0
CLASS
  1
LONG_TRANSACTION
  2
AcDbLongTransaction
  3
AutoCAD 2000
 90
    32768
280
     0
281
     0
  0
CLASS
  1
LWPOLYLINE
  2
AcDbPolyline
  3
AutoCAD 2000
 90
    32768
280
     0
281
     1
  0
CLASS
  1
HATCH
  2
AcDbHatch
  3
AutoCAD 2000
 90
    32768
280
     0
281
     1
  0
CLASS
  1
XRECORD
  2
AcDbXrecord
  3
AutoCAD 2000
 90
    32768
280
     0
281
     0
  0
CLASS
  1
LONG_TRANSACTION
  2
AcDbLongTransaction
  3
AutoCAD 2000
 90
    32768
280
     0
281
     0
  0
CLASS
  1
LWPOLYLINE
  2
AcDbPolyline
  3
AutoCAD 2000
 90
    32768
280
     0
281
     1
  0
CLASS
  1
HATCH
  2
AcDbHatch
  3
AutoCAD 2000
 90
    32768
280
     0
281
     1
  0
CLASS
  1
XRECORD
  2
AcDbXrecord
  3
AutoCAD 2000
 90
    32768
280
     0
281
     0
  0
CLASS
  1
LONG_TRANSACTION
  2
AcDbLongTransaction
  3
AutoCAD 2000
 90
    32768
280
     0
281
     0
  0
CLASS
  1
LWPOLYLINE
  2
AcDbPolyline
  3
AutoCAD 2000
 90
    32768
280
     0
281
     1
  0
CLASS
  1
HATCH
  2
AcDbHatch
  3
AutoCAD 2000
 90
    32768
280
     0
281
     1
  0
CLASS
  1
XRECORD
  2
AcDbXrecord
  3
AutoCAD 2000
 90
    32768
280
     0
281
     0
  0
CLASS
  1
LONG_TRANSACTION
  2
AcDbLongTransaction
  3
AutoCAD 2000
 90
    32768
280
     0
281
     0
  0
CLASS
  1
LWPOLYLINE
  2
AcDbPolyline
  3
AutoCAD 2000
 90
    32768
280
     0
281
     1
  0
CLASS
  1
HATCH
  2
AcDbHatch
  3
AutoCAD 2000
 90
    32768
280
     0
281
     1
  0
CLASS
  1
XRECORD
  2
AcDbXrecord
  3
AutoCAD 2000
 90
    32768
280
     0
281
     0
  0
CLASS
  1
LONG_TRANSACTION
  2
AcDbLongTransaction
  3
AutoCAD 2000
 90
    32768
280
     0
281
     0
  0
CLASS
  1
LWPOLYLINE
  2
AcDbPolyline
  3
AutoCAD 2000
 90
    32768
280
     0
281
     1
  0
CLASS
  1
HATCH
  2
AcDbHatch
  3
AutoCAD 2000
 90
    32768
280
     0
281
     1
  0
CLASS
  1
XRECORD
  2
AcDbXrecord
  3
AutoCAD 2000
 90
    32768
280
     0
281
     0
  0
CLASS
  1
LONG_TRANSACTION
  2
AcDbLongTransaction
  3
AutoCAD 2000
 90
    32768
280
     0
281
     0
  0
CLASS
  1
LWPOLYLINE
  2
AcDbPolyline
  3
AutoCAD 2000
 90
    32768
280
     0
281
     1
  0
CLASS
  1
HATCH
  2
AcDbHatch
  3
AutoCAD 2000
 90
    32768
280
     0
281
     1
  0
CLASS
  1
XRECORD
  2
AcDbXrecord
  3
AutoCAD 2000
 90
    32768
280
     0
281
     0
  0
CLASS
  1
LONG_TRANSACTION
  2
AcDbLongTransaction
  3
AutoCAD 2000
 90
    32768
280
     0
281
     0
  0
CLASS
  1
LWPOLYLINE
  2
AcDbPolyline
  3
AutoCAD 2000
 90
    32768
280
     0
281
     1
  0
CLASS
  1
HATCH
  2
AcDbHatch
  3
AutoCAD 2000
 90
    32768
280
     0
281
     1
  0
CLASS
  1
XRECORD
  2
AcDbXrecord
  3
AutoCAD 2000
 90
    32768
280
     0
281
     0
  0
CLASS
  1
LONG_TRANSACTION
  2
AcDbLongTransaction
  3
AutoCAD 2000
 90
    32768
280
     0
281
     0
  0
CLASS
  1
LWPOLYLINE
  2
AcDbPolyline
  3
AutoCAD 2000
 90
    32768
280
     0
281
     1
  0
CLASS
  1
HATCH
  2
AcDbHatch
  3
AutoCAD 2000
 90
    32768
280
     0
281
     1
  0
CLASS
  1
XRECORD
  2
AcDbXrecord
  3
AutoCAD 2000
 90
    32768
280
     0
281
     0
  0
CLASS
  1
LONG_TRANSACTION
  2
AcDbLongTransaction
  3
AutoCAD 2000
 90
    32768
280
     0
281
     0
  0
CLASS
  1
LWPOLYLINE
  2
AcDbPolyline
  3
AutoCAD 2000
 90
    32768
280
     0
281
     1
  0
CLASS
  1
HATCH
  2
AcDbHatch
  3
AutoCAD 2000
 90
    32768
280
     0
281
     1
  0
CLASS
  1
XRECORD
  2
AcDbXrecord
  3
AutoCAD 2000
 90
    32768
280
     0
281
     0
  0
CLASS
  1
LONG_TRANSACTION
  2
AcDbLongTransaction
  3
AutoCAD 2000
 90
    32768
280
     0
281
     0
  0
CLASS
  1
LWPOLYLINE
  2
AcDbPolyline
  3
AutoCAD 2000
 90
    32768
280
     0
281
     1
  0
CLASS
  1
HATCH
  2
AcDbHatch
  3
AutoCAD 2000
 90
    32768
280
     0
281
     1
  0
CLASS
  1
XRECORD
  2
AcDbXrecord
  3
AutoCAD 2000
 90
    32768
280
     0
281
     0
  0
CLASS
  1
DICTIONARYVAR
  2
AcDbDictionaryVar
  3
AutoCAD 2000
 90
        0
280
     0
281
     0
  0
CLASS
  1
LONG_TRANSACTION
  2
AcDbLongTransaction
  3
AutoCAD 2000
 90
    32768
280
     0
281
     0
  0
CLASS
  1
LWPOLYLINE
  2
AcDbPolyline
  3
AutoCAD 2000
 90
    32768
280
     0
281
     1
  0
CLASS
  1
HATCH
  2
AcDbHatch
  3
AutoCAD 2000
 90
    32768
280
     0
281
     1
  0
CLASS
  1
XRECORD
  2
AcDbXrecord
  3
AutoCAD 2000
 90
    32768
280
     0
281
     0
  0
CLASS
  1
LONG_TRANSACTION
  2
AcDbLongTransaction
  3
AutoCAD 2000
 90
    32768
280
     0
281
     0
  0
CLASS
  1
LWPOLYLINE
  2
AcDbPolyline
  3
AutoCAD 2000
 90
    32768
280
     0
281
     1
  0
CLASS
  1
HATCH
  2
AcDbHatch
  3
AutoCAD 2000
 90
    32768
280
     0
281
     1
  0
CLASS
  1
XRECORD
  2
AcDbXrecord
  3
AutoCAD 2000
 90
    32768
280
     0
281
     0
  0
CLASS
  1
LONG_TRANSACTION
  2
AcDbLongTransaction
  3
AutoCAD 2000
 90
    32768
280
     0
281
     0
  0
CLASS
  1
LWPOLYLINE
  2
AcDbPolyline
  3
AutoCAD 2000
 90
    32768
280
     0
281
     1
  0
CLASS
  1
HATCH
  2
AcDbHatch
  3
AutoCAD 2000
 90
    32768
280
     0
281
     1
  0
CLASS
  1
XRECORD
  2
AcDbXrecord
  3
AutoCAD 2000
 90
    32768
280
     0
281
     0
  0
CLASS
  1
LONG_TRANSACTION
  2
AcDbLongTransaction
  3
AutoCAD 2000
 90
    32768
280
     0
281
     0
  0
CLASS
  1
LWPOLYLINE
  2
AcDbPolyline
  3
AutoCAD 2000
 90
    32768
280
     0
281
     1
  0
CLASS
  1
HATCH
  2
AcDbHatch
  3
AutoCAD 2000
 90
    32768
280
     0
281
     1
  0
CLASS
  1
XRECORD
  2
AcDbXrecord
  3
AutoCAD 2000
 90
    32768
280
     0
281
     0
  0
CLASS
  1
LONG_TRANSACTION
  2
AcDbLongTransaction
  3
AutoCAD 2000
 90
    32768
280
     0
281
     0
  0
CLASS
  1
LWPOLYLINE
  2
AcDbPolyline
  3
AutoCAD 2000
 90
    32768
280
     0
281
     1
  0
CLASS
  1
HATCH
  2
AcDbHatch
  3
AutoCAD 2000
 90
    32768
280
     0
281
     1
  0
CLASS
  1
XRECORD
  2
AcDbXrecord
  3
AutoCAD 2000
 90
    32768
280
     0
281
     0
  0
CLASS
  1
LONG_TRANSACTION
  2
AcDbLongTransaction
  3
AutoCAD 2000
 90
    32768
280
     0
281
     0
  0
CLASS
  1
LWPOLYLINE
  2
AcDbPolyline
  3
AutoCAD 2000
 90
    32768
280
     0
281
     1
  0
CLASS
  1
HATCH
  2
AcDbHatch
  3
AutoCAD 2000
 90
    32768
280
     0
281
     1
  0
CLASS
  1
XRECORD
  2
AcDbXrecord
  3
AutoCAD 2000
 90
    32768
280
     0
281
     0
  0
ENDSEC
  0
SECTION
  2
TABLES
  0
TABLE
  2
VPORT
  5
8
330
0
100
AcDbSymbolTable
 70
     7
  0
VPORT
  5
809B
330
8
100
AcDbSymbolTableRecord
100
AcDbViewportTableRecord
  2
*Active
 70
     0
 10
0.0
 20
0.0
 11
1.0
 21
1.0
 12
133.5386693035886
 22
-12.74199306438936
 13
0.0
 23
0.0
 14
1.0
 24
1.0
 15
10.0
 25
10.0
 16
0.0
 26
0.0
 36
1.0
 17
0.0
 27
0.0
 37
0.0
 40
682.7475998765406
 41
1.696428571428571
 42
50.0
 43
0.0
 44
0.0
 50
0.0
 51
0.0
 71
     0
 72
   100
 73
     1
 74
     1
 75
     1
 76
     1
 77
     0
 78
     0
281
     0
 65
     1
110
0.0
120
0.0
130
0.0
111
1.0
121
0.0
131
0.0
112
0.0
122
1.0
132
0.0
 79
     0
146
0.0
  0
ENDTAB
  0
TABLE
  2
LTYPE
  5
5
330
0
100
AcDbSymbolTable
 70
     6
  0
LTYPE
  5
13
330
5
100
AcDbSymbolTableRecord
100
AcDbLinetypeTableRecord
  2
BYBLOCK
 70
     0
  3

 72
    65
 73
     0
 40
0.0
  0
LTYPE
  5
14
330
5
100
AcDbSymbolTableRecord
100
AcDbLinetypeTableRecord
  2
BYLAYER
 70
     0
  3

 72
    65
 73
     0
 40
0.0
  0
LTYPE
  5
15
330
5
100
AcDbSymbolTableRecord
100
AcDbLinetypeTableRecord
  2
CONTINUOUS
 70
     0
  3
Solid line
 72
    65
 73
     0
 40
0.0
  0
LTYPE
  5
22
330
5
100
AcDbSymbolTableRecord
100
AcDbLinetypeTableRecord
  2
CONTINOUS
 70
     0
  3
Solid line
 72
    65
 73
     0
 40
0.0
  0
LTYPE
  5
23
330
5
100
AcDbSymbolTableRecord
100
AcDbLinetypeTableRecord
  2
DASHED
 70
     0
  3
__ __ __ __ __ __ __ __ __ __ __ __ __ __ __
 72
    65
 73
     2
 40
0.75
 49
0.5
 74
     0
 49
-0.25
 74
     0
  0
LTYPE
  5
24
330
5
100
AcDbSymbolTableRecord
100
AcDbLinetypeTableRecord
  2
DASHDOT
 70
     0
  3
__ . __ . __ . __ . __ . __ . __ . __ . __ . __
 72
    65
 73
     4
 40
1.0
 49
0.5
 74
     0
 49
-0.25
 74
     0
 49
0.0
 74
     0
 49
-0.25
 74
     0
  0
LTYPE
  5
4C47
330
5
100
AcDbSymbolTableRecord
100
AcDbLinetypeTableRecord
  2
DIVIDE
 70
     0
  3
Divide ____ . . ____ . . ____ . . ____ . . ____
 72
    65
 73
     6
 40
1.25
 49
0.5
 74
     0
 49
-0.25
 74
     0
 49
0.0
 74
     0
 49
-0.25
 74
     0
 49
0.0
 74
     0
 49
-0.25
 74
     0
  0
LTYPE
  5
71A0
330
5
100
AcDbSymbolTableRecord
100
AcDbLinetypeTableRecord
  2
PHANTOM
 70
     0
  3
____ _ _ ____ _ _ _____ _ _ ____
 72
    65
 73
     6
 40
2.5
 49
1.25
 74
     0
 49
-0.25
 74
     0
 49
0.25
 74
     0
 49
-0.25
 74
     0
 49
0.25
 74
     0
 49
-0.25
 74
     0
  0
ENDTAB
  0
TABLE
  2
LAYER
  5
2
330
0
100
AcDbSymbolTable
 70
    13
  0
LAYER
  5
10
330
2
100
AcDbSymbolTableRecord
100
AcDbLayerTableRecord
  2
0
 70
     0
 62
     7
  6
CONTINOUS
370
    -3
390
F
  0
LAYER
  5
2F
330
2
100
AcDbSymbolTableRecord
100
AcDbLayerTableRecord
  2
10
 70
     0
 62
     4
  6
CONTINOUS
370
    -3
390
F
  0
LAYER
  5
31
330
2
100
AcDbSymbolTableRecord
100
AcDbLayerTableRecord
  2
12
 70
     0
 62
     3
  6
CONTINOUS
370
    -3
390
F
  0
LAYER
  5
35
330
2
100
AcDbSymbolTableRecord
100
AcDbLayerTableRecord
  2
16
 70
     0
 62
     6
  6
DASHDOT
370
    -3
390
F
  0
LAYER
  5
38
330
2
100
AcDbSymbolTableRecord
100
AcDbLayerTableRecord
  2
19
 70
     0
 62
     7
  6
CONTINOUS
370
    -3
390
F
  0
LAYER
  5
3C
330
2
100
AcDbSymbolTableRecord
100
AcDbLayerTableRecord
  2
11
 70
     0
 62
     1
  6
CONTINOUS
370
    -3
390
F
  0
LAYER
  5
3D
330
2
100
AcDbSymbolTableRecord
100
AcDbLayerTableRecord
  2
24
 70
     0
 62
     2
  6
CONTINOUS
370
    -3
390
F
  0
LAYER
  5
3A2
330
2
100
AcDbSymbolTableRecord
100
AcDbLayerTableRecord
  2
30
 70
     0
 62
     9
  6
CONTINUOUS
370
    -3
390
F
  0
LAYER
  5
3A4
330
2
100
AcDbSymbolTableRecord
100
AcDbLayerTableRecord
  2
DEFPOINTS
 70
     0
 62
     7
  6
CONTINUOUS
290
     0
370
    -3
390
F
  0
LAYER
  5
3BBA
330
2
100
AcDbSymbolTableRecord
100
AcDbLayerTableRecord
  2
18
 70
     0
 62
     5
  6
DIVIDE
370
    -3
390
F
  0
LAYER
  5
5117
330
2
100
AcDbSymbolTableRecord
100
AcDbLayerTableRecord
  2
TOP
 70
     0
 62
     7
  6
CONTINUOUS
370
    -3
390
F
  0
LAYER
  5
64C0
330
2
100
AcDbSymbolTableRecord
100
AcDbLayerTableRecord
  2
5
 70
     0
 62
     7
  6
CONTINUOUS
370
    -3
390
F
  0
LAYER
  5
71A1
330
2
100
AcDbSymbolTableRecord
100
AcDbLayerTableRecord
  2
TOP$4
 70
     0
 62
     7
  6
CONTINUOUS
370
    -3
390
F
  0
ENDTAB
  0
TABLE
  2
STYLE
  5
3
330
0
100
AcDbSymbolTable
 70
     3
  0
STYLE
  5
11
330
3
100
AcDbSymbolTableRecord
100
AcDbTextStyleTableRecord
  2
STANDARD
 70
     0
 40
0.0
 41
1.0
 50
0.0
 71
     0
 42
2.0
  3
txt.shx
  4
bigfont.shx
  0
STYLE
  5
42
330
3
100
AcDbSymbolTableRecord
100
AcDbTextStyleTableRecord
  2
STANDARD1
 70
     0
 40
0.0
 41
1.0
 50
0.0
 71
     0
 42
5.0
  3
MONOTXT
  4
BIGFONT
  0
STYLE
  5
5016
330
3
100
AcDbSymbolTableRecord
100
AcDbTextStyleTableRecord
  2
UGMTXT
 70
     0
 40
0.0
 41
1.0
 50
0.0
 71
     0
 42
0.2
  3
ugmtxt
  4
bigfont
  0
ENDTAB
  0
TABLE
  2
VIEW
  5
6
330
0
100
AcDbSymbolTable
 70
     3
  0
VIEW
  5
230C
330
6
100
AcDbSymbolTableRecord
100
AcDbViewTableRecord
  2
OLE1
 70
     0
 40
148.912488
 10
429.497628
 20
2.560627
 41
103.145806
 11
0.0
 21
0.0
 31
1.0
 12
0.0
 22
0.0
 32
0.0
 42
50.0
 43
0.0
 44
0.0
 50
0.0
 71
     0
281
     0
 72
     0
  0
VIEW
  5
230E
330
6
100
AcDbSymbolTableRecord
100
AcDbViewTableRecord
  2
OLE2
 70
     0
 40
170.778692
 10
322.66497
 20
-5.978304
 41
102.467215
 11
0.0
 21
0.0
 31
1.0
 12
0.0
 22
0.0
 32
0.0
 42
50.0
 43
0.0
 44
0.0
 50
0.0
 71
     0
281
     0
 72
     0
  0
VIEW
  5
23AA
330
6
100
AcDbSymbolTableRecord
100
AcDbViewTableRecord
  2
OLE3
 70
     0
 40
591.7897389999998
 10
84.79698199999999
 20
-46.09335999999998
 41
388.792096
 11
0.0
 21
0.0
 31
1.0
 12
0.0
 22
0.0
 32
0.0
 42
50.0
 43
0.0
 44
0.0
 50
0.0
 71
     0
281
     0
 72
     0
  0
ENDTAB
  0
TABLE
  2
UCS
  5
7
330
0
100
AcDbSymbolTable
 70
     0
  0
ENDTAB
  0
TABLE
  2
APPID
  5
9
330
0
100
AcDbSymbolTable
 70
     2
  0
APPID
  5
12
330
9
100
AcDbSymbolTableRecord
100
AcDbRegAppTableRecord
  2
ACAD
 70
     0
  0
APPID
  5
ECD
330
9
100
AcDbSymbolTableRecord
100
AcDbRegAppTableRecord
  2
CONTENTBLOCKICON
 70
     0
  0
ENDTAB
  0
TABLE
  2
DIMSTYLE
  5
A
330
0
100
AcDbSymbolTable
 70
     1
100
AcDbDimStyleTable
 71
     0
  0
DIMSTYLE
105
175
102
{ACAD_REACTORS
330
68C0
330
68CD
330
7321
330
7320
330
7379
330
737A
330
73AF
330
73AE
330
740F
330
740D
330
748C
330
748B
330
748A
330
7489
330
7484
330
7488
330
7487
330
7483
330
7486
330
7485
330
762B
330
7667
330
7666
330
7665
330
76D3
330
76D4
102
}
330
A
100
AcDbSymbolTableRecord
100
AcDbDimStyleTableRecord
  2
STANDARD
 70
     0
 41
2.0
 42
1.0
 43
0.5
 44
0.5
 73
     0
 77
     3
 78
    12
140
4.0
147
1.0
271
     1
272
     1
340
11
341
3B2
342
3B2
  0
ENDTAB
  0
TABLE
  2
BLOCK_RECORD
  5
1
330
0
100
AcDbSymbolTable
 70
    97
  0
BLOCK_RECORD
  5
1E
102
{ACAD_XDICTIONARY
360
178
102
}
330
1
100
AcDbSymbolTableRecord
100
AcDbBlockTableRecord
  2
*MODEL_SPACE
340
7171
  0
BLOCK_RECORD
  5
1A
102
{ACAD_XDICTIONARY
360
17A
102
}
330
1
100
AcDbSymbolTableRecord
100
AcDbBlockTableRecord
  2
*PAPER_SPACE
340
7172
  0
BLOCK_RECORD
  5
3B2
330
1
100
AcDbSymbolTableRecord
100
AcDbBlockTableRecord
  2
_OPEN
340
0
102
{BLKREFS
331
6ED3
331
6ED4
331
6EB9
331
6EBA
331
6EB0
331
6EB1
331
6EC2
331
6EC3
331
70FA
331
70FB
331
6F1B
331
6F1C
331
6EF7
331
6EF8
331
6F12
331
6F13
331
6F09
331
6F0A
331
6E7A
331
6E7B
331
6E71
331
6E72
331
6F40
331
6F41
331
6F2E
331
6F2F
331
6F00
331
6F01
331
6F37
331
6F38
331
6F49
331
6F4A
331
6F25
331
6F26
331
70F1
331
70F2
331
6EEE
331
6EEF
331
715A
331
715B
331
6EDC
331
6EDD
331
7163
331
7164
331
70E9
331
70D7
331
70D8
331
70E0
331
70E1
331
7326
331
7327
331
7332
331
7333
331
733D
331
733E
331
7346
331
7347
331
734F
331
7350
331
7358
331
7359
331
7361
331
7362
331
736A
331
736B
331
737F
331
7380
331
738B
331
738C
331
7396
331
7397
331
739F
331
73A0
331
73A8
331
73A9
331
73B4
331
73B5
331
73C0
331
73C1
331
73CB
331
73CC
331
73D4
331
73D5
331
73DD
331
73DE
331
73E6
331
73E7
331
73EF
331
73F0
331
73F8
331
73F9
331
7401
331
7402
331
7418
331
7419
331
7424
331
7425
331
742F
331
7430
331
7438
331
7439
331
7441
331
7442
331
744A
331
744B
331
7453
331
7454
331
745C
331
745D
331
7465
331
7466
331
7470
331
7471
331
7479
331
747A
331
7492
331
7493
331
749E
331
749F
331
74AA
331
74AB
331
74B6
331
74B7
331
74C2
331
74C3
331
74CF
331
74D0
331
74DB
331
74DC
331
74E7
331
74E8
331
74F3
331
74F4
331
74FF
331
7500
331
750A
331
750B
331
7513
331
7514
331
751C
331
751D
331
7525
331
7526
331
752E
331
752F
331
7538
331
7539
331
7541
331
7542
331
754A
331
754B
331
7553
331
7554
331
755C
331
755D
331
7566
331
7567
331
756F
331
7570
331
7578
331
7579
331
7581
331
7582
331
758A
331
758B
331
7593
331
7594
331
759C
331
759D
331
75A7
331
75A8
331
75B2
331
75B3
331
75BD
331
75BE
331
75C6
331
75C7
331
75D1
331
75D2
331
75DA
331
75DB
331
75E3
331
75E4
331
75EC
331
75ED
331
75F5
331
75F6
331
75FF
331
7600
331
760A
331
760B
331
7613
331
7614
331
761C
331
761D
331
7625
331
7626
331
7630
331
7631
331
763B
331
763C
331
7644
331
7645
331
764D
331
764E
331
766C
331
7677
331
7678
331
7683
331
7684
331
768E
331
7696
331
7697
331
769F
331
76A0
331
76B7
331
76B8
331
76CD
331
76CE
331
76DB
331
76DC
331
76E7
331
76E8
331
76F2
331
76F3
331
76FB
331
76FC
331
7704
331
7705
331
770D
331
770E
331
7716
331
7717
331
771F
331
7720
331
7728
331
7729
331
7731
331
7739
331
773A
331
7742
331
7743
331
774B
331
7753
331
7754
331
775C
331
775D
331
7765
331
776D
331
776E
331
7776
331
7777
331
777F
331
7780
331
7788
331
7789
331
7791
331
7792
331
779A
331
779B
331
77A3
331
77A4
331
77AC
331
77AD
331
77B5
331
77B6
331
77BE
331
77BF
331
77C7
331
77C8
331
77D0
331
77D1
331
77D9
331
77DA
331
77E2
331
77E3
331
77EB
331
77EC
331
77F4
331
77F5
331
77FD
331
77FE
331
7806
331
7807
331
780F
331
7810
331
7818
331
7819
331
7821
331
7822
331
782A
331
782B
331
7833
331
7834
331
783C
331
783D
331
7845
331
7846
331
784E
331
784F
331
7857
331
7858
331
7860
331
7861
331
7869
331
786A
331
7872
331
7873
331
787B
331
787C
331
7884
331
7885
331
788D
331
788E
331
7898
331
7899
331
78A1
331
78A2
331
78AA
331
78AB
331
78B3
331
78B4
331
78BC
331
78BD
331
78C5
331
78C6
331
78CE
331
78CF
331
78D7
331
78D8
331
78E0
331
78E1
331
78E9
331
78EA
331
78F2
331
78F3
331
78FB
331
78FC
331
7905
331
7906
331
790E
331
790F
331
7917
331
7918
331
7920
331
7921
331
7929
331
792A
331
7934
331
7935
331
793D
331
793E
331
7946
331
7947
331
794F
331
7950
331
7958
331
7959
331
7961
331
7962
331
796A
331
796B
331
7973
331
7974
331
797C
331
797D
331
7985
331
7986
331
798E
331
798F
331
7997
331
7998
331
79A0
331
79A1
331
79E4
331
79E5
331
79F0
331
79F1
331
79FC
331
79FD
331
7A08
331
7A09
331
7A14
331
7A15
331
7A20
331
7A21
331
7A2C
331
7A2D
331
7A3A
331
7A3B
331
7A46
331
7A47
331
7A52
331
7A53
331
7A5E
331
7A5F
331
7A6A
331
7A6B
331
7A76
331
7A77
331
7A81
331
7A82
331
7A8A
331
7A8B
331
7A93
331
7A94
331
7A9C
331
7A9D
331
7AA5
331
7AA6
331
7AAE
331
7AAF
331
7AB7
331
7AB8
331
7AC2
331
7AC3
331
7ACB
331
7ACC
331
7AD4
331
7AD5
331
7ADD
331
7ADE
331
7AE6
331
7AE7
331
7AEF
331
7AF0
331
7AF8
331
7AF9
331
7B01
331
7B02
331
7B0A
331
7B0B
331
7B13
331
7B14
331
7B1C
331
7B1D
331
7B25
331
7B26
331
7B31
331
7B32
331
7B3A
331
7B3B
331
7B43
331
7B44
331
7B4C
331
7B4D
331
7B55
331
7B56
331
7B5E
331
7B5F
331
7B67
331
7B68
331
7B73
331
7B74
331
7B7C
331
7B7D
331
7B85
331
7B86
331
7B8E
331
7B8F
331
7B97
331
7B98
331
7BA0
331
7BA1
331
7BA9
331
7BAA
331
7BB2
331
7BB3
331
7BBB
331
7BBC
331
7BC4
331
7BC5
331
7BCD
331
7BCE
331
7BD6
331
7BD7
331
7BDF
331
7BE0
331
7BFF
331
7C00
331
7C08
331
7C09
331
7C11
331
7C12
331
7C1A
331
7C1B
331
7E67
331
7E68
331
7DF9
331
7DFA
331
7E05
331
7E06
331
7E43
331
7E44
331
7E37
331
7E38
331
7E5B
331
7E5C
331
7E1D
331
7E1E
331
7E4F
331
7E50
331
7E2B
331
7E2C
331
7E11
331
7E12
331
7DED
331
7DEE
331
7EC9
331
7ECA
331
7ED5
331
7ED6
331
7EE1
331
7EE2
331
7EED
331
7EEE
331
7EF9
331
7EFA
331
7F05
331
7F06
331
7F11
331
7F12
331
7F1D
331
7F1E
331
7F2B
331
7F2C
331
7F37
331
7F38
331
7F43
331
7F44
331
7F4E
331
7F4F
331
7F57
331
7F58
331
7F60
331
7F61
331
7F69
331
7F6A
331
7F72
331
7F73
331
7F7B
331
7F7C
331
7F84
331
7F85
331
7F8D
331
7F8E
331
7F98
331
7F99
331
7FA1
331
7FA2
331
7FAA
331
7FAB
331
7FB3
331
7FB4
331
7FBF
331
7FC0
331
7FC8
331
7FC9
331
7FD1
331
7FD2
331
7FDA
331
7FDB
331
7FE3
331
7FE4
331
7FEC
331
7FED
331
7FF5
331
7FF6
331
7FFE
331
7FFF
331
8007
331
8008
331
8010
331
8011
331
8019
331
801A
331
8022
331
8023
331
802B
331
802C
331
8034
331
8035
331
8040
331
8041
331
8049
331
804A
331
8052
331
8053
331
805B
331
805C
331
8064
331
8065
331
806D
331
806E
331
8076
331
8077
102
}
  0
BLOCK_RECORD
  5
6328
330
1
100
AcDbSymbolTableRecord
100
AcDbBlockTableRecord
  2
*D1
340
0
  0
BLOCK_RECORD
  5
6334
330
1
100
AcDbSymbolTableRecord
100
AcDbBlockTableRecord
  2
*D2
340
0
  0
BLOCK_RECORD
  5
6340
330
1
100
AcDbSymbolTableRecord
100
AcDbBlockTableRecord
  2
*D3
340
0
  0
BLOCK_RECORD
  5
634C
330
1
100
AcDbSymbolTableRecord
100
AcDbBlockTableRecord
  2
*D4
340
0
  0
BLOCK_RECORD
  5
63CC
330
1
100
AcDbSymbolTableRecord
100
AcDbBlockTableRecord
  2
*D5
340
0
  0
BLOCK_RECORD
  5
6402
330
1
100
AcDbSymbolTableRecord
100
AcDbBlockTableRecord
  2
*U6
340
0
102
{BLKREFS
331
65AF
331
747F
102
}
  0
BLOCK_RECORD
  5
6406
330
1
100
AcDbSymbolTableRecord
100
AcDbBlockTableRecord
  2
*U7
340
0
102
{BLKREFS
331
65AE
331
740E
102
}
  0
BLOCK_RECORD
  5
640A
330
1
100
AcDbSymbolTableRecord
100
AcDbBlockTableRecord
  2
*U8
340
0
102
{BLKREFS
331
65BC
331
7411
102
}
  0
BLOCK_RECORD
  5
640E
330
1
100
AcDbSymbolTableRecord
100
AcDbBlockTableRecord
  2
*U9
340
0
102
{BLKREFS
331
65BB
331
7410
102
}
  0
BLOCK_RECORD
  5
641D
330
1
100
AcDbSymbolTableRecord
100
AcDbBlockTableRecord
  2
*U10
340
0
102
{BLKREFS
331
65AD
331
740C
102
}
  0
BLOCK_RECORD
  5
6421
330
1
100
AcDbSymbolTableRecord
100
AcDbBlockTableRecord
  2
*U11
340
0
102
{BLKREFS
331
6574
331
748D
331
79C8
102
}
  0
BLOCK_RECORD
  5
65BE
330
1
100
AcDbSymbolTableRecord
100
AcDbBlockTableRecord
  2
*D12
340
0
  0
BLOCK_RECORD
  5
65CA
330
1
100
AcDbSymbolTableRecord
100
AcDbBlockTableRecord
  2
*D13
340
0
  0
BLOCK_RECORD
  5
65D6
330
1
100
AcDbSymbolTableRecord
100
AcDbBlockTableRecord
  2
*D14
340
0
  0
BLOCK_RECORD
  5
65E2
330
1
100
AcDbSymbolTableRecord
100
AcDbBlockTableRecord
  2
*D15
340
0
  0
BLOCK_RECORD
  5
65EE
330
1
100
AcDbSymbolTableRecord
100
AcDbBlockTableRecord
  2
*D16
340
0
  0
BLOCK_RECORD
  5
65FA
330
1
100
AcDbSymbolTableRecord
100
AcDbBlockTableRecord
  2
*D17
340
0
  0
BLOCK_RECORD
  5
6606
330
1
100
AcDbSymbolTableRecord
100
AcDbBlockTableRecord
  2
*D18
340
0
  0
BLOCK_RECORD
  5
6612
330
1
100
AcDbSymbolTableRecord
100
AcDbBlockTableRecord
  2
*D19
340
0
  0
BLOCK_RECORD
  5
661E
330
1
100
AcDbSymbolTableRecord
100
AcDbBlockTableRecord
  2
*D20
340
0
  0
BLOCK_RECORD
  5
662A
330
1
100
AcDbSymbolTableRecord
100
AcDbBlockTableRecord
  2
*D21
340
0
  0
BLOCK_RECORD
  5
6636
330
1
100
AcDbSymbolTableRecord
100
AcDbBlockTableRecord
  2
*D22
340
0
  0
BLOCK_RECORD
  5
67C2
330
1
100
AcDbSymbolTableRecord
100
AcDbBlockTableRecord
  2
*D23
340
0
  0
BLOCK_RECORD
  5
68B4
330
1
100
AcDbSymbolTableRecord
100
AcDbBlockTableRecord
  2
*D24
340
0
  0
BLOCK_RECORD
  5
68C1
330
1
100
AcDbSymbolTableRecord
100
AcDbBlockTableRecord
  2
*D25
340
0
  0
BLOCK_RECORD
  5
68CE
330
1
100
AcDbSymbolTableRecord
100
AcDbBlockTableRecord
  2
*D26
340
0
  0
BLOCK_RECORD
  5
696B
330
1
100
AcDbSymbolTableRecord
100
AcDbBlockTableRecord
  2
*D27
340
0
  0
BLOCK_RECORD
  5
6978
330
1
100
AcDbSymbolTableRecord
100
AcDbBlockTableRecord
  2
*D28
340
0
  0
BLOCK_RECORD
  5
6FF9
330
1
100
AcDbSymbolTableRecord
100
AcDbBlockTableRecord
  2
*D29
340
0
  0
BLOCK_RECORD
  5
7004
330
1
100
AcDbSymbolTableRecord
100
AcDbBlockTableRecord
  2
*D30
340
0
  0
BLOCK_RECORD
  5
701C
330
1
100
AcDbSymbolTableRecord
100
AcDbBlockTableRecord
  2
*D31
340
0
  0
BLOCK_RECORD
  5
7100
330
1
100
AcDbSymbolTableRecord
100
AcDbBlockTableRecord
  2
A$C445E2105
340
0
  0
BLOCK_RECORD
  5
7322
330
1
100
AcDbSymbolTableRecord
100
AcDbBlockTableRecord
  2
*D34
340
0
  0
BLOCK_RECORD
  5
732E
330
1
100
AcDbSymbolTableRecord
100
AcDbBlockTableRecord
  2
*D35
340
0
  0
BLOCK_RECORD
  5
737B
330
1
100
AcDbSymbolTableRecord
100
AcDbBlockTableRecord
  2
*D36
340
0
  0
BLOCK_RECORD
  5
7387
330
1
100
AcDbSymbolTableRecord
100
AcDbBlockTableRecord
  2
*D37
340
0
  0
BLOCK_RECORD
  5
73B0
330
1
100
AcDbSymbolTableRecord
100
AcDbBlockTableRecord
  2
*D38
340
0
  0
BLOCK_RECORD
  5
73BC
330
1
100
AcDbSymbolTableRecord
100
AcDbBlockTableRecord
  2
*D39
340
0
  0
BLOCK_RECORD
  5
7414
330
1
100
AcDbSymbolTableRecord
100
AcDbBlockTableRecord
  2
*D40
340
0
  0
BLOCK_RECORD
  5
7420
330
1
100
AcDbSymbolTableRecord
100
AcDbBlockTableRecord
  2
*D41
340
0
  0
BLOCK_RECORD
  5
748E
330
1
100
AcDbSymbolTableRecord
100
AcDbBlockTableRecord
  2
*D42
340
0
  0
BLOCK_RECORD
  5
749A
330
1
100
AcDbSymbolTableRecord
100
AcDbBlockTableRecord
  2
*D43
340
0
  0
BLOCK_RECORD
  5
74A6
330
1
100
AcDbSymbolTableRecord
100
AcDbBlockTableRecord
  2
*D44
340
0
  0
BLOCK_RECORD
  5
74B2
330
1
100
AcDbSymbolTableRecord
100
AcDbBlockTableRecord
  2
*D45
340
0
  0
BLOCK_RECORD
  5
74BE
330
1
100
AcDbSymbolTableRecord
100
AcDbBlockTableRecord
  2
*D46
340
0
  0
BLOCK_RECORD
  5
74CA
330
1
100
AcDbSymbolTableRecord
100
AcDbBlockTableRecord
  2
*D47
340
0
  0
BLOCK_RECORD
  5
74D7
330
1
100
AcDbSymbolTableRecord
100
AcDbBlockTableRecord
  2
*D48
340
0
  0
BLOCK_RECORD
  5
74E3
330
1
100
AcDbSymbolTableRecord
100
AcDbBlockTableRecord
  2
*D49
340
0
  0
BLOCK_RECORD
  5
74EF
330
1
100
AcDbSymbolTableRecord
100
AcDbBlockTableRecord
  2
*D50
340
0
  0
BLOCK_RECORD
  5
74FB
330
1
100
AcDbSymbolTableRecord
100
AcDbBlockTableRecord
  2
*D51
340
0
  0
BLOCK_RECORD
  5
762C
330
1
100
AcDbSymbolTableRecord
100
AcDbBlockTableRecord
  2
*D52
340
0
  0
BLOCK_RECORD
  5
7668
330
1
100
AcDbSymbolTableRecord
100
AcDbBlockTableRecord
  2
*D53
340
0
  0
BLOCK_RECORD
  5
7673
330
1
100
AcDbSymbolTableRecord
100
AcDbBlockTableRecord
  2
*D54
340
0
  0
BLOCK_RECORD
  5
767F
330
1
100
AcDbSymbolTableRecord
100
AcDbBlockTableRecord
  2
*D55
340
0
  0
BLOCK_RECORD
  5
76D7
330
1
100
AcDbSymbolTableRecord
100
AcDbBlockTableRecord
  2
*D56
340
0
  0
BLOCK_RECORD
  5
76E3
330
1
100
AcDbSymbolTableRecord
100
AcDbBlockTableRecord
  2
*D57
340
0
  0
BLOCK_RECORD
  5
79E0
330
1
100
AcDbSymbolTableRecord
100
AcDbBlockTableRecord
  2
*D58
340
0
  0
BLOCK_RECORD
  5
79EC
330
1
100
AcDbSymbolTableRecord
100
AcDbBlockTableRecord
  2
*D59
340
0
  0
BLOCK_RECORD
  5
79F8
330
1
100
AcDbSymbolTableRecord
100
AcDbBlockTableRecord
  2
*D60
340
0
  0
BLOCK_RECORD
  5
7A04
330
1
100
AcDbSymbolTableRecord
100
AcDbBlockTableRecord
  2
*D61
340
0
  0
BLOCK_RECORD
  5
7A10
330
1
100
AcDbSymbolTableRecord
100
AcDbBlockTableRecord
  2
*D62
340
0
  0
BLOCK_RECORD
  5
7A1C
330
1
100
AcDbSymbolTableRecord
100
AcDbBlockTableRecord
  2
*D63
340
0
  0
BLOCK_RECORD
  5
7A28
330
1
100
AcDbSymbolTableRecord
100
AcDbBlockTableRecord
  2
*D64
340
0
  0
BLOCK_RECORD
  5
7A34
330
1
100
AcDbSymbolTableRecord
100
AcDbBlockTableRecord
  2
*D65
340
0
  0
BLOCK_RECORD
  5
7A42
330
1
100
AcDbSymbolTableRecord
100
AcDbBlockTableRecord
  2
*D66
340
0
  0
BLOCK_RECORD
  5
7A4E
330
1
100
AcDbSymbolTableRecord
100
AcDbBlockTableRecord
  2
*D67
340
0
  0
BLOCK_RECORD
  5
7A5A
330
1
100
AcDbSymbolTableRecord
100
AcDbBlockTableRecord
  2
*D68
340
0
  0
BLOCK_RECORD
  5
7A66
330
1
100
AcDbSymbolTableRecord
100
AcDbBlockTableRecord
  2
*D69
340
0
  0
BLOCK_RECORD
  5
7A72
330
1
100
AcDbSymbolTableRecord
100
AcDbBlockTableRecord
  2
*D70
340
0
  0
BLOCK_RECORD
  5
7DE1
330
1
100
AcDbSymbolTableRecord
100
AcDbBlockTableRecord
  2
*U72
340
0
102
{BLKREFS
331
7E8B
331
7EB7
102
}
  0
BLOCK_RECORD
  5
7DE9
330
1
100
AcDbSymbolTableRecord
100
AcDbBlockTableRecord
  2
*D73
340
0
  0
BLOCK_RECORD
  5
7DF5
330
1
100
AcDbSymbolTableRecord
100
AcDbBlockTableRecord
  2
*D74
340
0
  0
BLOCK_RECORD
  5
7E01
330
1
100
AcDbSymbolTableRecord
100
AcDbBlockTableRecord
  2
*D75
340
0
  0
BLOCK_RECORD
  5
7E0D
330
1
100
AcDbSymbolTableRecord
100
AcDbBlockTableRecord
  2
*D76
340
0
  0
BLOCK_RECORD
  5
7E19
330
1
100
AcDbSymbolTableRecord
100
AcDbBlockTableRecord
  2
*D77
340
0
  0
BLOCK_RECORD
  5
7E25
330
1
100
AcDbSymbolTableRecord
100
AcDbBlockTableRecord
  2
*D78
340
0
  0
BLOCK_RECORD
  5
7E33
330
1
100
AcDbSymbolTableRecord
100
AcDbBlockTableRecord
  2
*D79
340
0
  0
BLOCK_RECORD
  5
7E3F
330
1
100
AcDbSymbolTableRecord
100
AcDbBlockTableRecord
  2
*D80
340
0
  0
BLOCK_RECORD
  5
7E4B
330
1
100
AcDbSymbolTableRecord
100
AcDbBlockTableRecord
  2
*D81
340
0
  0
BLOCK_RECORD
  5
7E57
330
1
100
AcDbSymbolTableRecord
100
AcDbBlockTableRecord
  2
*D82
340
0
  0
BLOCK_RECORD
  5
7E63
330
1
100
AcDbSymbolTableRecord
100
AcDbBlockTableRecord
  2
*D83
340
0
  0
BLOCK_RECORD
  5
7EC5
330
1
100
AcDbSymbolTableRecord
100
AcDbBlockTableRecord
  2
*D85
340
0
  0
BLOCK_RECORD
  5
7ED1
330
1
100
AcDbSymbolTableRecord
100
AcDbBlockTableRecord
  2
*D86
340
0
  0
BLOCK_RECORD
  5
7EDD
330
1
100
AcDbSymbolTableRecord
100
AcDbBlockTableRecord
  2
*D87
340
0
  0
BLOCK_RECORD
  5
7EE9
330
1
100
AcDbSymbolTableRecord
100
AcDbBlockTableRecord
  2
*D88
340
0
  0
BLOCK_RECORD
  5
7EF5
330
1
100
AcDbSymbolTableRecord
100
AcDbBlockTableRecord
  2
*D89
340
0
  0
BLOCK_RECORD
  5
7F01
330
1
100
AcDbSymbolTableRecord
100
AcDbBlockTableRecord
  2
*D90
340
0
  0
BLOCK_RECORD
  5
7F0D
330
1
100
AcDbSymbolTableRecord
100
AcDbBlockTableRecord
  2
*D91
340
0
  0
BLOCK_RECORD
  5
7F19
330
1
100
AcDbSymbolTableRecord
100
AcDbBlockTableRecord
  2
*D92
340
0
  0
BLOCK_RECORD
  5
7F25
330
1
100
AcDbSymbolTableRecord
100
AcDbBlockTableRecord
  2
*D93
340
0
  0
BLOCK_RECORD
  5
7F33
330
1
100
AcDbSymbolTableRecord
100
AcDbBlockTableRecord
  2
*D94
340
0
  0
BLOCK_RECORD
  5
7F3F
330
1
100
AcDbSymbolTableRecord
100
AcDbBlockTableRecord
  2
*D95
340
0
  0
ENDTAB
  0
ENDSEC
  0
SECTION
  2
BLOCKS
  0
BLOCK
  5
1F
330
1E
100
AcDbEntity
  8
0
100
AcDbBlockBegin
  2
*MODEL_SPACE
 70
     0
 10
0.0
 20
0.0
 30
0.0
  3
*MODEL_SPACE
  1

  0
ENDBLK
  5
20
330
1E
100
AcDbEntity
  8
0
100
AcDbBlockEnd
  0
BLOCK
  5
1B
330
1A
100
AcDbEntity
 67
     1
  8
0
100
AcDbBlockBegin
  2
*PAPER_SPACE
 70
     0
 10
0.0
 20
0.0
 30
0.0
  3
*PAPER_SPACE
  1

  0
ENDBLK
  5
1C
330
1A
100
AcDbEntity
 67
     1
  8
0
100
AcDbBlockEnd
  0
BLOCK
  5
3B6
330
3B2
100
AcDbEntity
  8
0
100
AcDbBlockBegin
  2
_OPEN
 70
     0
 10
0.0
 20
0.0
 30
0.0
  3
_OPEN
  1

  0
LINE
  5
3B3
330
3B2
100
AcDbEntity
  8
30
  6
Continuous
 62
     0
100
AcDbLine
 10
-1.0
 20
0.166667
 30
0.0
 11
0.0
 21
0.0
 31
0.0
  0
LINE
  5
3B4
330
3B2
100
AcDbEntity
  8
30
  6
Continuous
 62
     0
100
AcDbLine
 10
-1.0
 20
-0.166667
 30
0.0
 11
0.0
 21
0.0
 31
0.0
  0
LINE
  5
3B5
330
3B2
100
AcDbEntity
  8
30
  6
Continuous
 62
     0
100
AcDbLine
 10
0.0
 20
0.0
 30
0.0
 11
-1.0
 21
0.0
 31
0.0
  0
ENDBLK
  5
3B7
330
3B2
100
AcDbEntity
  8
0
100
AcDbBlockEnd
  0
BLOCK
  5
6332
330
6328
100
AcDbEntity
  8
0
100
AcDbBlockBegin
  2
*D1
 70
     1
 10
0.0
 20
0.0
 30
0.0
  3
*D1
  1

  0
LINE
  5
780C
330
6328
100
AcDbEntity
  8
30
  6
Continuous
 62
     0
370
    -2
100
AcDbLine
 10
-570.0
 20
-308.4999999999999
 30
0.0
 11
-570.0
 21
-298.7868080138014
 31
0.0
  0
LINE
  5
780D
330
6328
100
AcDbEntity
  8
30
  6
Continuous
 62
     0
370
    -2
100
AcDbLine
 10
-472.0
 20
-308.4999999999999
 30
0.0
 11
-472.0
 21
-298.7868080138014
 31
0.0
  0
LINE
  5
780E
330
6328
100
AcDbEntity
  8
30
  6
Continuous
 62
     0
370
    -2
100
AcDbLine
 10
-568.0
 20
-299.2868080138014
 30
0.0
 11
-474.0
 21
-299.2868080138014
 31
0.0
  0
INSERT
  5
780F
330
6328
100
AcDbEntity
  8
30
  6
Continuous
 62
     0
370
    -2
100
AcDbBlockReference
  2
_OPEN
 10
-570.0
 20
-299.2868080138014
 30
0.0
 41
2.0
 42
2.0
 43
2.0
 50
180.0
  0
INSERT
  5
7810
330
6328
100
AcDbEntity
  8
30
  6
Continuous
 62
     0
370
    -2
100
AcDbBlockReference
  2
_OPEN
 10
-472.0
 20
-299.2868080138014
 30
0.0
 41
2.0
 42
2.0
 43
2.0
  0
MTEXT
  5
7811
330
6328
100
AcDbEntity
  8
30
  6
Continuous
 62
     0
100
AcDbMText
 10
-521.0
 20
-296.2868080138014
 30
0.0
 40
4.0
 41
0.0
 71
     5
 72
     1
  1
\A1;98
 73
     1
 44
1.0
  0
POINT
  5
7812
330
6328
100
AcDbEntity
  8
DEFPOINTS
  6
Continuous
 62
     0
100
AcDbPoint
 10
-570.0
 20
-309.5
 30
0.0
  0
POINT
  5
7813
330
6328
100
AcDbEntity
  8
DEFPOINTS
  6
Continuous
 62
     0
100
AcDbPoint
 10
-472.0
 20
-309.5
 30
0.0
  0
POINT
  5
7814
330
6328
100
AcDbEntity
  8
DEFPOINTS
  6
Continuous
 62
     0
100
AcDbPoint
 10
-472.0
 20
-299.2868080138014
 30
0.0
  0
ENDBLK
  5
6333
330
6328
100
AcDbEntity
  8
0
100
AcDbBlockEnd
  0
BLOCK
  5
633E
330
6334
100
AcDbEntity
  8
0
100
AcDbBlockBegin
  2
*D2
 70
     1
 10
0.0
 20
0.0
 30
0.0
  3
*D2
  1

  0
LINE
  5
7839
330
6334
100
AcDbEntity
  8
30
  6
Continuous
 62
     0
370
    -2
100
AcDbLine
 10
-573.5
 20
-418.0
 30
0.0
 11
-573.5
 21
-465.454446411991
 31
0.0
  0
LINE
  5
783A
330
6334
100
AcDbEntity
  8
30
  6
Continuous
 62
     0
370
    -2
100
AcDbLine
 10
-468.5
 20
-418.0
 30
0.0
 11
-468.5
 21
-465.454446411991
 31
0.0
  0
LINE
  5
783B
330
6334
100
AcDbEntity
  8
30
  6
Continuous
 62
     0
370
    -2
100
AcDbLine
 10
-571.4999999999999
 20
-464.9544464119911
 30
0.0
 11
-470.5
 21
-464.9544464119911
 31
0.0
  0
INSERT
  5
783C
330
6334
100
AcDbEntity
  8
30
  6
Continuous
 62
     0
370
    -2
100
AcDbBlockReference
  2
_OPEN
 10
-573.5
 20
-464.9544464119911
 30
0.0
 41
2.0
 42
2.0
 43
2.0
 50
180.0
  0
INSERT
  5
783D
330
6334
100
AcDbEntity
  8
30
  6
Continuous
 62
     0
370
    -2
100
AcDbBlockReference
  2
_OPEN
 10
-468.5
 20
-464.9544464119911
 30
0.0
 41
2.0
 42
2.0
 43
2.0
  0
MTEXT
  5
783E
330
6334
100
AcDbEntity
  8
30
  6
Continuous
 62
     0
100
AcDbMText
 10
-521.0
 20
-461.954446411991
 30
0.0
 40
4.0
 41
0.0
 71
     5
 72
     1
  1
\A1;105
 73
     1
 44
1.0
  0
POINT
  5
783F
330
6334
100
AcDbEntity
  8
DEFPOINTS
  6
Continuous
 62
     0
100
AcDbPoint
 10
-573.5
 20
-417.0
 30
0.0
  0
POINT
  5
7840
330
6334
100
AcDbEntity
  8
DEFPOINTS
  6
Continuous
 62
     0
100
AcDbPoint
 10
-468.5
 20
-417.0
 30
0.0
  0
POINT
  5
7841
330
6334
100
AcDbEntity
  8
DEFPOINTS
  6
Continuous
 62
     0
100
AcDbPoint
 10
-468.5
 20
-464.9544464119911
 30
0.0
  0
ENDBLK
  5
633F
330
6334
100
AcDbEntity
  8
0
100
AcDbBlockEnd
  0
BLOCK
  5
634A
330
6340
100
AcDbEntity
  8
0
100
AcDbBlockBegin
  2
*D3
 70
     1
 10
0.0
 20
0.0
 30
0.0
  3
*D3
  1

  0
LINE
  5
7830
330
6340
100
AcDbEntity
  8
30
  6
Continuous
 62
     0
370
    -2
100
AcDbLine
 10
-556.0
 20
-410.0000000165
 30
0.0
 11
-556.0
 21
-445.4544464119909
 31
0.0
  0
LINE
  5
7831
330
6340
100
AcDbEntity
  8
30
  6
Continuous
 62
     0
370
    -2
100
AcDbLine
 10
-485.9999999999999
 20
-410.0000000165
 30
0.0
 11
-485.9999999999999
 21
-445.4544464119909
 31
0.0
  0
LINE
  5
7832
330
6340
100
AcDbEntity
  8
30
  6
Continuous
 62
     0
370
    -2
100
AcDbLine
 10
-554.0
 20
-444.954446411991
 30
0.0
 11
-487.9999999999999
 21
-444.954446411991
 31
0.0
  0
INSERT
  5
7833
330
6340
100
AcDbEntity
  8
30
  6
Continuous
 62
     0
370
    -2
100
AcDbBlockReference
  2
_OPEN
 10
-556.0
 20
-444.954446411991
 30
0.0
 41
2.0
 42
2.0
 43
2.0
 50
180.0
  0
INSERT
  5
7834
330
6340
100
AcDbEntity
  8
30
  6
Continuous
 62
     0
370
    -2
100
AcDbBlockReference
  2
_OPEN
 10
-485.9999999999999
 20
-444.954446411991
 30
0.0
 41
2.0
 42
2.0
 43
2.0
  0
MTEXT
  5
7835
330
6340
100
AcDbEntity
  8
30
  6
Continuous
 62
     0
100
AcDbMText
 10
-521.0
 20
-441.9544464119909
 30
0.0
 40
4.0
 41
0.0
 71
     5
 72
     1
  1
\A1;70
 73
     1
 44
1.0
  0
POINT
  5
7836
330
6340
100
AcDbEntity
  8
DEFPOINTS
  6
Continuous
 62
     0
100
AcDbPoint
 10
-556.0
 20
-409.0000000165
 30
0.0
  0
POINT
  5
7837
330
6340
100
AcDbEntity
  8
DEFPOINTS
  6
Continuous
 62
     0
100
AcDbPoint
 10
-485.9999999999999
 20
-409.0000000165
 30
0.0
  0
POINT
  5
7838
330
6340
100
AcDbEntity
  8
DEFPOINTS
  6
Continuous
 62
     0
100
AcDbPoint
 10
-485.9999999999999
 20
-444.954446411991
 30
0.0
  0
ENDBLK
  5
634B
330
6340
100
AcDbEntity
  8
0
100
AcDbBlockEnd
  0
BLOCK
  5
6356
330
634C
100
AcDbEntity
  8
0
100
AcDbBlockBegin
  2
*D4
 70
     1
 10
0.0
 20
0.0
 30
0.0
  3
*D4
  1

  0
LINE
  5
7827
330
634C
100
AcDbEntity
  8
30
  6
Continuous
 62
     0
370
    -2
100
AcDbLine
 10
-532.0
 20
-360.4999999999999
 30
0.0
 11
-532.0
 21
-375.4544464119911
 31
0.0
  0
LINE
  5
7828
330
634C
100
AcDbEntity
  8
30
  6
Continuous
 62
     0
370
    -2
100
AcDbLine
 10
-510.0
 20
-360.4999999999999
 30
0.0
 11
-510.0
 21
-375.4544464119911
 31
0.0
  0
LINE
  5
7829
330
634C
100
AcDbEntity
  8
30
  6
Continuous
 62
     0
370
    -2
100
AcDbLine
 10
-530.0
 20
-374.9544464119911
 30
0.0
 11
-512.0
 21
-374.9544464119911
 31
0.0
  0
INSERT
  5
782A
330
634C
100
AcDbEntity
  8
30
  6
Continuous
 62
     0
370
    -2
100
AcDbBlockReference
  2
_OPEN
 10
-532.0
 20
-374.9544464119911
 30
0.0
 41
2.0
 42
2.0
 43
2.0
 50
180.0
  0
INSERT
  5
782B
330
634C
100
AcDbEntity
  8
30
  6
Continuous
 62
     0
370
    -2
100
AcDbBlockReference
  2
_OPEN
 10
-510.0
 20
-374.9544464119911
 30
0.0
 41
2.0
 42
2.0
 43
2.0
  0
MTEXT
  5
782C
330
634C
100
AcDbEntity
  8
30
  6
Continuous
 62
     0
100
AcDbMText
 10
-521.0
 20
-371.9544464119911
 30
0.0
 40
4.0
 41
0.0
 71
     5
 72
     1
  1
\A1;22
 73
     1
 44
1.0
  0
POINT
  5
782D
330
634C
100
AcDbEntity
  8
DEFPOINTS
  6
Continuous
 62
     0
100
AcDbPoint
 10
-532.0
 20
-359.5
 30
0.0
  0
POINT
  5
782E
330
634C
100
AcDbEntity
  8
DEFPOINTS
  6
Continuous
 62
     0
100
AcDbPoint
 10
-510.0
 20
-359.5
 30
0.0
  0
POINT
  5
782F
330
634C
100
AcDbEntity
  8
DEFPOINTS
  6
Continuous
 62
     0
100
AcDbPoint
 10
-510.0
 20
-374.9544464119911
 30
0.0
  0
ENDBLK
  5
6357
330
634C
100
AcDbEntity
  8
0
100
AcDbBlockEnd
  0
BLOCK
  5
63D6
330
63CC
100
AcDbEntity
  8
0
100
AcDbBlockBegin
  2
*D5
 70
     1
 10
0.0
 20
0.0
 30
0.0
  3
*D5
  1

  0
LINE
  5
7797
330
63CC
100
AcDbEntity
  8
30
  6
Continuous
 62
     0
370
    -2
100
AcDbLine
 10
-776.5
 20
-500.5000000165
 30
0.0
 11
-776.5
 21
-670.9544464119908
 31
0.0
  0
LINE
  5
7798
330
63CC
100
AcDbEntity
  8
30
  6
Continuous
 62
     0
370
    -2
100
AcDbLine
 10
-741.5
 20
-626.5000000164998
 30
0.0
 11
-741.5
 21
-670.9544464119908
 31
0.0
  0
LINE
  5
7799
330
63CC
100
AcDbEntity
  8
30
  6
Continuous
 62
     0
370
    -2
100
AcDbLine
 10
-774.5
 20
-670.4544464119908
 30
0.0
 11
-743.5
 21
-670.4544464119908
 31
0.0
  0
INSERT
  5
779A
330
63CC
100
AcDbEntity
  8
30
  6
Continuous
 62
     0
370
    -2
100
AcDbBlockReference
  2
_OPEN
 10
-776.5
 20
-670.4544464119908
 30
0.0
 41
2.0
 42
2.0
 43
2.0
 50
180.0
  0
INSERT
  5
779B
330
63CC
100
AcDbEntity
  8
30
  6
Continuous
 62
     0
370
    -2
100
AcDbBlockReference
  2
_OPEN
 10
-741.5
 20
-670.4544464119908
 30
0.0
 41
2.0
 42
2.0
 43
2.0
  0
MTEXT
  5
779C
330
63CC
100
AcDbEntity
  8
30
  6
Continuous
 62
     0
100
AcDbMText
 10
-759.0
 20
-667.4544464119908
 30
0.0
 40
4.0
 41
0.0
 71
     5
 72
     1
  1
\A1;35
 73
     1
 44
1.0
  0
POINT
  5
779D
330
63CC
100
AcDbEntity
  8
DEFPOINTS
  6
Continuous
 62
     0
100
AcDbPoint
 10
-776.5
 20
-499.5000000165
 30
0.0
  0
POINT
  5
779E
330
63CC
100
AcDbEntity
  8
DEFPOINTS
  6
Continuous
 62
     0
100
AcDbPoint
 10
-741.5
 20
-625.5000000164998
 30
0.0
  0
POINT
  5
779F
330
63CC
100
AcDbEntity
  8
DEFPOINTS
  6
Continuous
 62
     0
100
AcDbPoint
 10
-741.5
 20
-670.4544464119908
 30
0.0
  0
ENDBLK
  5
63D7
330
63CC
100
AcDbEntity
  8
0
100
AcDbBlockEnd
  0
BLOCK
  5
6404
330
6402
100
AcDbEntity
  8
TOP
  6
Continuous
 62
     4
100
AcDbBlockBegin
  2
*U6
 70
     1
 10
0.0
 20
0.0
 30
0.0
  3
*U6
  1

  0
TEXT
  5
6403
330
6402
100
AcDbEntity
  8
TOP
  6
ByBlock
 62
     0
100
AcDbText
 10
241.0
 20
103.4999999999999
 30
0.0
 40
2.500000003799998
  1
25
 41
0.8912499999999965
  7
UGMTXT
100
AcDbText
  0
ENDBLK
  5
6405
330
6402
100
AcDbEntity
  8
0
100
AcDbBlockEnd
  0
BLOCK
  5
6408
330
6406
100
AcDbEntity
  8
TOP
  6
Continuous
 62
     4
100
AcDbBlockBegin
  2
*U7
 70
     1
 10
0.0
 20
0.0
 30
0.0
  3
*U7
  1

  0
TEXT
  5
6407
330
6406
100
AcDbEntity
  8
TOP
  6
ByBlock
 62
     0
100
AcDbText
 10
245.0
 20
103.4999999999999
 30
0.0
 40
2.500000003799998
  1
(max.)
 41
0.8216911764705852
  7
UGMTXT
100
AcDbText
  0
ENDBLK
  5
6409
330
6406
100
AcDbEntity
  8
0
100
AcDbBlockEnd
  0
BLOCK
  5
640C
330
640A
100
AcDbEntity
  8
TOP
  6
Continuous
 62
     4
100
AcDbBlockBegin
  2
*U8
 70
     1
 10
0.0
 20
0.0
 30
0.0
  3
*U8
  1

  0
TEXT
  5
640B
330
640A
100
AcDbEntity
  8
TOP
  6
ByBlock
 62
     0
100
AcDbText
 10
262.5
 20
115.0
 30
0.0
 40
2.500000003799998
  1
10
 50
90.00000000000005
 41
0.8912499999999965
  7
UGMTXT
100
AcDbText
  0
ENDBLK
  5
640D
330
640A
100
AcDbEntity
  8
0
100
AcDbBlockEnd
  0
BLOCK
  5
6410
330
640E
100
AcDbEntity
  8
TOP
  6
Continuous
 62
     4
100
AcDbBlockBegin
  2
*U9
 70
     1
 10
0.0
 20
0.0
 30
0.0
  3
*U9
  1

  0
TEXT
  5
640F
330
640E
100
AcDbEntity
  8
TOP
  6
ByBlock
 62
     0
100
AcDbText
 10
262.5
 20
119.5
 30
0.0
 40
2.500000003799998
  1
(max.)
 50
90.00000000000005
 41
0.8216911764705852
  7
UGMTXT
100
AcDbText
  0
ENDBLK
  5
6411
330
640E
100
AcDbEntity
  8
0
100
AcDbBlockEnd
  0
BLOCK
  5
641F
330
641D
100
AcDbEntity
  8
TOP
  6
Continuous
 62
     4
100
AcDbBlockBegin
  2
*U10
 70
     1
 10
0.0
 20
0.0
 30
0.0
  3
*U10
  1

  0
TEXT
  5
641E
330
641D
100
AcDbEntity
  8
TOP
  6
ByBlock
 62
     0
100
AcDbText
 10
243.0
 20
98.50000000000001
 30
0.0
 40
2.500000003799998
  1
max.t7
 41
0.8216911764705852
  7
UGMTXT
100
AcDbText
  0
ENDBLK
  5
6420
330
641D
100
AcDbEntity
  8
0
100
AcDbBlockEnd
  0
BLOCK
  5
6427
330
6421
100
AcDbEntity
  8
TOP
  6
Continuous
 62
     4
100
AcDbBlockBegin
  2
*U11
 70
     1
 10
0.0
 20
0.0
 30
0.0
  3
*U11
  1

  0
LINE
  5
6422
330
6421
100
AcDbEntity
  8
5
  6
ByBlock
 62
     0
100
AcDbLine
 10
187.4932291666666
 20
140.0
 30
0.0
 11
187.4932291666666
 21
140.0
 31
0.0
  0
LINE
  5
6423
330
6421
100
AcDbEntity
  8
5
  6
ByBlock
 62
     0
100
AcDbLine
 10
212.3871961722488
 20
130.0647232036205
 30
0.0
 11
204.0
 21
140.0
 31
0.0
  0
LINE
  5
6424
330
6421
100
AcDbEntity
  8
5
  6
ByBlock
 62
     0
100
AcDbLine
 10
204.0
 20
140.0
 30
0.0
 11
187.4932291666666
 21
140.0
 31
0.0
  0
SOLID
  5
6425
330
6421
100
AcDbEntity
  8
5
  6
ByBlock
 62
     0
100
AcDbTrace
 10
212.3871961722488
 20
130.0647232036205
 30
0.0
 11
210.8423579767661
 21
131.3779581845569
 31
0.0
 12
211.3517767919608
 22
131.8080011138521
 32
0.0
 13
211.3517767919608
 23
131.8080011138521
 33
0.0
  0
TEXT
  5
6426
330
6421
100
AcDbEntity
  8
TOP
  6
ByBlock
 62
     0
100
AcDbText
 10
187.4932291666666
 20
138.7499999999999
 30
0.0
 40
2.5
  1
 
 41
1.054062499999991
  7
UGMTXT
100
AcDbText
  0
ENDBLK
  5
6428
330
6421
100
AcDbEntity
  8
0
100
AcDbBlockEnd
  0
BLOCK
  5
65C8
330
65BE
100
AcDbEntity
  8
0
100
AcDbBlockBegin
  2
*D12
 70
     1
 10
0.0
 20
0.0
 30
0.0
  3
*D12
  1

  0
LINE
  5
78F8
330
65BE
100
AcDbEntity
  8
30
  6
Continuous
 62
     0
370
    -2
100
AcDbLine
 10
-368.7397180415652
 20
-398.0
 30
0.0
 11
-368.7397180415652
 21
-461.7797117119422
 31
0.0
  0
LINE
  5
78F9
330
65BE
100
AcDbEntity
  8
30
  6
Continuous
 62
     0
370
    -2
100
AcDbLine
 10
-300.7397180415651
 20
-429.4999999999999
 30
0.0
 11
-300.7397180415651
 21
-461.7797117119422
 31
0.0
  0
LINE
  5
78FA
330
65BE
100
AcDbEntity
  8
30
  6
Continuous
 62
     0
370
    -2
100
AcDbLine
 10
-366.7397180415651
 20
-461.2797117119422
 30
0.0
 11
-302.7397180415651
 21
-461.2797117119422
 31
0.0
  0
INSERT
  5
78FB
330
65BE
100
AcDbEntity
  8
30
  6
Continuous
 62
     0
370
    -2
100
AcDbBlockReference
  2
_OPEN
 10
-368.7397180415652
 20
-461.2797117119422
 30
0.0
 41
2.0
 42
2.0
 43
2.0
 50
180.0
  0
INSERT
  5
78FC
330
65BE
100
AcDbEntity
  8
30
  6
Continuous
 62
     0
370
    -2
100
AcDbBlockReference
  2
_OPEN
 10
-300.7397180415651
 20
-461.2797117119422
 30
0.0
 41
2.0
 42
2.0
 43
2.0
  0
MTEXT
  5
78FD
330
65BE
100
AcDbEntity
  8
30
  6
Continuous
 62
     0
100
AcDbMText
 10
-334.7397180415652
 20
-458.2797117119421
 30
0.0
 40
4.0
 41
0.0
 71
     5
 72
     1
  1
\A1;68
 73
     1
 44
1.0
  0
POINT
  5
78FE
330
65BE
100
AcDbEntity
  8
DEFPOINTS
  6
Continuous
 62
     0
100
AcDbPoint
 10
-368.7397180415652
 20
-397.0
 30
0.0
  0
POINT
  5
78FF
330
65BE
100
AcDbEntity
  8
DEFPOINTS
  6
Continuous
 62
     0
100
AcDbPoint
 10
-300.7397180415651
 20
-428.5
 30
0.0
  0
POINT
  5
7900
330
65BE
100
AcDbEntity
  8
DEFPOINTS
  6
Continuous
 62
     0
100
AcDbPoint
 10
-300.7397180415651
 20
-461.2797117119422
 30
0.0
  0
ENDBLK
  5
65C9
330
65BE
100
AcDbEntity
  8
0
100
AcDbBlockEnd
  0
BLOCK
  5
65D4
330
65CA
100
AcDbEntity
  8
0
100
AcDbBlockBegin
  2
*D13
 70
     1
 10
0.0
 20
0.0
 30
0.0
  3
*D13
  1

  0
LINE
  5
78D4
330
65CA
100
AcDbEntity
  8
30
  6
Continuous
 62
     0
370
    -2
100
AcDbLine
 10
-392.7397180415654
 20
-347.0
 30
0.0
 11
-392.7397180415654
 21
-484.5172213954554
 31
0.0
  0
LINE
  5
78D5
330
65CA
100
AcDbEntity
  8
30
  6
Continuous
 62
     0
370
    -2
100
AcDbLine
 10
-300.7397180415651
 20
-429.4999999999999
 30
0.0
 11
-300.7397180415651
 21
-484.5172213954554
 31
0.0
  0
LINE
  5
78D6
330
65CA
100
AcDbEntity
  8
30
  6
Continuous
 62
     0
370
    -2
100
AcDbLine
 10
-390.7397180415654
 20
-484.0172213954554
 30
0.0
 11
-302.7397180415651
 21
-484.0172213954554
 31
0.0
  0
INSERT
  5
78D7
330
65CA
100
AcDbEntity
  8
30
  6
Continuous
 62
     0
370
    -2
100
AcDbBlockReference
  2
_OPEN
 10
-392.7397180415654
 20
-484.0172213954554
 30
0.0
 41
2.0
 42
2.0
 43
2.0
 50
180.0
  0
INSERT
  5
78D8
330
65CA
100
AcDbEntity
  8
30
  6
Continuous
 62
     0
370
    -2
100
AcDbBlockReference
  2
_OPEN
 10
-300.7397180415651
 20
-484.0172213954554
 30
0.0
 41
2.0
 42
2.0
 43
2.0
  0
MTEXT
  5
78D9
330
65CA
100
AcDbEntity
  8
30
  6
Continuous
 62
     0
100
AcDbMText
 10
-346.7397180415653
 20
-481.0172213954554
 30
0.0
 40
4.0
 41
0.0
 71
     5
 72
     1
  1
\A1;92
 73
     1
 44
1.0
  0
POINT
  5
78DA
330
65CA
100
AcDbEntity
  8
DEFPOINTS
  6
Continuous
 62
     0
100
AcDbPoint
 10
-392.7397180415654
 20
-346.0
 30
0.0
  0
POINT
  5
78DB
330
65CA
100
AcDbEntity
  8
DEFPOINTS
  6
Continuous
 62
     0
100
AcDbPoint
 10
-300.7397180415651
 20
-428.5
 30
0.0
  0
POINT
  5
78DC
330
65CA
100
AcDbEntity
  8
DEFPOINTS
  6
Continuous
 62
     0
100
AcDbPoint
 10
-300.7397180415651
 20
-484.0172213954554
 30
0.0
  0
ENDBLK
  5
65D5
330
65CA
100
AcDbEntity
  8
0
100
AcDbBlockEnd
  0
BLOCK
  5
65E0
330
65D6
100
AcDbEntity
  8
0
100
AcDbBlockBegin
  2
*D14
 70
     1
 10
0.0
 20
0.0
 30
0.0
  3
*D14
  1

  0
LINE
  5
78EF
330
65D6
100
AcDbEntity
  8
30
  6
Continuous
 62
     0
370
    -2
100
AcDbLine
 10
-372.7397180415652
 20
-372.0
 30
0.0
 11
-372.7397180415652
 21
-474.2104650043364
 31
0.0
  0
LINE
  5
78F0
330
65D6
100
AcDbEntity
  8
30
  6
Continuous
 62
     0
370
    -2
100
AcDbLine
 10
-300.7397180415651
 20
-429.4999999999999
 30
0.0
 11
-300.7397180415651
 21
-474.2104650043364
 31
0.0
  0
LINE
  5
78F1
330
65D6
100
AcDbEntity
  8
30
  6
Continuous
 62
     0
370
    -2
100
AcDbLine
 10
-370.7397180415652
 20
-473.7104650043364
 30
0.0
 11
-302.7397180415651
 21
-473.7104650043364
 31
0.0
  0
INSERT
  5
78F2
330
65D6
100
AcDbEntity
  8
30
  6
Continuous
 62
     0
370
    -2
100
AcDbBlockReference
  2
_OPEN
 10
-372.7397180415652
 20
-473.7104650043364
 30
0.0
 41
2.0
 42
2.0
 43
2.0
 50
180.0
  0
INSERT
  5
78F3
330
65D6
100
AcDbEntity
  8
30
  6
Continuous
 62
     0
370
    -2
100
AcDbBlockReference
  2
_OPEN
 10
-300.7397180415651
 20
-473.7104650043364
 30
0.0
 41
2.0
 42
2.0
 43
2.0
  0
MTEXT
  5
78F4
330
65D6
100
AcDbEntity
  8
30
  6
Continuous
 62
     0
100
AcDbMText
 10
-336.7397180415652
 20
-470.7104650043364
 30
0.0
 40
4.0
 41
0.0
 71
     5
 72
     1
  1
\A1;72
 73
     1
 44
1.0
  0
POINT
  5
78F5
330
65D6
100
AcDbEntity
  8
DEFPOINTS
  6
Continuous
 62
     0
100
AcDbPoint
 10
-372.7397180415652
 20
-371.0
 30
0.0
  0
POINT
  5
78F6
330
65D6
100
AcDbEntity
  8
DEFPOINTS
  6
Continuous
 62
     0
100
AcDbPoint
 10
-300.7397180415651
 20
-428.5
 30
0.0
  0
POINT
  5
78F7
330
65D6
100
AcDbEntity
  8
DEFPOINTS
  6
Continuous
 62
     0
100
AcDbPoint
 10
-300.7397180415651
 20
-473.7104650043364
 30
0.0
  0
ENDBLK
  5
65E1
330
65D6
100
AcDbEntity
  8
0
100
AcDbBlockEnd
  0
BLOCK
  5
65EC
330
65E2
100
AcDbEntity
  8
0
100
AcDbBlockBegin
  2
*D15
 70
     1
 10
0.0
 20
0.0
 30
0.0
  3
*D15
  1

  0
LINE
  5
78E6
330
65E2
100
AcDbEntity
  8
30
  6
Continuous
 62
     0
370
    -2
100
AcDbLine
 10
-361.7397180415653
 20
-429.4999999999999
 30
0.0
 11
-361.7397180415653
 21
-450.6847078385367
 31
0.0
  0
LINE
  5
78E7
330
65E2
100
AcDbEntity
  8
30
  6
Continuous
 62
     0
370
    -2
100
AcDbLine
 10
-300.7397180415651
 20
-429.4999999999999
 30
0.0
 11
-300.7397180415651
 21
-450.6847078385367
 31
0.0
  0
LINE
  5
78E8
330
65E2
100
AcDbEntity
  8
30
  6
Continuous
 62
     0
370
    -2
100
AcDbLine
 10
-359.7397180415653
 20
-450.1847078385367
 30
0.0
 11
-302.7397180415651
 21
-450.1847078385367
 31
0.0
  0
INSERT
  5
78E9
330
65E2
100
AcDbEntity
  8
30
  6
Continuous
 62
     0
370
    -2
100
AcDbBlockReference
  2
_OPEN
 10
-361.7397180415653
 20
-450.1847078385367
 30
0.0
 41
2.0
 42
2.0
 43
2.0
 50
180.0
  0
INSERT
  5
78EA
330
65E2
100
AcDbEntity
  8
30
  6
Continuous
 62
     0
370
    -2
100
AcDbBlockReference
  2
_OPEN
 10
-300.7397180415651
 20
-450.1847078385367
 30
0.0
 41
2.0
 42
2.0
 43
2.0
  0
MTEXT
  5
78EB
330
65E2
100
AcDbEntity
  8
30
  6
Continuous
 62
     0
100
AcDbMText
 10
-331.2397180415652
 20
-447.1847078385366
 30
0.0
 40
4.0
 41
0.0
 71
     5
 72
     1
  1
\A1;61
 73
     1
 44
1.0
  0
POINT
  5
78EC
330
65E2
100
AcDbEntity
  8
DEFPOINTS
  6
Continuous
 62
     0
100
AcDbPoint
 10
-361.7397180415653
 20
-428.5
 30
0.0
  0
POINT
  5
78ED
330
65E2
100
AcDbEntity
  8
DEFPOINTS
  6
Continuous
 62
     0
100
AcDbPoint
 10
-300.7397180415651
 20
-428.5
 30
0.0
  0
POINT
  5
78EE
330
65E2
100
AcDbEntity
  8
DEFPOINTS
  6
Continuous
 62
     0
100
AcDbPoint
 10
-300.7397180415651
 20
-450.1847078385367
 30
0.0
  0
ENDBLK
  5
65ED
330
65E2
100
AcDbEntity
  8
0
100
AcDbBlockEnd
  0
BLOCK
  5
65F8
330
65EE
100
AcDbEntity
  8
0
100
AcDbBlockBegin
  2
*D16
 70
     1
 10
0.0
 20
0.0
 30
0.0
  3
*D16
  1

  0
LINE
  5
78CB
330
65EE
100
AcDbEntity
  8
30
  6
Continuous
 62
     0
370
    -2
100
AcDbLine
 10
-369.7397180415652
 20
-295.0
 30
0.0
 11
-436.2427084674374
 21
-294.9999999999999
 31
0.0
  0
LINE
  5
78CC
330
65EE
100
AcDbEntity
  8
30
  6
Continuous
 62
     0
370
    -2
100
AcDbLine
 10
-369.7397180415652
 20
-397.0
 30
0.0
 11
-436.2427084674375
 21
-396.9999999999999
 31
0.0
  0
LINE
  5
78CD
330
65EE
100
AcDbEntity
  8
30
  6
Continuous
 62
     0
370
    -2
100
AcDbLine
 10
-435.7427084674374
 20
-296.9999999999999
 30
0.0
 11
-435.7427084674375
 21
-394.9999999999999
 31
0.0
  0
INSERT
  5
78CE
330
65EE
100
AcDbEntity
  8
30
  6
Continuous
 62
     0
370
    -2
100
AcDbBlockReference
  2
_OPEN
 10
-435.7427084674374
 20
-294.9999999999999
 30
0.0
 41
2.0
 42
2.0
 43
2.0
 50
90.0
  0
INSERT
  5
78CF
330
65EE
100
AcDbEntity
  8
30
  6
Continuous
 62
     0
370
    -2
100
AcDbBlockReference
  2
_OPEN
 10
-435.7427084674375
 20
-396.9999999999999
 30
0.0
 41
2.0
 42
2.0
 43
2.0
 50
270.0
  0
MTEXT
  5
78D0
330
65EE
100
AcDbEntity
  8
30
  6
Continuous
 62
     0
100
AcDbMText
 10
-438.7427084674373
 20
-346.0
 30
0.0
 40
4.0
 41
0.0
 71
     5
 72
     1
  1
\A1;102
 11
0.0000000000000001
 21
1.0
 31
0.0
 73
     1
 44
1.0
  0
POINT
  5
78D1
330
65EE
100
AcDbEntity
  8
DEFPOINTS
  6
Continuous
 62
     0
100
AcDbPoint
 10
-368.7397180415652
 20
-295.0
 30
0.0
  0
POINT
  5
78D2
330
65EE
100
AcDbEntity
  8
DEFPOINTS
  6
Continuous
 62
     0
100
AcDbPoint
 10
-368.7397180415652
 20
-397.0
 30
0.0
  0
POINT
  5
78D3
330
65EE
100
AcDbEntity
  8
DEFPOINTS
  6
Continuous
 62
     0
100
AcDbPoint
 10
-435.7427084674375
 20
-396.9999999999999
 30
0.0
  0
ENDBLK
  5
65F9
330
65EE
100
AcDbEntity
  8
0
100
AcDbBlockEnd
  0
BLOCK
  5
6604
330
65FA
100
AcDbEntity
  8
0
100
AcDbBlockBegin
  2
*D17
 70
     1
 10
0.0
 20
0.0
 30
0.0
  3
*D17
  1

  0
LINE
  5
78C2
330
65FA
100
AcDbEntity
  8
30
  6
Continuous
 62
     0
370
    -2
100
AcDbLine
 10
-377.7397180415655
 20
-321.0
 30
0.0
 11
-417.4927084674372
 21
-320.9999999999999
 31
0.0
  0
LINE
  5
78C3
330
65FA
100
AcDbEntity
  8
30
  6
Continuous
 62
     0
370
    -2
100
AcDbLine
 10
-377.7397180415655
 20
-371.0
 30
0.0
 11
-417.4927084674372
 21
-370.9999999999999
 31
0.0
  0
LINE
  5
78C4
330
65FA
100
AcDbEntity
  8
30
  6
Continuous
 62
     0
370
    -2
100
AcDbLine
 10
-416.9927084674372
 20
-322.9999999999999
 30
0.0
 11
-416.9927084674372
 21
-368.9999999999999
 31
0.0
  0
INSERT
  5
78C5
330
65FA
100
AcDbEntity
  8
30
  6
Continuous
 62
     0
370
    -2
100
AcDbBlockReference
  2
_OPEN
 10
-416.9927084674372
 20
-320.9999999999999
 30
0.0
 41
2.0
 42
2.0
 43
2.0
 50
90.0
  0
INSERT
  5
78C6
330
65FA
100
AcDbEntity
  8
30
  6
Continuous
 62
     0
370
    -2
100
AcDbBlockReference
  2
_OPEN
 10
-416.9927084674372
 20
-370.9999999999999
 30
0.0
 41
2.0
 42
2.0
 43
2.0
 50
270.0
  0
MTEXT
  5
78C7
330
65FA
100
AcDbEntity
  8
30
  6
Continuous
 62
     0
100
AcDbMText
 10
-419.9927084674372
 20
-346.0
 30
0.0
 40
4.0
 41
0.0
 71
     5
 72
     1
  1
\A1;50
 11
0.0000000000000001
 21
1.0
 31
0.0
 73
     1
 44
1.0
  0
POINT
  5
78C8
330
65FA
100
AcDbEntity
  8
DEFPOINTS
  6
Continuous
 62
     0
100
AcDbPoint
 10
-376.7397180415655
 20
-321.0
 30
0.0
  0
POINT
  5
78C9
330
65FA
100
AcDbEntity
  8
DEFPOINTS
  6
Continuous
 62
     0
100
AcDbPoint
 10
-376.7397180415655
 20
-371.0
 30
0.0
  0
POINT
  5
78CA
330
65FA
100
AcDbEntity
  8
DEFPOINTS
  6
Continuous
 62
     0
100
AcDbPoint
 10
-416.9927084674372
 20
-370.9999999999999
 30
0.0
  0
ENDBLK
  5
6605
330
65FA
100
AcDbEntity
  8
0
100
AcDbBlockEnd
  0
BLOCK
  5
6610
330
6606
100
AcDbEntity
  8
0
100
AcDbBlockBegin
  2
*D18
 70
     1
 10
0.0
 20
0.0
 30
0.0
  3
*D18
  1

  0
LINE
  5
791D
330
6606
100
AcDbEntity
  8
30
  6
Continuous
 62
     0
370
    -2
100
AcDbLine
 10
-324.7397180415653
 20
-262.5
 30
0.0
 11
-324.7397180415653
 21
-235.9544464119912
 31
0.0
  0
LINE
  5
791E
330
6606
100
AcDbEntity
  8
30
  6
Continuous
 62
     0
370
    -2
100
AcDbLine
 10
-300.7397180415651
 20
-262.5
 30
0.0
 11
-300.7397180415651
 21
-235.9544464119912
 31
0.0
  0
LINE
  5
791F
330
6606
100
AcDbEntity
  8
30
  6
Continuous
 62
     0
370
    -2
100
AcDbLine
 10
-322.7397180415653
 20
-236.4544464119912
 30
0.0
 11
-302.7397180415651
 21
-236.4544464119912
 31
0.0
  0
INSERT
  5
7920
330
6606
100
AcDbEntity
  8
30
  6
Continuous
 62
     0
370
    -2
100
AcDbBlockReference
  2
_OPEN
 10
-324.7397180415653
 20
-236.4544464119912
 30
0.0
 41
2.0
 42
2.0
 43
2.0
 50
180.0
  0
INSERT
  5
7921
330
6606
100
AcDbEntity
  8
30
  6
Continuous
 62
     0
370
    -2
100
AcDbBlockReference
  2
_OPEN
 10
-300.7397180415651
 20
-236.4544464119912
 30
0.0
 41
2.0
 42
2.0
 43
2.0
  0
MTEXT
  5
7922
330
6606
100
AcDbEntity
  8
30
  6
Continuous
 62
     0
100
AcDbMText
 10
-312.7397180415652
 20
-233.4544464119912
 30
0.0
 40
4.0
 41
0.0
 71
     5
 72
     1
  1
\A1;24
 73
     1
 44
1.0
  0
POINT
  5
7923
330
6606
100
AcDbEntity
  8
DEFPOINTS
  6
Continuous
 62
     0
100
AcDbPoint
 10
-324.7397180415653
 20
-263.5
 30
0.0
  0
POINT
  5
7924
330
6606
100
AcDbEntity
  8
DEFPOINTS
  6
Continuous
 62
     0
100
AcDbPoint
 10
-300.7397180415651
 20
-263.5
 30
0.0
  0
POINT
  5
7925
330
6606
100
AcDbEntity
  8
DEFPOINTS
  6
Continuous
 62
     0
100
AcDbPoint
 10
-300.7397180415651
 20
-236.4544464119912
 30
0.0
  0
ENDBLK
  5
6611
330
6606
100
AcDbEntity
  8
0
100
AcDbBlockEnd
  0
BLOCK
  5
661C
330
6612
100
AcDbEntity
  8
0
100
AcDbBlockBegin
  2
*D19
 70
     1
 10
0.0
 20
0.0
 30
0.0
  3
*D19
  1

  0
LINE
  5
790B
330
6612
100
AcDbEntity
  8
30
  6
Continuous
 62
     0
370
    -2
100
AcDbLine
 10
-300.7397180415651
 20
-429.4999999999999
 30
0.0
 11
-300.7397180415651
 21
-440.0349537714612
 31
0.0
  0
LINE
  5
790C
330
6612
100
AcDbEntity
  8
30
  6
Continuous
 62
     0
370
    -2
100
AcDbLine
 10
-292.7397180415655
 20
-412.25
 30
0.0
 11
-292.7397180415655
 21
-440.0349537714612
 31
0.0
  0
LINE
  5
790D
330
6612
100
AcDbEntity
  8
30
  6
Continuous
 62
     0
370
    -2
100
AcDbLine
 10
-298.7397180415651
 20
-439.5349537714612
 30
0.0
 11
-294.7397180415655
 21
-439.5349537714612
 31
0.0
  0
INSERT
  5
790E
330
6612
100
AcDbEntity
  8
30
  6
Continuous
 62
     0
370
    -2
100
AcDbBlockReference
  2
_OPEN
 10
-300.7397180415651
 20
-439.5349537714612
 30
0.0
 41
2.0
 42
2.0
 43
2.0
 50
180.0
  0
INSERT
  5
790F
330
6612
100
AcDbEntity
  8
30
  6
Continuous
 62
     0
370
    -2
100
AcDbBlockReference
  2
_OPEN
 10
-292.7397180415655
 20
-439.5349537714612
 30
0.0
 41
2.0
 42
2.0
 43
2.0
  0
MTEXT
  5
7910
330
6612
100
AcDbEntity
  8
30
  6
Continuous
 62
     0
100
AcDbMText
 10
-296.7397180415653
 20
-436.5349537714613
 30
0.0
 40
4.0
 41
0.0
 71
     5
 72
     1
  1
\A1;8
 73
     1
 44
1.0
  0
POINT
  5
7911
330
6612
100
AcDbEntity
  8
DEFPOINTS
  6
Continuous
 62
     0
100
AcDbPoint
 10
-300.7397180415651
 20
-428.5
 30
0.0
  0
POINT
  5
7912
330
6612
100
AcDbEntity
  8
DEFPOINTS
  6
Continuous
 62
     0
100
AcDbPoint
 10
-292.7397180415655
 20
-411.2499999999999
 30
0.0
  0
POINT
  5
7913
330
6612
100
AcDbEntity
  8
DEFPOINTS
  6
Continuous
 62
     0
100
AcDbPoint
 10
-292.7397180415655
 20
-439.5349537714612
 30
0.0
  0
ENDBLK
  5
661D
330
6612
100
AcDbEntity
  8
0
100
AcDbBlockEnd
  0
BLOCK
  5
6628
330
661E
100
AcDbEntity
  8
0
100
AcDbBlockBegin
  2
*D20
 70
     1
 10
0.0
 20
0.0
 30
0.0
  3
*D20
  1

  0
LINE
  5
78DD
330
661E
100
AcDbEntity
  8
30
  6
Continuous
 62
     0
370
    -2
100
AcDbLine
 10
-345.7397180415652
 20
-414.25
 30
0.0
 11
-345.7397180415652
 21
-440.0349537714612
 31
0.0
  0
LINE
  5
78DE
330
661E
100
AcDbEntity
  8
30
  6
Continuous
 62
     0
370
    -2
100
AcDbLine
 10
-300.7397180415651
 20
-429.4999999999999
 30
0.0
 11
-300.7397180415651
 21
-440.0349537714612
 31
0.0
  0
LINE
  5
78DF
330
661E
100
AcDbEntity
  8
30
  6
Continuous
 62
     0
370
    -2
100
AcDbLine
 10
-343.7397180415652
 20
-439.5349537714612
 30
0.0
 11
-302.7397180415651
 21
-439.5349537714612
 31
0.0
  0
INSERT
  5
78E0
330
661E
100
AcDbEntity
  8
30
  6
Continuous
 62
     0
370
    -2
100
AcDbBlockReference
  2
_OPEN
 10
-345.7397180415652
 20
-439.5349537714612
 30
0.0
 41
2.0
 42
2.0
 43
2.0
 50
180.0
  0
INSERT
  5
78E1
330
661E
100
AcDbEntity
  8
30
  6
Continuous
 62
     0
370
    -2
100
AcDbBlockReference
  2
_OPEN
 10
-300.7397180415651
 20
-439.5349537714612
 30
0.0
 41
2.0
 42
2.0
 43
2.0
  0
MTEXT
  5
78E2
330
661E
100
AcDbEntity
  8
30
  6
Continuous
 62
     0
100
AcDbMText
 10
-323.2397180415651
 20
-436.5349537714613
 30
0.0
 40
4.0
 41
0.0
 71
     5
 72
     1
  1
\A1;45
 73
     1
 44
1.0
  0
POINT
  5
78E3
330
661E
100
AcDbEntity
  8
DEFPOINTS
  6
Continuous
 62
     0
100
AcDbPoint
 10
-345.7397180415652
 20
-413.25
 30
0.0
  0
POINT
  5
78E4
330
661E
100
AcDbEntity
  8
DEFPOINTS
  6
Continuous
 62
     0
100
AcDbPoint
 10
-300.7397180415651
 20
-428.5
 30
0.0
  0
POINT
  5
78E5
330
661E
100
AcDbEntity
  8
DEFPOINTS
  6
Continuous
 62
     0
100
AcDbPoint
 10
-300.7397180415651
 20
-439.5349537714612
 30
0.0
  0
ENDBLK
  5
6629
330
661E
100
AcDbEntity
  8
0
100
AcDbBlockEnd
  0
BLOCK
  5
6634
330
662A
100
AcDbEntity
  8
0
100
AcDbBlockBegin
  2
*D21
 70
     1
 10
0.0
 20
0.0
 30
0.0
  3
*D21
  1

  0
LINE
  5
7914
330
662A
100
AcDbEntity
  8
30
  6
Continuous
 62
     0
370
    -2
100
AcDbLine
 10
-256.7397180415671
 20
-298.0749517495846
 30
0.0
 11
-256.7397180415671
 21
-321.2868080138014
 31
0.0
  0
LINE
  5
7915
330
662A
100
AcDbEntity
  8
30
  6
Continuous
 62
     0
370
    -2
100
AcDbLine
 10
-231.7397180415671
 20
-298.0749517495846
 30
0.0
 11
-231.7397180415671
 21
-321.2868080138014
 31
0.0
  0
LINE
  5
7916
330
662A
100
AcDbEntity
  8
30
  6
Continuous
 62
     0
370
    -2
100
AcDbLine
 10
-254.7397180415671
 20
-320.7868080138014
 30
0.0
 11
-233.7397180415671
 21
-320.7868080138014
 31
0.0
  0
INSERT
  5
7917
330
662A
100
AcDbEntity
  8
30
  6
Continuous
 62
     0
370
    -2
100
AcDbBlockReference
  2
_OPEN
 10
-256.7397180415671
 20
-320.7868080138014
 30
0.0
 41
2.0
 42
2.0
 43
2.0
 50
180.0
  0
INSERT
  5
7918
330
662A
100
AcDbEntity
  8
30
  6
Continuous
 62
     0
370
    -2
100
AcDbBlockReference
  2
_OPEN
 10
-231.7397180415671
 20
-320.7868080138014
 30
0.0
 41
2.0
 42
2.0
 43
2.0
  0
MTEXT
  5
7919
330
662A
100
AcDbEntity
  8
30
  6
Continuous
 62
     0
100
AcDbMText
 10
-244.2397180415671
 20
-317.7868080138015
 30
0.0
 40
4.0
 41
0.0
 71
     5
 72
     1
  1
\A1;25
 73
     1
 44
1.0
  0
POINT
  5
791A
330
662A
100
AcDbEntity
  8
DEFPOINTS
  6
Continuous
 62
     0
100
AcDbPoint
 10
-256.7397180415671
 20
-297.0749517495846
 30
0.0
  0
POINT
  5
791B
330
662A
100
AcDbEntity
  8
DEFPOINTS
  6
Continuous
 62
     0
100
AcDbPoint
 10
-231.7397180415671
 20
-297.0749517495846
 30
0.0
  0
POINT
  5
791C
330
662A
100
AcDbEntity
  8
DEFPOINTS
  6
Continuous
 62
     0
100
AcDbPoint
 10
-231.7397180415671
 20
-320.7868080138014
 30
0.0
  0
ENDBLK
  5
6635
330
662A
100
AcDbEntity
  8
0
100
AcDbBlockEnd
  0
BLOCK
  5
6640
330
6636
100
AcDbEntity
  8
0
100
AcDbBlockBegin
  2
*D22
 70
     1
 10
0.0
 20
0.0
 30
0.0
  3
*D22
  1

  0
LINE
  5
7926
330
6636
100
AcDbEntity
  8
30
  6
Continuous
 62
     0
370
    -2
100
AcDbLine
 10
-230.7397180415672
 20
-297.0749517495846
 30
0.0
 11
-220.9171103813131
 21
-297.0749517495846
 31
0.0
  0
LINE
  5
7927
330
6636
100
AcDbEntity
  8
30
  6
Continuous
 62
     0
370
    -2
100
AcDbLine
 10
-240.7397180250672
 20
-287.0749517495846
 30
0.0
 11
-220.9171103813131
 21
-287.0749517495846
 31
0.0
  0
LINE
  5
7928
330
6636
100
AcDbEntity
  8
30
  6
Continuous
 62
     0
370
    -2
100
AcDbLine
 10
-221.4171103813132
 20
-295.0749517495846
 30
0.0
 11
-221.4171103813132
 21
-289.0749517495846
 31
0.0
  0
INSERT
  5
7929
330
6636
100
AcDbEntity
  8
30
  6
Continuous
 62
     0
370
    -2
100
AcDbBlockReference
  2
_OPEN
 10
-221.4171103813132
 20
-297.0749517495846
 30
0.0
 41
2.0
 42
2.0
 43
2.0
 50
270.0
  0
INSERT
  5
792A
330
6636
100
AcDbEntity
  8
30
  6
Continuous
 62
     0
370
    -2
100
AcDbBlockReference
  2
_OPEN
 10
-221.4171103813132
 20
-287.0749517495846
 30
0.0
 41
2.0
 42
2.0
 43
2.0
 50
90.0
  0
MTEXT
  5
792B
330
6636
100
AcDbEntity
  8
30
  6
Continuous
 62
     0
100
AcDbMText
 10
-224.4171103813131
 20
-292.0749517495847
 30
0.0
 40
4.0
 41
0.0
 71
     5
 72
     1
  1
\A1;10
 11
0.0000000000000001
 21
1.0
 31
0.0
 73
     1
 44
1.0
  0
POINT
  5
792C
330
6636
100
AcDbEntity
  8
DEFPOINTS
  6
Continuous
 62
     0
100
AcDbPoint
 10
-231.7397180415671
 20
-297.0749517495846
 30
0.0
  0
POINT
  5
792D
330
6636
100
AcDbEntity
  8
DEFPOINTS
  6
Continuous
 62
     0
100
AcDbPoint
 10
-241.7397180250671
 20
-287.0749517495846
 30
0.0
  0
POINT
  5
792E
330
6636
100
AcDbEntity
  8
DEFPOINTS
  6
Continuous
 62
     0
100
AcDbPoint
 10
-221.4171103813132
 20
-287.0749517495846
 30
0.0
  0
ENDBLK
  5
6641
330
6636
100
AcDbEntity
  8
0
100
AcDbBlockEnd
  0
BLOCK
  5
67CD
330
67C2
100
AcDbEntity
  8
0
100
AcDbBlockBegin
  2
*D23
 70
     1
 10
0.0
 20
0.0
 30
0.0
  3
*D23
  1

  0
LINE
  5
7901
330
67C2
100
AcDbEntity
  8
30
  6
Continuous
 62
     0
370
    -2
100
AcDbLine
 10
-376.7397180415655
 20
-372.0
 30
0.0
 11
-376.7397180415655
 21
-474.2104650043364
 31
0.0
  0
LINE
  5
7902
330
67C2
100
AcDbEntity
  8
30
  6
Continuous
 62
     0
370
    -2
100
AcDbLine
 10
-372.7397180415652
 20
-372.0
 30
0.0
 11
-372.7397180415652
 21
-474.2104650043364
 31
0.0
  0
LINE
  5
7903
330
67C2
100
AcDbEntity
  8
30
  6
Continuous
 62
     0
370
    -2
100
AcDbLine
 10
-378.7397180415655
 20
-473.7104650043364
 30
0.0
 11
-380.7397180415655
 21
-473.7104650043364
 31
0.0
  0
LINE
  5
7904
330
67C2
100
AcDbEntity
  8
30
  6
Continuous
 62
     0
370
    -2
100
AcDbLine
 10
-370.7397180415652
 20
-473.7104650043364
 30
0.0
 11
-364.0730513748985
 21
-473.7104650043364
 31
0.0
  0
INSERT
  5
7905
330
67C2
100
AcDbEntity
  8
30
  6
Continuous
 62
     0
370
    -2
100
AcDbBlockReference
  2
_OPEN
 10
-376.7397180415655
 20
-473.7104650043364
 30
0.0
 41
2.0
 42
2.0
 43
2.0
  0
INSERT
  5
7906
330
67C2
100
AcDbEntity
  8
30
  6
Continuous
 62
     0
370
    -2
100
AcDbBlockReference
  2
_OPEN
 10
-372.7397180415652
 20
-473.7104650043364
 30
0.0
 41
2.0
 42
2.0
 43
2.0
 50
180.0
  0
MTEXT
  5
7907
330
67C2
100
AcDbEntity
  8
30
  6
Continuous
 62
     0
100
AcDbMText
 10
-366.4063847082319
 20
-470.7104650043364
 30
0.0
 40
4.0
 41
0.0
 71
     5
 72
     1
  1
\A1;4
 73
     1
 44
1.0
  0
POINT
  5
7908
330
67C2
100
AcDbEntity
  8
DEFPOINTS
  6
Continuous
 62
     0
100
AcDbPoint
 10
-376.7397180415655
 20
-371.0
 30
0.0
  0
POINT
  5
7909
330
67C2
100
AcDbEntity
  8
DEFPOINTS
  6
Continuous
 62
     0
100
AcDbPoint
 10
-372.7397180415652
 20
-371.0
 30
0.0
  0
POINT
  5
790A
330
67C2
100
AcDbEntity
  8
DEFPOINTS
  6
Continuous
 62
     0
100
AcDbPoint
 10
-372.7397180415652
 20
-473.7104650043364
 30
0.0
  0
ENDBLK
  5
67CE
330
67C2
100
AcDbEntity
  8
0
100
AcDbBlockEnd
  0
BLOCK
  5
68BE
330
68B4
100
AcDbEntity
  8
0
100
AcDbBlockBegin
  2
*D24
 70
     1
 10
0.0
 20
0.0
 30
0.0
  3
*D24
  1

  0
LINE
  5
778E
330
68B4
100
AcDbEntity
  8
30
  6
Continuous
 62
     0
370
    -2
100
AcDbLine
 10
-770.0
 20
-496.9999999999998
 30
0.0
 11
-659.1286759792563
 21
-496.9999999999998
 31
0.0
  0
LINE
  5
778F
330
68B4
100
AcDbEntity
  8
30
  6
Continuous
 62
     0
370
    -2
100
AcDbLine
 10
-735.0
 20
-622.9999999999998
 30
0.0
 11
-659.1286759792563
 21
-622.9999999999998
 31
0.0
  0
LINE
  5
7790
330
68B4
100
AcDbEntity
  8
30
  6
Continuous
 62
     0
370
    -2
100
AcDbLine
 10
-659.6286759792563
 20
-498.9999999999999
 30
0.0
 11
-659.6286759792563
 21
-620.9999999999999
 31
0.0
  0
INSERT
  5
7791
330
68B4
100
AcDbEntity
  8
30
  6
Continuous
 62
     0
370
    -2
100
AcDbBlockReference
  2
_OPEN
 10
-659.6286759792563
 20
-496.9999999999998
 30
0.0
 41
2.0
 42
2.0
 43
2.0
 50
90.0
  0
INSERT
  5
7792
330
68B4
100
AcDbEntity
  8
30
  6
Continuous
 62
     0
370
    -2
100
AcDbBlockReference
  2
_OPEN
 10
-659.6286759792563
 20
-622.9999999999998
 30
0.0
 41
2.0
 42
2.0
 43
2.0
 50
270.0
  0
MTEXT
  5
7793
330
68B4
100
AcDbEntity
  8
30
  6
Continuous
 62
     0
100
AcDbMText
 10
-662.6286759792561
 20
-560.0
 30
0.0
 40
4.0
 41
0.0
 71
     5
 72
     1
  1
\A1;126
 11
0.0000000000000001
 21
1.0
 31
0.0
 73
     1
 44
1.0
  0
POINT
  5
7794
330
68B4
100
AcDbEntity
  8
DEFPOINTS
  6
Continuous
 62
     0
100
AcDbPoint
 10
-771.0
 20
-496.9999999999998
 30
0.0
  0
POINT
  5
7795
330
68B4
100
AcDbEntity
  8
DEFPOINTS
  6
Continuous
 62
     0
100
AcDbPoint
 10
-736.0
 20
-622.9999999999998
 30
0.0
  0
POINT
  5
7796
330
68B4
100
AcDbEntity
  8
DEFPOINTS
  6
Continuous
 62
     0
100
AcDbPoint
 10
-659.6286759792563
 20
-622.9999999999998
 30
0.0
  0
ENDBLK
  5
68BF
330
68B4
100
AcDbEntity
  8
0
100
AcDbBlockEnd
  0
BLOCK
  5
68CB
330
68C1
100
AcDbEntity
  8
0
100
AcDbBlockBegin
  2
*D25
 70
     1
 10
0.0
 20
0.0
 30
0.0
  3
*D25
  1

  0
LINE
  5
7C17
330
68C1
100
AcDbEntity
  8
30
  6
Continuous
 62
     0
370
    -2
100
AcDbLine
 10
-34.99999999999999
 20
282.0000000000001
 30
0.0
 11
-34.99999999999999
 21
320.5
 31
0.0
  0
LINE
  5
7C18
330
68C1
100
AcDbEntity
  8
30
  6
Continuous
 62
     0
370
    -2
100
AcDbLine
 10
0.0000000000000001
 20
311.0
 30
0.0
 11
0.0000000000000006
 21
320.5
 31
0.0
  0
LINE
  5
7C19
330
68C1
100
AcDbEntity
  8
30
  6
Continuous
 62
     0
370
    -2
100
AcDbLine
 10
-32.99999999999999
 20
320.0
 30
0.0
 11
-1.999999999999999
 21
320.0
 31
0.0
  0
INSERT
  5
7C1A
330
68C1
100
AcDbEntity
  8
30
  6
Continuous
 62
     0
370
    -2
100
AcDbBlockReference
  2
_OPEN
 10
-34.99999999999999
 20
320.0
 30
0.0
 41
2.0
 42
2.0
 43
2.0
 50
180.0
  0
INSERT
  5
7C1B
330
68C1
100
AcDbEntity
  8
30
  6
Continuous
 62
     0
370
    -2
100
AcDbBlockReference
  2
_OPEN
 10
0.0000000000000006
 20
320.0
 30
0.0
 41
2.0
 42
2.0
 43
2.0
  0
MTEXT
  5
7C1C
330
68C1
100
AcDbEntity
  8
30
  6
Continuous
 62
     0
100
AcDbMText
 10
-17.49999999999999
 20
323.0
 30
0.0
 40
4.0
 41
0.0
 71
     5
 72
     1
  1
\A1;35
 73
     1
 44
1.0
  0
POINT
  5
7C1D
330
68C1
100
AcDbEntity
  8
DEFPOINTS
  6
Continuous
 62
     0
100
AcDbPoint
 10
-34.99999999999999
 20
281.0000000000001
 30
0.0
  0
POINT
  5
7C1E
330
68C1
100
AcDbEntity
  8
DEFPOINTS
  6
Continuous
 62
     0
100
AcDbPoint
 10
0.0
 20
310.0
 30
0.0
  0
POINT
  5
7C1F
330
68C1
100
AcDbEntity
  8
DEFPOINTS
  6
Continuous
 62
     0
100
AcDbPoint
 10
0.0000000000000006
 20
320.0
 30
0.0
  0
ENDBLK
  5
68CC
330
68C1
100
AcDbEntity
  8
0
100
AcDbBlockEnd
  0
BLOCK
  5
68D8
330
68CE
100
AcDbEntity
  8
0
100
AcDbBlockBegin
  2
*D26
 70
     1
 10
0.0
 20
0.0
 30
0.0
  3
*D26
  1

  0
LINE
  5
7C0E
330
68CE
100
AcDbEntity
  8
30
  6
Continuous
 62
     0
370
    -2
100
AcDbLine
 10
0.0000000000000001
 20
311.0
 30
0.0
 11
0.0000000000000006
 21
320.5
 31
0.0
  0
LINE
  5
7C0F
330
68CE
100
AcDbEntity
  8
30
  6
Continuous
 62
     0
370
    -2
100
AcDbLine
 10
35.00000000000003
 20
282.0000000000001
 30
0.0
 11
35.00000000000003
 21
320.5
 31
0.0
  0
LINE
  5
7C10
330
68CE
100
AcDbEntity
  8
30
  6
Continuous
 62
     0
370
    -2
100
AcDbLine
 10
2.0
 20
320.0
 30
0.0
 11
33.00000000000003
 21
320.0
 31
0.0
  0
INSERT
  5
7C11
330
68CE
100
AcDbEntity
  8
30
  6
Continuous
 62
     0
370
    -2
100
AcDbBlockReference
  2
_OPEN
 10
0.0000000000000006
 20
320.0
 30
0.0
 41
2.0
 42
2.0
 43
2.0
 50
180.0
  0
INSERT
  5
7C12
330
68CE
100
AcDbEntity
  8
30
  6
Continuous
 62
     0
370
    -2
100
AcDbBlockReference
  2
_OPEN
 10
35.00000000000003
 20
320.0
 30
0.0
 41
2.0
 42
2.0
 43
2.0
  0
MTEXT
  5
7C13
330
68CE
100
AcDbEntity
  8
30
  6
Continuous
 62
     0
100
AcDbMText
 10
17.50000000000001
 20
323.0
 30
0.0
 40
4.0
 41
0.0
 71
     5
 72
     1
  1
\A1;35
 73
     1
 44
1.0
  0
POINT
  5
7C14
330
68CE
100
AcDbEntity
  8
DEFPOINTS
  6
Continuous
 62
     0
100
AcDbPoint
 10
0.0
 20
310.0
 30
0.0
  0
POINT
  5
7C15
330
68CE
100
AcDbEntity
  8
DEFPOINTS
  6
Continuous
 62
     0
100
AcDbPoint
 10
35.00000000000003
 20
281.0000000000001
 30
0.0
  0
POINT
  5
7C16
330
68CE
100
AcDbEntity
  8
DEFPOINTS
  6
Continuous
 62
     0
100
AcDbPoint
 10
35.00000000000003
 20
320.0
 30
0.0
  0
ENDBLK
  5
68D9
330
68CE
100
AcDbEntity
  8
0
100
AcDbBlockEnd
  0
BLOCK
  5
6975
330
696B
100
AcDbEntity
  8
0
100
AcDbBlockBegin
  2
*D27
 70
     1
 10
0.0
 20
0.0
 30
0.0
  3
*D27
  1

  0
LINE
  5
7815
330
696B
100
AcDbEntity
  8
30
  6
Continuous
 62
     0
370
    -2
100
AcDbLine
 10
-541.0
 20
-152.0
 30
0.0
 11
-604.5479927200264
 21
-152.0
 31
0.0
  0
LINE
  5
7816
330
696B
100
AcDbEntity
  8
30
  6
Continuous
 62
     0
370
    -2
100
AcDbLine
 10
-574.5
 20
-252.0
 30
0.0
 11
-604.5479927200264
 21
-251.9999999999999
 31
0.0
  0
LINE
  5
7817
330
696B
100
AcDbEntity
  8
30
  6
Continuous
 62
     0
370
    -2
100
AcDbLine
 10
-604.0479927200264
 20
-154.0
 30
0.0
 11
-604.0479927200264
 21
-249.9999999999999
 31
0.0
  0
INSERT
  5
7818
330
696B
100
AcDbEntity
  8
30
  6
Continuous
 62
     0
370
    -2
100
AcDbBlockReference
  2
_OPEN
 10
-604.0479927200264
 20
-152.0
 30
0.0
 41
2.0
 42
2.0
 43
2.0
 50
90.0
  0
INSERT
  5
7819
330
696B
100
AcDbEntity
  8
30
  6
Continuous
 62
     0
370
    -2
100
AcDbBlockReference
  2
_OPEN
 10
-604.0479927200264
 20
-251.9999999999999
 30
0.0
 41
2.0
 42
2.0
 43
2.0
 50
270.0
  0
MTEXT
  5
781A
330
696B
100
AcDbEntity
  8
30
  6
Continuous
 62
     0
100
AcDbMText
 10
-607.0479927200263
 20
-202.0000000000001
 30
0.0
 40
4.0
 41
0.0
 71
     5
 72
     1
  1
\A1;100
 11
0.0000000000000001
 21
1.0
 31
0.0
 73
     1
 44
1.0
  0
POINT
  5
781B
330
696B
100
AcDbEntity
  8
DEFPOINTS
  6
Continuous
 62
     0
100
AcDbPoint
 10
-540.0
 20
-152.0
 30
0.0
  0
POINT
  5
781C
330
696B
100
AcDbEntity
  8
DEFPOINTS
  6
Continuous
 62
     0
100
AcDbPoint
 10
-573.5
 20
-252.0
 30
0.0
  0
POINT
  5
781D
330
696B
100
AcDbEntity
  8
DEFPOINTS
  6
Continuous
 62
     0
100
AcDbPoint
 10
-604.0479927200264
 20
-251.9999999999999
 30
0.0
  0
ENDBLK
  5
6976
330
696B
100
AcDbEntity
  8
0
100
AcDbBlockEnd
  0
BLOCK
  5
6982
330
6978
100
AcDbEntity
  8
0
100
AcDbBlockBegin
  2
*D28
 70
     1
 10
0.0
 20
0.0
 30
0.0
  3
*D28
  1

  0
LINE
  5
781E
330
6978
100
AcDbEntity
  8
30
  6
Continuous
 62
     0
370
    -2
100
AcDbLine
 10
-574.5
 20
-252.0
 30
0.0
 11
-604.5479927200262
 21
-251.9999999999999
 31
0.0
  0
LINE
  5
781F
330
6978
100
AcDbEntity
  8
30
  6
Continuous
 62
     0
370
    -2
100
AcDbLine
 10
-574.5
 20
-417.0
 30
0.0
 11
-604.5479927200264
 21
-417.0
 31
0.0
  0
LINE
  5
7820
330
6978
100
AcDbEntity
  8
30
  6
Continuous
 62
     0
370
    -2
100
AcDbLine
 10
-604.0479927200262
 20
-253.9999999999999
 30
0.0
 11
-604.0479927200264
 21
-415.0
 31
0.0
  0
INSERT
  5
7821
330
6978
100
AcDbEntity
  8
30
  6
Continuous
 62
     0
370
    -2
100
AcDbBlockReference
  2
_OPEN
 10
-604.0479927200262
 20
-251.9999999999999
 30
0.0
 41
2.0
 42
2.0
 43
2.0
 50
90.0
  0
INSERT
  5
7822
330
6978
100
AcDbEntity
  8
30
  6
Continuous
 62
     0
370
    -2
100
AcDbBlockReference
  2
_OPEN
 10
-604.0479927200264
 20
-417.0
 30
0.0
 41
2.0
 42
2.0
 43
2.0
 50
270.0
  0
MTEXT
  5
7823
330
6978
100
AcDbEntity
  8
30
  6
Continuous
 62
     0
100
AcDbMText
 10
-607.0479927200262
 20
-334.5
 30
0.0
 40
4.0
 41
0.0
 71
     5
 72
     1
  1
\A1;165
 11
0.0000000000000001
 21
1.0
 31
0.0
 73
     1
 44
1.0
  0
POINT
  5
7824
330
6978
100
AcDbEntity
  8
DEFPOINTS
  6
Continuous
 62
     0
100
AcDbPoint
 10
-573.5
 20
-252.0
 30
0.0
  0
POINT
  5
7825
330
6978
100
AcDbEntity
  8
DEFPOINTS
  6
Continuous
 62
     0
100
AcDbPoint
 10
-573.5
 20
-417.0
 30
0.0
  0
POINT
  5
7826
330
6978
100
AcDbEntity
  8
DEFPOINTS
  6
Continuous
 62
     0
100
AcDbPoint
 10
-604.0479927200264
 20
-417.0
 30
0.0
  0
ENDBLK
  5
6983
330
6978
100
AcDbEntity
  8
0
100
AcDbBlockEnd
  0
BLOCK
  5
7002
330
6FF9
100
AcDbEntity
  8
0
100
AcDbBlockBegin
  2
*D29
 70
     1
 10
0.0
 20
0.0
 30
0.0
  3
*D29
  1

  0
LINE
  5
7762
330
6FF9
100
AcDbEntity
  8
30
  6
Continuous
 62
     0
370
    -2
100
AcDbLine
 10
-375.5709684556618
 20
-444.1320292601956
 30
0.0
 11
-381.9043017889953
 21
-444.1320292601957
 31
0.0
  0
LINE
  5
7763
330
6FF9
100
AcDbEntity
  8
30
  6
Continuous
 62
     0
370
    -2
100
AcDbLine
 10
-381.9043017889953
 20
-444.1320292601957
 30
0.0
 11
-383.5425810733972
 21
-445.2792175561172
 31
0.0
  0
MTEXT
  5
7764
330
6FF9
100
AcDbEntity
  8
30
  6
Continuous
 62
     0
100
AcDbMText
 10
-378.2376351223285
 20
-441.1320292601955
 30
0.0
 40
4.0
 41
0.0
 71
     5
 72
     1
  1
\A1;R1
 73
     1
 44
1.0
  0
INSERT
  5
7765
330
6FF9
100
AcDbEntity
  8
30
  6
Continuous
 62
     0
370
    -2
100
AcDbBlockReference
  2
_OPEN
 10
-385.1808603577992
 20
-446.4264058520388
 30
0.0
 41
2.0
 42
2.0
 43
2.0
 50
215.0012388520255
  0
LINE
  5
7766
330
6FF9
100
AcDbEntity
  8
30
  6
Continuous
 62
     0
370
    -2
100
AcDbLine
 10
-386.0899999999997
 20
-446.9999999999993
 30
0.0
 11
-385.9099999999998
 21
-446.9999999999994
 31
0.0
  0
LINE
  5
7767
330
6FF9
100
AcDbEntity
  8
30
  6
Continuous
 62
     0
370
    -2
100
AcDbLine
 10
-385.9999999999997
 20
-447.0899999999993
 30
0.0
 11
-385.9999999999997
 21
-446.9099999999993
 31
0.0
  0
POINT
  5
7768
330
6FF9
100
AcDbEntity
  8
DEFPOINTS
  6
Continuous
 62
     0
100
AcDbPoint
 10
-385.1808603577992
 20
-446.4264058520388
 30
0.0
  0
POINT
  5
7769
330
6FF9
100
AcDbEntity
  8
DEFPOINTS
  6
Continuous
 62
     0
100
AcDbPoint
 10
-385.9999999999998
 20
-446.9999999999994
 30
0.0
  0
ENDBLK
  5
7003
330
6FF9
100
AcDbEntity
  8
0
100
AcDbBlockEnd
  0
BLOCK
  5
700E
330
7004
100
AcDbEntity
  8
0
100
AcDbBlockBegin
  2
*D30
 70
     1
 10
0.0
 20
0.0
 30
0.0
  3
*D30
  1

  0
LINE
  5
7759
330
7004
100
AcDbEntity
  8
30
  6
Continuous
 62
     0
370
    -2
100
AcDbLine
 10
-385.0
 20
-445.9999999999996
 30
0.0
 11
-351.4821696457831
 21
-445.9999999999997
 31
0.0
  0
LINE
  5
775A
330
7004
100
AcDbEntity
  8
30
  6
Continuous
 62
     0
370
    -2
100
AcDbLine
 10
-385.0
 20
-498.0
 30
0.0
 11
-351.4821696457831
 21
-498.0
 31
0.0
  0
LINE
  5
775B
330
7004
100
AcDbEntity
  8
30
  6
Continuous
 62
     0
370
    -2
100
AcDbLine
 10
-351.9821696457832
 20
-447.9999999999996
 30
0.0
 11
-351.9821696457832
 21
-496.0
 31
0.0
  0
INSERT
  5
775C
330
7004
100
AcDbEntity
  8
30
  6
Continuous
 62
     0
370
    -2
100
AcDbBlockReference
  2
_OPEN
 10
-351.9821696457832
 20
-445.9999999999997
 30
0.0
 41
2.0
 42
2.0
 43
2.0
 50
90.0
  0
INSERT
  5
775D
330
7004
100
AcDbEntity
  8
30
  6
Continuous
 62
     0
370
    -2
100
AcDbBlockReference
  2
_OPEN
 10
-351.9821696457832
 20
-498.0
 30
0.0
 41
2.0
 42
2.0
 43
2.0
 50
270.0
  0
MTEXT
  5
775E
330
7004
100
AcDbEntity
  8
30
  6
Continuous
 62
     0
100
AcDbMText
 10
-354.9821696457831
 20
-471.9999999999999
 30
0.0
 40
4.0
 41
0.0
 71
     5
 72
     1
  1
\A1;52
 11
0.0000000000000001
 21
1.0
 31
0.0
 73
     1
 44
1.0
  0
POINT
  5
775F
330
7004
100
AcDbEntity
  8
DEFPOINTS
  6
Continuous
 62
     0
100
AcDbPoint
 10
-386.0
 20
-445.9999999999996
 30
0.0
  0
POINT
  5
7760
330
7004
100
AcDbEntity
  8
DEFPOINTS
  6
Continuous
 62
     0
100
AcDbPoint
 10
-386.0
 20
-498.0
 30
0.0
  0
POINT
  5
7761
330
7004
100
AcDbEntity
  8
DEFPOINTS
  6
Continuous
 62
     0
100
AcDbPoint
 10
-351.9821696457832
 20
-498.0
 30
0.0
  0
ENDBLK
  5
700F
330
7004
100
AcDbEntity
  8
0
100
AcDbBlockEnd
  0
BLOCK
  5
7026
330
701C
100
AcDbEntity
  8
0
100
AcDbBlockBegin
  2
*D31
 70
     1
 10
0.0
 20
0.0
 30
0.0
  3
*D31
  1

  0
LINE
  5
7750
330
701C
100
AcDbEntity
  8
30
  6
Continuous
 62
     0
370
    -2
100
AcDbLine
 10
-485.0000000000001
 20
-498.0
 30
0.0
 11
-485.0000000000001
 21
-583.0322413003591
 31
0.0
  0
LINE
  5
7751
330
701C
100
AcDbEntity
  8
30
  6
Continuous
 62
     0
370
    -2
100
AcDbLine
 10
-385.0
 20
-498.0
 30
0.0
 11
-385.0
 21
-583.0322413003591
 31
0.0
  0
LINE
  5
7752
330
701C
100
AcDbEntity
  8
30
  6
Continuous
 62
     0
370
    -2
100
AcDbLine
 10
-483.0
 20
-582.5322413003591
 30
0.0
 11
-387.0
 21
-582.5322413003591
 31
0.0
  0
INSERT
  5
7753
330
701C
100
AcDbEntity
  8
30
  6
Continuous
 62
     0
370
    -2
100
AcDbBlockReference
  2
_OPEN
 10
-485.0000000000001
 20
-582.5322413003591
 30
0.0
 41
2.0
 42
2.0
 43
2.0
 50
180.0
  0
INSERT
  5
7754
330
701C
100
AcDbEntity
  8
30
  6
Continuous
 62
     0
370
    -2
100
AcDbBlockReference
  2
_OPEN
 10
-385.0
 20
-582.5322413003591
 30
0.0
 41
2.0
 42
2.0
 43
2.0
  0
MTEXT
  5
7755
330
701C
100
AcDbEntity
  8
30
  6
Continuous
 62
     0
100
AcDbMText
 10
-435.0
 20
-579.5322413003591
 30
0.0
 40
4.0
 41
0.0
 71
     5
 72
     1
  1
\A1;100
 73
     1
 44
1.0
  0
POINT
  5
7756
330
701C
100
AcDbEntity
  8
DEFPOINTS
  6
Continuous
 62
     0
100
AcDbPoint
 10
-485.0000000000001
 20
-497.0
 30
0.0
  0
POINT
  5
7757
330
701C
100
AcDbEntity
  8
DEFPOINTS
  6
Continuous
 62
     0
100
AcDbPoint
 10
-385.0
 20
-497.0
 30
0.0
  0
POINT
  5
7758
330
701C
100
AcDbEntity
  8
DEFPOINTS
  6
Continuous
 62
     0
100
AcDbPoint
 10
-385.0
 20
-582.5322413003591
 30
0.0
  0
ENDBLK
  5
7027
330
701C
100
AcDbEntity
  8
0
100
AcDbBlockEnd
  0
BLOCK
  5
710A
330
7100
100
AcDbEntity
  8
0
100
AcDbBlockBegin
  2
A$C445E2105
 70
     0
 10
0.0
 20
0.0
 30
0.0
  3
A$C445E2105
  1

  0
LINE
  5
7101
330
7100
100
AcDbEntity
  8
18
100
AcDbLine
 10
0.0
 20
-149.3207897627289
 30
0.0
 11
0.0
 21
-168.6565627441108
 31
0.0
  0
LINE
  5
7102
330
7100
100
AcDbEntity
  8
18
100
AcDbLine
 10
-2.0
 20
-149.3320714556653
 30
0.0
 11
-2.0
 21
-168.6565627441108
 31
0.0
  0
SPLINE
  5
7103
330
7100
100
AcDbEntity
  8
18
100
AcDbSpline
210
0.0
220
0.0
230
1.0
 70
     8
 71
     3
 72
    12
 73
     8
 74
     0
 42
0.0000000001
 43
0.0000000001
 40
0.0
 40
0.0
 40
0.0
 40
0.0
 40
0.25
 40
0.5
 40
0.75
 40
0.9027560157721172
 40
1.0
 40
1.0
 40
1.0
 40
1.0
 10
-2.0
 20
-168.6565627441108
 30
0.0
 10
-2.156927199068661
 20
-169.8451168340641
 30
0.0
 10
-2.375895985537793
 20
-170.7313802108686
 30
0.0
 10
-2.766872642745909
 20
-171.8424213675985
 30
0.0
 10
-3.354384874598338
 20
-173.2423932746993
 30
0.0
 10
-3.656990826078241
 20
-174.0133128032823
 30
0.0
 10
-3.917431129614497
 20
-174.6921512374921
 30
0.0
 10
-4.102748627815174
 20
-175.2326606072444
 30
0.0
  0
SPLINE
  5
7104
330
7100
100
AcDbEntity
  8
18
100
AcDbSpline
210
0.0
220
0.0
230
1.0
 70
     8
 71
     3
 72
    12
 73
     8
 74
     0
 42
0.0000000001
 43
0.0000000001
 40
0.0
 40
0.0
 40
0.0
 40
0.0
 40
0.25
 40
0.5
 40
0.75
 40
0.9027560157721172
 40
1.0
 40
1.0
 40
1.0
 40
1.0
 10
0.0
 20
-168.6565627441108
 30
0.0
 10
0.1569271990686616
 20
-169.8451168340641
 30
0.0
 10
0.3758959855377952
 20
-170.7313802108686
 30
0.0
 10
0.7668726427459092
 20
-171.8424213675985
 30
0.0
 10
1.354384874598393
 20
-173.2423932746993
 30
0.0
 10
1.65699082607824
 20
-174.0133128032823
 30
0.0
 10
1.917431129614499
 20
-174.6921512374921
 30
0.0
 10
2.10274862781523
 20
-175.2326606072444
 30
0.0
  0
CIRCLE
  5
7105
330
7100
100
AcDbEntity
  8
18
100
AcDbCircle
 10
-1.0
 20
-176.3565627441106
 30
0.0
 40
2.149999999999999
  0
ARC
  5
7106
330
7100
100
AcDbEntity
  8
18
100
AcDbCircle
 10
-1.0
 20
-176.3565627441106
 30
0.0
 40
3.299999999999998
100
AcDbArc
 50
160.0881997351804
 51
19.91180026481935
  0
LINE
  5
7107
330
7100
100
AcDbEntity
  8
18
100
AcDbLine
 10
-2.0
 20
-164.6565627441106
 30
0.0
 11
0.0
 21
-164.6565627441106
 31
0.0
  0
LINE
  5
7108
330
7100
100
AcDbEntity
  8
18
100
AcDbLine
 10
-2.0
 20
-168.6565627441108
 30
0.0
 11
0.0
 21
-168.6565627441108
 31
0.0
  0
LINE
  5
7109
330
7100
100
AcDbEntity
  8
18
100
AcDbLine
 10
-1.0
 20
-164.6565627441106
 30
0.0
 11
-1.0
 21
-168.6565627441108
 31
0.0
  0
ENDBLK
  5
710B
330
7100
100
AcDbEntity
  8
0
100
AcDbBlockEnd
  0
BLOCK
  5
732C
330
7322
100
AcDbEntity
  8
0
100
AcDbBlockBegin
  2
*D34
 70
     1
 10
0.0
 20
0.0
 30
0.0
  3
*D34
  1

  0
LINE
  5
7803
330
7322
100
AcDbEntity
  8
30
  6
Continuous
 62
     0
370
    -2
100
AcDbLine
 10
-20.0
 20
183.4999999999999
 30
0.0
 11
-80.49999999999997
 21
183.5
 31
0.0
  0
LINE
  5
7804
330
7322
100
AcDbEntity
  8
30
  6
Continuous
 62
     0
370
    -2
100
AcDbLine
 10
-53.5
 20
82.5
 30
0.0
 11
-80.5
 21
82.5
 31
0.0
  0
LINE
  5
7805
330
7322
100
AcDbEntity
  8
30
  6
Continuous
 62
     0
370
    -2
100
AcDbLine
 10
-79.99999999999997
 20
181.5
 30
0.0
 11
-80.0
 21
84.50000000000001
 31
0.0
  0
INSERT
  5
7806
330
7322
100
AcDbEntity
  8
30
  6
Continuous
 62
     0
370
    -2
100
AcDbBlockReference
  2
_OPEN
 10
-79.99999999999997
 20
183.5
 30
0.0
 41
2.0
 42
2.0
 43
2.0
 50
90.0
  0
INSERT
  5
7807
330
7322
100
AcDbEntity
  8
30
  6
Continuous
 62
     0
370
    -2
100
AcDbBlockReference
  2
_OPEN
 10
-80.0
 20
82.5
 30
0.0
 41
2.0
 42
2.0
 43
2.0
 50
270.0
  0
MTEXT
  5
7808
330
7322
100
AcDbEntity
  8
30
  6
Continuous
 62
     0
100
AcDbMText
 10
-83.0
 20
133.0
 30
0.0
 40
4.0
 41
0.0
 71
     5
 72
     1
  1
\A1;101
 11
0.0000000000000001
 21
1.0
 31
0.0
 73
     1
 44
1.0
  0
POINT
  5
7809
330
7322
100
AcDbEntity
  8
DEFPOINTS
  6
Continuous
 62
     0
100
AcDbPoint
 10
-19.0
 20
183.4999999999999
 30
0.0
  0
POINT
  5
780A
330
7322
100
AcDbEntity
  8
DEFPOINTS
  6
Continuous
 62
     0
100
AcDbPoint
 10
-52.5
 20
82.5
 30
0.0
  0
POINT
  5
780B
330
7322
100
AcDbEntity
  8
DEFPOINTS
  6
Continuous
 62
     0
100
AcDbPoint
 10
-80.0
 20
82.5
 30
0.0
  0
ENDBLK
  5
732D
330
7322
100
AcDbEntity
  8
0
100
AcDbBlockEnd
  0
BLOCK
  5
7338
330
732E
100
AcDbEntity
  8
0
100
AcDbBlockBegin
  2
*D35
 70
     1
 10
0.0
 20
0.0
 30
0.0
  3
*D35
  1

  0
LINE
  5
77D6
330
732E
100
AcDbEntity
  8
30
  6
Continuous
 62
     0
370
    -2
100
AcDbLine
 10
-53.5
 20
82.5
 30
0.0
 11
-80.49999999999997
 21
82.5
 31
0.0
  0
LINE
  5
77D7
330
732E
100
AcDbEntity
  8
30
  6
Continuous
 62
     0
370
    -2
100
AcDbLine
 10
-53.5
 20
-82.5
 30
0.0
 11
-80.5
 21
-82.5
 31
0.0
  0
LINE
  5
77D8
330
732E
100
AcDbEntity
  8
30
  6
Continuous
 62
     0
370
    -2
100
AcDbLine
 10
-79.99999999999997
 20
80.5
 30
0.0
 11
-80.0
 21
-80.5
 31
0.0
  0
INSERT
  5
77D9
330
732E
100
AcDbEntity
  8
30
  6
Continuous
 62
     0
370
    -2
100
AcDbBlockReference
  2
_OPEN
 10
-79.99999999999997
 20
82.5
 30
0.0
 41
2.0
 42
2.0
 43
2.0
 50
90.0
  0
INSERT
  5
77DA
330
732E
100
AcDbEntity
  8
30
  6
Continuous
 62
     0
370
    -2
100
AcDbBlockReference
  2
_OPEN
 10
-80.0
 20
-82.5
 30
0.0
 41
2.0
 42
2.0
 43
2.0
 50
270.0
  0
MTEXT
  5
77DB
330
732E
100
AcDbEntity
  8
30
  6
Continuous
 62
     0
100
AcDbMText
 10
-82.99999999999998
 20
-0.0000000000000089
 30
0.0
 40
4.0
 41
0.0
 71
     5
 72
     1
  1
\A1;165
 11
0.0000000000000001
 21
1.0
 31
0.0
 73
     1
 44
1.0
  0
POINT
  5
77DC
330
732E
100
AcDbEntity
  8
DEFPOINTS
  6
Continuous
 62
     0
100
AcDbPoint
 10
-52.5
 20
82.5
 30
0.0
  0
POINT
  5
77DD
330
732E
100
AcDbEntity
  8
DEFPOINTS
  6
Continuous
 62
     0
100
AcDbPoint
 10
-52.5
 20
-82.5
 30
0.0
  0
POINT
  5
77DE
330
732E
100
AcDbEntity
  8
DEFPOINTS
  6
Continuous
 62
     0
100
AcDbPoint
 10
-80.0
 20
-82.5
 30
0.0
  0
ENDBLK
  5
7339
330
732E
100
AcDbEntity
  8
0
100
AcDbBlockEnd
  0
BLOCK
  5
7385
330
737B
100
AcDbEntity
  8
0
100
AcDbBlockBegin
  2
*D36
 70
     1
 10
0.0
 20
0.0
 30
0.0
  3
*D36
  1

  0
LINE
  5
77FA
330
737B
100
AcDbEntity
  8
30
  6
Continuous
 62
     0
370
    -2
100
AcDbLine
 10
-49.0
 20
26.0
 30
0.0
 11
-49.0
 21
30.5
 31
0.0
  0
LINE
  5
77FB
330
737B
100
AcDbEntity
  8
30
  6
Continuous
 62
     0
370
    -2
100
AcDbLine
 10
49.0
 20
26.0
 30
0.0
 11
49.0
 21
30.5
 31
0.0
  0
LINE
  5
77FC
330
737B
100
AcDbEntity
  8
30
  6
Continuous
 62
     0
370
    -2
100
AcDbLine
 10
-47.0
 20
30.0
 30
0.0
 11
47.0
 21
30.0
 31
0.0
  0
INSERT
  5
77FD
330
737B
100
AcDbEntity
  8
30
  6
Continuous
 62
     0
370
    -2
100
AcDbBlockReference
  2
_OPEN
 10
-49.0
 20
30.0
 30
0.0
 41
2.0
 42
2.0
 43
2.0
 50
180.0
  0
INSERT
  5
77FE
330
737B
100
AcDbEntity
  8
30
  6
Continuous
 62
     0
370
    -2
100
AcDbBlockReference
  2
_OPEN
 10
49.0
 20
30.0
 30
0.0
 41
2.0
 42
2.0
 43
2.0
  0
MTEXT
  5
77FF
330
737B
100
AcDbEntity
  8
30
  6
Continuous
 62
     0
100
AcDbMText
 10
0.0000000000000002
 20
33.0
 30
0.0
 40
4.0
 41
0.0
 71
     5
 72
     1
  1
\A1;98
 73
     1
 44
1.0
  0
POINT
  5
7800
330
737B
100
AcDbEntity
  8
DEFPOINTS
  6
Continuous
 62
     0
100
AcDbPoint
 10
-49.0
 20
25.0
 30
0.0
  0
POINT
  5
7801
330
737B
100
AcDbEntity
  8
DEFPOINTS
  6
Continuous
 62
     0
100
AcDbPoint
 10
49.0
 20
25.0
 30
0.0
  0
POINT
  5
7802
330
737B
100
AcDbEntity
  8
DEFPOINTS
  6
Continuous
 62
     0
100
AcDbPoint
 10
49.0
 20
30.0
 30
0.0
  0
ENDBLK
  5
7386
330
737B
100
AcDbEntity
  8
0
100
AcDbBlockEnd
  0
BLOCK
  5
7391
330
7387
100
AcDbEntity
  8
0
100
AcDbBlockBegin
  2
*D37
 70
     1
 10
0.0
 20
0.0
 30
0.0
  3
*D37
  1

  0
LINE
  5
77DF
330
7387
100
AcDbEntity
  8
30
  6
Continuous
 62
     0
370
    -2
100
AcDbLine
 10
-11.0
 20
-26.0
 30
0.0
 11
-11.0
 21
-40.95444641199117
 31
0.0
  0
LINE
  5
77E0
330
7387
100
AcDbEntity
  8
30
  6
Continuous
 62
     0
370
    -2
100
AcDbLine
 10
11.0
 20
-26.0
 30
0.0
 11
10.99999999999999
 21
-40.95444641199117
 31
0.0
  0
LINE
  5
77E1
330
7387
100
AcDbEntity
  8
30
  6
Continuous
 62
     0
370
    -2
100
AcDbLine
 10
-9.000000000000001
 20
-40.45444641199117
 30
0.0
 11
8.999999999999998
 21
-40.45444641199117
 31
0.0
  0
INSERT
  5
77E2
330
7387
100
AcDbEntity
  8
30
  6
Continuous
 62
     0
370
    -2
100
AcDbBlockReference
  2
_OPEN
 10
-11.0
 20
-40.45444641199117
 30
0.0
 41
2.0
 42
2.0
 43
2.0
 50
180.0
  0
INSERT
  5
77E3
330
7387
100
AcDbEntity
  8
30
  6
Continuous
 62
     0
370
    -2
100
AcDbBlockReference
  2
_OPEN
 10
10.99999999999999
 20
-40.45444641199117
 30
0.0
 41
2.0
 42
2.0
 43
2.0
  0
MTEXT
  5
77E4
330
7387
100
AcDbEntity
  8
30
  6
Continuous
 62
     0
100
AcDbMText
 10
-0.0000000000000016
 20
-37.45444641199117
 30
0.0
 40
4.0
 41
0.0
 71
     5
 72
     1
  1
\A1;22
 73
     1
 44
1.0
  0
POINT
  5
77E5
330
7387
100
AcDbEntity
  8
DEFPOINTS
  6
Continuous
 62
     0
100
AcDbPoint
 10
-11.0
 20
-25.0
 30
0.0
  0
POINT
  5
77E6
330
7387
100
AcDbEntity
  8
DEFPOINTS
  6
Continuous
 62
     0
100
AcDbPoint
 10
11.0
 20
-25.0
 30
0.0
  0
POINT
  5
77E7
330
7387
100
AcDbEntity
  8
DEFPOINTS
  6
Continuous
 62
     0
100
AcDbPoint
 10
10.99999999999999
 20
-40.45444641199117
 30
0.0
  0
ENDBLK
  5
7392
330
7387
100
AcDbEntity
  8
0
100
AcDbBlockEnd
  0
BLOCK
  5
73BA
330
73B0
100
AcDbEntity
  8
0
100
AcDbBlockBegin
  2
*D38
 70
     1
 10
0.0
 20
0.0
 30
0.0
  3
*D38
  1

  0
LINE
  5
77F1
330
73B0
100
AcDbEntity
  8
30
  6
Continuous
 62
     0
370
    -2
100
AcDbLine
 10
-52.5
 20
-83.49999999999999
 30
0.0
 11
-52.5
 21
-130.4999999999999
 31
0.0
  0
LINE
  5
77F2
330
73B0
100
AcDbEntity
  8
30
  6
Continuous
 62
     0
370
    -2
100
AcDbLine
 10
52.5
 20
-83.49999999999999
 30
0.0
 11
52.5
 21
-130.4999999999999
 31
0.0
  0
LINE
  5
77F3
330
73B0
100
AcDbEntity
  8
30
  6
Continuous
 62
     0
370
    -2
100
AcDbLine
 10
-50.5
 20
-130.0
 30
0.0
 11
50.5
 21
-130.0
 31
0.0
  0
INSERT
  5
77F4
330
73B0
100
AcDbEntity
  8
30
  6
Continuous
 62
     0
370
    -2
100
AcDbBlockReference
  2
_OPEN
 10
-52.5
 20
-130.0
 30
0.0
 41
2.0
 42
2.0
 43
2.0
 50
180.0
  0
INSERT
  5
77F5
330
73B0
100
AcDbEntity
  8
30
  6
Continuous
 62
     0
370
    -2
100
AcDbBlockReference
  2
_OPEN
 10
52.5
 20
-130.0
 30
0.0
 41
2.0
 42
2.0
 43
2.0
  0
MTEXT
  5
77F6
330
73B0
100
AcDbEntity
  8
30
  6
Continuous
 62
     0
100
AcDbMText
 10
0.0000000000000002
 20
-127.0
 30
0.0
 40
4.0
 41
0.0
 71
     5
 72
     1
  1
\A1;105
 73
     1
 44
1.0
  0
POINT
  5
77F7
330
73B0
100
AcDbEntity
  8
DEFPOINTS
  6
Continuous
 62
     0
100
AcDbPoint
 10
-52.5
 20
-82.5
 30
0.0
  0
POINT
  5
77F8
330
73B0
100
AcDbEntity
  8
DEFPOINTS
  6
Continuous
 62
     0
100
AcDbPoint
 10
52.5
 20
-82.5
 30
0.0
  0
POINT
  5
77F9
330
73B0
100
AcDbEntity
  8
DEFPOINTS
  6
Continuous
 62
     0
100
AcDbPoint
 10
52.5
 20
-130.0
 30
0.0
  0
ENDBLK
  5
73BB
330
73B0
100
AcDbEntity
  8
0
100
AcDbBlockEnd
  0
BLOCK
  5
73C6
330
73BC
100
AcDbEntity
  8
0
100
AcDbBlockBegin
  2
*D39
 70
     1
 10
0.0
 20
0.0
 30
0.0
  3
*D39
  1

  0
LINE
  5
77E8
330
73BC
100
AcDbEntity
  8
30
  6
Continuous
 62
     0
370
    -2
100
AcDbLine
 10
-35.0
 20
-79.99999999999997
 30
0.0
 11
-35.0
 21
-110.4999999999999
 31
0.0
  0
LINE
  5
77E9
330
73BC
100
AcDbEntity
  8
30
  6
Continuous
 62
     0
370
    -2
100
AcDbLine
 10
35.0
 20
-79.99999999999997
 30
0.0
 11
35.0
 21
-110.4999999999999
 31
0.0
  0
LINE
  5
77EA
330
73BC
100
AcDbEntity
  8
30
  6
Continuous
 62
     0
370
    -2
100
AcDbLine
 10
-33.0
 20
-110.0
 30
0.0
 11
33.0
 21
-110.0
 31
0.0
  0
INSERT
  5
77EB
330
73BC
100
AcDbEntity
  8
30
  6
Continuous
 62
     0
370
    -2
100
AcDbBlockReference
  2
_OPEN
 10
-35.0
 20
-110.0
 30
0.0
 41
2.0
 42
2.0
 43
2.0
 50
180.0
  0
INSERT
  5
77EC
330
73BC
100
AcDbEntity
  8
30
  6
Continuous
 62
     0
370
    -2
100
AcDbBlockReference
  2
_OPEN
 10
35.0
 20
-110.0
 30
0.0
 41
2.0
 42
2.0
 43
2.0
  0
MTEXT
  5
77ED
330
73BC
100
AcDbEntity
  8
30
  6
Continuous
 62
     0
100
AcDbMText
 10
0.0000000000000002
 20
-107.0
 30
0.0
 40
4.0
 41
0.0
 71
     5
 72
     1
  1
\A1;70
 73
     1
 44
1.0
  0
POINT
  5
77EE
330
73BC
100
AcDbEntity
  8
DEFPOINTS
  6
Continuous
 62
     0
100
AcDbPoint
 10
-35.0
 20
-78.99999999999997
 30
0.0
  0
POINT
  5
77EF
330
73BC
100
AcDbEntity
  8
DEFPOINTS
  6
Continuous
 62
     0
100
AcDbPoint
 10
35.0
 20
-78.99999999999997
 30
0.0
  0
POINT
  5
77F0
330
73BC
100
AcDbEntity
  8
DEFPOINTS
  6
Continuous
 62
     0
100
AcDbPoint
 10
35.0
 20
-110.0
 30
0.0
  0
ENDBLK
  5
73C7
330
73BC
100
AcDbEntity
  8
0
100
AcDbBlockEnd
  0
BLOCK
  5
741E
330
7414
100
AcDbEntity
  8
0
100
AcDbBlockBegin
  2
*D40
 70
     1
 10
0.0
 20
0.0
 30
0.0
  3
*D40
  1

  0
LINE
  5
795E
330
7414
100
AcDbEntity
  8
30
  6
Continuous
 62
     0
370
    -2
100
AcDbLine
 10
326.0
 20
50.0
 30
0.0
 11
340.5
 21
50.0
 31
0.0
  0
LINE
  5
795F
330
7414
100
AcDbEntity
  8
30
  6
Continuous
 62
     0
370
    -2
100
AcDbLine
 10
319.75
 20
61.0
 30
0.0
 11
340.5
 21
60.99999999999999
 31
0.0
  0
LINE
  5
7960
330
7414
100
AcDbEntity
  8
30
  6
Continuous
 62
     0
370
    -2
100
AcDbLine
 10
340.0
 20
51.99999999999999
 30
0.0
 11
340.0
 21
58.99999999999999
 31
0.0
  0
INSERT
  5
7961
330
7414
100
AcDbEntity
  8
30
  6
Continuous
 62
     0
370
    -2
100
AcDbBlockReference
  2
_OPEN
 10
340.0
 20
50.0
 30
0.0
 41
2.0
 42
2.0
 43
2.0
 50
270.0
  0
INSERT
  5
7962
330
7414
100
AcDbEntity
  8
30
  6
Continuous
 62
     0
370
    -2
100
AcDbBlockReference
  2
_OPEN
 10
340.0
 20
60.99999999999999
 30
0.0
 41
2.0
 42
2.0
 43
2.0
 50
90.0
  0
MTEXT
  5
7963
330
7414
100
AcDbEntity
  8
30
  6
Continuous
 62
     0
100
AcDbMText
 10
337.0
 20
55.50000000000005
 30
0.0
 40
4.0
 41
0.0
 71
     5
 72
     1
  1
\A1;11
 11
0.0000000000000001
 21
1.0
 31
0.0
 73
     1
 44
1.0
  0
POINT
  5
7964
330
7414
100
AcDbEntity
  8
DEFPOINTS
  6
Continuous
 62
     0
100
AcDbPoint
 10
325.0
 20
50.0
 30
0.0
  0
POINT
  5
7965
330
7414
100
AcDbEntity
  8
DEFPOINTS
  6
Continuous
 62
     0
100
AcDbPoint
 10
318.75
 20
61.0
 30
0.0
  0
POINT
  5
7966
330
7414
100
AcDbEntity
  8
DEFPOINTS
  6
Continuous
 62
     0
100
AcDbPoint
 10
340.0
 20
60.99999999999999
 30
0.0
  0
ENDBLK
  5
741F
330
7414
100
AcDbEntity
  8
0
100
AcDbBlockEnd
  0
BLOCK
  5
742A
330
7420
100
AcDbEntity
  8
0
100
AcDbBlockBegin
  2
*D41
 70
     1
 10
0.0
 20
0.0
 30
0.0
  3
*D41
  1

  0
LINE
  5
7967
330
7420
100
AcDbEntity
  8
30
  6
Continuous
 62
     0
370
    -2
100
AcDbLine
 10
300.0
 20
49.0
 30
0.0
 11
300.0
 21
29.5
 31
0.0
  0
LINE
  5
7968
330
7420
100
AcDbEntity
  8
30
  6
Continuous
 62
     0
370
    -2
100
AcDbLine
 10
325.0
 20
49.0
 30
0.0
 11
325.0
 21
29.5
 31
0.0
  0
LINE
  5
7969
330
7420
100
AcDbEntity
  8
30
  6
Continuous
 62
     0
370
    -2
100
AcDbLine
 10
302.0
 20
30.0
 30
0.0
 11
323.0
 21
30.0
 31
0.0
  0
INSERT
  5
796A
330
7420
100
AcDbEntity
  8
30
  6
Continuous
 62
     0
370
    -2
100
AcDbBlockReference
  2
_OPEN
 10
300.0
 20
30.0
 30
0.0
 41
2.0
 42
2.0
 43
2.0
 50
180.0
  0
INSERT
  5
796B
330
7420
100
AcDbEntity
  8
30
  6
Continuous
 62
     0
370
    -2
100
AcDbBlockReference
  2
_OPEN
 10
325.0
 20
30.0
 30
0.0
 41
2.0
 42
2.0
 43
2.0
  0
MTEXT
  5
796C
330
7420
100
AcDbEntity
  8
30
  6
Continuous
 62
     0
100
AcDbMText
 10
312.5
 20
33.0
 30
0.0
 40
4.0
 41
0.0
 71
     5
 72
     1
  1
\A1;25
 73
     1
 44
1.0
  0
POINT
  5
796D
330
7420
100
AcDbEntity
  8
DEFPOINTS
  6
Continuous
 62
     0
100
AcDbPoint
 10
300.0
 20
50.0
 30
0.0
  0
POINT
  5
796E
330
7420
100
AcDbEntity
  8
DEFPOINTS
  6
Continuous
 62
     0
100
AcDbPoint
 10
325.0
 20
50.0
 30
0.0
  0
POINT
  5
796F
330
7420
100
AcDbEntity
  8
DEFPOINTS
  6
Continuous
 62
     0
100
AcDbPoint
 10
325.0
 20
30.0
 30
0.0
  0
ENDBLK
  5
742B
330
7420
100
AcDbEntity
  8
0
100
AcDbBlockEnd
  0
BLOCK
  5
7498
330
748E
100
AcDbEntity
  8
0
100
AcDbBlockBegin
  2
*D42
 70
     1
 10
0.0
 20
0.0
 30
0.0
  3
*D42
  1

  0
LINE
  5
799D
330
748E
100
AcDbEntity
  8
30
  6
Continuous
 62
     0
370
    -2
100
AcDbLine
 10
235.9999999999998
 20
83.49999999999999
 30
0.0
 11
235.9999999999998
 21
110.4999999999999
 31
0.0
  0
LINE
  5
799E
330
748E
100
AcDbEntity
  8
30
  6
Continuous
 62
     0
370
    -2
100
AcDbLine
 10
260.0
 20
83.49999999999999
 30
0.0
 11
260.0
 21
110.4999999999999
 31
0.0
  0
LINE
  5
799F
330
748E
100
AcDbEntity
  8
30
  6
Continuous
 62
     0
370
    -2
100
AcDbLine
 10
237.9999999999999
 20
110.0
 30
0.0
 11
258.0
 21
110.0
 31
0.0
  0
INSERT
  5
79A0
330
748E
100
AcDbEntity
  8
30
  6
Continuous
 62
     0
370
    -2
100
AcDbBlockReference
  2
_OPEN
 10
235.9999999999998
 20
110.0
 30
0.0
 41
2.0
 42
2.0
 43
2.0
 50
180.0
  0
INSERT
  5
79A1
330
748E
100
AcDbEntity
  8
30
  6
Continuous
 62
     0
370
    -2
100
AcDbBlockReference
  2
_OPEN
 10
260.0
 20
110.0
 30
0.0
 41
2.0
 42
2.0
 43
2.0
  0
MTEXT
  5
79A2
330
748E
100
AcDbEntity
  8
30
  6
Continuous
 62
     0
100
AcDbMText
 10
247.9999999999999
 20
113.0
 30
0.0
 40
4.0
 41
0.0
 71
     5
 72
     1
  1
\A1;24
 73
     1
 44
1.0
  0
POINT
  5
79A3
330
748E
100
AcDbEntity
  8
DEFPOINTS
  6
Continuous
 62
     0
100
AcDbPoint
 10
235.9999999999998
 20
82.5
 30
0.0
  0
POINT
  5
79A4
330
748E
100
AcDbEntity
  8
DEFPOINTS
  6
Continuous
 62
     0
100
AcDbPoint
 10
260.0
 20
82.5
 30
0.0
  0
POINT
  5
79A5
330
748E
100
AcDbEntity
  8
DEFPOINTS
  6
Continuous
 62
     0
100
AcDbPoint
 10
260.0
 20
110.0
 30
0.0
  0
ENDBLK
  5
7499
330
748E
100
AcDbEntity
  8
0
100
AcDbBlockEnd
  0
BLOCK
  5
74A4
330
749A
100
AcDbEntity
  8
0
100
AcDbBlockBegin
  2
*D43
 70
     1
 10
0.0
 20
0.0
 30
0.0
  3
*D43
  1

  0
LINE
  5
794C
330
749A
100
AcDbEntity
  8
30
  6
Continuous
 62
     0
370
    -2
100
AcDbLine
 10
191.0
 20
51.0
 30
0.0
 11
129.4999999999999
 21
51.00000000000002
 31
0.0
  0
LINE
  5
794D
330
749A
100
AcDbEntity
  8
30
  6
Continuous
 62
     0
370
    -2
100
AcDbLine
 10
191.0
 20
-51.00000000000005
 30
0.0
 11
129.4999999999999
 21
-51.00000000000004
 31
0.0
  0
LINE
  5
794E
330
749A
100
AcDbEntity
  8
30
  6
Continuous
 62
     0
370
    -2
100
AcDbLine
 10
130.0
 20
49.00000000000002
 30
0.0
 11
130.0
 21
-49.00000000000003
 31
0.0
  0
INSERT
  5
794F
330
749A
100
AcDbEntity
  8
30
  6
Continuous
 62
     0
370
    -2
100
AcDbBlockReference
  2
_OPEN
 10
130.0
 20
51.00000000000002
 30
0.0
 41
2.0
 42
2.0
 43
2.0
 50
90.0
  0
INSERT
  5
7950
330
749A
100
AcDbEntity
  8
30
  6
Continuous
 62
     0
370
    -2
100
AcDbBlockReference
  2
_OPEN
 10
130.0
 20
-51.00000000000004
 30
0.0
 41
2.0
 42
2.0
 43
2.0
 50
270.0
  0
MTEXT
  5
7951
330
749A
100
AcDbEntity
  8
30
  6
Continuous
 62
     0
100
AcDbMText
 10
127.0
 20
0.0000000000000137
 30
0.0
 40
4.0
 41
0.0
 71
     5
 72
     1
  1
\A1;102
 11
0.0000000000000001
 21
1.0
 31
0.0
 73
     1
 44
1.0
  0
POINT
  5
7952
330
749A
100
AcDbEntity
  8
DEFPOINTS
  6
Continuous
 62
     0
100
AcDbPoint
 10
192.0
 20
51.0
 30
0.0
  0
POINT
  5
7953
330
749A
100
AcDbEntity
  8
DEFPOINTS
  6
Continuous
 62
     0
100
AcDbPoint
 10
192.0
 20
-51.00000000000005
 30
0.0
  0
POINT
  5
7954
330
749A
100
AcDbEntity
  8
DEFPOINTS
  6
Continuous
 62
     0
100
AcDbPoint
 10
130.0
 20
-51.00000000000004
 30
0.0
  0
ENDBLK
  5
74A5
330
749A
100
AcDbEntity
  8
0
100
AcDbBlockEnd
  0
BLOCK
  5
74B0
330
74A6
100
AcDbEntity
  8
0
100
AcDbBlockBegin
  2
*D44
 70
     1
 10
0.0
 20
0.0
 30
0.0
  3
*D44
  1

  0
LINE
  5
7943
330
74A6
100
AcDbEntity
  8
30
  6
Continuous
 62
     0
370
    -2
100
AcDbLine
 10
182.9999999999996
 20
25.0
 30
0.0
 11
139.5
 21
25.00000000000001
 31
0.0
  0
LINE
  5
7944
330
74A6
100
AcDbEntity
  8
30
  6
Continuous
 62
     0
370
    -2
100
AcDbLine
 10
182.9999999999996
 20
-25.0
 30
0.0
 11
139.5
 21
-24.99999999999999
 31
0.0
  0
LINE
  5
7945
330
74A6
100
AcDbEntity
  8
30
  6
Continuous
 62
     0
370
    -2
100
AcDbLine
 10
140.0
 20
23.00000000000001
 30
0.0
 11
140.0
 21
-22.99999999999998
 31
0.0
  0
INSERT
  5
7946
330
74A6
100
AcDbEntity
  8
30
  6
Continuous
 62
     0
370
    -2
100
AcDbBlockReference
  2
_OPEN
 10
140.0
 20
25.00000000000001
 30
0.0
 41
2.0
 42
2.0
 43
2.0
 50
90.0
  0
INSERT
  5
7947
330
74A6
100
AcDbEntity
  8
30
  6
Continuous
 62
     0
370
    -2
100
AcDbBlockReference
  2
_OPEN
 10
140.0
 20
-24.99999999999999
 30
0.0
 41
2.0
 42
2.0
 43
2.0
 50
270.0
  0
MTEXT
  5
7948
330
74A6
100
AcDbEntity
  8
30
  6
Continuous
 62
     0
100
AcDbMText
 10
137.0
 20
0.0000000000000344
 30
0.0
 40
4.0
 41
0.0
 71
     5
 72
     1
  1
\A1;50
 11
0.0000000000000001
 21
1.0
 31
0.0
 73
     1
 44
1.0
  0
POINT
  5
7949
330
74A6
100
AcDbEntity
  8
DEFPOINTS
  6
Continuous
 62
     0
100
AcDbPoint
 10
183.9999999999996
 20
25.0
 30
0.0
  0
POINT
  5
794A
330
74A6
100
AcDbEntity
  8
DEFPOINTS
  6
Continuous
 62
     0
100
AcDbPoint
 10
183.9999999999996
 20
-25.0
 30
0.0
  0
POINT
  5
794B
330
74A6
100
AcDbEntity
  8
DEFPOINTS
  6
Continuous
 62
     0
100
AcDbPoint
 10
140.0
 20
-24.99999999999999
 30
0.0
  0
ENDBLK
  5
74B1
330
74A6
100
AcDbEntity
  8
0
100
AcDbBlockEnd
  0
BLOCK
  5
74BC
330
74B2
100
AcDbEntity
  8
0
100
AcDbBlockBegin
  2
*D45
 70
     1
 10
0.0
 20
0.0
 30
0.0
  3
*D45
  1

  0
LINE
  5
7994
330
74B2
100
AcDbEntity
  8
30
  6
Continuous
 62
     0
370
    -2
100
AcDbLine
 10
260.0
 20
-83.49999999999999
 30
0.0
 11
260.0
 21
-90.5
 31
0.0
  0
LINE
  5
7995
330
74B2
100
AcDbEntity
  8
30
  6
Continuous
 62
     0
370
    -2
100
AcDbLine
 10
267.0
 20
-66.25
 30
0.0
 11
267.0
 21
-90.5
 31
0.0
  0
LINE
  5
7996
330
74B2
100
AcDbEntity
  8
30
  6
Continuous
 62
     0
370
    -2
100
AcDbLine
 10
262.0
 20
-90.0
 30
0.0
 11
265.0
 21
-90.0
 31
0.0
  0
INSERT
  5
7997
330
74B2
100
AcDbEntity
  8
30
  6
Continuous
 62
     0
370
    -2
100
AcDbBlockReference
  2
_OPEN
 10
260.0
 20
-90.0
 30
0.0
 41
2.0
 42
2.0
 43
2.0
 50
180.0
  0
INSERT
  5
7998
330
74B2
100
AcDbEntity
  8
30
  6
Continuous
 62
     0
370
    -2
100
AcDbBlockReference
  2
_OPEN
 10
267.0
 20
-90.0
 30
0.0
 41
2.0
 42
2.0
 43
2.0
  0
MTEXT
  5
7999
330
74B2
100
AcDbEntity
  8
30
  6
Continuous
 62
     0
100
AcDbMText
 10
263.5
 20
-87.0
 30
0.0
 40
4.0
 41
0.0
 71
     5
 72
     1
  1
\A1;7
 73
     1
 44
1.0
  0
POINT
  5
799A
330
74B2
100
AcDbEntity
  8
DEFPOINTS
  6
Continuous
 62
     0
100
AcDbPoint
 10
260.0
 20
-82.5
 30
0.0
  0
POINT
  5
799B
330
74B2
100
AcDbEntity
  8
DEFPOINTS
  6
Continuous
 62
     0
100
AcDbPoint
 10
267.0
 20
-65.25
 30
0.0
  0
POINT
  5
799C
330
74B2
100
AcDbEntity
  8
DEFPOINTS
  6
Continuous
 62
     0
100
AcDbPoint
 10
267.0
 20
-90.0
 30
0.0
  0
ENDBLK
  5
74BD
330
74B2
100
AcDbEntity
  8
0
100
AcDbBlockEnd
  0
BLOCK
  5
74C8
330
74BE
100
AcDbEntity
  8
0
100
AcDbBlockBegin
  2
*D46
 70
     1
 10
0.0
 20
0.0
 30
0.0
  3
*D46
  1

  0
LINE
  5
7979
330
74BE
100
AcDbEntity
  8
30
  6
Continuous
 62
     0
370
    -2
100
AcDbLine
 10
214.0
 20
-68.25
 30
0.0
 11
214.0
 21
-90.5
 31
0.0
  0
LINE
  5
797A
330
74BE
100
AcDbEntity
  8
30
  6
Continuous
 62
     0
370
    -2
100
AcDbLine
 10
260.0
 20
-83.49999999999999
 30
0.0
 11
260.0
 21
-90.5
 31
0.0
  0
LINE
  5
797B
330
74BE
100
AcDbEntity
  8
30
  6
Continuous
 62
     0
370
    -2
100
AcDbLine
 10
216.0
 20
-90.0
 30
0.0
 11
258.0
 21
-90.0
 31
0.0
  0
INSERT
  5
797C
330
74BE
100
AcDbEntity
  8
30
  6
Continuous
 62
     0
370
    -2
100
AcDbBlockReference
  2
_OPEN
 10
214.0
 20
-90.0
 30
0.0
 41
2.0
 42
2.0
 43
2.0
 50
180.0
  0
INSERT
  5
797D
330
74BE
100
AcDbEntity
  8
30
  6
Continuous
 62
     0
370
    -2
100
AcDbBlockReference
  2
_OPEN
 10
260.0
 20
-90.0
 30
0.0
 41
2.0
 42
2.0
 43
2.0
  0
MTEXT
  5
797E
330
74BE
100
AcDbEntity
  8
30
  6
Continuous
 62
     0
100
AcDbMText
 10
237.0
 20
-87.0
 30
0.0
 40
4.0
 41
0.0
 71
     5
 72
     1
  1
\A1;46
 73
     1
 44
1.0
  0
POINT
  5
797F
330
74BE
100
AcDbEntity
  8
DEFPOINTS
  6
Continuous
 62
     0
100
AcDbPoint
 10
214.0
 20
-67.25
 30
0.0
  0
POINT
  5
7980
330
74BE
100
AcDbEntity
  8
DEFPOINTS
  6
Continuous
 62
     0
100
AcDbPoint
 10
260.0
 20
-82.5
 30
0.0
  0
POINT
  5
7981
330
74BE
100
AcDbEntity
  8
DEFPOINTS
  6
Continuous
 62
     0
100
AcDbPoint
 10
260.0
 20
-90.0
 30
0.0
  0
ENDBLK
  5
74C9
330
74BE
100
AcDbEntity
  8
0
100
AcDbBlockEnd
  0
BLOCK
  5
74D5
330
74CA
100
AcDbEntity
  8
0
100
AcDbBlockBegin
  2
*D47
 70
     1
 10
0.0
 20
0.0
 30
0.0
  3
*D47
  1

  0
LINE
  5
792F
330
74CA
100
AcDbEntity
  8
30
  6
Continuous
 62
     0
370
    -2
100
AcDbLine
 10
181.4999999999999
 20
-23.5
 30
0.0
 11
181.4999999999999
 21
-120.5
 31
0.0
  0
LINE
  5
7930
330
74CA
100
AcDbEntity
  8
30
  6
Continuous
 62
     0
370
    -2
100
AcDbLine
 10
185.5
 20
-26.0
 30
0.0
 11
185.5
 21
-120.5
 31
0.0
  0
LINE
  5
7931
330
74CA
100
AcDbEntity
  8
30
  6
Continuous
 62
     0
370
    -2
100
AcDbLine
 10
187.5
 20
-120.0
 30
0.0
 11
189.4999999999999
 21
-120.0
 31
0.0
  0
LINE
  5
7932
330
74CA
100
AcDbEntity
  8
30
  6
Continuous
 62
     0
370
    -2
100
AcDbLine
 10
179.4999999999999
 20
-120.0
 30
0.0
 11
172.1666666666666
 21
-120.0
 31
0.0
  0
LINE
  5
7933
330
74CA
100
AcDbEntity
  8
30
  6
Continuous
 62
     0
370
    -2
100
AcDbLine
 10
185.5
 20
-120.0
 30
0.0
 11
181.4999999999999
 21
-120.0
 31
0.0
  0
INSERT
  5
7934
330
74CA
100
AcDbEntity
  8
30
  6
Continuous
 62
     0
370
    -2
100
AcDbBlockReference
  2
_OPEN
 10
185.5
 20
-120.0
 30
0.0
 41
2.0
 42
2.0
 43
2.0
 50
180.0
  0
INSERT
  5
7935
330
74CA
100
AcDbEntity
  8
30
  6
Continuous
 62
     0
370
    -2
100
AcDbBlockReference
  2
_OPEN
 10
181.4999999999999
 20
-120.0
 30
0.0
 41
2.0
 42
2.0
 43
2.0
  0
MTEXT
  5
7936
330
74CA
100
AcDbEntity
  8
30
  6
Continuous
 62
     0
100
AcDbMText
 10
174.5
 20
-117.0
 30
0.0
 40
4.0
 41
0.0
 71
     5
 72
     1
  1
\A1;4
 73
     1
 44
1.0
  0
POINT
  5
7937
330
74CA
100
AcDbEntity
  8
DEFPOINTS
  6
Continuous
 62
     0
100
AcDbPoint
 10
181.4999999999999
 20
-22.5
 30
0.0
  0
POINT
  5
7938
330
74CA
100
AcDbEntity
  8
DEFPOINTS
  6
Continuous
 62
     0
100
AcDbPoint
 10
185.5
 20
-25.0
 30
0.0
  0
POINT
  5
7939
330
74CA
100
AcDbEntity
  8
DEFPOINTS
  6
Continuous
 62
     0
100
AcDbPoint
 10
185.5
 20
-120.0
 30
0.0
  0
ENDBLK
  5
74D6
330
74CA
100
AcDbEntity
  8
0
100
AcDbBlockEnd
  0
BLOCK
  5
74E1
330
74D7
100
AcDbEntity
  8
0
100
AcDbBlockBegin
  2
*D48
 70
     1
 10
0.0
 20
0.0
 30
0.0
  3
*D48
  1

  0
LINE
  5
798B
330
74D7
100
AcDbEntity
  8
30
  6
Continuous
 62
     0
370
    -2
100
AcDbLine
 10
192.0
 20
-52.00000000000006
 30
0.0
 11
192.0
 21
-110.4999999999999
 31
0.0
  0
LINE
  5
798C
330
74D7
100
AcDbEntity
  8
30
  6
Continuous
 62
     0
370
    -2
100
AcDbLine
 10
260.0
 20
-83.49999999999999
 30
0.0
 11
260.0
 21
-110.4999999999999
 31
0.0
  0
LINE
  5
798D
330
74D7
100
AcDbEntity
  8
30
  6
Continuous
 62
     0
370
    -2
100
AcDbLine
 10
194.0
 20
-110.0
 30
0.0
 11
258.0
 21
-110.0
 31
0.0
  0
INSERT
  5
798E
330
74D7
100
AcDbEntity
  8
30
  6
Continuous
 62
     0
370
    -2
100
AcDbBlockReference
  2
_OPEN
 10
192.0
 20
-110.0
 30
0.0
 41
2.0
 42
2.0
 43
2.0
 50
180.0
  0
INSERT
  5
798F
330
74D7
100
AcDbEntity
  8
30
  6
Continuous
 62
     0
370
    -2
100
AcDbBlockReference
  2
_OPEN
 10
260.0
 20
-110.0
 30
0.0
 41
2.0
 42
2.0
 43
2.0
  0
MTEXT
  5
7990
330
74D7
100
AcDbEntity
  8
30
  6
Continuous
 62
     0
100
AcDbMText
 10
226.0
 20
-107.0
 30
0.0
 40
4.0
 41
0.0
 71
     5
 72
     1
  1
\A1;68
 73
     1
 44
1.0
  0
POINT
  5
7991
330
74D7
100
AcDbEntity
  8
DEFPOINTS
  6
Continuous
 62
     0
100
AcDbPoint
 10
192.0
 20
-51.00000000000005
 30
0.0
  0
POINT
  5
7992
330
74D7
100
AcDbEntity
  8
DEFPOINTS
  6
Continuous
 62
     0
100
AcDbPoint
 10
260.0
 20
-82.5
 30
0.0
  0
POINT
  5
7993
330
74D7
100
AcDbEntity
  8
DEFPOINTS
  6
Continuous
 62
     0
100
AcDbPoint
 10
260.0
 20
-110.0
 30
0.0
  0
ENDBLK
  5
74E2
330
74D7
100
AcDbEntity
  8
0
100
AcDbBlockEnd
  0
BLOCK
  5
74ED
330
74E3
100
AcDbEntity
  8
0
100
AcDbBlockBegin
  2
*D49
 70
     1
 10
0.0
 20
0.0
 30
0.0
  3
*D49
  1

  0
LINE
  5
793A
330
74E3
100
AcDbEntity
  8
30
  6
Continuous
 62
     0
370
    -2
100
AcDbLine
 10
165.0
 20
-1.0
 30
0.0
 11
165.0
 21
-130.4999999999999
 31
0.0
  0
LINE
  5
793B
330
74E3
100
AcDbEntity
  8
30
  6
Continuous
 62
     0
370
    -2
100
AcDbLine
 10
260.0
 20
-83.49999999999999
 30
0.0
 11
260.0
 21
-130.4999999999999
 31
0.0
  0
LINE
  5
793C
330
74E3
100
AcDbEntity
  8
30
  6
Continuous
 62
     0
370
    -2
100
AcDbLine
 10
167.0
 20
-130.0
 30
0.0
 11
258.0
 21
-130.0
 31
0.0
  0
INSERT
  5
793D
330
74E3
100
AcDbEntity
  8
30
  6
Continuous
 62
     0
370
    -2
100
AcDbBlockReference
  2
_OPEN
 10
165.0
 20
-130.0
 30
0.0
 41
2.0
 42
2.0
 43
2.0
 50
180.0
  0
INSERT
  5
793E
330
74E3
100
AcDbEntity
  8
30
  6
Continuous
 62
     0
370
    -2
100
AcDbBlockReference
  2
_OPEN
 10
260.0
 20
-130.0
 30
0.0
 41
2.0
 42
2.0
 43
2.0
  0
MTEXT
  5
793F
330
74E3
100
AcDbEntity
  8
30
  6
Continuous
 62
     0
100
AcDbMText
 10
212.5
 20
-127.0
 30
0.0
 40
4.0
 41
0.0
 71
     5
 72
     1
  1
\A1;95
 73
     1
 44
1.0
  0
POINT
  5
7940
330
74E3
100
AcDbEntity
  8
DEFPOINTS
  6
Continuous
 62
     0
100
AcDbPoint
 10
165.0
 20
0.0
 30
0.0
  0
POINT
  5
7941
330
74E3
100
AcDbEntity
  8
DEFPOINTS
  6
Continuous
 62
     0
100
AcDbPoint
 10
260.0
 20
-82.5
 30
0.0
  0
POINT
  5
7942
330
74E3
100
AcDbEntity
  8
DEFPOINTS
  6
Continuous
 62
     0
100
AcDbPoint
 10
260.0
 20
-130.0
 30
0.0
  0
ENDBLK
  5
74EE
330
74E3
100
AcDbEntity
  8
0
100
AcDbBlockEnd
  0
BLOCK
  5
74F9
330
74EF
100
AcDbEntity
  8
0
100
AcDbBlockBegin
  2
*D50
 70
     1
 10
0.0
 20
0.0
 30
0.0
  3
*D50
  1

  0
LINE
  5
7970
330
74EF
100
AcDbEntity
  8
30
  6
Continuous
 62
     0
370
    -2
100
AcDbLine
 10
185.5
 20
-26.0
 30
0.0
 11
185.5
 21
-120.5
 31
0.0
  0
LINE
  5
7971
330
74EF
100
AcDbEntity
  8
30
  6
Continuous
 62
     0
370
    -2
100
AcDbLine
 10
260.0
 20
-83.49999999999999
 30
0.0
 11
260.0
 21
-120.5
 31
0.0
  0
LINE
  5
7972
330
74EF
100
AcDbEntity
  8
30
  6
Continuous
 62
     0
370
    -2
100
AcDbLine
 10
187.5
 20
-120.0
 30
0.0
 11
258.0
 21
-120.0
 31
0.0
  0
INSERT
  5
7973
330
74EF
100
AcDbEntity
  8
30
  6
Continuous
 62
     0
370
    -2
100
AcDbBlockReference
  2
_OPEN
 10
185.5
 20
-120.0
 30
0.0
 41
2.0
 42
2.0
 43
2.0
 50
180.0
  0
INSERT
  5
7974
330
74EF
100
AcDbEntity
  8
30
  6
Continuous
 62
     0
370
    -2
100
AcDbBlockReference
  2
_OPEN
 10
260.0
 20
-120.0
 30
0.0
 41
2.0
 42
2.0
 43
2.0
  0
MTEXT
  5
7975
330
74EF
100
AcDbEntity
  8
30
  6
Continuous
 62
     0
100
AcDbMText
 10
222.75
 20
-117.0
 30
0.0
 40
4.0
 41
0.0
 71
     5
 72
     1
  1
\A1;74.5
 73
     1
 44
1.0
  0
POINT
  5
7976
330
74EF
100
AcDbEntity
  8
DEFPOINTS
  6
Continuous
 62
     0
100
AcDbPoint
 10
185.5
 20
-25.0
 30
0.0
  0
POINT
  5
7977
330
74EF
100
AcDbEntity
  8
DEFPOINTS
  6
Continuous
 62
     0
100
AcDbPoint
 10
260.0
 20
-82.5
 30
0.0
  0
POINT
  5
7978
330
74EF
100
AcDbEntity
  8
DEFPOINTS
  6
Continuous
 62
     0
100
AcDbPoint
 10
260.0
 20
-120.0
 30
0.0
  0
ENDBLK
  5
74FA
330
74EF
100
AcDbEntity
  8
0
100
AcDbBlockEnd
  0
BLOCK
  5
7505
330
74FB
100
AcDbEntity
  8
0
100
AcDbBlockBegin
  2
*D51
 70
     1
 10
0.0
 20
0.0
 30
0.0
  3
*D51
  1

  0
LINE
  5
7982
330
74FB
100
AcDbEntity
  8
30
  6
Continuous
 62
     0
370
    -2
100
AcDbLine
 10
200.0
 20
-83.49999999999999
 30
0.0
 11
200.0
 21
-100.5
 31
0.0
  0
LINE
  5
7983
330
74FB
100
AcDbEntity
  8
30
  6
Continuous
 62
     0
370
    -2
100
AcDbLine
 10
260.0
 20
-83.49999999999999
 30
0.0
 11
260.0
 21
-100.5
 31
0.0
  0
LINE
  5
7984
330
74FB
100
AcDbEntity
  8
30
  6
Continuous
 62
     0
370
    -2
100
AcDbLine
 10
202.0
 20
-100.0
 30
0.0
 11
258.0
 21
-100.0
 31
0.0
  0
INSERT
  5
7985
330
74FB
100
AcDbEntity
  8
30
  6
Continuous
 62
     0
370
    -2
100
AcDbBlockReference
  2
_OPEN
 10
200.0
 20
-100.0
 30
0.0
 41
2.0
 42
2.0
 43
2.0
 50
180.0
  0
INSERT
  5
7986
330
74FB
100
AcDbEntity
  8
30
  6
Continuous
 62
     0
370
    -2
100
AcDbBlockReference
  2
_OPEN
 10
260.0
 20
-100.0
 30
0.0
 41
2.0
 42
2.0
 43
2.0
  0
MTEXT
  5
7987
330
74FB
100
AcDbEntity
  8
30
  6
Continuous
 62
     0
100
AcDbMText
 10
230.0
 20
-97.0
 30
0.0
 40
4.0
 41
0.0
 71
     5
 72
     1
  1
\A1;60
 73
     1
 44
1.0
  0
POINT
  5
7988
330
74FB
100
AcDbEntity
  8
DEFPOINTS
  6
Continuous
 62
     0
100
AcDbPoint
 10
200.0
 20
-82.5
 30
0.0
  0
POINT
  5
7989
330
74FB
100
AcDbEntity
  8
DEFPOINTS
  6
Continuous
 62
     0
100
AcDbPoint
 10
260.0
 20
-82.5
 30
0.0
  0
POINT
  5
798A
330
74FB
100
AcDbEntity
  8
DEFPOINTS
  6
Continuous
 62
     0
100
AcDbPoint
 10
260.0
 20
-100.0
 30
0.0
  0
ENDBLK
  5
7506
330
74FB
100
AcDbEntity
  8
0
100
AcDbBlockEnd
  0
BLOCK
  5
7636
330
762C
100
AcDbEntity
  8
0
100
AcDbBlockBegin
  2
*D52
 70
     1
 10
0.0
 20
0.0
 30
0.0
  3
*D52
  1

  0
LINE
  5
7955
330
762C
100
AcDbEntity
  8
30
  6
Continuous
 62
     0
370
    -2
100
AcDbLine
 10
180.4999999999999
 20
22.5
 30
0.0
 11
149.5
 21
22.50000000000001
 31
0.0
  0
LINE
  5
7956
330
762C
100
AcDbEntity
  8
30
  6
Continuous
 62
     0
370
    -2
100
AcDbLine
 10
180.4999999999999
 20
-22.5
 30
0.0
 11
149.5
 21
-22.49999999999999
 31
0.0
  0
LINE
  5
7957
330
762C
100
AcDbEntity
  8
30
  6
Continuous
 62
     0
370
    -2
100
AcDbLine
 10
150.0
 20
20.50000000000001
 30
0.0
 11
150.0
 21
-20.49999999999998
 31
0.0
  0
INSERT
  5
7958
330
762C
100
AcDbEntity
  8
30
  6
Continuous
 62
     0
370
    -2
100
AcDbBlockReference
  2
_OPEN
 10
150.0
 20
22.50000000000001
 30
0.0
 41
2.0
 42
2.0
 43
2.0
 50
90.0
  0
INSERT
  5
7959
330
762C
100
AcDbEntity
  8
30
  6
Continuous
 62
     0
370
    -2
100
AcDbBlockReference
  2
_OPEN
 10
150.0
 20
-22.49999999999999
 30
0.0
 41
2.0
 42
2.0
 43
2.0
 50
270.0
  0
MTEXT
  5
795A
330
762C
100
AcDbEntity
  8
30
  6
Continuous
 62
     0
100
AcDbMText
 10
147.0
 20
0.0000000000000338
 30
0.0
 40
4.0
 41
0.0
 71
     5
 72
     1
  1
\A1;45
 11
0.0000000000000001
 21
1.0
 31
0.0
 73
     1
 44
1.0
  0
POINT
  5
795B
330
762C
100
AcDbEntity
  8
DEFPOINTS
  6
Continuous
 62
     0
100
AcDbPoint
 10
181.4999999999999
 20
22.5
 30
0.0
  0
POINT
  5
795C
330
762C
100
AcDbEntity
  8
DEFPOINTS
  6
Continuous
 62
     0
100
AcDbPoint
 10
181.4999999999999
 20
-22.5
 30
0.0
  0
POINT
  5
795D
330
762C
100
AcDbEntity
  8
DEFPOINTS
  6
Continuous
 62
     0
100
AcDbPoint
 10
150.0
 20
-22.49999999999999
 30
0.0
  0
ENDBLK
  5
7637
330
762C
100
AcDbEntity
  8
0
100
AcDbBlockEnd
  0
BLOCK
  5
7671
330
7668
100
AcDbEntity
  8
0
100
AcDbBlockBegin
  2
*D53
 70
     1
 10
0.0
 20
0.0
 30
0.0
  3
*D53
  1

  0
LINE
  5
7748
330
7668
100
AcDbEntity
  8
30
  6
Continuous
 62
     0
370
    -2
100
AcDbLine
 10
269.4290315443382
 20
-222.1320292601963
 30
0.0
 11
263.0956982110049
 21
-222.1320292601963
 31
0.0
  0
LINE
  5
7749
330
7668
100
AcDbEntity
  8
30
  6
Continuous
 62
     0
370
    -2
100
AcDbLine
 10
263.0956982110049
 20
-222.1320292601963
 30
0.0
 11
261.4574189266029
 21
-223.2792175561178
 31
0.0
  0
MTEXT
  5
774A
330
7668
100
AcDbEntity
  8
30
  6
Continuous
 62
     0
100
AcDbMText
 10
266.7623648776715
 20
-219.1320292601963
 30
0.0
 40
4.0
 41
0.0
 71
     5
 72
     1
  1
\A1;R1
 73
     1
 44
1.0
  0
INSERT
  5
774B
330
7668
100
AcDbEntity
  8
30
  6
Continuous
 62
     0
370
    -2
100
AcDbBlockReference
  2
_OPEN
 10
259.8191396422009
 20
-224.4264058520393
 30
0.0
 41
2.0
 42
2.0
 43
2.0
 50
215.0012388520228
  0
LINE
  5
774C
330
7668
100
AcDbEntity
  8
30
  6
Continuous
 62
     0
370
    -2
100
AcDbLine
 10
258.9100000000002
 20
-224.9999999999999
 30
0.0
 11
259.0900000000001
 21
-225.0
 31
0.0
  0
LINE
  5
774D
330
7668
100
AcDbEntity
  8
30
  6
Continuous
 62
     0
370
    -2
100
AcDbLine
 10
259.0000000000002
 20
-225.0899999999999
 30
0.0
 11
259.0000000000002
 21
-224.9099999999999
 31
0.0
  0
POINT
  5
774E
330
7668
100
AcDbEntity
  8
DEFPOINTS
  6
Continuous
 62
     0
100
AcDbPoint
 10
259.8191396422009
 20
-224.4264058520393
 30
0.0
  0
POINT
  5
774F
330
7668
100
AcDbEntity
  8
DEFPOINTS
  6
Continuous
 62
     0
100
AcDbPoint
 10
259.0000000000002
 20
-225.0
 30
0.0
  0
ENDBLK
  5
7672
330
7668
100
AcDbEntity
  8
0
100
AcDbBlockEnd
  0
BLOCK
  5
767D
330
7673
100
AcDbEntity
  8
0
100
AcDbBlockBegin
  2
*D54
 70
     1
 10
0.0
 20
0.0
 30
0.0
  3
*D54
  1

  0
LINE
  5
7736
330
7673
100
AcDbEntity
  8
30
  6
Continuous
 62
     0
370
    -2
100
AcDbLine
 10
260.0
 20
-224.0000000000001
 30
0.0
 11
280.5
 21
-224.0000000000001
 31
0.0
  0
LINE
  5
7737
330
7673
100
AcDbEntity
  8
30
  6
Continuous
 62
     0
370
    -2
100
AcDbLine
 10
260.0
 20
-276.0000000000004
 30
0.0
 11
280.5
 21
-276.0000000000004
 31
0.0
  0
LINE
  5
7738
330
7673
100
AcDbEntity
  8
30
  6
Continuous
 62
     0
370
    -2
100
AcDbLine
 10
280.0
 20
-226.0000000000001
 30
0.0
 11
280.0
 21
-274.0000000000004
 31
0.0
  0
INSERT
  5
7739
330
7673
100
AcDbEntity
  8
30
  6
Continuous
 62
     0
370
    -2
100
AcDbBlockReference
  2
_OPEN
 10
280.0
 20
-224.0000000000001
 30
0.0
 41
2.0
 42
2.0
 43
2.0
 50
90.0
  0
INSERT
  5
773A
330
7673
100
AcDbEntity
  8
30
  6
Continuous
 62
     0
370
    -2
100
AcDbBlockReference
  2
_OPEN
 10
280.0
 20
-276.0000000000004
 30
0.0
 41
2.0
 42
2.0
 43
2.0
 50
270.0
  0
MTEXT
  5
773B
330
7673
100
AcDbEntity
  8
30
  6
Continuous
 62
     0
100
AcDbMText
 10
277.0
 20
-250.0000000000002
 30
0.0
 40
4.0
 41
0.0
 71
     5
 72
     1
  1
\A1;52
 11
0.0000000000000001
 21
1.0
 31
0.0
 73
     1
 44
1.0
  0
POINT
  5
773C
330
7673
100
AcDbEntity
  8
DEFPOINTS
  6
Continuous
 62
     0
100
AcDbPoint
 10
259.0
 20
-224.0000000000001
 30
0.0
  0
POINT
  5
773D
330
7673
100
AcDbEntity
  8
DEFPOINTS
  6
Continuous
 62
     0
100
AcDbPoint
 10
259.0
 20
-276.0000000000004
 30
0.0
  0
POINT
  5
773E
330
7673
100
AcDbEntity
  8
DEFPOINTS
  6
Continuous
 62
     0
100
AcDbPoint
 10
280.0
 20
-276.0000000000004
 30
0.0
  0
ENDBLK
  5
767E
330
7673
100
AcDbEntity
  8
0
100
AcDbBlockEnd
  0
BLOCK
  5
7689
330
767F
100
AcDbEntity
  8
0
100
AcDbBlockBegin
  2
*D55
 70
     1
 10
0.0
 20
0.0
 30
0.0
  3
*D55
  1

  0
LINE
  5
773F
330
767F
100
AcDbEntity
  8
30
  6
Continuous
 62
     0
370
    -2
100
AcDbLine
 10
159.9999999999998
 20
-276.0000000000004
 30
0.0
 11
159.9999999999998
 21
-350.4999999999999
 31
0.0
  0
LINE
  5
7740
330
767F
100
AcDbEntity
  8
30
  6
Continuous
 62
     0
370
    -2
100
AcDbLine
 10
260.0
 20
-276.0000000000004
 30
0.0
 11
260.0
 21
-350.4999999999999
 31
0.0
  0
LINE
  5
7741
330
767F
100
AcDbEntity
  8
30
  6
Continuous
 62
     0
370
    -2
100
AcDbLine
 10
161.9999999999999
 20
-350.0
 30
0.0
 11
258.0
 21
-350.0
 31
0.0
  0
INSERT
  5
7742
330
767F
100
AcDbEntity
  8
30
  6
Continuous
 62
     0
370
    -2
100
AcDbBlockReference
  2
_OPEN
 10
159.9999999999998
 20
-350.0
 30
0.0
 41
2.0
 42
2.0
 43
2.0
 50
180.0
  0
INSERT
  5
7743
330
767F
100
AcDbEntity
  8
30
  6
Continuous
 62
     0
370
    -2
100
AcDbBlockReference
  2
_OPEN
 10
260.0
 20
-350.0
 30
0.0
 41
2.0
 42
2.0
 43
2.0
  0
MTEXT
  5
7744
330
767F
100
AcDbEntity
  8
30
  6
Continuous
 62
     0
100
AcDbMText
 10
209.9999999999999
 20
-347.0
 30
0.0
 40
4.0
 41
0.0
 71
     5
 72
     1
  1
\A1;100
 73
     1
 44
1.0
  0
POINT
  5
7745
330
767F
100
AcDbEntity
  8
DEFPOINTS
  6
Continuous
 62
     0
100
AcDbPoint
 10
159.9999999999998
 20
-275.0000000000004
 30
0.0
  0
POINT
  5
7746
330
767F
100
AcDbEntity
  8
DEFPOINTS
  6
Continuous
 62
     0
100
AcDbPoint
 10
260.0
 20
-275.0000000000004
 30
0.0
  0
POINT
  5
7747
330
767F
100
AcDbEntity
  8
DEFPOINTS
  6
Continuous
 62
     0
100
AcDbPoint
 10
260.0
 20
-350.0
 30
0.0
  0
ENDBLK
  5
768A
330
767F
100
AcDbEntity
  8
0
100
AcDbBlockEnd
  0
BLOCK
  5
76E1
330
76D7
100
AcDbEntity
  8
0
100
AcDbBlockBegin
  2
*D56
 70
     1
 10
0.0
 20
0.0
 30
0.0
  3
*D56
  1

  0
LINE
  5
777C
330
76D7
100
AcDbEntity
  8
30
  6
Continuous
 62
     0
370
    -2
100
AcDbLine
 10
-17.5
 20
-193.5
 30
0.0
 11
-17.50000000000001
 21
-350.4999999999999
 31
0.0
  0
LINE
  5
777D
330
76D7
100
AcDbEntity
  8
30
  6
Continuous
 62
     0
370
    -2
100
AcDbLine
 10
17.5
 20
-316.5000000164998
 30
0.0
 11
17.49999999999999
 21
-350.4999999999999
 31
0.0
  0
LINE
  5
777E
330
76D7
100
AcDbEntity
  8
30
  6
Continuous
 62
     0
370
    -2
100
AcDbLine
 10
-15.50000000000001
 20
-350.0
 30
0.0
 11
15.49999999999999
 21
-350.0
 31
0.0
  0
INSERT
  5
777F
330
76D7
100
AcDbEntity
  8
30
  6
Continuous
 62
     0
370
    -2
100
AcDbBlockReference
  2
_OPEN
 10
-17.50000000000001
 20
-350.0
 30
0.0
 41
2.0
 42
2.0
 43
2.0
 50
180.0
  0
INSERT
  5
7780
330
76D7
100
AcDbEntity
  8
30
  6
Continuous
 62
     0
370
    -2
100
AcDbBlockReference
  2
_OPEN
 10
17.49999999999999
 20
-350.0
 30
0.0
 41
2.0
 42
2.0
 43
2.0
  0
MTEXT
  5
7781
330
76D7
100
AcDbEntity
  8
30
  6
Continuous
 62
     0
100
AcDbMText
 10
-0.0000000000000069
 20
-347.0
 30
0.0
 40
4.0
 41
0.0
 71
     5
 72
     1
  1
\A1;35
 73
     1
 44
1.0
  0
POINT
  5
7782
330
76D7
100
AcDbEntity
  8
DEFPOINTS
  6
Continuous
 62
     0
100
AcDbPoint
 10
-17.5
 20
-192.5
 30
0.0
  0
POINT
  5
7783
330
76D7
100
AcDbEntity
  8
DEFPOINTS
  6
Continuous
 62
     0
100
AcDbPoint
 10
17.5
 20
-315.5000000164998
 30
0.0
  0
POINT
  5
7784
330
76D7
100
AcDbEntity
  8
DEFPOINTS
  6
Continuous
 62
     0
100
AcDbPoint
 10
17.49999999999999
 20
-350.0
 30
0.0
  0
ENDBLK
  5
76E2
330
76D7
100
AcDbEntity
  8
0
100
AcDbBlockEnd
  0
BLOCK
  5
76ED
330
76E3
100
AcDbEntity
  8
0
100
AcDbBlockBegin
  2
*D57
 70
     1
 10
0.0
 20
0.0
 30
0.0
  3
*D57
  1

  0
LINE
  5
7785
330
76E3
100
AcDbEntity
  8
30
  6
Continuous
 62
     0
370
    -2
100
AcDbLine
 10
-11.0
 20
-186.9999999999999
 30
0.0
 11
70.50000000000003
 21
-186.9999999999999
 31
0.0
  0
LINE
  5
7786
330
76E3
100
AcDbEntity
  8
30
  6
Continuous
 62
     0
370
    -2
100
AcDbLine
 10
24.0
 20
-312.9999999999999
 30
0.0
 11
70.5
 21
-312.9999999999999
 31
0.0
  0
LINE
  5
7787
330
76E3
100
AcDbEntity
  8
30
  6
Continuous
 62
     0
370
    -2
100
AcDbLine
 10
70.00000000000003
 20
-188.9999999999999
 30
0.0
 11
70.0
 21
-310.9999999999998
 31
0.0
  0
INSERT
  5
7788
330
76E3
100
AcDbEntity
  8
30
  6
Continuous
 62
     0
370
    -2
100
AcDbBlockReference
  2
_OPEN
 10
70.00000000000003
 20
-186.9999999999999
 30
0.0
 41
2.0
 42
2.0
 43
2.0
 50
90.0
  0
INSERT
  5
7789
330
76E3
100
AcDbEntity
  8
30
  6
Continuous
 62
     0
370
    -2
100
AcDbBlockReference
  2
_OPEN
 10
70.0
 20
-312.9999999999999
 30
0.0
 41
2.0
 42
2.0
 43
2.0
 50
270.0
  0
MTEXT
  5
778A
330
76E3
100
AcDbEntity
  8
30
  6
Continuous
 62
     0
100
AcDbMText
 10
67.00000000000006
 20
-249.9999999999999
 30
0.0
 40
4.0
 41
0.0
 71
     5
 72
     1
  1
\A1;126
 11
0.0000000000000001
 21
1.0
 31
0.0
 73
     1
 44
1.0
  0
POINT
  5
778B
330
76E3
100
AcDbEntity
  8
DEFPOINTS
  6
Continuous
 62
     0
100
AcDbPoint
 10
-12.0
 20
-186.9999999999999
 30
0.0
  0
POINT
  5
778C
330
76E3
100
AcDbEntity
  8
DEFPOINTS
  6
Continuous
 62
     0
100
AcDbPoint
 10
23.0
 20
-312.9999999999999
 30
0.0
  0
POINT
  5
778D
330
76E3
100
AcDbEntity
  8
DEFPOINTS
  6
Continuous
 62
     0
100
AcDbPoint
 10
70.0
 20
-312.9999999999999
 30
0.0
  0
ENDBLK
  5
76EE
330
76E3
100
AcDbEntity
  8
0
100
AcDbBlockEnd
  0
BLOCK
  5
79EA
330
79E0
100
AcDbEntity
  8
0
100
AcDbBlockBegin
  2
*D58
 70
     1
 10
0.0
 20
0.0
 30
0.0
  3
*D58
  1

  0
LINE
  5
7B5B
330
79E0
100
AcDbEntity
  8
30
  6
Continuous
 62
     0
370
    -2
100
AcDbLine
 10
591.0
 20
185.0
 30
0.0
 11
610.5
 21
185.0
 31
0.0
  0
LINE
  5
7B5C
330
79E0
100
AcDbEntity
  8
30
  6
Continuous
 62
     0
370
    -2
100
AcDbLine
 10
591.0
 20
210.0
 30
0.0
 11
610.5
 21
210.0
 31
0.0
  0
LINE
  5
7B5D
330
79E0
100
AcDbEntity
  8
30
  6
Continuous
 62
     0
370
    -2
100
AcDbLine
 10
610.0
 20
187.0
 30
0.0
 11
610.0
 21
208.0
 31
0.0
  0
INSERT
  5
7B5E
330
79E0
100
AcDbEntity
  8
30
  6
Continuous
 62
     0
370
    -2
100
AcDbBlockReference
  2
_OPEN
 10
610.0
 20
185.0
 30
0.0
 41
2.0
 42
2.0
 43
2.0
 50
270.0
  0
INSERT
  5
7B5F
330
79E0
100
AcDbEntity
  8
30
  6
Continuous
 62
     0
370
    -2
100
AcDbBlockReference
  2
_OPEN
 10
610.0
 20
210.0
 30
0.0
 41
2.0
 42
2.0
 43
2.0
 50
90.0
  0
MTEXT
  5
7B60
330
79E0
100
AcDbEntity
  8
30
  6
Continuous
 62
     0
100
AcDbMText
 10
607.0
 20
197.5000000000001
 30
0.0
 40
4.0
 41
0.0
 71
     5
 72
     1
  1
\A1;25
 11
0.0000000000000001
 21
1.0
 31
0.0
 73
     1
 44
1.0
  0
POINT
  5
7B61
330
79E0
100
AcDbEntity
  8
DEFPOINTS
  6
Continuous
 62
     0
100
AcDbPoint
 10
590.0
 20
185.0
 30
0.0
  0
POINT
  5
7B62
330
79E0
100
AcDbEntity
  8
DEFPOINTS
  6
Continuous
 62
     0
100
AcDbPoint
 10
590.0
 20
210.0
 30
0.0
  0
POINT
  5
7B63
330
79E0
100
AcDbEntity
  8
DEFPOINTS
  6
Continuous
 62
     0
100
AcDbPoint
 10
610.0
 20
210.0
 30
0.0
  0
ENDBLK
  5
79EB
330
79E0
100
AcDbEntity
  8
0
100
AcDbBlockEnd
  0
BLOCK
  5
79F6
330
79EC
100
AcDbEntity
  8
0
100
AcDbBlockBegin
  2
*D59
 70
     1
 10
0.0
 20
0.0
 30
0.0
  3
*D59
  1

  0
LINE
  5
7AF5
330
79EC
100
AcDbEntity
  8
30
  6
Continuous
 62
     0
370
    -2
100
AcDbLine
 10
590.0
 20
211.0
 30
0.0
 11
590.0
 21
225.4999999999999
 31
0.0
  0
LINE
  5
7AF6
330
79EC
100
AcDbEntity
  8
30
  6
Continuous
 62
     0
370
    -2
100
AcDbLine
 10
579.0
 20
204.7499999999999
 30
0.0
 11
579.0
 21
225.4999999999999
 31
0.0
  0
LINE
  5
7AF7
330
79EC
100
AcDbEntity
  8
30
  6
Continuous
 62
     0
370
    -2
100
AcDbLine
 10
588.0
 20
225.0
 30
0.0
 11
581.0
 21
225.0
 31
0.0
  0
INSERT
  5
7AF8
330
79EC
100
AcDbEntity
  8
30
  6
Continuous
 62
     0
370
    -2
100
AcDbBlockReference
  2
_OPEN
 10
590.0
 20
225.0
 30
0.0
 41
2.0
 42
2.0
 43
2.0
  0
INSERT
  5
7AF9
330
79EC
100
AcDbEntity
  8
30
  6
Continuous
 62
     0
370
    -2
100
AcDbBlockReference
  2
_OPEN
 10
579.0
 20
225.0
 30
0.0
 41
2.0
 42
2.0
 43
2.0
 50
180.0
  0
MTEXT
  5
7AFA
330
79EC
100
AcDbEntity
  8
30
  6
Continuous
 62
     0
100
AcDbMText
 10
584.4999999999999
 20
228.0
 30
0.0
 40
4.0
 41
0.0
 71
     5
 72
     1
  1
\A1;11
 73
     1
 44
1.0
  0
POINT
  5
7AFB
330
79EC
100
AcDbEntity
  8
DEFPOINTS
  6
Continuous
 62
     0
100
AcDbPoint
 10
590.0
 20
210.0
 30
0.0
  0
POINT
  5
7AFC
330
79EC
100
AcDbEntity
  8
DEFPOINTS
  6
Continuous
 62
     0
100
AcDbPoint
 10
579.0
 20
203.75
 30
0.0
  0
POINT
  5
7AFD
330
79EC
100
AcDbEntity
  8
DEFPOINTS
  6
Continuous
 62
     0
100
AcDbPoint
 10
579.0
 20
225.0
 30
0.0
  0
ENDBLK
  5
79F7
330
79EC
100
AcDbEntity
  8
0
100
AcDbBlockEnd
  0
BLOCK
  5
7A02
330
79F8
100
AcDbEntity
  8
0
100
AcDbBlockBegin
  2
*D60
 70
     1
 10
0.0
 20
0.0
 30
0.0
  3
*D60
  1

  0
LINE
  5
7B79
330
79F8
100
AcDbEntity
  8
30
  6
Continuous
 62
     0
370
    -2
100
AcDbLine
 10
431.0
 20
205.0
 30
0.0
 11
560.4999999999998
 21
204.9999999999999
 31
0.0
  0
LINE
  5
7B7A
330
79F8
100
AcDbEntity
  8
30
  6
Continuous
 62
     0
370
    -2
100
AcDbLine
 10
513.4999999999999
 20
300.0
 30
0.0
 11
560.5
 21
300.0
 31
0.0
  0
LINE
  5
7B7B
330
79F8
100
AcDbEntity
  8
30
  6
Continuous
 62
     0
370
    -2
100
AcDbLine
 10
559.9999999999998
 20
206.9999999999999
 30
0.0
 11
560.0
 21
298.0
 31
0.0
  0
INSERT
  5
7B7C
330
79F8
100
AcDbEntity
  8
30
  6
Continuous
 62
     0
370
    -2
100
AcDbBlockReference
  2
_OPEN
 10
559.9999999999998
 20
204.9999999999999
 30
0.0
 41
2.0
 42
2.0
 43
2.0
 50
270.0
  0
INSERT
  5
7B7D
330
79F8
100
AcDbEntity
  8
30
  6
Continuous
 62
     0
370
    -2
100
AcDbBlockReference
  2
_OPEN
 10
560.0
 20
300.0
 30
0.0
 41
2.0
 42
2.0
 43
2.0
 50
90.0
  0
MTEXT
  5
7B7E
330
79F8
100
AcDbEntity
  8
30
  6
Continuous
 62
     0
100
AcDbMText
 10
556.9999999999999
 20
252.5
 30
0.0
 40
4.0
 41
0.0
 71
     5
 72
     1
  1
\A1;95
 11
0.0000000000000001
 21
1.0
 31
0.0
 73
     1
 44
1.0
  0
POINT
  5
7B7F
330
79F8
100
AcDbEntity
  8
DEFPOINTS
  6
Continuous
 62
     0
100
AcDbPoint
 10
430.0
 20
205.0
 30
0.0
  0
POINT
  5
7B80
330
79F8
100
AcDbEntity
  8
DEFPOINTS
  6
Continuous
 62
     0
100
AcDbPoint
 10
512.5
 20
300.0
 30
0.0
  0
POINT
  5
7B81
330
79F8
100
AcDbEntity
  8
DEFPOINTS
  6
Continuous
 62
     0
100
AcDbPoint
 10
560.0
 20
300.0
 30
0.0
  0
ENDBLK
  5
7A03
330
79F8
100
AcDbEntity
  8
0
100
AcDbBlockEnd
  0
BLOCK
  5
7A0E
330
7A04
100
AcDbEntity
  8
0
100
AcDbBlockBegin
  2
*D61
 70
     1
 10
0.0
 20
0.0
 30
0.0
  3
*D61
  1

  0
LINE
  5
7BC1
330
7A04
100
AcDbEntity
  8
30
  6
Continuous
 62
     0
370
    -2
100
AcDbLine
 10
498.2499999999999
 20
254.0
 30
0.0
 11
520.4999999999999
 21
254.0
 31
0.0
  0
LINE
  5
7BC2
330
7A04
100
AcDbEntity
  8
30
  6
Continuous
 62
     0
370
    -2
100
AcDbLine
 10
513.4999999999999
 20
300.0
 30
0.0
 11
520.5
 21
300.0
 31
0.0
  0
LINE
  5
7BC3
330
7A04
100
AcDbEntity
  8
30
  6
Continuous
 62
     0
370
    -2
100
AcDbLine
 10
520.0
 20
256.0
 30
0.0
 11
520.0
 21
298.0
 31
0.0
  0
INSERT
  5
7BC4
330
7A04
100
AcDbEntity
  8
30
  6
Continuous
 62
     0
370
    -2
100
AcDbBlockReference
  2
_OPEN
 10
519.9999999999999
 20
254.0
 30
0.0
 41
2.0
 42
2.0
 43
2.0
 50
270.0
  0
INSERT
  5
7BC5
330
7A04
100
AcDbEntity
  8
30
  6
Continuous
 62
     0
370
    -2
100
AcDbBlockReference
  2
_OPEN
 10
520.0
 20
300.0
 30
0.0
 41
2.0
 42
2.0
 43
2.0
 50
90.0
  0
MTEXT
  5
7BC6
330
7A04
100
AcDbEntity
  8
30
  6
Continuous
 62
     0
100
AcDbMText
 10
516.9999999999999
 20
277.0
 30
0.0
 40
4.0
 41
0.0
 71
     5
 72
     1
  1
\A1;46
 11
0.0000000000000001
 21
1.0
 31
0.0
 73
     1
 44
1.0
  0
POINT
  5
7BC7
330
7A04
100
AcDbEntity
  8
DEFPOINTS
  6
Continuous
 62
     0
100
AcDbPoint
 10
497.25
 20
254.0
 30
0.0
  0
POINT
  5
7BC8
330
7A04
100
AcDbEntity
  8
DEFPOINTS
  6
Continuous
 62
     0
100
AcDbPoint
 10
512.5
 20
300.0
 30
0.0
  0
POINT
  5
7BC9
330
7A04
100
AcDbEntity
  8
DEFPOINTS
  6
Continuous
 62
     0
100
AcDbPoint
 10
520.0
 20
300.0
 30
0.0
  0
ENDBLK
  5
7A0F
330
7A04
100
AcDbEntity
  8
0
100
AcDbBlockEnd
  0
BLOCK
  5
7A1A
330
7A10
100
AcDbEntity
  8
0
100
AcDbBlockBegin
  2
*D62
 70
     1
 10
0.0
 20
0.0
 30
0.0
  3
*D62
  1

  0
LINE
  5
7B8B
330
7A10
100
AcDbEntity
  8
30
  6
Continuous
 62
     0
370
    -2
100
AcDbLine
 10
513.4999999999999
 20
240.0
 30
0.0
 11
530.4999999999998
 21
240.0
 31
0.0
  0
LINE
  5
7B8C
330
7A10
100
AcDbEntity
  8
30
  6
Continuous
 62
     0
370
    -2
100
AcDbLine
 10
513.4999999999999
 20
300.0
 30
0.0
 11
530.4999999999999
 21
300.0
 31
0.0
  0
LINE
  5
7B8D
330
7A10
100
AcDbEntity
  8
30
  6
Continuous
 62
     0
370
    -2
100
AcDbLine
 10
529.9999999999998
 20
242.0
 30
0.0
 11
530.0
 21
298.0
 31
0.0
  0
INSERT
  5
7B8E
330
7A10
100
AcDbEntity
  8
30
  6
Continuous
 62
     0
370
    -2
100
AcDbBlockReference
  2
_OPEN
 10
529.9999999999998
 20
240.0
 30
0.0
 41
2.0
 42
2.0
 43
2.0
 50
270.0
  0
INSERT
  5
7B8F
330
7A10
100
AcDbEntity
  8
30
  6
Continuous
 62
     0
370
    -2
100
AcDbBlockReference
  2
_OPEN
 10
530.0
 20
300.0
 30
0.0
 41
2.0
 42
2.0
 43
2.0
 50
90.0
  0
MTEXT
  5
7B90
330
7A10
100
AcDbEntity
  8
30
  6
Continuous
 62
     0
100
AcDbMText
 10
526.9999999999998
 20
270.0
 30
0.0
 40
4.0
 41
0.0
 71
     5
 72
     1
  1
\A1;60
 11
0.0000000000000001
 21
1.0
 31
0.0
 73
     1
 44
1.0
  0
POINT
  5
7B91
330
7A10
100
AcDbEntity
  8
DEFPOINTS
  6
Continuous
 62
     0
100
AcDbPoint
 10
512.5
 20
240.0
 30
0.0
  0
POINT
  5
7B92
330
7A10
100
AcDbEntity
  8
DEFPOINTS
  6
Continuous
 62
     0
100
AcDbPoint
 10
512.5
 20
300.0
 30
0.0
  0
POINT
  5
7B93
330
7A10
100
AcDbEntity
  8
DEFPOINTS
  6
Continuous
 62
     0
100
AcDbPoint
 10
530.0
 20
300.0
 30
0.0
  0
ENDBLK
  5
7A1B
330
7A10
100
AcDbEntity
  8
0
100
AcDbBlockEnd
  0
BLOCK
  5
7A26
330
7A1C
100
AcDbEntity
  8
0
100
AcDbBlockBegin
  2
*D63
 70
     1
 10
0.0
 20
0.0
 30
0.0
  3
*D63
  1

  0
LINE
  5
7B94
330
7A1C
100
AcDbEntity
  8
30
  6
Continuous
 62
     0
370
    -2
100
AcDbLine
 10
456.0
 20
225.4999999999999
 30
0.0
 11
550.4999999999999
 21
225.4999999999999
 31
0.0
  0
LINE
  5
7B95
330
7A1C
100
AcDbEntity
  8
30
  6
Continuous
 62
     0
370
    -2
100
AcDbLine
 10
513.4999999999999
 20
300.0
 30
0.0
 11
550.4999999999999
 21
300.0
 31
0.0
  0
LINE
  5
7B96
330
7A1C
100
AcDbEntity
  8
30
  6
Continuous
 62
     0
370
    -2
100
AcDbLine
 10
549.9999999999999
 20
227.4999999999999
 30
0.0
 11
550.0
 21
298.0
 31
0.0
  0
INSERT
  5
7B97
330
7A1C
100
AcDbEntity
  8
30
  6
Continuous
 62
     0
370
    -2
100
AcDbBlockReference
  2
_OPEN
 10
549.9999999999999
 20
225.4999999999999
 30
0.0
 41
2.0
 42
2.0
 43
2.0
 50
270.0
  0
INSERT
  5
7B98
330
7A1C
100
AcDbEntity
  8
30
  6
Continuous
 62
     0
370
    -2
100
AcDbBlockReference
  2
_OPEN
 10
550.0
 20
300.0
 30
0.0
 41
2.0
 42
2.0
 43
2.0
 50
90.0
  0
MTEXT
  5
7B99
330
7A1C
100
AcDbEntity
  8
30
  6
Continuous
 62
     0
100
AcDbMText
 10
546.9999999999998
 20
262.75
 30
0.0
 40
4.0
 41
0.0
 71
     5
 72
     1
  1
\A1;74.5
 11
0.0000000000000001
 21
1.0
 31
0.0
 73
     1
 44
1.0
  0
POINT
  5
7B9A
330
7A1C
100
AcDbEntity
  8
DEFPOINTS
  6
Continuous
 62
     0
100
AcDbPoint
 10
455.0
 20
225.4999999999999
 30
0.0
  0
POINT
  5
7B9B
330
7A1C
100
AcDbEntity
  8
DEFPOINTS
  6
Continuous
 62
     0
100
AcDbPoint
 10
512.5
 20
300.0
 30
0.0
  0
POINT
  5
7B9C
330
7A1C
100
AcDbEntity
  8
DEFPOINTS
  6
Continuous
 62
     0
100
AcDbPoint
 10
550.0
 20
300.0
 30
0.0
  0
ENDBLK
  5
7A27
330
7A1C
100
AcDbEntity
  8
0
100
AcDbBlockEnd
  0
BLOCK
  5
7A32
330
7A28
100
AcDbEntity
  8
0
100
AcDbBlockBegin
  2
*D64
 70
     1
 10
0.0
 20
0.0
 30
0.0
  3
*D64
  1

  0
LINE
  5
7B82
330
7A28
100
AcDbEntity
  8
30
  6
Continuous
 62
     0
370
    -2
100
AcDbLine
 10
482.0000000000001
 20
232.0
 30
0.0
 11
540.4999999999999
 21
232.0
 31
0.0
  0
LINE
  5
7B83
330
7A28
100
AcDbEntity
  8
30
  6
Continuous
 62
     0
370
    -2
100
AcDbLine
 10
513.4999999999999
 20
300.0
 30
0.0
 11
540.5
 21
300.0
 31
0.0
  0
LINE
  5
7B84
330
7A28
100
AcDbEntity
  8
30
  6
Continuous
 62
     0
370
    -2
100
AcDbLine
 10
539.9999999999998
 20
234.0
 30
0.0
 11
540.0
 21
298.0
 31
0.0
  0
INSERT
  5
7B85
330
7A28
100
AcDbEntity
  8
30
  6
Continuous
 62
     0
370
    -2
100
AcDbBlockReference
  2
_OPEN
 10
539.9999999999998
 20
232.0
 30
0.0
 41
2.0
 42
2.0
 43
2.0
 50
270.0
  0
INSERT
  5
7B86
330
7A28
100
AcDbEntity
  8
30
  6
Continuous
 62
     0
370
    -2
100
AcDbBlockReference
  2
_OPEN
 10
540.0
 20
300.0
 30
0.0
 41
2.0
 42
2.0
 43
2.0
 50
90.0
  0
MTEXT
  5
7B87
330
7A28
100
AcDbEntity
  8
30
  6
Continuous
 62
     0
100
AcDbMText
 10
536.9999999999999
 20
266.0
 30
0.0
 40
4.0
 41
0.0
 71
     5
 72
     1
  1
\A1;68
 11
0.0000000000000001
 21
1.0
 31
0.0
 73
     1
 44
1.0
  0
POINT
  5
7B88
330
7A28
100
AcDbEntity
  8
DEFPOINTS
  6
Continuous
 62
     0
100
AcDbPoint
 10
481.0000000000001
 20
232.0
 30
0.0
  0
POINT
  5
7B89
330
7A28
100
AcDbEntity
  8
DEFPOINTS
  6
Continuous
 62
     0
100
AcDbPoint
 10
512.5
 20
300.0
 30
0.0
  0
POINT
  5
7B8A
330
7A28
100
AcDbEntity
  8
DEFPOINTS
  6
Continuous
 62
     0
100
AcDbPoint
 10
540.0
 20
300.0
 30
0.0
  0
ENDBLK
  5
7A33
330
7A28
100
AcDbEntity
  8
0
100
AcDbBlockEnd
  0
BLOCK
  5
7A40
330
7A34
100
AcDbEntity
  8
0
100
AcDbBlockBegin
  2
*D65
 70
     1
 10
0.0
 20
0.0
 30
0.0
  3
*D65
  1

  0
LINE
  5
7B6D
330
7A34
100
AcDbEntity
  8
30
  6
Continuous
 62
     0
370
    -2
100
AcDbLine
 10
453.5
 20
221.4999999999999
 30
0.0
 11
552.8333333333334
 21
221.4999999999999
 31
0.0
  0
LINE
  5
7B6E
330
7A34
100
AcDbEntity
  8
30
  6
Continuous
 62
     0
370
    -2
100
AcDbLine
 10
456.0
 20
225.4999999999999
 30
0.0
 11
552.8333333333334
 21
225.4999999999999
 31
0.0
  0
LINE
  5
7B6F
330
7A34
100
AcDbEntity
  8
30
  6
Continuous
 62
     0
370
    -2
100
AcDbLine
 10
552.3333333333333
 20
227.4999999999999
 30
0.0
 11
552.3333333333333
 21
229.4999999999999
 31
0.0
  0
LINE
  5
7B70
330
7A34
100
AcDbEntity
  8
30
  6
Continuous
 62
     0
370
    -2
100
AcDbLine
 10
552.3333333333333
 20
219.4999999999999
 30
0.0
 11
552.3333333333333
 21
214.4999999999999
 31
0.0
  0
LINE
  5
7B71
330
7A34
100
AcDbEntity
  8
30
  6
Continuous
 62
     0
370
    -2
100
AcDbLine
 10
552.3333333333333
 20
214.4999999999999
 30
0.0
 11
548.6666666666667
 21
214.4999999999999
 31
0.0
  0
LINE
  5
7B72
330
7A34
100
AcDbEntity
  8
30
  6
Continuous
 62
     0
370
    -2
100
AcDbLine
 10
552.3333333333333
 20
225.4999999999999
 30
0.0
 11
552.3333333333333
 21
221.4999999999999
 31
0.0
  0
INSERT
  5
7B73
330
7A34
100
AcDbEntity
  8
30
  6
Continuous
 62
     0
370
    -2
100
AcDbBlockReference
  2
_OPEN
 10
552.3333333333333
 20
225.4999999999999
 30
0.0
 41
2.0
 42
2.0
 43
2.0
 50
270.0
  0
INSERT
  5
7B74
330
7A34
100
AcDbEntity
  8
30
  6
Continuous
 62
     0
370
    -2
100
AcDbBlockReference
  2
_OPEN
 10
552.3333333333333
 20
221.4999999999999
 30
0.0
 41
2.0
 42
2.0
 43
2.0
 50
90.0
  0
MTEXT
  5
7B75
330
7A34
100
AcDbEntity
  8
30
  6
Continuous
 62
     0
100
AcDbMText
 10
550.0
 20
217.5
 30
0.0
 40
4.0
 41
0.0
 71
     5
 72
     1
  1
\A1;4
 73
     1
 44
1.0
  0
POINT
  5
7B76
330
7A34
100
AcDbEntity
  8
DEFPOINTS
  6
Continuous
 62
     0
100
AcDbPoint
 10
452.5
 20
221.4999999999999
 30
0.0
  0
POINT
  5
7B77
330
7A34
100
AcDbEntity
  8
DEFPOINTS
  6
Continuous
 62
     0
100
AcDbPoint
 10
455.0
 20
225.4999999999999
 30
0.0
  0
POINT
  5
7B78
330
7A34
100
AcDbEntity
  8
DEFPOINTS
  6
Continuous
 62
     0
100
AcDbPoint
 10
552.3333333333333
 20
225.4999999999999
 30
0.0
  0
ENDBLK
  5
7A41
330
7A34
100
AcDbEntity
  8
0
100
AcDbBlockEnd
  0
BLOCK
  5
7A4C
330
7A42
100
AcDbEntity
  8
0
100
AcDbBlockBegin
  2
*D66
 70
     1
 10
0.0
 20
0.0
 30
0.0
  3
*D66
  1

  0
LINE
  5
7BCA
330
7A42
100
AcDbEntity
  8
30
  6
Continuous
 62
     0
370
    -2
100
AcDbLine
 10
513.4999999999999
 20
300.0
 30
0.0
 11
520.5
 21
300.0
 31
0.0
  0
LINE
  5
7BCB
330
7A42
100
AcDbEntity
  8
30
  6
Continuous
 62
     0
370
    -2
100
AcDbLine
 10
496.25
 20
307.0
 30
0.0
 11
520.5
 21
307.0
 31
0.0
  0
LINE
  5
7BCC
330
7A42
100
AcDbEntity
  8
30
  6
Continuous
 62
     0
370
    -2
100
AcDbLine
 10
520.0
 20
302.0
 30
0.0
 11
520.0
 21
305.0
 31
0.0
  0
INSERT
  5
7BCD
330
7A42
100
AcDbEntity
  8
30
  6
Continuous
 62
     0
370
    -2
100
AcDbBlockReference
  2
_OPEN
 10
520.0
 20
300.0
 30
0.0
 41
2.0
 42
2.0
 43
2.0
 50
270.0
  0
INSERT
  5
7BCE
330
7A42
100
AcDbEntity
  8
30
  6
Continuous
 62
     0
370
    -2
100
AcDbBlockReference
  2
_OPEN
 10
520.0
 20
307.0
 30
0.0
 41
2.0
 42
2.0
 43
2.0
 50
90.0
  0
MTEXT
  5
7BCF
330
7A42
100
AcDbEntity
  8
30
  6
Continuous
 62
     0
100
AcDbMText
 10
516.9999999999999
 20
303.5
 30
0.0
 40
4.0
 41
0.0
 71
     5
 72
     1
  1
\A1;7
 11
0.0000000000000001
 21
1.0
 31
0.0
 73
     1
 44
1.0
  0
POINT
  5
7BD0
330
7A42
100
AcDbEntity
  8
DEFPOINTS
  6
Continuous
 62
     0
100
AcDbPoint
 10
512.5
 20
300.0
 30
0.0
  0
POINT
  5
7BD1
330
7A42
100
AcDbEntity
  8
DEFPOINTS
  6
Continuous
 62
     0
100
AcDbPoint
 10
495.2499999999999
 20
307.0
 30
0.0
  0
POINT
  5
7BD2
330
7A42
100
AcDbEntity
  8
DEFPOINTS
  6
Continuous
 62
     0
100
AcDbPoint
 10
520.0
 20
307.0
 30
0.0
  0
ENDBLK
  5
7A4D
330
7A42
100
AcDbEntity
  8
0
100
AcDbBlockEnd
  0
BLOCK
  5
7A58
330
7A4E
100
AcDbEntity
  8
0
100
AcDbBlockBegin
  2
*D67
 70
     1
 10
0.0
 20
0.0
 30
0.0
  3
*D67
  1

  0
LINE
  5
7BAF
330
7A4E
100
AcDbEntity
  8
30
  6
Continuous
 62
     0
370
    -2
100
AcDbLine
 10
405.0
 20
222.9999999999996
 30
0.0
 11
405.0
 21
179.4999999999999
 31
0.0
  0
LINE
  5
7BB0
330
7A4E
100
AcDbEntity
  8
30
  6
Continuous
 62
     0
370
    -2
100
AcDbLine
 10
455.0
 20
222.9999999999996
 30
0.0
 11
455.0
 21
179.4999999999999
 31
0.0
  0
LINE
  5
7BB1
330
7A4E
100
AcDbEntity
  8
30
  6
Continuous
 62
     0
370
    -2
100
AcDbLine
 10
407.0
 20
180.0
 30
0.0
 11
453.0
 21
180.0
 31
0.0
  0
INSERT
  5
7BB2
330
7A4E
100
AcDbEntity
  8
30
  6
Continuous
 62
     0
370
    -2
100
AcDbBlockReference
  2
_OPEN
 10
405.0
 20
180.0
 30
0.0
 41
2.0
 42
2.0
 43
2.0
 50
180.0
  0
INSERT
  5
7BB3
330
7A4E
100
AcDbEntity
  8
30
  6
Continuous
 62
     0
370
    -2
100
AcDbBlockReference
  2
_OPEN
 10
455.0
 20
180.0
 30
0.0
 41
2.0
 42
2.0
 43
2.0
  0
MTEXT
  5
7BB4
330
7A4E
100
AcDbEntity
  8
30
  6
Continuous
 62
     0
100
AcDbMText
 10
430.0
 20
183.0
 30
0.0
 40
4.0
 41
0.0
 71
     5
 72
     1
  1
\A1;50
 73
     1
 44
1.0
  0
POINT
  5
7BB5
330
7A4E
100
AcDbEntity
  8
DEFPOINTS
  6
Continuous
 62
     0
100
AcDbPoint
 10
405.0
 20
223.9999999999996
 30
0.0
  0
POINT
  5
7BB6
330
7A4E
100
AcDbEntity
  8
DEFPOINTS
  6
Continuous
 62
     0
100
AcDbPoint
 10
455.0
 20
223.9999999999996
 30
0.0
  0
POINT
  5
7BB7
330
7A4E
100
AcDbEntity
  8
DEFPOINTS
  6
Continuous
 62
     0
100
AcDbPoint
 10
455.0
 20
180.0
 30
0.0
  0
ENDBLK
  5
7A59
330
7A4E
100
AcDbEntity
  8
0
100
AcDbBlockEnd
  0
BLOCK
  5
7A64
330
7A5A
100
AcDbEntity
  8
0
100
AcDbBlockBegin
  2
*D68
 70
     1
 10
0.0
 20
0.0
 30
0.0
  3
*D68
  1

  0
LINE
  5
7B9D
330
7A5A
100
AcDbEntity
  8
30
  6
Continuous
 62
     0
370
    -2
100
AcDbLine
 10
379.0
 20
231.0
 30
0.0
 11
379.0
 21
169.5
 31
0.0
  0
LINE
  5
7B9E
330
7A5A
100
AcDbEntity
  8
30
  6
Continuous
 62
     0
370
    -2
100
AcDbLine
 10
481.0000000000001
 20
231.0
 30
0.0
 11
481.0000000000001
 21
169.5
 31
0.0
  0
LINE
  5
7B9F
330
7A5A
100
AcDbEntity
  8
30
  6
Continuous
 62
     0
370
    -2
100
AcDbLine
 10
381.0
 20
170.0
 30
0.0
 11
479.0
 21
170.0
 31
0.0
  0
INSERT
  5
7BA0
330
7A5A
100
AcDbEntity
  8
30
  6
Continuous
 62
     0
370
    -2
100
AcDbBlockReference
  2
_OPEN
 10
379.0
 20
170.0
 30
0.0
 41
2.0
 42
2.0
 43
2.0
 50
180.0
  0
INSERT
  5
7BA1
330
7A5A
100
AcDbEntity
  8
30
  6
Continuous
 62
     0
370
    -2
100
AcDbBlockReference
  2
_OPEN
 10
481.0000000000001
 20
170.0
 30
0.0
 41
2.0
 42
2.0
 43
2.0
  0
MTEXT
  5
7BA2
330
7A5A
100
AcDbEntity
  8
30
  6
Continuous
 62
     0
100
AcDbMText
 10
430.0
 20
173.0
 30
0.0
 40
4.0
 41
0.0
 71
     5
 72
     1
  1
\A1;102
 73
     1
 44
1.0
  0
POINT
  5
7BA3
330
7A5A
100
AcDbEntity
  8
DEFPOINTS
  6
Continuous
 62
     0
100
AcDbPoint
 10
379.0
 20
232.0
 30
0.0
  0
POINT
  5
7BA4
330
7A5A
100
AcDbEntity
  8
DEFPOINTS
  6
Continuous
 62
     0
100
AcDbPoint
 10
481.0000000000001
 20
232.0
 30
0.0
  0
POINT
  5
7BA5
330
7A5A
100
AcDbEntity
  8
DEFPOINTS
  6
Continuous
 62
     0
100
AcDbPoint
 10
481.0000000000001
 20
170.0
 30
0.0
  0
ENDBLK
  5
7A65
330
7A5A
100
AcDbEntity
  8
0
100
AcDbBlockEnd
  0
BLOCK
  5
7A70
330
7A66
100
AcDbEntity
  8
0
100
AcDbBlockBegin
  2
*D69
 70
     1
 10
0.0
 20
0.0
 30
0.0
  3
*D69
  1

  0
LINE
  5
7BA6
330
7A66
100
AcDbEntity
  8
30
  6
Continuous
 62
     0
370
    -2
100
AcDbLine
 10
346.4999999999999
 20
275.9999999999998
 30
0.0
 11
319.5
 21
275.9999999999998
 31
0.0
  0
LINE
  5
7BA7
330
7A66
100
AcDbEntity
  8
30
  6
Continuous
 62
     0
370
    -2
100
AcDbLine
 10
346.4999999999999
 20
300.0
 30
0.0
 11
319.5
 21
300.0
 31
0.0
  0
LINE
  5
7BA8
330
7A66
100
AcDbEntity
  8
30
  6
Continuous
 62
     0
370
    -2
100
AcDbLine
 10
320.0
 20
277.9999999999998
 30
0.0
 11
320.0
 21
298.0
 31
0.0
  0
INSERT
  5
7BA9
330
7A66
100
AcDbEntity
  8
30
  6
Continuous
 62
     0
370
    -2
100
AcDbBlockReference
  2
_OPEN
 10
320.0
 20
275.9999999999998
 30
0.0
 41
2.0
 42
2.0
 43
2.0
 50
270.0
  0
INSERT
  5
7BAA
330
7A66
100
AcDbEntity
  8
30
  6
Continuous
 62
     0
370
    -2
100
AcDbBlockReference
  2
_OPEN
 10
320.0
 20
300.0
 30
0.0
 41
2.0
 42
2.0
 43
2.0
 50
90.0
  0
MTEXT
  5
7BAB
330
7A66
100
AcDbEntity
  8
30
  6
Continuous
 62
     0
100
AcDbMText
 10
316.9999999999999
 20
288.0
 30
0.0
 40
4.0
 41
0.0
 71
     5
 72
     1
  1
\A1;24
 11
0.0000000000000001
 21
1.0
 31
0.0
 73
     1
 44
1.0
  0
POINT
  5
7BAC
330
7A66
100
AcDbEntity
  8
DEFPOINTS
  6
Continuous
 62
     0
100
AcDbPoint
 10
347.5
 20
275.9999999999998
 30
0.0
  0
POINT
  5
7BAD
330
7A66
100
AcDbEntity
  8
DEFPOINTS
  6
Continuous
 62
     0
100
AcDbPoint
 10
347.5
 20
300.0
 30
0.0
  0
POINT
  5
7BAE
330
7A66
100
AcDbEntity
  8
DEFPOINTS
  6
Continuous
 62
     0
100
AcDbPoint
 10
320.0
 20
300.0
 30
0.0
  0
ENDBLK
  5
7A71
330
7A66
100
AcDbEntity
  8
0
100
AcDbBlockEnd
  0
BLOCK
  5
7A7C
330
7A72
100
AcDbEntity
  8
0
100
AcDbBlockBegin
  2
*D70
 70
     1
 10
0.0
 20
0.0
 30
0.0
  3
*D70
  1

  0
LINE
  5
7BB8
330
7A72
100
AcDbEntity
  8
30
  6
Continuous
 62
     0
370
    -2
100
AcDbLine
 10
407.5
 20
220.5
 30
0.0
 11
407.5
 21
189.4999999999999
 31
0.0
  0
LINE
  5
7BB9
330
7A72
100
AcDbEntity
  8
30
  6
Continuous
 62
     0
370
    -2
100
AcDbLine
 10
452.5
 20
220.5
 30
0.0
 11
452.5
 21
189.4999999999999
 31
0.0
  0
LINE
  5
7BBA
330
7A72
100
AcDbEntity
  8
30
  6
Continuous
 62
     0
370
    -2
100
AcDbLine
 10
409.4999999999999
 20
190.0
 30
0.0
 11
450.4999999999999
 21
190.0
 31
0.0
  0
INSERT
  5
7BBB
330
7A72
100
AcDbEntity
  8
30
  6
Continuous
 62
     0
370
    -2
100
AcDbBlockReference
  2
_OPEN
 10
407.5
 20
190.0
 30
0.0
 41
2.0
 42
2.0
 43
2.0
 50
180.0
  0
INSERT
  5
7BBC
330
7A72
100
AcDbEntity
  8
30
  6
Continuous
 62
     0
370
    -2
100
AcDbBlockReference
  2
_OPEN
 10
452.5
 20
190.0
 30
0.0
 41
2.0
 42
2.0
 43
2.0
  0
MTEXT
  5
7BBD
330
7A72
100
AcDbEntity
  8
30
  6
Continuous
 62
     0
100
AcDbMText
 10
430.0
 20
193.0
 30
0.0
 40
4.0
 41
0.0
 71
     5
 72
     1
  1
\A1;45
 73
     1
 44
1.0
  0
POINT
  5
7BBE
330
7A72
100
AcDbEntity
  8
DEFPOINTS
  6
Continuous
 62
     0
100
AcDbPoint
 10
407.5
 20
221.4999999999999
 30
0.0
  0
POINT
  5
7BBF
330
7A72
100
AcDbEntity
  8
DEFPOINTS
  6
Continuous
 62
     0
100
AcDbPoint
 10
452.5
 20
221.4999999999999
 30
0.0
  0
POINT
  5
7BC0
330
7A72
100
AcDbEntity
  8
DEFPOINTS
  6
Continuous
 62
     0
100
AcDbPoint
 10
452.5
 20
190.0
 30
0.0
  0
ENDBLK
  5
7A7D
330
7A72
100
AcDbEntity
  8
0
100
AcDbBlockEnd
  0
BLOCK
  5
7DE7
330
7DE1
100
AcDbEntity
  8
TOP
  6
Continuous
 62
     4
100
AcDbBlockBegin
  2
*U72
 70
     1
 10
0.0
 20
0.0
 30
0.0
  3
*U72
  1

  0
LINE
  5
7DE2
330
7DE1
100
AcDbEntity
  8
5
  6
ByBlock
 62
     0
100
AcDbLine
 10
187.4932291666666
 20
140.0
 30
0.0
 11
187.4932291666666
 21
140.0
 31
0.0
  0
LINE
  5
7DE3
330
7DE1
100
AcDbEntity
  8
5
  6
ByBlock
 62
     0
100
AcDbLine
 10
212.3871961722488
 20
130.0647232036205
 30
0.0
 11
204.0
 21
140.0
 31
0.0
  0
LINE
  5
7DE4
330
7DE1
100
AcDbEntity
  8
5
  6
ByBlock
 62
     0
100
AcDbLine
 10
204.0
 20
140.0
 30
0.0
 11
187.4932291666666
 21
140.0
 31
0.0
  0
SOLID
  5
7DE5
330
7DE1
100
AcDbEntity
  8
5
  6
ByBlock
 62
     0
100
AcDbTrace
 10
212.3871961722488
 20
130.0647232036205
 30
0.0
 11
210.8423579767661
 21
131.3779581845569
 31
0.0
 12
211.3517767919608
 22
131.8080011138521
 32
0.0
 13
211.3517767919608
 23
131.8080011138521
 33
0.0
  0
TEXT
  5
7DE6
330
7DE1
100
AcDbEntity
  8
TOP
  6
ByBlock
 62
     0
100
AcDbText
 10
187.4932291666666
 20
138.7499999999999
 30
0.0
 40
2.5
  1
 
 41
1.054062499999991
  7
UGMTXT
100
AcDbText
  0
ENDBLK
  5
7DE8
330
7DE1
100
AcDbEntity
  8
0
100
AcDbBlockEnd
  0
BLOCK
  5
7DF3
330
7DE9
100
AcDbEntity
  8
0
100
AcDbBlockBegin
  2
*D73
 70
     1
 10
0.0
 20
0.0
 30
0.0
  3
*D73
  1

  0
LINE
  5
7DEA
330
7DE9
100
AcDbEntity
  8
30
  6
Continuous
 62
     0
370
    -2
100
AcDbLine
 10
235.9999999999998
 20
83.49999999999999
 30
0.0
 11
235.9999999999998
 21
110.4999999999999
 31
0.0
  0
LINE
  5
7DEB
330
7DE9
100
AcDbEntity
  8
30
  6
Continuous
 62
     0
370
    -2
100
AcDbLine
 10
260.0
 20
83.49999999999999
 30
0.0
 11
260.0
 21
110.4999999999999
 31
0.0
  0
LINE
  5
7DEC
330
7DE9
100
AcDbEntity
  8
30
  6
Continuous
 62
     0
370
    -2
100
AcDbLine
 10
237.9999999999999
 20
110.0
 30
0.0
 11
258.0
 21
110.0
 31
0.0
  0
INSERT
  5
7DED
330
7DE9
100
AcDbEntity
  8
30
  6
Continuous
 62
     0
370
    -2
100
AcDbBlockReference
  2
_OPEN
 10
235.9999999999998
 20
110.0
 30
0.0
 41
2.0
 42
2.0
 43
2.0
 50
180.0
  0
INSERT
  5
7DEE
330
7DE9
100
AcDbEntity
  8
30
  6
Continuous
 62
     0
370
    -2
100
AcDbBlockReference
  2
_OPEN
 10
260.0
 20
110.0
 30
0.0
 41
2.0
 42
2.0
 43
2.0
  0
MTEXT
  5
7DEF
330
7DE9
100
AcDbEntity
  8
30
  6
Continuous
 62
     0
100
AcDbMText
 10
247.9999999999999
 20
113.0
 30
0.0
 40
4.0
 41
0.0
 71
     5
 72
     1
  1
\A1;24
 73
     1
 44
1.0
  0
POINT
  5
7DF0
330
7DE9
100
AcDbEntity
  8
DEFPOINTS
  6
Continuous
 62
     0
100
AcDbPoint
 10
235.9999999999998
 20
82.5
 30
0.0
  0
POINT
  5
7DF1
330
7DE9
100
AcDbEntity
  8
DEFPOINTS
  6
Continuous
 62
     0
100
AcDbPoint
 10
260.0
 20
82.5
 30
0.0
  0
POINT
  5
7DF2
330
7DE9
100
AcDbEntity
  8
DEFPOINTS
  6
Continuous
 62
     0
100
AcDbPoint
 10
260.0
 20
110.0
 30
0.0
  0
ENDBLK
  5
7DF4
330
7DE9
100
AcDbEntity
  8
0
100
AcDbBlockEnd
  0
BLOCK
  5
7DFF
330
7DF5
100
AcDbEntity
  8
0
100
AcDbBlockBegin
  2
*D74
 70
     1
 10
0.0
 20
0.0
 30
0.0
  3
*D74
  1

  0
LINE
  5
7DF6
330
7DF5
100
AcDbEntity
  8
30
  6
Continuous
 62
     0
370
    -2
100
AcDbLine
 10
191.0
 20
51.0
 30
0.0
 11
129.4999999999999
 21
51.00000000000002
 31
0.0
  0
LINE
  5
7DF7
330
7DF5
100
AcDbEntity
  8
30
  6
Continuous
 62
     0
370
    -2
100
AcDbLine
 10
191.0
 20
-51.00000000000005
 30
0.0
 11
129.4999999999999
 21
-51.00000000000004
 31
0.0
  0
LINE
  5
7DF8
330
7DF5
100
AcDbEntity
  8
30
  6
Continuous
 62
     0
370
    -2
100
AcDbLine
 10
130.0
 20
49.00000000000002
 30
0.0
 11
130.0
 21
-49.00000000000003
 31
0.0
  0
INSERT
  5
7DF9
330
7DF5
100
AcDbEntity
  8
30
  6
Continuous
 62
     0
370
    -2
100
AcDbBlockReference
  2
_OPEN
 10
130.0
 20
51.00000000000002
 30
0.0
 41
2.0
 42
2.0
 43
2.0
 50
90.0
  0
INSERT
  5
7DFA
330
7DF5
100
AcDbEntity
  8
30
  6
Continuous
 62
     0
370
    -2
100
AcDbBlockReference
  2
_OPEN
 10
130.0
 20
-51.00000000000004
 30
0.0
 41
2.0
 42
2.0
 43
2.0
 50
270.0
  0
MTEXT
  5
7DFB
330
7DF5
100
AcDbEntity
  8
30
  6
Continuous
 62
     0
100
AcDbMText
 10
127.0
 20
0.0000000000000137
 30
0.0
 40
4.0
 41
0.0
 71
     5
 72
     1
  1
\A1;102
 11
0.0000000000000001
 21
1.0
 31
0.0
 73
     1
 44
1.0
  0
POINT
  5
7DFC
330
7DF5
100
AcDbEntity
  8
DEFPOINTS
  6
Continuous
 62
     0
100
AcDbPoint
 10
192.0
 20
51.0
 30
0.0
  0
POINT
  5
7DFD
330
7DF5
100
AcDbEntity
  8
DEFPOINTS
  6
Continuous
 62
     0
100
AcDbPoint
 10
192.0
 20
-51.00000000000005
 30
0.0
  0
POINT
  5
7DFE
330
7DF5
100
AcDbEntity
  8
DEFPOINTS
  6
Continuous
 62
     0
100
AcDbPoint
 10
130.0
 20
-51.00000000000004
 30
0.0
  0
ENDBLK
  5
7E00
330
7DF5
100
AcDbEntity
  8
0
100
AcDbBlockEnd
  0
BLOCK
  5
7E0B
330
7E01
100
AcDbEntity
  8
0
100
AcDbBlockBegin
  2
*D75
 70
     1
 10
0.0
 20
0.0
 30
0.0
  3
*D75
  1

  0
LINE
  5
7E02
330
7E01
100
AcDbEntity
  8
30
  6
Continuous
 62
     0
370
    -2
100
AcDbLine
 10
182.9999999999996
 20
25.0
 30
0.0
 11
139.5
 21
25.00000000000001
 31
0.0
  0
LINE
  5
7E03
330
7E01
100
AcDbEntity
  8
30
  6
Continuous
 62
     0
370
    -2
100
AcDbLine
 10
182.9999999999996
 20
-25.0
 30
0.0
 11
139.5
 21
-24.99999999999999
 31
0.0
  0
LINE
  5
7E04
330
7E01
100
AcDbEntity
  8
30
  6
Continuous
 62
     0
370
    -2
100
AcDbLine
 10
140.0
 20
23.00000000000001
 30
0.0
 11
140.0
 21
-22.99999999999998
 31
0.0
  0
INSERT
  5
7E05
330
7E01
100
AcDbEntity
  8
30
  6
Continuous
 62
     0
370
    -2
100
AcDbBlockReference
  2
_OPEN
 10
140.0
 20
25.00000000000001
 30
0.0
 41
2.0
 42
2.0
 43
2.0
 50
90.0
  0
INSERT
  5
7E06
330
7E01
100
AcDbEntity
  8
30
  6
Continuous
 62
     0
370
    -2
100
AcDbBlockReference
  2
_OPEN
 10
140.0
 20
-24.99999999999999
 30
0.0
 41
2.0
 42
2.0
 43
2.0
 50
270.0
  0
MTEXT
  5
7E07
330
7E01
100
AcDbEntity
  8
30
  6
Continuous
 62
     0
100
AcDbMText
 10
137.0
 20
0.0000000000000344
 30
0.0
 40
4.0
 41
0.0
 71
     5
 72
     1
  1
\A1;50
 11
0.0000000000000001
 21
1.0
 31
0.0
 73
     1
 44
1.0
  0
POINT
  5
7E08
330
7E01
100
AcDbEntity
  8
DEFPOINTS
  6
Continuous
 62
     0
100
AcDbPoint
 10
183.9999999999996
 20
25.0
 30
0.0
  0
POINT
  5
7E09
330
7E01
100
AcDbEntity
  8
DEFPOINTS
  6
Continuous
 62
     0
100
AcDbPoint
 10
183.9999999999996
 20
-25.0
 30
0.0
  0
POINT
  5
7E0A
330
7E01
100
AcDbEntity
  8
DEFPOINTS
  6
Continuous
 62
     0
100
AcDbPoint
 10
140.0
 20
-24.99999999999999
 30
0.0
  0
ENDBLK
  5
7E0C
330
7E01
100
AcDbEntity
  8
0
100
AcDbBlockEnd
  0
BLOCK
  5
7E17
330
7E0D
100
AcDbEntity
  8
0
100
AcDbBlockBegin
  2
*D76
 70
     1
 10
0.0
 20
0.0
 30
0.0
  3
*D76
  1

  0
LINE
  5
7E0E
330
7E0D
100
AcDbEntity
  8
30
  6
Continuous
 62
     0
370
    -2
100
AcDbLine
 10
260.0
 20
-83.49999999999999
 30
0.0
 11
260.0
 21
-90.5
 31
0.0
  0
LINE
  5
7E0F
330
7E0D
100
AcDbEntity
  8
30
  6
Continuous
 62
     0
370
    -2
100
AcDbLine
 10
267.0
 20
-66.25
 30
0.0
 11
267.0
 21
-90.5
 31
0.0
  0
LINE
  5
7E10
330
7E0D
100
AcDbEntity
  8
30
  6
Continuous
 62
     0
370
    -2
100
AcDbLine
 10
262.0
 20
-90.0
 30
0.0
 11
265.0
 21
-90.0
 31
0.0
  0
INSERT
  5
7E11
330
7E0D
100
AcDbEntity
  8
30
  6
Continuous
 62
     0
370
    -2
100
AcDbBlockReference
  2
_OPEN
 10
260.0
 20
-90.0
 30
0.0
 41
2.0
 42
2.0
 43
2.0
 50
180.0
  0
INSERT
  5
7E12
330
7E0D
100
AcDbEntity
  8
30
  6
Continuous
 62
     0
370
    -2
100
AcDbBlockReference
  2
_OPEN
 10
267.0
 20
-90.0
 30
0.0
 41
2.0
 42
2.0
 43
2.0
  0
MTEXT
  5
7E13
330
7E0D
100
AcDbEntity
  8
30
  6
Continuous
 62
     0
100
AcDbMText
 10
263.5
 20
-87.0
 30
0.0
 40
4.0
 41
0.0
 71
     5
 72
     1
  1
\A1;7
 73
     1
 44
1.0
  0
POINT
  5
7E14
330
7E0D
100
AcDbEntity
  8
DEFPOINTS
  6
Continuous
 62
     0
100
AcDbPoint
 10
260.0
 20
-82.5
 30
0.0
  0
POINT
  5
7E15
330
7E0D
100
AcDbEntity
  8
DEFPOINTS
  6
Continuous
 62
     0
100
AcDbPoint
 10
267.0
 20
-65.25
 30
0.0
  0
POINT
  5
7E16
330
7E0D
100
AcDbEntity
  8
DEFPOINTS
  6
Continuous
 62
     0
100
AcDbPoint
 10
267.0
 20
-90.0
 30
0.0
  0
ENDBLK
  5
7E18
330
7E0D
100
AcDbEntity
  8
0
100
AcDbBlockEnd
  0
BLOCK
  5
7E23
330
7E19
100
AcDbEntity
  8
0
100
AcDbBlockBegin
  2
*D77
 70
     1
 10
0.0
 20
0.0
 30
0.0
  3
*D77
  1

  0
LINE
  5
7E1A
330
7E19
100
AcDbEntity
  8
30
  6
Continuous
 62
     0
370
    -2
100
AcDbLine
 10
214.0
 20
-68.25
 30
0.0
 11
214.0
 21
-90.5
 31
0.0
  0
LINE
  5
7E1B
330
7E19
100
AcDbEntity
  8
30
  6
Continuous
 62
     0
370
    -2
100
AcDbLine
 10
260.0
 20
-83.49999999999999
 30
0.0
 11
260.0
 21
-90.5
 31
0.0
  0
LINE
  5
7E1C
330
7E19
100
AcDbEntity
  8
30
  6
Continuous
 62
     0
370
    -2
100
AcDbLine
 10
216.0
 20
-90.0
 30
0.0
 11
258.0
 21
-90.0
 31
0.0
  0
INSERT
  5
7E1D
330
7E19
100
AcDbEntity
  8
30
  6
Continuous
 62
     0
370
    -2
100
AcDbBlockReference
  2
_OPEN
 10
214.0
 20
-90.0
 30
0.0
 41
2.0
 42
2.0
 43
2.0
 50
180.0
  0
INSERT
  5
7E1E
330
7E19
100
AcDbEntity
  8
30
  6
Continuous
 62
     0
370
    -2
100
AcDbBlockReference
  2
_OPEN
 10
260.0
 20
-90.0
 30
0.0
 41
2.0
 42
2.0
 43
2.0
  0
MTEXT
  5
7E1F
330
7E19
100
AcDbEntity
  8
30
  6
Continuous
 62
     0
100
AcDbMText
 10
237.0
 20
-87.0
 30
0.0
 40
4.0
 41
0.0
 71
     5
 72
     1
  1
\A1;46
 73
     1
 44
1.0
  0
POINT
  5
7E20
330
7E19
100
AcDbEntity
  8
DEFPOINTS
  6
Continuous
 62
     0
100
AcDbPoint
 10
214.0
 20
-67.25
 30
0.0
  0
POINT
  5
7E21
330
7E19
100
AcDbEntity
  8
DEFPOINTS
  6
Continuous
 62
     0
100
AcDbPoint
 10
260.0
 20
-82.5
 30
0.0
  0
POINT
  5
7E22
330
7E19
100
AcDbEntity
  8
DEFPOINTS
  6
Continuous
 62
     0
100
AcDbPoint
 10
260.0
 20
-90.0
 30
0.0
  0
ENDBLK
  5
7E24
330
7E19
100
AcDbEntity
  8
0
100
AcDbBlockEnd
  0
BLOCK
  5
7E31
330
7E25
100
AcDbEntity
  8
0
100
AcDbBlockBegin
  2
*D78
 70
     1
 10
0.0
 20
0.0
 30
0.0
  3
*D78
  1

  0
LINE
  5
7E26
330
7E25
100
AcDbEntity
  8
30
  6
Continuous
 62
     0
370
    -2
100
AcDbLine
 10
181.4999999999999
 20
-23.5
 30
0.0
 11
181.4999999999999
 21
-120.5
 31
0.0
  0
LINE
  5
7E27
330
7E25
100
AcDbEntity
  8
30
  6
Continuous
 62
     0
370
    -2
100
AcDbLine
 10
185.5
 20
-26.0
 30
0.0
 11
185.5
 21
-120.5
 31
0.0
  0
LINE
  5
7E28
330
7E25
100
AcDbEntity
  8
30
  6
Continuous
 62
     0
370
    -2
100
AcDbLine
 10
187.5
 20
-120.0
 30
0.0
 11
189.4999999999999
 21
-120.0
 31
0.0
  0
LINE
  5
7E29
330
7E25
100
AcDbEntity
  8
30
  6
Continuous
 62
     0
370
    -2
100
AcDbLine
 10
179.4999999999999
 20
-120.0
 30
0.0
 11
172.1666666666666
 21
-120.0
 31
0.0
  0
LINE
  5
7E2A
330
7E25
100
AcDbEntity
  8
30
  6
Continuous
 62
     0
370
    -2
100
AcDbLine
 10
185.5
 20
-120.0
 30
0.0
 11
181.4999999999999
 21
-120.0
 31
0.0
  0
INSERT
  5
7E2B
330
7E25
100
AcDbEntity
  8
30
  6
Continuous
 62
     0
370
    -2
100
AcDbBlockReference
  2
_OPEN
 10
185.5
 20
-120.0
 30
0.0
 41
2.0
 42
2.0
 43
2.0
 50
180.0
  0
INSERT
  5
7E2C
330
7E25
100
AcDbEntity
  8
30
  6
Continuous
 62
     0
370
    -2
100
AcDbBlockReference
  2
_OPEN
 10
181.4999999999999
 20
-120.0
 30
0.0
 41
2.0
 42
2.0
 43
2.0
  0
MTEXT
  5
7E2D
330
7E25
100
AcDbEntity
  8
30
  6
Continuous
 62
     0
100
AcDbMText
 10
174.5
 20
-117.0
 30
0.0
 40
4.0
 41
0.0
 71
     5
 72
     1
  1
\A1;4
 73
     1
 44
1.0
  0
POINT
  5
7E2E
330
7E25
100
AcDbEntity
  8
DEFPOINTS
  6
Continuous
 62
     0
100
AcDbPoint
 10
181.4999999999999
 20
-22.5
 30
0.0
  0
POINT
  5
7E2F
330
7E25
100
AcDbEntity
  8
DEFPOINTS
  6
Continuous
 62
     0
100
AcDbPoint
 10
185.5
 20
-25.0
 30
0.0
  0
POINT
  5
7E30
330
7E25
100
AcDbEntity
  8
DEFPOINTS
  6
Continuous
 62
     0
100
AcDbPoint
 10
185.5
 20
-120.0
 30
0.0
  0
ENDBLK
  5
7E32
330
7E25
100
AcDbEntity
  8
0
100
AcDbBlockEnd
  0
BLOCK
  5
7E3D
330
7E33
100
AcDbEntity
  8
0
100
AcDbBlockBegin
  2
*D79
 70
     1
 10
0.0
 20
0.0
 30
0.0
  3
*D79
  1

  0
LINE
  5
7E34
330
7E33
100
AcDbEntity
  8
30
  6
Continuous
 62
     0
370
    -2
100
AcDbLine
 10
192.0
 20
-52.00000000000006
 30
0.0
 11
192.0
 21
-110.4999999999999
 31
0.0
  0
LINE
  5
7E35
330
7E33
100
AcDbEntity
  8
30
  6
Continuous
 62
     0
370
    -2
100
AcDbLine
 10
260.0
 20
-83.49999999999999
 30
0.0
 11
260.0
 21
-110.4999999999999
 31
0.0
  0
LINE
  5
7E36
330
7E33
100
AcDbEntity
  8
30
  6
Continuous
 62
     0
370
    -2
100
AcDbLine
 10
194.0
 20
-110.0
 30
0.0
 11
258.0
 21
-110.0
 31
0.0
  0
INSERT
  5
7E37
330
7E33
100
AcDbEntity
  8
30
  6
Continuous
 62
     0
370
    -2
100
AcDbBlockReference
  2
_OPEN
 10
192.0
 20
-110.0
 30
0.0
 41
2.0
 42
2.0
 43
2.0
 50
180.0
  0
INSERT
  5
7E38
330
7E33
100
AcDbEntity
  8
30
  6
Continuous
 62
     0
370
    -2
100
AcDbBlockReference
  2
_OPEN
 10
260.0
 20
-110.0
 30
0.0
 41
2.0
 42
2.0
 43
2.0
  0
MTEXT
  5
7E39
330
7E33
100
AcDbEntity
  8
30
  6
Continuous
 62
     0
100
AcDbMText
 10
226.0
 20
-107.0
 30
0.0
 40
4.0
 41
0.0
 71
     5
 72
     1
  1
\A1;68
 73
     1
 44
1.0
  0
POINT
  5
7E3A
330
7E33
100
AcDbEntity
  8
DEFPOINTS
  6
Continuous
 62
     0
100
AcDbPoint
 10
192.0
 20
-51.00000000000005
 30
0.0
  0
POINT
  5
7E3B
330
7E33
100
AcDbEntity
  8
DEFPOINTS
  6
Continuous
 62
     0
100
AcDbPoint
 10
260.0
 20
-82.5
 30
0.0
  0
POINT
  5
7E3C
330
7E33
100
AcDbEntity
  8
DEFPOINTS
  6
Continuous
 62
     0
100
AcDbPoint
 10
260.0
 20
-110.0
 30
0.0
  0
ENDBLK
  5
7E3E
330
7E33
100
AcDbEntity
  8
0
100
AcDbBlockEnd
  0
BLOCK
  5
7E49
330
7E3F
100
AcDbEntity
  8
0
100
AcDbBlockBegin
  2
*D80
 70
     1
 10
0.0
 20
0.0
 30
0.0
  3
*D80
  1

  0
LINE
  5
7E40
330
7E3F
100
AcDbEntity
  8
30
  6
Continuous
 62
     0
370
    -2
100
AcDbLine
 10
165.0
 20
-1.0
 30
0.0
 11
165.0
 21
-130.4999999999999
 31
0.0
  0
LINE
  5
7E41
330
7E3F
100
AcDbEntity
  8
30
  6
Continuous
 62
     0
370
    -2
100
AcDbLine
 10
260.0
 20
-83.49999999999999
 30
0.0
 11
260.0
 21
-130.4999999999999
 31
0.0
  0
LINE
  5
7E42
330
7E3F
100
AcDbEntity
  8
30
  6
Continuous
 62
     0
370
    -2
100
AcDbLine
 10
167.0
 20
-130.0
 30
0.0
 11
258.0
 21
-130.0
 31
0.0
  0
INSERT
  5
7E43
330
7E3F
100
AcDbEntity
  8
30
  6
Continuous
 62
     0
370
    -2
100
AcDbBlockReference
  2
_OPEN
 10
165.0
 20
-130.0
 30
0.0
 41
2.0
 42
2.0
 43
2.0
 50
180.0
  0
INSERT
  5
7E44
330
7E3F
100
AcDbEntity
  8
30
  6
Continuous
 62
     0
370
    -2
100
AcDbBlockReference
  2
_OPEN
 10
260.0
 20
-130.0
 30
0.0
 41
2.0
 42
2.0
 43
2.0
  0
MTEXT
  5
7E45
330
7E3F
100
AcDbEntity
  8
30
  6
Continuous
 62
     0
100
AcDbMText
 10
212.5
 20
-127.0
 30
0.0
 40
4.0
 41
0.0
 71
     5
 72
     1
  1
\A1;95
 73
     1
 44
1.0
  0
POINT
  5
7E46
330
7E3F
100
AcDbEntity
  8
DEFPOINTS
  6
Continuous
 62
     0
100
AcDbPoint
 10
165.0
 20
0.0
 30
0.0
  0
POINT
  5
7E47
330
7E3F
100
AcDbEntity
  8
DEFPOINTS
  6
Continuous
 62
     0
100
AcDbPoint
 10
260.0
 20
-82.5
 30
0.0
  0
POINT
  5
7E48
330
7E3F
100
AcDbEntity
  8
DEFPOINTS
  6
Continuous
 62
     0
100
AcDbPoint
 10
260.0
 20
-130.0
 30
0.0
  0
ENDBLK
  5
7E4A
330
7E3F
100
AcDbEntity
  8
0
100
AcDbBlockEnd
  0
BLOCK
  5
7E55
330
7E4B
100
AcDbEntity
  8
0
100
AcDbBlockBegin
  2
*D81
 70
     1
 10
0.0
 20
0.0
 30
0.0
  3
*D81
  1

  0
LINE
  5
7E4C
330
7E4B
100
AcDbEntity
  8
30
  6
Continuous
 62
     0
370
    -2
100
AcDbLine
 10
185.5
 20
-26.0
 30
0.0
 11
185.5
 21
-120.5
 31
0.0
  0
LINE
  5
7E4D
330
7E4B
100
AcDbEntity
  8
30
  6
Continuous
 62
     0
370
    -2
100
AcDbLine
 10
260.0
 20
-83.49999999999999
 30
0.0
 11
260.0
 21
-120.5
 31
0.0
  0
LINE
  5
7E4E
330
7E4B
100
AcDbEntity
  8
30
  6
Continuous
 62
     0
370
    -2
100
AcDbLine
 10
187.5
 20
-120.0
 30
0.0
 11
258.0
 21
-120.0
 31
0.0
  0
INSERT
  5
7E4F
330
7E4B
100
AcDbEntity
  8
30
  6
Continuous
 62
     0
370
    -2
100
AcDbBlockReference
  2
_OPEN
 10
185.5
 20
-120.0
 30
0.0
 41
2.0
 42
2.0
 43
2.0
 50
180.0
  0
INSERT
  5
7E50
330
7E4B
100
AcDbEntity
  8
30
  6
Continuous
 62
     0
370
    -2
100
AcDbBlockReference
  2
_OPEN
 10
260.0
 20
-120.0
 30
0.0
 41
2.0
 42
2.0
 43
2.0
  0
MTEXT
  5
7E51
330
7E4B
100
AcDbEntity
  8
30
  6
Continuous
 62
     0
100
AcDbMText
 10
222.75
 20
-117.0
 30
0.0
 40
4.0
 41
0.0
 71
     5
 72
     1
  1
\A1;74.5
 73
     1
 44
1.0
  0
POINT
  5
7E52
330
7E4B
100
AcDbEntity
  8
DEFPOINTS
  6
Continuous
 62
     0
100
AcDbPoint
 10
185.5
 20
-25.0
 30
0.0
  0
POINT
  5
7E53
330
7E4B
100
AcDbEntity
  8
DEFPOINTS
  6
Continuous
 62
     0
100
AcDbPoint
 10
260.0
 20
-82.5
 30
0.0
  0
POINT
  5
7E54
330
7E4B
100
AcDbEntity
  8
DEFPOINTS
  6
Continuous
 62
     0
100
AcDbPoint
 10
260.0
 20
-120.0
 30
0.0
  0
ENDBLK
  5
7E56
330
7E4B
100
AcDbEntity
  8
0
100
AcDbBlockEnd
  0
BLOCK
  5
7E61
330
7E57
100
AcDbEntity
  8
0
100
AcDbBlockBegin
  2
*D82
 70
     1
 10
0.0
 20
0.0
 30
0.0
  3
*D82
  1

  0
LINE
  5
7E58
330
7E57
100
AcDbEntity
  8
30
  6
Continuous
 62
     0
370
    -2
100
AcDbLine
 10
200.0
 20
-83.49999999999999
 30
0.0
 11
200.0
 21
-100.5
 31
0.0
  0
LINE
  5
7E59
330
7E57
100
AcDbEntity
  8
30
  6
Continuous
 62
     0
370
    -2
100
AcDbLine
 10
260.0
 20
-83.49999999999999
 30
0.0
 11
260.0
 21
-100.5
 31
0.0
  0
LINE
  5
7E5A
330
7E57
100
AcDbEntity
  8
30
  6
Continuous
 62
     0
370
    -2
100
AcDbLine
 10
202.0
 20
-100.0
 30
0.0
 11
258.0
 21
-100.0
 31
0.0
  0
INSERT
  5
7E5B
330
7E57
100
AcDbEntity
  8
30
  6
Continuous
 62
     0
370
    -2
100
AcDbBlockReference
  2
_OPEN
 10
200.0
 20
-100.0
 30
0.0
 41
2.0
 42
2.0
 43
2.0
 50
180.0
  0
INSERT
  5
7E5C
330
7E57
100
AcDbEntity
  8
30
  6
Continuous
 62
     0
370
    -2
100
AcDbBlockReference
  2
_OPEN
 10
260.0
 20
-100.0
 30
0.0
 41
2.0
 42
2.0
 43
2.0
  0
MTEXT
  5
7E5D
330
7E57
100
AcDbEntity
  8
30
  6
Continuous
 62
     0
100
AcDbMText
 10
230.0
 20
-97.0
 30
0.0
 40
4.0
 41
0.0
 71
     5
 72
     1
  1
\A1;60
 73
     1
 44
1.0
  0
POINT
  5
7E5E
330
7E57
100
AcDbEntity
  8
DEFPOINTS
  6
Continuous
 62
     0
100
AcDbPoint
 10
200.0
 20
-82.5
 30
0.0
  0
POINT
  5
7E5F
330
7E57
100
AcDbEntity
  8
DEFPOINTS
  6
Continuous
 62
     0
100
AcDbPoint
 10
260.0
 20
-82.5
 30
0.0
  0
POINT
  5
7E60
330
7E57
100
AcDbEntity
  8
DEFPOINTS
  6
Continuous
 62
     0
100
AcDbPoint
 10
260.0
 20
-100.0
 30
0.0
  0
ENDBLK
  5
7E62
330
7E57
100
AcDbEntity
  8
0
100
AcDbBlockEnd
  0
BLOCK
  5
7E6D
330
7E63
100
AcDbEntity
  8
0
100
AcDbBlockBegin
  2
*D83
 70
     1
 10
0.0
 20
0.0
 30
0.0
  3
*D83
  1

  0
LINE
  5
7E64
330
7E63
100
AcDbEntity
  8
30
  6
Continuous
 62
     0
370
    -2
100
AcDbLine
 10
180.4999999999999
 20
22.5
 30
0.0
 11
149.5
 21
22.50000000000001
 31
0.0
  0
LINE
  5
7E65
330
7E63
100
AcDbEntity
  8
30
  6
Continuous
 62
     0
370
    -2
100
AcDbLine
 10
180.4999999999999
 20
-22.5
 30
0.0
 11
149.5
 21
-22.49999999999999
 31
0.0
  0
LINE
  5
7E66
330
7E63
100
AcDbEntity
  8
30
  6
Continuous
 62
     0
370
    -2
100
AcDbLine
 10
150.0
 20
20.50000000000001
 30
0.0
 11
150.0
 21
-20.49999999999998
 31
0.0
  0
INSERT
  5
7E67
330
7E63
100
AcDbEntity
  8
30
  6
Continuous
 62
     0
370
    -2
100
AcDbBlockReference
  2
_OPEN
 10
150.0
 20
22.50000000000001
 30
0.0
 41
2.0
 42
2.0
 43
2.0
 50
90.0
  0
INSERT
  5
7E68
330
7E63
100
AcDbEntity
  8
30
  6
Continuous
 62
     0
370
    -2
100
AcDbBlockReference
  2
_OPEN
 10
150.0
 20
-22.49999999999999
 30
0.0
 41
2.0
 42
2.0
 43
2.0
 50
270.0
  0
MTEXT
  5
7E69
330
7E63
100
AcDbEntity
  8
30
  6
Continuous
 62
     0
100
AcDbMText
 10
147.0
 20
0.0000000000000338
 30
0.0
 40
4.0
 41
0.0
 71
     5
 72
     1
  1
\A1;45
 11
0.0000000000000001
 21
1.0
 31
0.0
 73
     1
 44
1.0
  0
POINT
  5
7E6A
330
7E63
100
AcDbEntity
  8
DEFPOINTS
  6
Continuous
 62
     0
100
AcDbPoint
 10
181.4999999999999
 20
22.5
 30
0.0
  0
POINT
  5
7E6B
330
7E63
100
AcDbEntity
  8
DEFPOINTS
  6
Continuous
 62
     0
100
AcDbPoint
 10
181.4999999999999
 20
-22.5
 30
0.0
  0
POINT
  5
7E6C
330
7E63
100
AcDbEntity
  8
DEFPOINTS
  6
Continuous
 62
     0
100
AcDbPoint
 10
150.0
 20
-22.49999999999999
 30
0.0
  0
ENDBLK
  5
7E6E
330
7E63
100
AcDbEntity
  8
0
100
AcDbBlockEnd
  0
BLOCK
  5
7ECF
330
7EC5
100
AcDbEntity
  8
0
100
AcDbBlockBegin
  2
*D85
 70
     1
 10
0.0
 20
0.0
 30
0.0
  3
*D85
  1

  0
LINE
  5
8046
330
7EC5
100
AcDbEntity
  8
30
  6
Continuous
 62
     0
370
    -2
100
AcDbLine
 10
417.4999999999999
 20
220.5
 30
0.0
 11
417.4999999999999
 21
189.4999999999999
 31
0.0
  0
LINE
  5
8047
330
7EC5
100
AcDbEntity
  8
30
  6
Continuous
 62
     0
370
    -2
100
AcDbLine
 10
462.5
 20
220.5
 30
0.0
 11
462.5
 21
189.4999999999999
 31
0.0
  0
LINE
  5
8048
330
7EC5
100
AcDbEntity
  8
30
  6
Continuous
 62
     0
370
    -2
100
AcDbLine
 10
419.5
 20
190.0
 30
0.0
 11
460.5
 21
190.0
 31
0.0
  0
INSERT
  5
8049
330
7EC5
100
AcDbEntity
  8
30
  6
Continuous
 62
     0
370
    -2
100
AcDbBlockReference
  2
_OPEN
 10
417.4999999999999
 20
190.0
 30
0.0
 41
2.0
 42
2.0
 43
2.0
 50
180.0
  0
INSERT
  5
804A
330
7EC5
100
AcDbEntity
  8
30
  6
Continuous
 62
     0
370
    -2
100
AcDbBlockReference
  2
_OPEN
 10
462.5
 20
190.0
 30
0.0
 41
2.0
 42
2.0
 43
2.0
  0
MTEXT
  5
804B
330
7EC5
100
AcDbEntity
  8
30
  6
Continuous
 62
     0
100
AcDbMText
 10
440.0
 20
193.0
 30
0.0
 40
4.0
 41
0.0
 71
     5
 72
     1
  1
\A1;45
 73
     1
 44
1.0
  0
POINT
  5
804C
330
7EC5
100
AcDbEntity
  8
DEFPOINTS
  6
Continuous
 62
     0
100
AcDbPoint
 10
417.4999999999999
 20
221.4999999999999
 30
0.0
  0
POINT
  5
804D
330
7EC5
100
AcDbEntity
  8
DEFPOINTS
  6
Continuous
 62
     0
100
AcDbPoint
 10
462.5
 20
221.4999999999999
 30
0.0
  0
POINT
  5
804E
330
7EC5
100
AcDbEntity
  8
DEFPOINTS
  6
Continuous
 62
     0
100
AcDbPoint
 10
462.5
 20
190.0
 30
0.0
  0
ENDBLK
  5
7ED0
330
7EC5
100
AcDbEntity
  8
0
100
AcDbBlockEnd
  0
BLOCK
  5
7EDB
330
7ED1
100
AcDbEntity
  8
0
100
AcDbBlockBegin
  2
*D86
 70
     1
 10
0.0
 20
0.0
 30
0.0
  3
*D86
  1

  0
LINE
  5
804F
330
7ED1
100
AcDbEntity
  8
30
  6
Continuous
 62
     0
370
    -2
100
AcDbLine
 10
389.0
 20
231.0
 30
0.0
 11
389.0
 21
169.5
 31
0.0
  0
LINE
  5
8050
330
7ED1
100
AcDbEntity
  8
30
  6
Continuous
 62
     0
370
    -2
100
AcDbLine
 10
491.0000000000001
 20
231.0
 30
0.0
 11
491.0000000000001
 21
169.5
 31
0.0
  0
LINE
  5
8051
330
7ED1
100
AcDbEntity
  8
30
  6
Continuous
 62
     0
370
    -2
100
AcDbLine
 10
391.0
 20
170.0
 30
0.0
 11
489.0000000000001
 21
170.0
 31
0.0
  0
INSERT
  5
8052
330
7ED1
100
AcDbEntity
  8
30
  6
Continuous
 62
     0
370
    -2
100
AcDbBlockReference
  2
_OPEN
 10
389.0
 20
170.0
 30
0.0
 41
2.0
 42
2.0
 43
2.0
 50
180.0
  0
INSERT
  5
8053
330
7ED1
100
AcDbEntity
  8
30
  6
Continuous
 62
     0
370
    -2
100
AcDbBlockReference
  2
_OPEN
 10
491.0000000000001
 20
170.0
 30
0.0
 41
2.0
 42
2.0
 43
2.0
  0
MTEXT
  5
8054
330
7ED1
100
AcDbEntity
  8
30
  6
Continuous
 62
     0
100
AcDbMText
 10
440.0000000000001
 20
173.0
 30
0.0
 40
4.0
 41
0.0
 71
     5
 72
     1
  1
\A1;102
 73
     1
 44
1.0
  0
POINT
  5
8055
330
7ED1
100
AcDbEntity
  8
DEFPOINTS
  6
Continuous
 62
     0
100
AcDbPoint
 10
389.0
 20
232.0
 30
0.0
  0
POINT
  5
8056
330
7ED1
100
AcDbEntity
  8
DEFPOINTS
  6
Continuous
 62
     0
100
AcDbPoint
 10
491.0000000000001
 20
232.0
 30
0.0
  0
POINT
  5
8057
330
7ED1
100
AcDbEntity
  8
DEFPOINTS
  6
Continuous
 62
     0
100
AcDbPoint
 10
491.0000000000001
 20
170.0
 30
0.0
  0
ENDBLK
  5
7EDC
330
7ED1
100
AcDbEntity
  8
0
100
AcDbBlockEnd
  0
BLOCK
  5
7EE7
330
7EDD
100
AcDbEntity
  8
0
100
AcDbBlockBegin
  2
*D87
 70
     1
 10
0.0
 20
0.0
 30
0.0
  3
*D87
  1

  0
LINE
  5
8058
330
7EDD
100
AcDbEntity
  8
30
  6
Continuous
 62
     0
370
    -2
100
AcDbLine
 10
415.0
 20
222.9999999999996
 30
0.0
 11
415.0
 21
179.4999999999999
 31
0.0
  0
LINE
  5
8059
330
7EDD
100
AcDbEntity
  8
30
  6
Continuous
 62
     0
370
    -2
100
AcDbLine
 10
465.0
 20
222.9999999999996
 30
0.0
 11
465.0
 21
179.4999999999999
 31
0.0
  0
LINE
  5
805A
330
7EDD
100
AcDbEntity
  8
30
  6
Continuous
 62
     0
370
    -2
100
AcDbLine
 10
417.0
 20
180.0
 30
0.0
 11
463.0
 21
180.0
 31
0.0
  0
INSERT
  5
805B
330
7EDD
100
AcDbEntity
  8
30
  6
Continuous
 62
     0
370
    -2
100
AcDbBlockReference
  2
_OPEN
 10
415.0
 20
180.0
 30
0.0
 41
2.0
 42
2.0
 43
2.0
 50
180.0
  0
INSERT
  5
805C
330
7EDD
100
AcDbEntity
  8
30
  6
Continuous
 62
     0
370
    -2
100
AcDbBlockReference
  2
_OPEN
 10
465.0
 20
180.0
 30
0.0
 41
2.0
 42
2.0
 43
2.0
  0
MTEXT
  5
805D
330
7EDD
100
AcDbEntity
  8
30
  6
Continuous
 62
     0
100
AcDbMText
 10
440.0
 20
183.0
 30
0.0
 40
4.0
 41
0.0
 71
     5
 72
     1
  1
\A1;50
 73
     1
 44
1.0
  0
POINT
  5
805E
330
7EDD
100
AcDbEntity
  8
DEFPOINTS
  6
Continuous
 62
     0
100
AcDbPoint
 10
415.0
 20
223.9999999999996
 30
0.0
  0
POINT
  5
805F
330
7EDD
100
AcDbEntity
  8
DEFPOINTS
  6
Continuous
 62
     0
100
AcDbPoint
 10
465.0
 20
223.9999999999996
 30
0.0
  0
POINT
  5
8060
330
7EDD
100
AcDbEntity
  8
DEFPOINTS
  6
Continuous
 62
     0
100
AcDbPoint
 10
465.0
 20
180.0
 30
0.0
  0
ENDBLK
  5
7EE8
330
7EDD
100
AcDbEntity
  8
0
100
AcDbBlockEnd
  0
BLOCK
  5
7EF3
330
7EE9
100
AcDbEntity
  8
0
100
AcDbBlockBegin
  2
*D88
 70
     1
 10
0.0
 20
0.0
 30
0.0
  3
*D88
  1

  0
LINE
  5
8031
330
7EE9
100
AcDbEntity
  8
30
  6
Continuous
 62
     0
370
    -2
100
AcDbLine
 10
441.0
 20
205.0
 30
0.0
 11
570.4999999999999
 21
204.9999999999999
 31
0.0
  0
LINE
  5
8032
330
7EE9
100
AcDbEntity
  8
30
  6
Continuous
 62
     0
370
    -2
100
AcDbLine
 10
523.5
 20
300.0
 30
0.0
 11
570.5
 21
300.0
 31
0.0
  0
LINE
  5
8033
330
7EE9
100
AcDbEntity
  8
30
  6
Continuous
 62
     0
370
    -2
100
AcDbLine
 10
569.9999999999999
 20
206.9999999999999
 30
0.0
 11
570.0
 21
298.0
 31
0.0
  0
INSERT
  5
8034
330
7EE9
100
AcDbEntity
  8
30
  6
Continuous
 62
     0
370
    -2
100
AcDbBlockReference
  2
_OPEN
 10
569.9999999999999
 20
204.9999999999999
 30
0.0
 41
2.0
 42
2.0
 43
2.0
 50
270.0
  0
INSERT
  5
8035
330
7EE9
100
AcDbEntity
  8
30
  6
Continuous
 62
     0
370
    -2
100
AcDbBlockReference
  2
_OPEN
 10
570.0
 20
300.0
 30
0.0
 41
2.0
 42
2.0
 43
2.0
 50
90.0
  0
MTEXT
  5
8036
330
7EE9
100
AcDbEntity
  8
30
  6
Continuous
 62
     0
100
AcDbMText
 10
566.9999999999999
 20
252.5
 30
0.0
 40
4.0
 41
0.0
 71
     5
 72
     1
  1
\A1;95
 11
0.0000000000000001
 21
1.0
 31
0.0
 73
     1
 44
1.0
  0
POINT
  5
8037
330
7EE9
100
AcDbEntity
  8
DEFPOINTS
  6
Continuous
 62
     0
100
AcDbPoint
 10
440.0
 20
205.0
 30
0.0
  0
POINT
  5
8038
330
7EE9
100
AcDbEntity
  8
DEFPOINTS
  6
Continuous
 62
     0
100
AcDbPoint
 10
522.5
 20
300.0
 30
0.0
  0
POINT
  5
8039
330
7EE9
100
AcDbEntity
  8
DEFPOINTS
  6
Continuous
 62
     0
100
AcDbPoint
 10
570.0
 20
300.0
 30
0.0
  0
ENDBLK
  5
7EF4
330
7EE9
100
AcDbEntity
  8
0
100
AcDbBlockEnd
  0
BLOCK
  5
7EFF
330
7EF5
100
AcDbEntity
  8
0
100
AcDbBlockBegin
  2
*D89
 70
     1
 10
0.0
 20
0.0
 30
0.0
  3
*D89
  1

  0
LINE
  5
801F
330
7EF5
100
AcDbEntity
  8
30
  6
Continuous
 62
     0
370
    -2
100
AcDbLine
 10
492.0
 20
232.0
 30
0.0
 11
550.4999999999999
 21
232.0
 31
0.0
  0
LINE
  5
8020
330
7EF5
100
AcDbEntity
  8
30
  6
Continuous
 62
     0
370
    -2
100
AcDbLine
 10
523.5
 20
300.0
 30
0.0
 11
550.4999999999999
 21
300.0
 31
0.0
  0
LINE
  5
8021
330
7EF5
100
AcDbEntity
  8
30
  6
Continuous
 62
     0
370
    -2
100
AcDbLine
 10
549.9999999999999
 20
234.0
 30
0.0
 11
550.0
 21
298.0
 31
0.0
  0
INSERT
  5
8022
330
7EF5
100
AcDbEntity
  8
30
  6
Continuous
 62
     0
370
    -2
100
AcDbBlockReference
  2
_OPEN
 10
549.9999999999999
 20
232.0
 30
0.0
 41
2.0
 42
2.0
 43
2.0
 50
270.0
  0
INSERT
  5
8023
330
7EF5
100
AcDbEntity
  8
30
  6
Continuous
 62
     0
370
    -2
100
AcDbBlockReference
  2
_OPEN
 10
550.0
 20
300.0
 30
0.0
 41
2.0
 42
2.0
 43
2.0
 50
90.0
  0
MTEXT
  5
8024
330
7EF5
100
AcDbEntity
  8
30
  6
Continuous
 62
     0
100
AcDbMText
 10
546.9999999999998
 20
266.0
 30
0.0
 40
4.0
 41
0.0
 71
     5
 72
     1
  1
\A1;68
 11
0.0000000000000001
 21
1.0
 31
0.0
 73
     1
 44
1.0
  0
POINT
  5
8025
330
7EF5
100
AcDbEntity
  8
DEFPOINTS
  6
Continuous
 62
     0
100
AcDbPoint
 10
491.0000000000001
 20
232.0
 30
0.0
  0
POINT
  5
8026
330
7EF5
100
AcDbEntity
  8
DEFPOINTS
  6
Continuous
 62
     0
100
AcDbPoint
 10
522.5
 20
300.0
 30
0.0
  0
POINT
  5
8027
330
7EF5
100
AcDbEntity
  8
DEFPOINTS
  6
Continuous
 62
     0
100
AcDbPoint
 10
550.0
 20
300.0
 30
0.0
  0
ENDBLK
  5
7F00
330
7EF5
100
AcDbEntity
  8
0
100
AcDbBlockEnd
  0
BLOCK
  5
7F0B
330
7F01
100
AcDbEntity
  8
0
100
AcDbBlockBegin
  2
*D90
 70
     1
 10
0.0
 20
0.0
 30
0.0
  3
*D90
  1

  0
LINE
  5
8061
330
7F01
100
AcDbEntity
  8
30
  6
Continuous
 62
     0
370
    -2
100
AcDbLine
 10
523.5
 20
240.0
 30
0.0
 11
540.4999999999999
 21
240.0
 31
0.0
  0
LINE
  5
8062
330
7F01
100
AcDbEntity
  8
30
  6
Continuous
 62
     0
370
    -2
100
AcDbLine
 10
523.5
 20
300.0
 30
0.0
 11
540.5
 21
300.0
 31
0.0
  0
LINE
  5
8063
330
7F01
100
AcDbEntity
  8
30
  6
Continuous
 62
     0
370
    -2
100
AcDbLine
 10
539.9999999999998
 20
242.0
 30
0.0
 11
540.0
 21
298.0
 31
0.0
  0
INSERT
  5
8064
330
7F01
100
AcDbEntity
  8
30
  6
Continuous
 62
     0
370
    -2
100
AcDbBlockReference
  2
_OPEN
 10
539.9999999999998
 20
240.0
 30
0.0
 41
2.0
 42
2.0
 43
2.0
 50
270.0
  0
INSERT
  5
8065
330
7F01
100
AcDbEntity
  8
30
  6
Continuous
 62
     0
370
    -2
100
AcDbBlockReference
  2
_OPEN
 10
540.0
 20
300.0
 30
0.0
 41
2.0
 42
2.0
 43
2.0
 50
90.0
  0
MTEXT
  5
8066
330
7F01
100
AcDbEntity
  8
30
  6
Continuous
 62
     0
100
AcDbMText
 10
536.9999999999999
 20
270.0
 30
0.0
 40
4.0
 41
0.0
 71
     5
 72
     1
  1
\A1;60
 11
0.0000000000000001
 21
1.0
 31
0.0
 73
     1
 44
1.0
  0
POINT
  5
8067
330
7F01
100
AcDbEntity
  8
DEFPOINTS
  6
Continuous
 62
     0
100
AcDbPoint
 10
522.5
 20
240.0
 30
0.0
  0
POINT
  5
8068
330
7F01
100
AcDbEntity
  8
DEFPOINTS
  6
Continuous
 62
     0
100
AcDbPoint
 10
522.5
 20
300.0
 30
0.0
  0
POINT
  5
8069
330
7F01
100
AcDbEntity
  8
DEFPOINTS
  6
Continuous
 62
     0
100
AcDbPoint
 10
540.0
 20
300.0
 30
0.0
  0
ENDBLK
  5
7F0C
330
7F01
100
AcDbEntity
  8
0
100
AcDbBlockEnd
  0
BLOCK
  5
7F17
330
7F0D
100
AcDbEntity
  8
0
100
AcDbBlockBegin
  2
*D91
 70
     1
 10
0.0
 20
0.0
 30
0.0
  3
*D91
  1

  0
LINE
  5
806A
330
7F0D
100
AcDbEntity
  8
30
  6
Continuous
 62
     0
370
    -2
100
AcDbLine
 10
508.25
 20
254.0
 30
0.0
 11
530.4999999999998
 21
254.0
 31
0.0
  0
LINE
  5
806B
330
7F0D
100
AcDbEntity
  8
30
  6
Continuous
 62
     0
370
    -2
100
AcDbLine
 10
523.5
 20
300.0
 30
0.0
 11
530.4999999999999
 21
300.0
 31
0.0
  0
LINE
  5
806C
330
7F0D
100
AcDbEntity
  8
30
  6
Continuous
 62
     0
370
    -2
100
AcDbLine
 10
530.0
 20
256.0
 30
0.0
 11
530.0
 21
298.0
 31
0.0
  0
INSERT
  5
806D
330
7F0D
100
AcDbEntity
  8
30
  6
Continuous
 62
     0
370
    -2
100
AcDbBlockReference
  2
_OPEN
 10
529.9999999999998
 20
254.0
 30
0.0
 41
2.0
 42
2.0
 43
2.0
 50
270.0
  0
INSERT
  5
806E
330
7F0D
100
AcDbEntity
  8
30
  6
Continuous
 62
     0
370
    -2
100
AcDbBlockReference
  2
_OPEN
 10
530.0
 20
300.0
 30
0.0
 41
2.0
 42
2.0
 43
2.0
 50
90.0
  0
MTEXT
  5
806F
330
7F0D
100
AcDbEntity
  8
30
  6
Continuous
 62
     0
100
AcDbMText
 10
526.9999999999998
 20
277.0
 30
0.0
 40
4.0
 41
0.0
 71
     5
 72
     1
  1
\A1;46
 11
0.0000000000000001
 21
1.0
 31
0.0
 73
     1
 44
1.0
  0
POINT
  5
8070
330
7F0D
100
AcDbEntity
  8
DEFPOINTS
  6
Continuous
 62
     0
100
AcDbPoint
 10
507.2499999999999
 20
254.0
 30
0.0
  0
POINT
  5
8071
330
7F0D
100
AcDbEntity
  8
DEFPOINTS
  6
Continuous
 62
     0
100
AcDbPoint
 10
522.5
 20
300.0
 30
0.0
  0
POINT
  5
8072
330
7F0D
100
AcDbEntity
  8
DEFPOINTS
  6
Continuous
 62
     0
100
AcDbPoint
 10
530.0
 20
300.0
 30
0.0
  0
ENDBLK
  5
7F18
330
7F0D
100
AcDbEntity
  8
0
100
AcDbBlockEnd
  0
BLOCK
  5
7F23
330
7F19
100
AcDbEntity
  8
0
100
AcDbBlockBegin
  2
*D92
 70
     1
 10
0.0
 20
0.0
 30
0.0
  3
*D92
  1

  0
LINE
  5
8028
330
7F19
100
AcDbEntity
  8
30
  6
Continuous
 62
     0
370
    -2
100
AcDbLine
 10
466.0
 20
225.4999999999999
 30
0.0
 11
560.4999999999998
 21
225.4999999999999
 31
0.0
  0
LINE
  5
8029
330
7F19
100
AcDbEntity
  8
30
  6
Continuous
 62
     0
370
    -2
100
AcDbLine
 10
523.5
 20
300.0
 30
0.0
 11
560.5
 21
300.0
 31
0.0
  0
LINE
  5
802A
330
7F19
100
AcDbEntity
  8
30
  6
Continuous
 62
     0
370
    -2
100
AcDbLine
 10
559.9999999999998
 20
227.4999999999999
 30
0.0
 11
560.0
 21
298.0
 31
0.0
  0
INSERT
  5
802B
330
7F19
100
AcDbEntity
  8
30
  6
Continuous
 62
     0
370
    -2
100
AcDbBlockReference
  2
_OPEN
 10
559.9999999999998
 20
225.4999999999999
 30
0.0
 41
2.0
 42
2.0
 43
2.0
 50
270.0
  0
INSERT
  5
802C
330
7F19
100
AcDbEntity
  8
30
  6
Continuous
 62
     0
370
    -2
100
AcDbBlockReference
  2
_OPEN
 10
560.0
 20
300.0
 30
0.0
 41
2.0
 42
2.0
 43
2.0
 50
90.0
  0
MTEXT
  5
802D
330
7F19
100
AcDbEntity
  8
30
  6
Continuous
 62
     0
100
AcDbMText
 10
556.9999999999999
 20
262.75
 30
0.0
 40
4.0
 41
0.0
 71
     5
 72
     1
  1
\A1;74.5
 11
0.0000000000000001
 21
1.0
 31
0.0
 73
     1
 44
1.0
  0
POINT
  5
802E
330
7F19
100
AcDbEntity
  8
DEFPOINTS
  6
Continuous
 62
     0
100
AcDbPoint
 10
465.0
 20
225.4999999999999
 30
0.0
  0
POINT
  5
802F
330
7F19
100
AcDbEntity
  8
DEFPOINTS
  6
Continuous
 62
     0
100
AcDbPoint
 10
522.5
 20
300.0
 30
0.0
  0
POINT
  5
8030
330
7F19
100
AcDbEntity
  8
DEFPOINTS
  6
Continuous
 62
     0
100
AcDbPoint
 10
560.0
 20
300.0
 30
0.0
  0
ENDBLK
  5
7F24
330
7F19
100
AcDbEntity
  8
0
100
AcDbBlockEnd
  0
BLOCK
  5
7F31
330
7F25
100
AcDbEntity
  8
0
100
AcDbBlockBegin
  2
*D93
 70
     1
 10
0.0
 20
0.0
 30
0.0
  3
*D93
  1

  0
LINE
  5
803A
330
7F25
100
AcDbEntity
  8
30
  6
Continuous
 62
     0
370
    -2
100
AcDbLine
 10
463.4999999999999
 20
221.4999999999999
 30
0.0
 11
562.8333333333333
 21
221.4999999999999
 31
0.0
  0
LINE
  5
803B
330
7F25
100
AcDbEntity
  8
30
  6
Continuous
 62
     0
370
    -2
100
AcDbLine
 10
466.0
 20
225.4999999999999
 30
0.0
 11
562.8333333333333
 21
225.4999999999999
 31
0.0
  0
LINE
  5
803C
330
7F25
100
AcDbEntity
  8
30
  6
Continuous
 62
     0
370
    -2
100
AcDbLine
 10
562.3333333333333
 20
227.4999999999999
 30
0.0
 11
562.3333333333333
 21
229.4999999999999
 31
0.0
  0
LINE
  5
803D
330
7F25
100
AcDbEntity
  8
30
  6
Continuous
 62
     0
370
    -2
100
AcDbLine
 10
562.3333333333333
 20
219.4999999999999
 30
0.0
 11
562.3333333333333
 21
214.4999999999999
 31
0.0
  0
LINE
  5
803E
330
7F25
100
AcDbEntity
  8
30
  6
Continuous
 62
     0
370
    -2
100
AcDbLine
 10
562.3333333333333
 20
214.4999999999999
 30
0.0
 11
558.6666666666667
 21
214.4999999999999
 31
0.0
  0
LINE
  5
803F
330
7F25
100
AcDbEntity
  8
30
  6
Continuous
 62
     0
370
    -2
100
AcDbLine
 10
562.3333333333333
 20
225.4999999999999
 30
0.0
 11
562.3333333333333
 21
221.4999999999999
 31
0.0
  0
INSERT
  5
8040
330
7F25
100
AcDbEntity
  8
30
  6
Continuous
 62
     0
370
    -2
100
AcDbBlockReference
  2
_OPEN
 10
562.3333333333333
 20
225.4999999999999
 30
0.0
 41
2.0
 42
2.0
 43
2.0
 50
270.0
  0
INSERT
  5
8041
330
7F25
100
AcDbEntity
  8
30
  6
Continuous
 62
     0
370
    -2
100
AcDbBlockReference
  2
_OPEN
 10
562.3333333333333
 20
221.4999999999999
 30
0.0
 41
2.0
 42
2.0
 43
2.0
 50
90.0
  0
MTEXT
  5
8042
330
7F25
100
AcDbEntity
  8
30
  6
Continuous
 62
     0
100
AcDbMText
 10
560.0
 20
217.5
 30
0.0
 40
4.0
 41
0.0
 71
     5
 72
     1
  1
\A1;4
 73
     1
 44
1.0
  0
POINT
  5
8043
330
7F25
100
AcDbEntity
  8
DEFPOINTS
  6
Continuous
 62
     0
100
AcDbPoint
 10
462.5
 20
221.4999999999999
 30
0.0
  0
POINT
  5
8044
330
7F25
100
AcDbEntity
  8
DEFPOINTS
  6
Continuous
 62
     0
100
AcDbPoint
 10
465.0
 20
225.4999999999999
 30
0.0
  0
POINT
  5
8045
330
7F25
100
AcDbEntity
  8
DEFPOINTS
  6
Continuous
 62
     0
100
AcDbPoint
 10
562.3333333333333
 20
225.4999999999999
 30
0.0
  0
ENDBLK
  5
7F32
330
7F25
100
AcDbEntity
  8
0
100
AcDbBlockEnd
  0
BLOCK
  5
7F3D
330
7F33
100
AcDbEntity
  8
0
100
AcDbBlockBegin
  2
*D94
 70
     1
 10
0.0
 20
0.0
 30
0.0
  3
*D94
  1

  0
LINE
  5
8073
330
7F33
100
AcDbEntity
  8
30
  6
Continuous
 62
     0
370
    -2
100
AcDbLine
 10
523.5
 20
300.0
 30
0.0
 11
530.4999999999999
 21
300.0
 31
0.0
  0
LINE
  5
8074
330
7F33
100
AcDbEntity
  8
30
  6
Continuous
 62
     0
370
    -2
100
AcDbLine
 10
506.25
 20
307.0
 30
0.0
 11
530.4999999999999
 21
307.0
 31
0.0
  0
LINE
  5
8075
330
7F33
100
AcDbEntity
  8
30
  6
Continuous
 62
     0
370
    -2
100
AcDbLine
 10
530.0
 20
302.0
 30
0.0
 11
530.0
 21
305.0
 31
0.0
  0
INSERT
  5
8076
330
7F33
100
AcDbEntity
  8
30
  6
Continuous
 62
     0
370
    -2
100
AcDbBlockReference
  2
_OPEN
 10
530.0
 20
300.0
 30
0.0
 41
2.0
 42
2.0
 43
2.0
 50
270.0
  0
INSERT
  5
8077
330
7F33
100
AcDbEntity
  8
30
  6
Continuous
 62
     0
370
    -2
100
AcDbBlockReference
  2
_OPEN
 10
530.0
 20
307.0
 30
0.0
 41
2.0
 42
2.0
 43
2.0
 50
90.0
  0
MTEXT
  5
8078
330
7F33
100
AcDbEntity
  8
30
  6
Continuous
 62
     0
100
AcDbMText
 10
526.9999999999998
 20
303.5
 30
0.0
 40
4.0
 41
0.0
 71
     5
 72
     1
  1
\A1;7
 11
0.0000000000000001
 21
1.0
 31
0.0
 73
     1
 44
1.0
  0
POINT
  5
8079
330
7F33
100
AcDbEntity
  8
DEFPOINTS
  6
Continuous
 62
     0
100
AcDbPoint
 10
522.5
 20
300.0
 30
0.0
  0
POINT
  5
807A
330
7F33
100
AcDbEntity
  8
DEFPOINTS
  6
Continuous
 62
     0
100
AcDbPoint
 10
505.25
 20
307.0
 30
0.0
  0
POINT
  5
807B
330
7F33
100
AcDbEntity
  8
DEFPOINTS
  6
Continuous
 62
     0
100
AcDbPoint
 10
530.0
 20
307.0
 30
0.0
  0
ENDBLK
  5
7F3E
330
7F33
100
AcDbEntity
  8
0
100
AcDbBlockEnd
  0
BLOCK
  5
7F49
330
7F3F
100
AcDbEntity
  8
0
100
AcDbBlockBegin
  2
*D95
 70
     1
 10
0.0
 20
0.0
 30
0.0
  3
*D95
  1

  0
LINE
  5
8016
330
7F3F
100
AcDbEntity
  8
30
  6
Continuous
 62
     0
370
    -2
100
AcDbLine
 10
356.5
 20
275.9999999999998
 30
0.0
 11
329.5
 21
275.9999999999998
 31
0.0
  0
LINE
  5
8017
330
7F3F
100
AcDbEntity
  8
30
  6
Continuous
 62
     0
370
    -2
100
AcDbLine
 10
356.5
 20
300.0
 30
0.0
 11
329.5
 21
300.0
 31
0.0
  0
LINE
  5
8018
330
7F3F
100
AcDbEntity
  8
30
  6
Continuous
 62
     0
370
    -2
100
AcDbLine
 10
330.0
 20
277.9999999999998
 30
0.0
 11
330.0
 21
298.0
 31
0.0
  0
INSERT
  5
8019
330
7F3F
100
AcDbEntity
  8
30
  6
Continuous
 62
     0
370
    -2
100
AcDbBlockReference
  2
_OPEN
 10
330.0
 20
275.9999999999998
 30
0.0
 41
2.0
 42
2.0
 43
2.0
 50
270.0
  0
INSERT
  5
801A
330
7F3F
100
AcDbEntity
  8
30
  6
Continuous
 62
     0
370
    -2
100
AcDbBlockReference
  2
_OPEN
 10
330.0
 20
300.0
 30
0.0
 41
2.0
 42
2.0
 43
2.0
 50
90.0
  0
MTEXT
  5
801B
330
7F3F
100
AcDbEntity
  8
30
  6
Continuous
 62
     0
100
AcDbMText
 10
327.0
 20
288.0
 30
0.0
 40
4.0
 41
0.0
 71
     5
 72
     1
  1
\A1;24
 11
0.0000000000000001
 21
1.0
 31
0.0
 73
     1
 44
1.0
  0
POINT
  5
801C
330
7F3F
100
AcDbEntity
  8
DEFPOINTS
  6
Continuous
 62
     0
100
AcDbPoint
 10
357.5
 20
275.9999999999998
 30
0.0
  0
POINT
  5
801D
330
7F3F
100
AcDbEntity
  8
DEFPOINTS
  6
Continuous
 62
     0
100
AcDbPoint
 10
357.5
 20
300.0
 30
0.0
  0
POINT
  5
801E
330
7F3F
100
AcDbEntity
  8
DEFPOINTS
  6
Continuous
 62
     0
100
AcDbPoint
 10
330.0
 20
300.0
 30
0.0
  0
ENDBLK
  5
7F4A
330
7F3F
100
AcDbEntity
  8
0
100
AcDbBlockEnd
  0
ENDSEC
  0
SECTION
  2
ENTITIES
  0
LINE
  5
B4
330
1E
100
AcDbEntity
  8
16
100
AcDbLine
 10
0.0
 20
-100.0
 30
0.0
 11
0.0
 21
100.0
 31
0.0
  0
MTEXT
  5
BF3
330
1E
100
AcDbEntity
  8
24
  6
Continuous
100
AcDbMText
 10
142.118191
 20
177.5
 30
0.0
 40
3.0
 41
0.0
 71
     1
 72
     1
  1
\A1;
 73
     1
 44
1.0
1001
ACAD
1000
MTEXTBEGIN
1070
    73
1070
     1
1070
    44
1040
1.0
1070
    74
1070
     0
1000
MTEXTEND
  0
LINE
  5
1C9A
330
1E
100
AcDbEntity
  8
16
100
AcDbLine
 10
0.0
 20
200.0
 30
0.0
 11
0.0
 21
310.0
 31
0.0
  0
LINE
  5
4C5A
330
1E
100
AcDbEntity
  8
16
100
AcDbLine
 10
70.0
 20
0.0
 30
0.0
 11
-70.0
 21
0.0
 31
0.0
  0
MTEXT
  5
5C78
330
1E
100
AcDbEntity
  8
30
  6
Continuous
100
AcDbMText
 10
163.4658593933072
 20
90.15025714526428
 30
0.0
 40
4.0
 41
0.0
 71
     9
 72
     1
  1

 73
     1
 44
1.0
1001
ACAD
1000
MTEXTBEGIN
1070
    73
1070
     1
1070
    44
1040
1.0
1070
    74
1070
     0
1000
MTEXTEND
  0
LINE
  5
5C8D
330
1E
100
AcDbEntity
  8
10
  6
CONTINOUS
100
AcDbLine
 10
49.00000000000003
 20
231.9999999999999
 30
0.0
 11
49.00000000000003
 21
239.0
 31
0.0
  0
LINE
  5
5CA2
330
1E
100
AcDbEntity
  8
24
  6
CONTINOUS
100
AcDbLine
 10
35.00000000000003
 20
263.7999999999999
 30
0.0
 11
35.00000000000003
 21
281.0000000000001
 31
0.0
  0
LINE
  5
5CA3
330
1E
100
AcDbEntity
  8
24
  6
CONTINOUS
100
AcDbLine
 10
24.50000000000001
 20
276.0000000000001
 30
0.0
 11
45.50000000000014
 21
276.0000000000001
 31
0.0
  0
LINE
  5
5CA4
330
1E
100
AcDbEntity
  8
24
  6
CONTINOUS
100
AcDbLine
 10
27.30000000000009
 20
274.0000000000001
 30
0.0
 11
42.70000000000007
 21
274.0000000000001
 31
0.0
  0
LINE
  5
5CA5
330
1E
100
AcDbEntity
  8
24
  6
CONTINOUS
100
AcDbLine
 10
30.00000000000003
 20
268.7999999999998
 30
0.0
 11
40.0
 21
268.7999999999998
 31
0.0
  0
LINE
  5
5CA6
330
1E
100
AcDbEntity
  8
24
  6
CONTINOUS
100
AcDbLine
 10
24.50000000000001
 20
278.0000000000001
 30
0.0
 11
45.50000000000014
 21
278.0000000000001
 31
0.0
  0
LINE
  5
5CA7
330
1E
100
AcDbEntity
  8
24
  6
CONTINOUS
100
AcDbLine
 10
42.70000000000007
 20
274.0000000000001
 30
0.0
 11
42.70000000000007
 21
276.0000000000001
 31
0.0
  0
ARC
  5
5CA8
330
1E
100
AcDbEntity
  8
24
  6
CONTINOUS
100
AcDbCircle
 10
40.0
 20
270.7999999999996
 30
0.0
 40
2.0
100
AcDbArc
 50
270.0
 51
0.0
  0
LINE
  5
5CA9
330
1E
100
AcDbEntity
  8
24
  6
CONTINOUS
100
AcDbLine
 10
42.00000000000001
 20
270.7999999999996
 30
0.0
 11
42.00000000000001
 21
274.0000000000001
 31
0.0
  0
LINE
  5
5CAB
330
1E
100
AcDbEntity
  8
24
  6
CONTINOUS
100
AcDbLine
 10
27.30000000000009
 20
274.0000000000001
 30
0.0
 11
27.30000000000009
 21
276.0000000000001
 31
0.0
  0
ARC
  5
5CAC
330
1E
100
AcDbEntity
  8
24
  6
CONTINOUS
100
AcDbCircle
 10
30.00000000000003
 20
270.7999999999996
 30
0.0
 40
2.0
100
AcDbArc
 50
180.0
 51
270.0
  0
LINE
  5
5CAD
330
1E
100
AcDbEntity
  8
24
  6
CONTINOUS
100
AcDbLine
 10
28.00000000000002
 20
270.7999999999996
 30
0.0
 11
28.00000000000002
 21
274.0000000000001
 31
0.0
  0
LINE
  5
5F54
330
1E
100
AcDbEntity
  8
24
  6
CONTINOUS
100
AcDbLine
 10
-10.49999999999999
 20
278.0000000000001
 30
0.0
 11
10.5000000000001
 21
278.0000000000001
 31
0.0
  0
LINE
  5
5F55
330
1E
100
AcDbEntity
  8
24
  6
CONTINOUS
100
AcDbLine
 10
-7.699999999999931
 20
274.0000000000001
 30
0.0
 11
7.700000000000045
 21
274.0000000000001
 31
0.0
  0
LINE
  5
5F56
330
1E
100
AcDbEntity
  8
24
  6
CONTINOUS
100
AcDbLine
 10
-10.49999999999999
 20
276.0000000000001
 30
0.0
 11
10.5000000000001
 21
276.0000000000001
 31
0.0
  0
ARC
  5
5F57
330
1E
100
AcDbEntity
  8
24
  6
CONTINOUS
100
AcDbCircle
 10
5.0
 20
270.7999999999996
 30
0.0
 40
2.0
100
AcDbArc
 50
270.0
 51
0.0
  0
LINE
  5
5F58
330
1E
100
AcDbEntity
  8
24
  6
CONTINOUS
100
AcDbLine
 10
-6.999999999999997
 20
270.7999999999996
 30
0.0
 11
-6.999999999999997
 21
274.0000000000001
 31
0.0
  0
LINE
  5
5F59
330
1E
100
AcDbEntity
  8
24
  6
CONTINOUS
100
AcDbLine
 10
-0.0000000000000007
 20
263.7999999999999
 30
0.0
 11
-0.0000000000000007
 21
281.0000000000001
 31
0.0
  0
LINE
  5
5F5A
330
1E
100
AcDbEntity
  8
24
  6
CONTINOUS
100
AcDbLine
 10
-4.999999999999999
 20
268.7999999999998
 30
0.0
 11
5.0
 21
268.7999999999998
 31
0.0
  0
ARC
  5
5F5B
330
1E
100
AcDbEntity
  8
24
  6
CONTINOUS
100
AcDbCircle
 10
-4.999999999999999
 20
270.7999999999996
 30
0.0
 40
2.0
100
AcDbArc
 50
180.0
 51
270.0
  0
LINE
  5
5F5C
330
1E
100
AcDbEntity
  8
24
  6
CONTINOUS
100
AcDbLine
 10
-7.699999999999931
 20
274.0000000000001
 30
0.0
 11
-7.699999999999931
 21
276.0000000000001
 31
0.0
  0
LINE
  5
5F5D
330
1E
100
AcDbEntity
  8
24
  6
CONTINOUS
100
AcDbLine
 10
7.0
 20
270.7999999999996
 30
0.0
 11
7.0
 21
274.0000000000001
 31
0.0
  0
LINE
  5
5F5E
330
1E
100
AcDbEntity
  8
24
  6
CONTINOUS
100
AcDbLine
 10
7.700000000000045
 20
274.0000000000001
 30
0.0
 11
7.700000000000045
 21
276.0000000000001
 31
0.0
  0
LINE
  5
5F60
330
1E
100
AcDbEntity
  8
24
  6
CONTINOUS
100
AcDbLine
 10
-39.99999999999999
 20
268.7999999999998
 30
0.0
 11
-29.99999999999999
 21
268.7999999999998
 31
0.0
  0
LINE
  5
5F61
330
1E
100
AcDbEntity
  8
24
  6
CONTINOUS
100
AcDbLine
 10
-45.49999999999999
 20
276.0000000000001
 30
0.0
 11
-24.49999999999988
 21
276.0000000000001
 31
0.0
  0
LINE
  5
5F62
330
1E
100
AcDbEntity
  8
24
  6
CONTINOUS
100
AcDbLine
 10
-42.69999999999993
 20
274.0000000000001
 30
0.0
 11
-27.29999999999995
 21
274.0000000000001
 31
0.0
  0
LINE
  5
5F63
330
1E
100
AcDbEntity
  8
24
  6
CONTINOUS
100
AcDbLine
 10
-45.49999999999999
 20
278.0000000000001
 30
0.0
 11
-24.49999999999988
 21
278.0000000000001
 31
0.0
  0
LINE
  5
5F64
330
1E
100
AcDbEntity
  8
24
  6
CONTINOUS
100
AcDbLine
 10
-34.99999999999999
 20
263.7999999999999
 30
0.0
 11
-34.99999999999999
 21
281.0000000000001
 31
0.0
  0
LINE
  5
5F65
330
1E
100
AcDbEntity
  8
24
  6
CONTINOUS
100
AcDbLine
 10
-42.0
 20
270.7999999999996
 30
0.0
 11
-42.0
 21
274.0000000000001
 31
0.0
  0
ARC
  5
5F66
330
1E
100
AcDbEntity
  8
24
  6
CONTINOUS
100
AcDbCircle
 10
-39.99999999999986
 20
270.7999999999996
 30
0.0
 40
2.0
100
AcDbArc
 50
180.0
 51
270.0
  0
LINE
  5
5F67
330
1E
100
AcDbEntity
  8
24
  6
CONTINOUS
100
AcDbLine
 10
-42.69999999999993
 20
274.0000000000001
 30
0.0
 11
-42.69999999999993
 21
276.0000000000001
 31
0.0
  0
LINE
  5
5F68
330
1E
100
AcDbEntity
  8
24
  6
CONTINOUS
100
AcDbLine
 10
-28.0
 20
270.7999999999996
 30
0.0
 11
-28.0
 21
274.0000000000001
 31
0.0
  0
ARC
  5
5F69
330
1E
100
AcDbEntity
  8
24
  6
CONTINOUS
100
AcDbCircle
 10
-29.99999999999987
 20
270.7999999999996
 30
0.0
 40
2.0
100
AcDbArc
 50
270.0
 51
0.0
  0
LINE
  5
5F6A
330
1E
100
AcDbEntity
  8
24
  6
CONTINOUS
100
AcDbLine
 10
-27.29999999999995
 20
274.0000000000001
 30
0.0
 11
-27.29999999999995
 21
276.0000000000001
 31
0.0
  0
MTEXT
  5
6068
330
1E
100
AcDbEntity
  8
30
  6
Continuous
100
AcDbMText
 10
-32.98718375015141
 20
-163.7563795703974
 30
0.0
 40
4.0
 41
0.0
 71
     9
 72
     1
  1

 73
     1
 44
1.0
1001
ACAD
1000
MTEXTBEGIN
1070
    73
1070
     1
1070
    44
1040
1.0
1070
    74
1070
     0
1000
MTEXTEND
  0
TEXT
  5
67AA
330
1E
100
AcDbEntity
  8
TOP
  6
ByBlock
 62
     0
100
AcDbText
 10
371.3280318172496
 20
-98.62309151624522
 30
0.0
 40
7.500000049499999
  1
 
 41
1.189062499999995
  7
UGMTXT
100
AcDbText
  0
MTEXT
  5
67AE
330
1E
100
AcDbEntity
  8
30
  6
Continuous
100
AcDbMText
 10
326.1216727604241
 20
-106.5789363738149
 30
0.0
 40
4.0
 41
0.0
 71
     1
 72
     1
  1
 
 73
     1
 44
1.0
1001
ACAD
1000
MTEXTBEGIN
1070
    73
1070
     1
1070
    44
1040
1.0
1070
    74
1070
     0
1000
MTEXTEND
  0
DIMENSION
  5
68C0
330
1E
100
AcDbEntity
  8
30
  6
Continuous
100
AcDbDimension
  2
*D25
 10
0.0000000000000006
 20
320.0
 30
0.0
 11
-17.49999999999999
 21
323.0
 31
0.0
 70
    32
 71
     5
 42
34.99999999999999
  3
STANDARD
100
AcDbAlignedDimension
 13
-34.99999999999999
 23
281.0000000000001
 33
0.0
 14
0.0
 24
310.0
 34
0.0
100
AcDbRotatedDimension
1001
ACAD
1000
DSTYLE
1002
{
1070
    79
1070
     3
1002
}
  0
DIMENSION
  5
68CD
330
1E
100
AcDbEntity
  8
30
  6
Continuous
100
AcDbDimension
  2
*D26
 10
35.00000000000003
 20
320.0
 30
0.0
 11
17.50000000000001
 21
323.0
 31
0.0
 70
    32
 71
     5
 42
35.00000000000003
  3
STANDARD
100
AcDbAlignedDimension
 13
0.0
 23
310.0
 33
0.0
 14
35.00000000000003
 24
281.0000000000001
 34
0.0
100
AcDbRotatedDimension
1001
ACAD
1000
DSTYLE
1002
{
1070
   287
1070
     4
1070
   287
1070
     4
1070
   287
1070
     4
1070
   287
1070
     4
1070
   279
1070
     1
1070
    79
1070
     3
1002
}
  0
MTEXT
  5
7173
330
1E
100
AcDbEntity
  8
30
  6
Continuous
100
AcDbMText
 10
171.268629260452
 20
275.4973907375729
 30
0.0
 40
5.0
 41
122.5389999999999
 71
     1
 72
     5
  1
ZNE250-SF 3P FC\PZNS250-SF 3P FC
  7
STANDARD1
 73
     1
 44
1.0
  0
LINE
  5
725C
330
1E
100
AcDbEntity
  8
18
100
AcDbLine
 10
16.0
 20
183.4999999999999
 30
0.0
 11
16.0
 21
82.5
 31
0.0
  0
LINE
  5
725D
330
1E
100
AcDbEntity
  8
18
100
AcDbLine
 10
-19.0
 20
183.4999999999999
 30
0.0
 11
-19.0
 21
82.5
 31
0.0
  0
LINE
  5
725E
330
1E
100
AcDbEntity
  8
18
100
AcDbLine
 10
-16.0
 20
183.4999999999999
 30
0.0
 11
-16.0
 21
82.5
 31
0.0
  0
LINE
  5
725F
330
1E
100
AcDbEntity
  8
18
100
AcDbLine
 10
19.0
 20
183.4999999999999
 30
0.0
 11
19.0
 21
82.5
 31
0.0
  0
CIRCLE
  5
7260
330
1E
100
AcDbEntity
  8
24
  6
CONTINOUS
100
AcDbCircle
 10
35.0
 20
72.0
 30
0.0
 40
5.0
  0
CIRCLE
  5
7264
330
1E
100
AcDbEntity
  8
24
  6
CONTINOUS
100
AcDbCircle
 10
35.0
 20
-72.0
 30
0.0
 40
5.0
  0
LINE
  5
7266
330
1E
100
AcDbEntity
  8
10
  6
CONTINOUS
100
AcDbLine
 10
-52.5
 20
-51.0
 30
0.0
 11
52.5
 21
-51.0
 31
0.0
  0
LINE
  5
7267
330
1E
100
AcDbEntity
  8
24
  6
CONTINOUS
100
AcDbLine
 10
28.0
 20
-72.0
 30
0.0
 11
42.0
 21
-72.0
 31
0.0
  0
LINE
  5
7268
330
1E
100
AcDbEntity
  8
24
  6
CONTINOUS
100
AcDbLine
 10
28.0
 20
72.0
 30
0.0
 11
42.0
 21
72.0
 31
0.0
  0
LINE
  5
726C
330
1E
100
AcDbEntity
  8
10
  6
CONTINOUS
100
AcDbLine
 10
-52.5
 20
51.0
 30
0.0
 11
52.5
 21
51.0
 31
0.0
  0
CIRCLE
  5
727F
330
1E
100
AcDbEntity
  8
24
  6
CONTINOUS
100
AcDbCircle
 10
-35.0
 20
-72.0
 30
0.0
 40
5.0
  0
LINE
  5
7281
330
1E
100
AcDbEntity
  8
24
  6
CONTINOUS
100
AcDbLine
 10
-42.0
 20
-72.0
 30
0.0
 11
-28.0
 21
-72.0
 31
0.0
  0
LINE
  5
7283
330
1E
100
AcDbEntity
  8
24
  6
CONTINOUS
100
AcDbLine
 10
-35.0
 20
-65.0
 30
0.0
 11
-35.0
 21
-78.99999999999997
 31
0.0
  0
CIRCLE
  5
7284
330
1E
100
AcDbEntity
  8
24
  6
CONTINOUS
100
AcDbCircle
 10
0.0
 20
-72.0
 30
0.0
 40
5.0
  0
LINE
  5
7286
330
1E
100
AcDbEntity
  8
24
  6
CONTINOUS
100
AcDbLine
 10
-7.0
 20
-72.0
 30
0.0
 11
7.0
 21
-72.0
 31
0.0
  0
CIRCLE
  5
7289
330
1E
100
AcDbEntity
  8
12
  6
DASHED
100
AcDbCircle
 10
17.5
 20
-63.0
 30
0.0
 40
4.0
  0
LINE
  5
728A
330
1E
100
AcDbEntity
  8
12
  6
DASHED
100
AcDbLine
 10
12.0
 20
-63.0
 30
0.0
 11
23.0
 21
-63.0
 31
0.0
  0
LINE
  5
728C
330
1E
100
AcDbEntity
  8
12
  6
DASHED
100
AcDbLine
 10
17.5
 20
-57.5
 30
0.0
 11
17.5
 21
-68.5
 31
0.0
  0
CIRCLE
  5
7290
330
1E
100
AcDbEntity
  8
24
  6
CONTINOUS
100
AcDbCircle
 10
-35.0
 20
72.0
 30
0.0
 40
5.0
  0
LINE
  5
7292
330
1E
100
AcDbEntity
  8
24
  6
CONTINOUS
100
AcDbLine
 10
-42.0
 20
72.0
 30
0.0
 11
-28.0
 21
72.0
 31
0.0
  0
LINE
  5
7294
330
1E
100
AcDbEntity
  8
24
  6
CONTINOUS
100
AcDbLine
 10
-35.0
 20
79.0
 30
0.0
 11
-35.0
 21
65.0
 31
0.0
  0
CIRCLE
  5
7298
330
1E
100
AcDbEntity
  8
24
  6
CONTINOUS
100
AcDbCircle
 10
0.0
 20
72.0
 30
0.0
 40
5.0
  0
LINE
  5
7299
330
1E
100
AcDbEntity
  8
24
  6
CONTINOUS
100
AcDbLine
 10
-7.0
 20
72.0
 30
0.0
 11
7.0
 21
72.0
 31
0.0
  0
CIRCLE
  5
729D
330
1E
100
AcDbEntity
  8
12
  6
DASHED
100
AcDbCircle
 10
-17.5
 20
63.0
 30
0.0
 40
4.0
  0
LINE
  5
729E
330
1E
100
AcDbEntity
  8
12
  6
DASHED
100
AcDbLine
 10
-23.0
 20
63.0
 30
0.0
 11
-12.0
 21
63.0
 31
0.0
  0
LINE
  5
72A0
330
1E
100
AcDbEntity
  8
12
  6
DASHED
100
AcDbLine
 10
-17.5
 20
68.5
 30
0.0
 11
-17.5
 21
57.5
 31
0.0
  0
CIRCLE
  5
72A6
330
1E
100
AcDbEntity
  8
18
100
AcDbCircle
 10
81.5
 20
-79.29999999999998
 30
0.0
 40
2.149999999999999
  0
ARC
  5
72A7
330
1E
100
AcDbEntity
  8
18
100
AcDbCircle
 10
81.5
 20
-79.29999999999998
 30
0.0
 40
4.0
100
AcDbArc
 50
155.9215699999997
 51
24.07843000000022
  0
LINE
  5
72AB
330
1E
100
AcDbEntity
  8
18
100
AcDbLine
 10
82.5
 20
-19.5
 30
0.0
 11
82.5
 21
-40.57279799999998
 31
0.0
  0
LINE
  5
72AC
330
1E
100
AcDbEntity
  8
18
100
AcDbLine
 10
80.5
 20
-19.5
 30
0.0
 11
80.5
 21
-39.13974999999993
 31
0.0
  0
LINE
  5
72AD
330
1E
100
AcDbEntity
  8
24
  6
CONTINOUS
100
AcDbLine
 10
35.0
 20
-65.0
 30
0.0
 11
35.0
 21
-78.99999999999997
 31
0.0
  0
LINE
  5
72AF
330
1E
100
AcDbEntity
  8
18
100
AcDbLine
 10
80.5
 20
-41.13974999999993
 30
0.0
 11
80.5
 21
-67.5
 31
0.0
  0
LINE
  5
72B0
330
1E
100
AcDbEntity
  8
18
100
AcDbLine
 10
82.5
 20
-42.57279799999998
 30
0.0
 11
82.5
 21
-67.5
 31
0.0
  0
LINE
  5
72B1
330
1E
100
AcDbEntity
  8
18
100
AcDbLine
 10
79.79999999999995
 20
-67.5
 30
0.0
 11
83.20000000000005
 21
-67.5
 31
0.0
  0
LINE
  5
72B2
330
1E
100
AcDbEntity
  8
18
100
AcDbLine
 10
79.79999999999995
 20
-72.29999999999995
 30
0.0
 11
83.20000000000005
 21
-72.29999999999995
 31
0.0
  0
LINE
  5
72B3
330
1E
100
AcDbEntity
  8
18
100
AcDbLine
 10
79.79999999999995
 20
-67.5
 30
0.0
 11
79.79999999999995
 21
-72.446912
 31
0.0
  0
ARC
  5
72B4
330
1E
100
AcDbEntity
  8
18
100
AcDbCircle
 10
75.79999999999995
 20
-72.446912
 30
0.0
 40
4.0
100
AcDbArc
 50
335.9215699999997
 51
0.0
  0
LINE
  5
72B5
330
1E
100
AcDbEntity
  8
18
100
AcDbLine
 10
79.45195100000001
 20
-74.07885899999996
 30
0.0
 11
77.84804899999994
 21
-77.66805299999998
 31
0.0
  0
LINE
  5
72B6
330
1E
100
AcDbEntity
  8
18
100
AcDbLine
 10
83.20000000000005
 20
-67.5
 30
0.0
 11
83.20000000000005
 21
-72.446912
 31
0.0
  0
ARC
  5
72B7
330
1E
100
AcDbEntity
  8
18
100
AcDbCircle
 10
87.20000000000004
 20
-72.446912
 30
0.0
 40
4.0
100
AcDbArc
 50
180.0
 51
204.0784300000002
  0
LINE
  5
72B8
330
1E
100
AcDbEntity
  8
18
100
AcDbLine
 10
83.54804899999999
 20
-74.07885899999996
 30
0.0
 11
85.15195100000005
 21
-77.66805299999998
 31
0.0
  0
SPLINE
  5
72B9
330
1E
100
AcDbEntity
  8
18
100
AcDbSpline
210
0.0
220
0.0
230
1.0
 70
     8
 71
     3
 72
     8
 73
     4
 74
     0
 42
0.0000000001
 43
0.0000000001
 40
0.0
 40
0.0
 40
0.0
 40
0.0
 40
1.0
 40
1.0
 40
1.0
 40
1.0
 10
77.5
 20
-39.5
 30
0.0
 10
79.5
 20
-35.5
 30
0.0
 10
83.49999999999999
 20
-44.5
 30
0.0
 10
85.5
 20
-39.5
 30
0.0
  0
SPLINE
  5
72BA
330
1E
100
AcDbEntity
  8
18
100
AcDbSpline
210
0.0
220
0.0
230
1.0
 70
     8
 71
     3
 72
     8
 73
     4
 74
     0
 42
0.0000000001
 43
0.0000000001
 40
0.0
 40
0.0
 40
0.0
 40
0.0
 40
1.0
 40
1.0
 40
1.0
 40
1.0
 10
77.5
 20
-41.5
 30
0.0
 10
79.5
 20
-37.5
 30
0.0
 10
83.49999999999999
 20
-46.5
 30
0.0
 10
85.5
 20
-41.5
 30
0.0
  0
LINE
  5
72BB
330
1E
100
AcDbEntity
  8
18
100
AcDbLine
 10
52.5
 20
-9.5
 30
0.0
 11
70.5
 21
-9.5
 31
0.0
  0
LINE
  5
72BC
330
1E
100
AcDbEntity
  8
18
100
AcDbLine
 10
52.5
 20
-7.5
 30
0.0
 11
70.5
 21
-7.5
 31
0.0
  0
ARC
  5
72BD
330
1E
100
AcDbEntity
  8
18
100
AcDbCircle
 10
70.5
 20
-19.5
 30
0.0
 40
10.0
100
AcDbArc
 50
0.0
 51
90.0
  0
ARC
  5
72BE
330
1E
100
AcDbEntity
  8
18
100
AcDbCircle
 10
70.5
 20
-19.5
 30
0.0
 40
12.0
100
AcDbArc
 50
0.0
 51
90.0
  0
LINE
  5
72BF
330
1E
100
AcDbEntity
  8
24
  6
CONTINOUS
100
AcDbLine
 10
35.0
 20
79.0
 30
0.0
 11
35.0
 21
65.0
 31
0.0
  0
LINE
  5
72C2
330
1E
100
AcDbEntity
  8
18
100
AcDbLine
 10
-16.0
 20
183.4999999999999
 30
0.0
 11
-19.0
 21
183.4999999999999
 31
0.0
  0
LINE
  5
72C3
330
1E
100
AcDbEntity
  8
18
100
AcDbLine
 10
16.0
 20
183.4999999999999
 30
0.0
 11
19.0
 21
183.4999999999999
 31
0.0
  0
LINE
  5
72C7
330
1E
100
AcDbEntity
  8
12
  6
DASHED
100
AcDbLine
 10
214.0
 20
-65.25
 30
0.0
 11
260.0
 21
-65.25
 31
0.0
  0
LINE
  5
72C8
330
1E
100
AcDbEntity
  8
12
  6
DASHED
100
AcDbLine
 10
195.0
 20
-63.0
 30
0.0
 11
277.0
 21
-63.0
 31
0.0
  0
LINE
  5
72C9
330
1E
100
AcDbEntity
  8
12
  6
DASHED
100
AcDbLine
 10
214.0
 20
-60.75
 30
0.0
 11
260.0
 21
-60.75
 31
0.0
  0
ARC
  5
72CC
330
1E
100
AcDbEntity
  8
30
  6
Continuous
100
AcDbCircle
 10
196.0
 20
0.0
 30
0.0
 40
31.0
100
AcDbArc
 50
159.9999999999993
 51
180.0
  0
LINE
  5
72D4
330
1E
100
AcDbEntity
  8
12
  6
DASHED
100
AcDbLine
 10
200.0
 20
-58.75
 30
0.0
 11
214.0
 21
-58.75
 31
0.0
  0
LINE
  5
72D5
330
1E
100
AcDbEntity
  8
12
  6
DASHED
100
AcDbLine
 10
200.0
 20
-67.25
 30
0.0
 11
214.0
 21
-67.25
 31
0.0
  0
LINE
  5
72D6
330
1E
100
AcDbEntity
  8
12
  6
DASHED
100
AcDbLine
 10
214.0
 20
-58.75
 30
0.0
 11
214.0
 21
-60.75
 31
0.0
  0
LINE
  5
72D7
330
1E
100
AcDbEntity
  8
12
  6
DASHED
100
AcDbLine
 10
214.0
 20
-58.75
 30
0.0
 11
214.0
 21
-67.25
 31
0.0
  0
LINE
  5
72D8
330
1E
100
AcDbEntity
  8
12
  6
DASHED
100
AcDbLine
 10
214.0
 20
-65.25
 30
0.0
 11
214.0
 21
-67.25
 31
0.0
  0
LINE
  5
72D9
330
1E
100
AcDbEntity
  8
12
  6
DASHED
100
AcDbLine
 10
209.0
 20
-58.75
 30
0.0
 11
209.0
 21
-67.25
 31
0.0
  0
LINE
  5
72DF
330
1E
100
AcDbEntity
  8
24
  6
CONTINOUS
100
AcDbLine
 10
221.0
 20
72.0
 30
0.0
 11
245.0
 21
72.0
 31
0.0
  0
LINE
  5
72E1
330
1E
100
AcDbEntity
  8
24
  6
CONTINOUS
100
AcDbLine
 10
234.0
 20
79.69999999999998
 30
0.0
 11
234.0
 21
64.30000000000001
 31
0.0
  0
LINE
  5
72E2
330
1E
100
AcDbEntity
  8
24
  6
CONTINOUS
100
AcDbLine
 10
236.0
 20
82.5
 30
0.0
 11
236.0
 21
61.5
 31
0.0
  0
LINE
  5
72E3
330
1E
100
AcDbEntity
  8
24
  6
CONTINOUS
100
AcDbLine
 10
226.0
 20
78.5
 30
0.0
 11
226.0
 21
65.5
 31
0.0
  0
LINE
  5
72E4
330
1E
100
AcDbEntity
  8
24
  6
CONTINOUS
100
AcDbLine
 10
240.0
 20
82.5
 30
0.0
 11
240.0
 21
61.5
 31
0.0
  0
LINE
  5
72E5
330
1E
100
AcDbEntity
  8
24
  6
CONTINOUS
100
AcDbLine
 10
236.0
 20
61.5
 30
0.0
 11
240.0
 21
61.5
 31
0.0
  0
LINE
  5
72E6
330
1E
100
AcDbEntity
  8
24
  6
CONTINOUS
100
AcDbLine
 10
226.0
 20
65.5
 30
0.0
 11
234.0
 21
65.5
 31
0.0
  0
LINE
  5
72E7
330
1E
100
AcDbEntity
  8
24
  6
CONTINOUS
100
AcDbLine
 10
234.0
 20
64.30000000000001
 30
0.0
 11
236.0
 21
64.30000000000001
 31
0.0
  0
LINE
  5
72E8
330
1E
100
AcDbEntity
  8
24
  6
CONTINOUS
100
AcDbLine
 10
226.0
 20
78.5
 30
0.0
 11
234.0
 21
78.5
 31
0.0
  0
LINE
  5
72E9
330
1E
100
AcDbEntity
  8
24
  6
CONTINOUS
100
AcDbLine
 10
234.0
 20
79.69999999999998
 30
0.0
 11
236.0
 21
79.69999999999998
 31
0.0
  0
LINE
  5
72EA
330
1E
100
AcDbEntity
  8
12
  6
DASHED
100
AcDbLine
 10
260.0
 20
-65.25
 30
0.0
 11
267.0
 21
-65.25
 31
0.0
  0
LINE
  5
72EB
330
1E
100
AcDbEntity
  8
12
  6
DASHED
100
AcDbLine
 10
260.0
 20
-60.75
 30
0.0
 11
267.0
 21
-60.75
 31
0.0
  0
LINE
  5
72EC
330
1E
100
AcDbEntity
  8
12
  6
DASHED
100
AcDbLine
 10
267.0
 20
-60.75
 30
0.0
 11
267.0
 21
-65.25
 31
0.0
  0
ARC
  5
72ED
330
1E
100
AcDbEntity
  8
TOP$4
  6
Continuous
 62
     2
100
AcDbCircle
 10
315.9875819999999
 20
86.99591800000002
 30
0.0
 40
7.5
100
AcDbArc
 50
238.8948890000005
 51
294.2039969999992
  0
CIRCLE
  5
72EE
330
1E
100
AcDbEntity
  8
24
  6
Continuous
100
AcDbCircle
 10
312.5
 20
61.0
 30
0.0
 40
4.5
  0
LINE
  5
72EF
330
1E
100
AcDbEntity
  8
24
  6
Continuous
100
AcDbLine
 10
306.25
 20
61.0
 30
0.0
 11
318.75
 21
61.0
 31
0.0
  0
LINE
  5
72F0
330
1E
100
AcDbEntity
  8
TOP$4
  6
Continuous
 62
     2
100
AcDbLine
 10
300.0
 20
50.0
 30
0.0
 11
325.0
 21
50.0
 31
0.0
  0
LINE
  5
72F1
330
1E
100
AcDbEntity
  8
TOP$4
  6
Continuous
 62
     2
100
AcDbLine
 10
300.0
 20
82.0
 30
0.0
 11
300.0
 21
50.0
 31
0.0
  0
LINE
  5
72F2
330
1E
100
AcDbEntity
  8
24
  6
Continuous
100
AcDbLine
 10
312.5
 20
67.25
 30
0.0
 11
312.5
 21
54.75
 31
0.0
  0
ARC
  5
72F3
330
1E
100
AcDbEntity
  8
TOP$4
  6
Continuous
 62
     2
100
AcDbCircle
 10
304.125
 20
75.145485
 30
0.0
 40
8.0
100
AcDbArc
 50
58.96076000000157
 51
121.0392399999984
  0
LINE
  5
72F4
330
1E
100
AcDbEntity
  8
TOP$4
  6
Continuous
 62
     2
100
AcDbLine
 10
308.2578779999999
 20
81.99525299999999
 30
0.0
 11
312.1130090000001
 21
80.57426099999998
 31
0.0
  0
LINE
  5
72F5
330
1E
100
AcDbEntity
  8
TOP$4
  6
Continuous
 62
     2
100
AcDbLine
 10
325.0
 20
82.14990399999999
 30
0.0
 11
325.0
 21
50.0
 31
0.0
  0
LINE
  5
72F6
330
1E
100
AcDbEntity
  8
TOP$4
  6
Continuous
 62
     2
100
AcDbLine
 10
319.062482
 20
80.15523199999995
 30
0.0
 11
325.0
 21
82.14990399999999
 31
0.0
  0
LWPOLYLINE
  5
7312
330
1E
100
AcDbEntity
  8
10
  6
CONTINOUS
100
AcDbPolyline
 90
        4
 70
     1
 43
0.0
 10
-49.0
 20
25.0
 10
49.0
 20
25.0
 10
49.0
 20
-25.0
 10
-49.0
 20
-25.0
  0
LWPOLYLINE
  5
7313
330
1E
100
AcDbEntity
  8
10
  6
CONTINOUS
100
AcDbPolyline
 90
        4
 70
     1
 43
0.0
 10
-52.5
 20
82.5
 10
52.5
 20
82.5
 10
52.5
 20
-82.49999999999998
 10
-52.5
 20
-82.49999999999998
  0
LWPOLYLINE
  5
7314
330
1E
100
AcDbEntity
  8
10
  6
CONTINOUS
100
AcDbPolyline
 90
        4
 70
     1
 43
0.0
 10
-11.0
 20
25.0
 10
11.0
 20
25.0
 10
11.0
 20
-25.0
 10
-11.0
 20
-25.0
  0
LWPOLYLINE
  5
7315
330
1E
100
AcDbEntity
  8
10
  6
CONTINOUS
100
AcDbPolyline
 90
        4
 70
     1
 43
0.0
 10
-7.0
 20
20.15486900000002
 10
7.0
 20
20.15486900000002
 10
7.0
 20
-18.5
 10
-7.0
 20
-18.5
  0
LWPOLYLINE
  5
7316
330
1E
100
AcDbEntity
  8
10
  6
CONTINOUS
100
AcDbPolyline
 90
        4
 70
     1
 43
0.0
 10
-7.0
 20
15.239956
 10
7.0
 20
15.239956
 10
7.0
 20
6.840789000000029
 10
-7.0
 20
6.840789000000029
  0
LWPOLYLINE
  5
7317
330
1E
100
AcDbEntity
  8
10
  6
CONTINOUS
100
AcDbPolyline
 90
        4
 70
     1
 43
0.0
 10
-52.5
 20
82.5
 10
52.5
 20
82.5
 10
52.5
 20
51.0
 10
-52.5
 20
51.0
  0
LWPOLYLINE
  5
7318
330
1E
100
AcDbEntity
  8
10
  6
CONTINOUS
100
AcDbPolyline
 90
        6
 70
     1
 43
0.0
 10
-47.0
 20
82.5
 10
-23.0
 20
82.5
 10
-23.0
 20
65.0
 42
-0.4142135623730951
 10
-28.0
 20
60.0
 10
-42.0
 20
60.0
 42
-0.4142135623730951
 10
-47.0
 20
65.0
  0
LWPOLYLINE
  5
731A
330
1E
100
AcDbEntity
  8
10
  6
CONTINOUS
100
AcDbPolyline
 90
        6
 70
     1
 43
0.0
 10
-12.0
 20
82.5
 10
12.0
 20
82.5
 10
12.0
 20
65.0
 42
-0.4142135623730951
 10
7.0
 20
60.0
 10
-7.0
 20
60.0
 42
-0.4142135623730951
 10
-12.0
 20
65.0
  0
LWPOLYLINE
  5
731B
330
1E
100
AcDbEntity
  8
10
  6
CONTINOUS
100
AcDbPolyline
 90
        6
 70
     1
 43
0.0
 10
23.0
 20
82.5
 10
47.0
 20
82.5
 10
47.0
 20
65.0
 42
-0.4142135623730951
 10
42.0
 20
60.0
 10
28.0
 20
60.0
 42
-0.4142135623730951
 10
23.0
 20
65.0
  0
LWPOLYLINE
  5
731C
330
1E
100
AcDbEntity
  8
10
  6
CONTINOUS
100
AcDbPolyline
 90
        6
 70
     1
 43
0.0
 10
23.0
 20
-82.49999999999998
 10
47.0
 20
-82.49999999999998
 10
47.0
 20
-65.0
 42
0.4142135623730951
 10
42.0
 20
-60.0
 10
28.0
 20
-60.0
 42
0.4142135623730951
 10
23.0
 20
-65.0
  0
LWPOLYLINE
  5
731D
330
1E
100
AcDbEntity
  8
10
  6
CONTINOUS
100
AcDbPolyline
 90
        6
 70
     1
 43
0.0
 10
-12.0
 20
-82.49999999999998
 10
12.0
 20
-82.49999999999998
 10
12.0
 20
-65.0
 42
0.4142135623730951
 10
7.0
 20
-60.0
 10
-7.0
 20
-60.0
 42
0.4142135623730951
 10
-12.0
 20
-65.0
  0
LWPOLYLINE
  5
731E
330
1E
100
AcDbEntity
  8
10
  6
CONTINOUS
100
AcDbPolyline
 90
        6
 70
     1
 43
0.0
 10
-47.0
 20
-82.49999999999998
 10
-23.0
 20
-82.49999999999998
 10
-23.0
 20
-65.0
 42
0.4142135623730951
 10
-28.0
 20
-60.0
 10
-42.0
 20
-60.0
 42
0.4142135623730951
 10
-47.0
 20
-65.0
  0
LWPOLYLINE
  5
731F
330
1E
100
AcDbEntity
  8
10
  6
CONTINOUS
100
AcDbPolyline
 90
        4
 70
     1
 43
0.0
 10
-52.5
 20
-51.0
 10
52.5
 20
-51.0
 10
52.5
 20
-82.49999999999998
 10
-52.5
 20
-82.49999999999998
  0
DIMENSION
  5
7320
330
1E
100
AcDbEntity
  8
30
  6
Continuous
100
AcDbDimension
  2
*D35
 10
-80.0
 20
-82.5
 30
0.0
 11
-82.99999999999998
 21
-0.0000000000000089
 31
0.0
 70
    32
 71
     5
 42
165.0
  3
STANDARD
100
AcDbAlignedDimension
 13
-52.5
 23
82.5
 33
0.0
 14
-52.5
 24
-82.5
 34
0.0
 50
90.0
100
AcDbRotatedDimension
1001
ACAD
1000
DSTYLE
1002
{
1070
   287
1070
     4
1070
   287
1070
     4
1070
   287
1070
     4
1070
   279
1070
     1
1070
    79
1070
     3
1002
}
  0
DIMENSION
  5
7321
330
1E
100
AcDbEntity
  8
30
  6
Continuous
100
AcDbDimension
  2
*D34
 10
-80.0
 20
82.5
 30
0.0
 11
-83.0
 21
133.0
 31
0.0
 70
    32
 71
     5
 42
101.0
  3
STANDARD
100
AcDbAlignedDimension
 13
-19.0
 23
183.4999999999999
 33
0.0
 14
-52.5
 24
82.5
 34
0.0
 50
90.0
100
AcDbRotatedDimension
1001
ACAD
1000
DSTYLE
1002
{
1070
    79
1070
     3
1002
}
  0
DIMENSION
  5
7379
330
1E
100
AcDbEntity
  8
30
  6
Continuous
100
AcDbDimension
  2
*D36
 10
49.0
 20
30.0
 30
0.0
 11
0.0000000000000002
 21
33.0
 31
0.0
 70
    32
 71
     5
 42
98.0
  3
STANDARD
100
AcDbAlignedDimension
 13
-49.0
 23
25.0
 33
0.0
 14
49.0
 24
25.0
 34
0.0
100
AcDbRotatedDimension
1001
ACAD
1000
DSTYLE
1002
{
1070
    79
1070
     3
1002
}
  0
DIMENSION
  5
737A
330
1E
100
AcDbEntity
  8
30
  6
Continuous
100
AcDbDimension
  2
*D37
 10
10.99999999999999
 20
-40.45444641199117
 30
0.0
 11
-0.0000000000000016
 21
-37.45444641199117
 31
0.0
 70
    32
 71
     5
 42
22.0
  3
STANDARD
100
AcDbAlignedDimension
 13
-11.0
 23
-25.0
 33
0.0
 14
11.0
 24
-25.0
 34
0.0
 50
180.0
100
AcDbRotatedDimension
1001
ACAD
1000
DSTYLE
1002
{
1070
    79
1070
     3
1002
}
  0
DIMENSION
  5
73AE
330
1E
100
AcDbEntity
  8
30
  6
Continuous
100
AcDbDimension
  2
*D39
 10
35.0
 20
-110.0
 30
0.0
 11
0.0000000000000002
 21
-107.0
 31
0.0
 70
    32
 71
     5
 42
70.0
  3
STANDARD
100
AcDbAlignedDimension
 13
-35.0
 23
-78.99999999999997
 33
0.0
 14
35.0
 24
-78.99999999999997
 34
0.0
 50
180.0
100
AcDbRotatedDimension
1001
ACAD
1000
DSTYLE
1002
{
1070
    79
1070
     3
1002
}
  0
DIMENSION
  5
73AF
330
1E
100
AcDbEntity
  8
30
  6
Continuous
100
AcDbDimension
  2
*D38
 10
52.5
 20
-130.0
 30
0.0
 11
0.0000000000000002
 21
-127.0
 31
0.0
 70
    32
 71
     5
 42
105.0
  3
STANDARD
100
AcDbAlignedDimension
 13
-52.5
 23
-82.5
 33
0.0
 14
52.5
 24
-82.5
 34
0.0
 50
180.0
100
AcDbRotatedDimension
1001
ACAD
1000
DSTYLE
1002
{
1070
    79
1070
     3
1002
}
  0
LWPOLYLINE
  5
7407
330
1E
100
AcDbEntity
  8
10
  6
CONTINOUS
100
AcDbPolyline
 90
        9
 70
     0
 43
0.0
 10
260.0
 20
-82.5
 10
260.0
 20
82.5
 10
200.0
 20
82.5
 10
200.0
 20
51.0
 10
192.0
 20
51.0
 10
192.0
 20
-51.0
 10
200.0
 20
-51.0
 10
200.0
 20
-82.5
 10
260.0
 20
-82.5
  0
LWPOLYLINE
  5
7408
330
1E
100
AcDbEntity
  8
10
  6
CONTINOUS
100
AcDbPolyline
 90
        4
 70
     1
 43
0.0
 10
192.0
 20
-25.0
 10
185.5
 20
-25.0
 10
185.5
 20
25.0
 10
192.0
 20
25.0
  0
LWPOLYLINE
  5
7409
330
1E
100
AcDbEntity
  8
10
  6
CONTINOUS
100
AcDbPolyline
 90
        4
 70
     1
 43
0.0
 10
181.4999999999999
 20
22.5
 10
185.5
 20
22.5
 10
185.5
 20
-22.5
 10
181.4999999999999
 20
-22.5
  0
LWPOLYLINE
  5
740A
330
1E
100
AcDbEntity
  8
10
  6
CONTINOUS
100
AcDbPolyline
 90
        4
 70
     0
 43
0.0
 10
181.4999999999999
 20
11.66263500000002
 10
168.9216500273462
 20
16.24078007513304
 10
166.869528755637
 20
10.60262444309603
 10
181.4999999999999
 20
5.277567999999973
  0
LINE
  5
740B
330
1E
100
AcDbEntity
  8
16
100
AcDbLine
 10
270.0
 20
0.0
 30
0.0
 11
160.0
 21
0.0
 31
0.0
  0
DIMENSION
  5
740D
330
1E
100
AcDbEntity
  8
30
  6
Continuous
100
AcDbDimension
  2
*D41
 10
325.0
 20
30.0
 30
0.0
 11
312.5
 21
33.0
 31
0.0
 70
    32
 71
     5
 42
25.0
  3
STANDARD
100
AcDbAlignedDimension
 13
300.0
 23
50.0
 33
0.0
 14
325.0
 24
50.0
 34
0.0
 50
180.0
100
AcDbRotatedDimension
1001
ACAD
1000
DSTYLE
1002
{
1070
    79
1070
     3
1002
}
  0
DIMENSION
  5
740F
330
1E
100
AcDbEntity
  8
30
  6
Continuous
100
AcDbDimension
  2
*D40
 10
340.0
 20
60.99999999999999
 30
0.0
 11
337.0
 21
55.50000000000005
 31
0.0
 70
    32
 71
     5
 42
11.0
  3
STANDARD
100
AcDbAlignedDimension
 13
325.0
 23
50.0
 33
0.0
 14
318.75
 24
61.0
 34
0.0
 50
270.0
100
AcDbRotatedDimension
1001
ACAD
1000
DSTYLE
1002
{
1070
    79
1070
     3
1002
}
  0
LEADER
  5
7412
330
1E
100
AcDbEntity
  8
30
  6
Continuous
100
AcDbLeader
  3
STANDARD
 40
4.0
 76
     3
 10
312.3378706514017
 20
60.54225559482262
 30
0.0
 10
304.0
 20
80.0
 30
0.0
 10
285.0
 20
80.0
 30
0.0
213
0.0
223
2.0
233
0.0
1001
ACAD
1000
DSTYLE
1002
{
1070
     5
1000
OPEN
1070
    77
1070
     0
1070
    79
1070
     3
1070
   147
1040
1.0
1070
   342
1005
3B2
1002
}
  0
TEXT
  5
7413
330
1E
100
AcDbEntity
  8
30
  6
Continuous
100
AcDbText
 10
288.0
 20
81.0
 30
0.0
 40
5.0
  1
%%c9
  7
STANDARD1
100
AcDbText
  0
TEXT
  5
746B
330
1E
100
AcDbEntity
  8
TOP
  6
ByBlock
 62
     0
100
AcDbText
 10
350.0
 20
40.0
 30
0.0
 40
6.250000009499995
  1
11(max.)
 50
90.0
 41
0.8912499999999965
  7
UGMTXT
100
AcDbText
  0
TEXT
  5
7480
330
1E
100
AcDbEntity
  8
TOP
  6
ByBlock
 62
     0
100
AcDbText
 10
294.3301711033343
 20
20.32142856735714
 30
0.0
 40
6.250000009499995
  1
25(max.)
 41
0.8912499999999965
  7
UGMTXT
 72
     4
 11
312.5
 21
23.0
 31
0.0
100
AcDbText
  0
TEXT
  5
7481
330
1E
100
AcDbEntity
  8
TOP
  6
ByBlock
 62
     0
100
AcDbText
 10
535.37200956938
 20
13.16314374053303
 30
0.0
 40
6.250000009499995
  1

 41
0.8216911764705852
  7
UGMTXT
100
AcDbText
  0
TEXT
  5
7482
330
1E
100
AcDbEntity
  8
TOP
  6
ByBlock
 62
     0
100
AcDbText
 10
299.7833508210068
 20
11.87499999525
 30
0.0
 40
6.250000009499995
  1
max.t7
 41
0.8216911764705852
  7
UGMTXT
 72
     4
 11
312.5
 21
15.0
 31
0.0
100
AcDbText
  0
DIMENSION
  5
7483
330
1E
100
AcDbEntity
  8
30
  6
Continuous
100
AcDbDimension
  2
*D49
 10
260.0
 20
-130.0
 30
0.0
 11
212.5
 21
-127.0
 31
0.0
 70
    32
 71
     5
 42
95.0
  3
STANDARD
100
AcDbAlignedDimension
 13
165.0
 23
0.0
 33
0.0
 14
260.0
 24
-82.5
 34
0.0
 50
180.0
100
AcDbRotatedDimension
1001
ACAD
1000
DSTYLE
1002
{
1070
    79
1070
     3
1002
}
  0
DIMENSION
  5
7484
330
1E
100
AcDbEntity
  8
30
  6
Continuous
100
AcDbDimension
  2
*D46
 10
260.0
 20
-90.0
 30
0.0
 11
237.0
 21
-87.0
 31
0.0
 70
    32
 71
     5
 42
46.0
  3
STANDARD
100
AcDbAlignedDimension
 13
214.0
 23
-67.25
 33
0.0
 14
260.0
 24
-82.5
 34
0.0
 50
180.0
100
AcDbRotatedDimension
1001
ACAD
1000
DSTYLE
1002
{
1070
    79
1070
     3
1002
}
  0
DIMENSION
  5
7485
330
1E
100
AcDbEntity
  8
30
  6
Continuous
100
AcDbDimension
  2
*D51
 10
260.0
 20
-100.0
 30
0.0
 11
230.0
 21
-97.0
 31
0.0
 70
    32
 71
     5
 42
60.0
  3
STANDARD
100
AcDbAlignedDimension
 13
200.0
 23
-82.5
 33
0.0
 14
260.0
 24
-82.5
 34
0.0
 50
180.0
100
AcDbRotatedDimension
1001
ACAD
1000
DSTYLE
1002
{
1070
    79
1070
     3
1002
}
  0
DIMENSION
  5
7486
330
1E
100
AcDbEntity
  8
30
  6
Continuous
100
AcDbDimension
  2
*D50
 10
260.0
 20
-120.0
 30
0.0
 11
222.75
 21
-117.0
 31
0.0
 70
    32
 71
     5
 42
74.5
  3
STANDARD
100
AcDbAlignedDimension
 13
185.5
 23
-25.0
 33
0.0
 14
260.0
 24
-82.5
 34
0.0
 50
180.0
100
AcDbRotatedDimension
1001
ACAD
1000
DSTYLE
1002
{
1070
    79
1070
     3
1002
}
  0
DIMENSION
  5
7487
330
1E
100
AcDbEntity
  8
30
  6
Continuous
100
AcDbDimension
  2
*D48
 10
260.0
 20
-110.0
 30
0.0
 11
226.0
 21
-107.0
 31
0.0
 70
    32
 71
     5
 42
68.0
  3
STANDARD
100
AcDbAlignedDimension
 13
192.0
 23
-51.00000000000005
 33
0.0
 14
260.0
 24
-82.5
 34
0.0
 50
180.0
100
AcDbRotatedDimension
1001
ACAD
1000
DSTYLE
1002
{
1070
    79
1070
     3
1002
}
  0
DIMENSION
  5
7488
330
1E
100
AcDbEntity
  8
30
  6
Continuous
100
AcDbDimension
  2
*D47
 10
185.5
 20
-120.0
 30
0.0
 11
174.5
 21
-120.0
 31
0.0
 70
   160
 71
     5
 42
4.0
  3
STANDARD
100
AcDbAlignedDimension
 13
181.4999999999999
 23
-22.5
 33
0.0
 14
185.5
 24
-25.0
 34
0.0
100
AcDbRotatedDimension
1001
ACAD
1000
DSTYLE
1002
{
1070
   172
1070
     1
1070
    79
1070
     3
1002
}
  0
DIMENSION
  5
7489
330
1E
100
AcDbEntity
  8
30
  6
Continuous
100
AcDbDimension
  2
*D45
 10
267.0
 20
-90.0
 30
0.0
 11
263.5
 21
-87.0
 31
0.0
 70
    32
 71
     5
 42
7.0
  3
STANDARD
100
AcDbAlignedDimension
 13
260.0
 23
-82.5
 33
0.0
 14
267.0
 24
-65.25
 34
0.0
 50
180.0
100
AcDbRotatedDimension
1001
ACAD
1000
DSTYLE
1002
{
1070
    79
1070
     3
1002
}
  0
DIMENSION
  5
748A
330
1E
100
AcDbEntity
  8
30
  6
Continuous
100
AcDbDimension
  2
*D44
 10
140.0
 20
-24.99999999999999
 30
0.0
 11
137.0
 21
0.0000000000000344
 31
0.0
 70
    32
 71
     5
 42
50.0
  3
STANDARD
100
AcDbAlignedDimension
 13
183.9999999999996
 23
25.0
 33
0.0
 14
183.9999999999996
 24
-25.0
 34
0.0
 50
90.0
100
AcDbRotatedDimension
1001
ACAD
1000
DSTYLE
1002
{
1070
    79
1070
     3
1002
}
  0
DIMENSION
  5
748B
330
1E
100
AcDbEntity
  8
30
  6
Continuous
100
AcDbDimension
  2
*D43
 10
130.0
 20
-51.00000000000004
 30
0.0
 11
127.0
 21
0.0000000000000137
 31
0.0
 70
    32
 71
     5
 42
102.0
  3
STANDARD
100
AcDbAlignedDimension
 13
192.0
 23
51.0
 33
0.0
 14
192.0
 24
-51.00000000000005
 34
0.0
 50
90.0
100
AcDbRotatedDimension
1001
ACAD
1000
DSTYLE
1002
{
1070
    79
1070
     3
1002
}
  0
DIMENSION
  5
748C
330
1E
100
AcDbEntity
  8
30
  6
Continuous
100
AcDbDimension
  2
*D42
 10
260.0
 20
110.0
 30
0.0
 11
247.9999999999999
 21
113.0
 31
0.0
 70
    32
 71
     5
 42
24.00000000000011
  3
STANDARD
100
AcDbAlignedDimension
 13
235.9999999999998
 23
82.5
 33
0.0
 14
260.0
 24
82.5
 34
0.0
100
AcDbRotatedDimension
1001
ACAD
1000
DSTYLE
1002
{
1070
    79
1070
     3
1002
}
  0
INSERT
  5
748D
330
1E
100
AcDbEntity
  8
30
  6
Continuous
100
AcDbBlockReference
  2
*U11
 10
-303.127990430622
 20
-246.6618080090514
 30
0.0
 41
2.5
 42
2.5
 43
2.5
  0
TEXT
  5
7562
330
1E
100
AcDbEntity
  8
30
  6
Continuous
100
AcDbText
 10
168.361592902711
 20
105.7131919909484
 30
0.0
 40
6.25
  1
M8 
 41
0.8141304347826125
  7
UGMTXT
100
AcDbText
  0
DIMENSION
  5
762B
330
1E
100
AcDbEntity
  8
30
  6
Continuous
100
AcDbDimension
  2
*D52
 10
150.0
 20
-22.49999999999999
 30
0.0
 11
147.0
 21
0.0000000000000338
 31
0.0
 70
    32
 71
     5
 42
45.0
  3
STANDARD
100
AcDbAlignedDimension
 13
181.4999999999999
 23
22.5
 33
0.0
 14
181.4999999999999
 24
-22.5
 34
0.0
 50
90.0
100
AcDbRotatedDimension
1001
ACAD
1000
DSTYLE
1002
{
1070
    79
1070
     3
1002
}
  0
LINE
  5
7655
330
1E
100
AcDbEntity
  8
16
100
AcDbLine
 10
150.0
 20
-250.0
 30
0.0
 11
270.0
 21
-250.0
 31
0.0
  0
LINE
  5
7658
330
1E
100
AcDbEntity
  8
16
100
AcDbLine
 10
210.0
 20
-160.0
 30
0.0
 11
210.0
 21
-340.0
 31
0.0
  0
LINE
  5
7659
330
1E
100
AcDbEntity
  8
16
100
AcDbLine
 10
210.0
 20
-160.0
 30
0.0
 11
210.0
 21
-340.0
 31
0.0
  0
LWPOLYLINE
  5
7662
330
1E
100
AcDbEntity
  8
11
 48
2.0
100
AcDbPolyline
 90
        8
 70
     1
 43
0.0
 10
259.0
 20
-224.0
 10
161.0
 20
-224.0
 42
0.4142135623730951
 10
160.0
 20
-225.0
 10
160.0
 20
-275.0
 42
0.4142135623730951
 10
161.0
 20
-276.0
 10
259.0
 20
-276.0
 42
0.4142135623730951
 10
260.0
 20
-275.0
 10
260.0
 20
-225.0
 42
0.4142135623730951
  0
LWPOLYLINE
  5
7664
330
1E
100
AcDbEntity
  8
18
  6
DIVIDE
100
AcDbPolyline
 90
        4
 70
     1
 43
0.0
 10
157.5
 20
-167.5
 10
262.5
 20
-167.5
 10
262.5
 20
-332.5
 10
157.5
 20
-332.5
  0
DIMENSION
  5
7665
330
1E
100
AcDbEntity
  8
30
  6
Continuous
100
AcDbDimension
  2
*D55
 10
260.0
 20
-350.0
 30
0.0
 11
209.9999999999999
 21
-347.0
 31
0.0
 70
    32
 71
     5
 42
100.0000000000001
  3
STANDARD
100
AcDbAlignedDimension
 13
159.9999999999998
 23
-275.0000000000004
 33
0.0
 14
260.0
 24
-275.0000000000004
 34
0.0
100
AcDbRotatedDimension
1001
ACAD
1000
DSTYLE
1002
{
1070
    79
1070
     3
1002
}
  0
DIMENSION
  5
7666
330
1E
100
AcDbEntity
  8
30
  6
Continuous
100
AcDbDimension
  2
*D54
 10
280.0
 20
-276.0000000000004
 30
0.0
 11
277.0
 21
-250.0000000000002
 31
0.0
 70
    32
 71
     5
 42
52.00000000000031
  3
STANDARD
100
AcDbAlignedDimension
 13
259.0
 23
-224.0000000000001
 33
0.0
 14
259.0
 24
-276.0000000000004
 34
0.0
 50
90.0
100
AcDbRotatedDimension
1001
ACAD
1000
DSTYLE
1002
{
1070
    79
1070
     3
1002
}
  0
DIMENSION
  5
7667
330
1E
100
AcDbEntity
  8
30
  6
Continuous
100
AcDbDimension
  2
*D53
 10
259.0000000000002
 20
-225.0
 30
0.0
 11
266.7623648776715
 21
-219.1320292601963
 31
0.0
 70
    36
 71
     5
 42
0.9999999999997157
  3
STANDARD
100
AcDbRadialDimension
 15
259.8191396422009
 25
-224.4264058520393
 35
0.0
 40
0.0
1001
ACAD
1000
DSTYLE
1002
{
1070
    79
1070
     3
1002
}
  0
LINE
  5
76BD
330
1E
100
AcDbEntity
  8
16
100
AcDbLine
 10
0.0
 20
-160.0
 30
0.0
 11
0.0
 21
-340.0
 31
0.0
  0
LINE
  5
76C1
330
1E
100
AcDbEntity
  8
TOP$4
  6
Continuous
 62
     3
100
AcDbLine
 10
12.0
 20
-313.0
 30
0.0
 11
23.0
 21
-313.0
 31
0.0
  0
CIRCLE
  5
76C2
330
1E
100
AcDbEntity
  8
12
  6
Continuous
 62
     3
100
AcDbCircle
 10
17.5
 20
-313.0
 30
0.0
 40
2.0
  0
LINE
  5
76C3
330
1E
100
AcDbEntity
  8
TOP$4
  6
Continuous
 62
     3
100
AcDbLine
 10
17.5
 20
-307.5
 30
0.0
 11
17.5
 21
-318.5
 31
0.0
  0
LINE
  5
76C4
330
1E
100
AcDbEntity
  8
16
100
AcDbLine
 10
-60.0
 20
-250.0
 30
0.0
 11
60.0
 21
-250.0
 31
0.0
  0
LINE
  5
76C6
330
1E
100
AcDbEntity
  8
TOP$4
  6
Continuous
 62
     3
100
AcDbLine
 10
-23.0
 20
-187.0
 30
0.0
 11
-12.0
 21
-187.0
 31
0.0
  0
LINE
  5
76C7
330
1E
100
AcDbEntity
  8
TOP$4
  6
Continuous
 62
     3
100
AcDbLine
 10
-17.5
 20
-181.4999999999999
 30
0.0
 11
-17.5
 21
-192.5
 31
0.0
  0
CIRCLE
  5
76C8
330
1E
100
AcDbEntity
  8
12
  6
Continuous
 62
     3
100
AcDbCircle
 10
-17.5
 20
-187.0
 30
0.0
 40
2.0
  0
LWPOLYLINE
  5
76C9
330
1E
100
AcDbEntity
  8
18
  6
DIVIDE
100
AcDbPolyline
 90
        4
 70
     1
 43
0.0
 10
-52.5
 20
-167.5
 10
52.5
 20
-167.5
 10
52.5
 20
-332.5
 10
-52.5
 20
-332.5
  0
DIMENSION
  5
76D3
330
1E
100
AcDbEntity
  8
30
  6
Continuous
100
AcDbDimension
  2
*D56
 10
17.49999999999999
 20
-350.0
 30
0.0
 11
-0.0000000000000069
 21
-347.0
 31
0.0
 70
    32
 71
     5
 42
35.0
  3
STANDARD
100
AcDbAlignedDimension
 13
-17.5
 23
-192.5
 33
0.0
 14
17.5
 24
-315.5000000164998
 34
0.0
 50
180.0
100
AcDbRotatedDimension
1001
ACAD
1000
DSTYLE
1002
{
1070
    79
1070
     3
1002
}
  0
DIMENSION
  5
76D4
330
1E
100
AcDbEntity
  8
30
  6
Continuous
100
AcDbDimension
  2
*D57
 10
70.0
 20
-312.9999999999999
 30
0.0
 11
67.00000000000006
 21
-249.9999999999999
 31
0.0
 70
    32
 71
     5
 42
125.9999999999999
  3
STANDARD
100
AcDbAlignedDimension
 13
-12.0
 23
-186.9999999999999
 33
0.0
 14
23.0
 24
-312.9999999999999
 34
0.0
 50
90.0
100
AcDbRotatedDimension
1001
ACAD
1000
DSTYLE
1002
{
1070
    79
1070
     3
1002
}
  0
LEADER
  5
76D5
330
1E
100
AcDbEntity
  8
30
  6
Continuous
100
AcDbLeader
  3
STANDARD
 40
4.0
 76
     3
 10
-19.09443121215417
 20
-185.1031223678139
 30
0.0
 10
-30.0
 20
-160.0
 30
0.0
 10
-60.0
 20
-160.0
 30
0.0
213
0.0
223
2.0
233
0.0
1001
ACAD
1000
DSTYLE
1002
{
1070
     5
1000
OPEN
1070
    77
1070
     0
1070
    79
1070
     3
1070
   147
1040
1.0
1070
   342
1005
3B2
1002
}
  0
TEXT
  5
76D6
330
1E
100
AcDbEntity
  8
30
  6
Continuous
100
AcDbText
 10
-54.2868892254437
 20
-158.6868720611153
 30
0.0
 40
5.0
  1
M4x0.7
 41
0.8216911764705923
100
AcDbText
  0
LWPOLYLINE
  5
7BF4
330
1E
100
AcDbEntity
  8
10
  6
CONTINOUS
100
AcDbPolyline
 90
        9
 70
     0
 43
0.0
 10
52.50000000000006
 20
300.0
 10
-52.5
 20
300.0
 10
-52.49999999999989
 20
240.0
 10
-49.0
 20
240.0
 10
-49.0
 20
232.0
 10
49.00000000000003
 20
232.0
 10
49.0
 20
240.0
 10
52.5
 20
240.0
 10
52.5
 20
300.0
  0
LWPOLYLINE
  5
7BF5
330
1E
100
AcDbEntity
  8
10
  6
CONTINOUS
100
AcDbPolyline
 90
        4
 70
     1
 43
0.0
 10
-11.0
 20
232.0
 10
11.0
 20
232.0
 10
11.0
 20
225.4999999999999
 10
-11.0
 20
225.4999999999999
  0
LWPOLYLINE
  5
7BF6
330
1E
100
AcDbEntity
  8
10
  6
CONTINOUS
100
AcDbPolyline
 90
        4
 70
     1
 43
0.0
 10
-7.0
 20
225.4999999999999
 10
7.0
 20
225.4999999999999
 10
7.0
 20
221.4999999999999
 10
-7.0
 20
221.4999999999999
  0
LWPOLYLINE
  5
7BF7
330
1E
100
AcDbEntity
  8
10
  6
CONTINOUS
100
AcDbPolyline
 90
        4
 70
     1
 43
0.0
 10
-7.0
 20
221.4999999999999
 10
7.0
 20
221.4999999999999
 10
7.0
 20
206.8695294953843
 10
-7.0
 20
206.8695294953843
  0
LINE
  5
808F
330
1E
100
AcDbEntity
  8
10
  6
CONTINOUS
100
AcDbLine
 10
31.10000000000002
 20
10.04957199999998
 30
0.0
 11
31.10000000000002
 21
-6.431388999999995
 31
0.0
  0
CIRCLE
  5
8090
330
1E
100
AcDbEntity
  8
10
  6
CONTINOUS
100
AcDbCircle
 10
31.10000000000002
 20
-1.900000000000005
 30
0.0
 40
3.6
  0
CIRCLE
  5
8091
330
1E
100
AcDbEntity
  8
10
  6
CONTINOUS
100
AcDbCircle
 10
31.10000000000002
 20
-1.900000000000005
 30
0.0
 40
2.5
  0
LINE
  5
8092
330
1E
100
AcDbEntity
  8
10
  6
CONTINOUS
100
AcDbLine
 10
25.46090800000001
 20
-1.900000000000005
 30
0.0
 11
36.34833100000003
 21
-1.900000000000005
 31
0.0
  0
LINE
  5
8093
330
1E
100
AcDbEntity
  8
10
  6
CONTINOUS
100
AcDbLine
 10
27.0
 20
-7.0
 30
0.0
 11
36.20000000000004
 21
-7.0
 31
0.0
  0
LINE
  5
8094
330
1E
100
AcDbEntity
  8
10
  6
CONTINOUS
100
AcDbLine
 10
25.36102299999993
 20
-9.0
 30
0.0
 11
37.44706199999995
 21
-9.0
 31
0.0
  0
LINE
  5
8095
330
1E
100
AcDbEntity
  8
10
  6
CONTINOUS
100
AcDbLine
 10
27.0
 20
-11.0
 30
0.0
 11
36.20000000000004
 21
-11.0
 31
0.0
  0
LINE
  5
8096
330
1E
100
AcDbEntity
  8
10
  6
CONTINOUS
100
AcDbLine
 10
27.0
 20
-7.0
 30
0.0
 11
27.0
 21
-11.0
 31
0.0
  0
LINE
  5
8097
330
1E
100
AcDbEntity
  8
10
  6
CONTINOUS
100
AcDbLine
 10
36.20000000000004
 20
-7.0
 30
0.0
 11
36.20000000000004
 21
-11.0
 31
0.0
  0
LINE
  5
8098
330
1E
100
AcDbEntity
  8
10
  6
CONTINOUS
100
AcDbLine
 10
31.60000000000002
 20
-6.337748000000004
 30
0.0
 11
31.60000000000002
 21
-11.986626
 31
0.0
  0
LINE
  5
8099
330
1E
100
AcDbEntity
  8
10
  6
CONTINOUS
100
AcDbLine
 10
25.46090800000001
 20
5.800000000000011
 30
0.0
 11
36.34833100000003
 21
5.800000000000011
 31
0.0
  0
CIRCLE
  5
809A
330
1E
100
AcDbEntity
  8
10
  6
CONTINOUS
100
AcDbCircle
 10
31.10000000000002
 20
5.800000000000011
 30
0.0
 40
2.75
  0
VIEWPORT
  5
9AC
330
1A
100
AcDbEntity
 67
     1
  8
0
  6
Continuous
100
AcDbViewport
 10
171.999535
 20
144.1384739999999
 30
0.0
 40
488.867686
 41
292.351491
 68
    -1
 69
     1
 12
171.999535
 22
144.1384739999999
 13
0.0
 23
0.0
 14
10.0
 24
10.0
 15
10.0
 25
10.0
 16
0.0
 26
0.0
 36
1.0
 17
0.0
 27
0.0
 37
0.0
 42
50.0
 43
0.0
 44
0.0
 45
292.351491
 50
0.0
 51
0.0
 72
   100
 90
    32800
  1

281
     0
 71
     1
 74
     0
110
0.0
120
0.0
130
0.0
111
1.0
121
0.0
131
0.0
112
0.0
122
1.0
132
0.0
 79
     0
146
0.0
  0
ENDSEC
  0
SECTION
  2
OBJECTS
  0
DICTIONARY
  5
C
330
0
100
AcDbDictionary
281
     1
  3
ACAD_GROUP
350
D
  3
ACAD_LAYOUT
350
19
  3
ACAD_MLINESTYLE
350
16
  3
ACAD_PLOTSETTINGS
350
18
  3
ACAD_PLOTSTYLENAME
350
E
  3
ACADDIM
350
67AC
  3
ACDBHEADERROUNDTRIPXREC
350
809C
  3
ACDBVARIABLEDICTIONARY
350
5697
  0
DICTIONARY
  5
178
330
1E
100
AcDbDictionary
280
     1
281
     1
  3
ACAD_LAYOUTSELFREF
360
7156
  0
DICTIONARY
  5
17A
330
1A
100
AcDbDictionary
280
     1
281
     1
  3
ACAD_LAYOUTSELFREF
360
7155
  0
DICTIONARY
  5
D
102
{ACAD_REACTORS
330
C
102
}
330
C
100
AcDbDictionary
281
     1
  0
DICTIONARY
  5
19
102
{ACAD_REACTORS
330
C
102
}
330
C
100
AcDbDictionary
281
     1
  3
Model
350
7171
  3
ﾚｲｱｳﾄ1
350
7172
  0
DICTIONARY
  5
16
102
{ACAD_REACTORS
330
C
102
}
330
C
100
AcDbDictionary
281
     1
  3
STANDARD
350
17
  0
DICTIONARY
  5
18
102
{ACAD_REACTORS
330
C
102
}
330
C
100
AcDbDictionary
281
     1
  0
ACDBDICTIONARYWDFLT
  5
E
102
{ACAD_REACTORS
330
C
102
}
330
C
100
AcDbDictionary
281
     1
  3
Normal
350
F
100
AcDbDictionaryWithDefault
340
F
  0
XRECORD
  5
67AC
102
{ACAD_REACTORS
330
C
102
}
330
C
100
AcDbXrecord
280
     1
 90
   990106
  3

 60
     0
 61
     0
 62
     1
 63
     3
 64
     0
 65
     0
 66
     0
 67
     3
 68
     1
 69
     0
 70
     0
 71
     0
 72
     0
 40
0.0
170
     0
340
67AE
  0
DICTIONARY
  5
809C
102
{ACAD_REACTORS
330
C
102
}
330
C
100
AcDbDictionary
281
     1
  3
CEPSNTYPE
350
80A6
  3
DIMSTYLEDATA
350
80AA
  3
FINGERPRINTGUID
350
80A7
  3
HYPERLINKBASE
350
809F
  3
INSUNITS
350
80A5
  3
LAYOUTDICT
350
80A1
  3
LWETCUNION
350
80A4
  3
PLOTSETDICT
350
80A2
  3
PLOTSTYLNAMDICT
350
80A3
  3
PSVPSCALE
350
80A9
  3
PUCSBASE
350
80AD
  3
PUCSORGBACK
350
80B3
  3
PUCSORGBOTTOM
350
80AF
  3
PUCSORGFRONT
350
80B2
  3
PUCSORGLEFT
350
80B0
  3
PUCSORGRIGHT
350
80B1
  3
PUCSORGTOP
350
80AE
  3
PUCSORTHOREF
350
80AB
  3
PUCSORTHOVIEW
350
80AC
  3
STYLESHEET
350
80A0
  3
TSTACKALIGN
350
809D
  3
TSTACKSIZE
350
809E
  3
UCSBASE
350
80B6
  3
UCSORGBACK
350
80BC
  3
UCSORGBOTTOM
350
80B8
  3
UCSORGFRONT
350
80BB
  3
UCSORGLEFT
350
80B9
  3
UCSORGRIGHT
350
80BA
  3
UCSORGTOP
350
80B7
  3
UCSORTHOREF
350
80B4
  3
UCSORTHOVIEW
350
80B5
  3
VERSIONGUID
350
80A8
  0
DICTIONARY
  5
5697
102
{ACAD_REACTORS
330
C
102
}
330
C
100
AcDbDictionary
281
     1
  3
DIMASSOC
350
5698
  0
XRECORD
  5
7156
102
{ACAD_REACTORS
330
178
102
}
330
178
100
AcDbXrecord
280
     1
340
1E
  0
XRECORD
  5
7155
102
{ACAD_REACTORS
330
17A
102
}
330
17A
100
AcDbXrecord
280
     1
340
1A
  0
LAYOUT
  5
7171
102
{ACAD_REACTORS
330
19
102
}
330
19
100
AcDbPlotSettings
  1

  2
Canon LBP3800 LIPSLX
  4

  6

 40
0.0
 41
0.0
 42
0.0
 43
0.0
 44
0.0
 45
0.0
 46
0.0
 47
0.0
 48
0.0
 49
0.0
140
0.0
141
0.0
142
1.0
143
1.0
 70
  1712
 72
     0
 73
     0
 74
     0
  7
monochrome.ctb
 75
     0
147
1.0
148
0.0
149
0.0
100
AcDbLayout
  1
Model
 70
     1
 71
     0
 10
0.0
 20
0.0
 11
12.0
 21
9.0
 12
0.0
 22
0.0
 32
0.0
 14
0.0
 24
0.0
 34
0.0
 15
0.0
 25
0.0
 35
0.0
146
0.0
 13
0.0
 23
0.0
 33
0.0
 16
1.0
 26
0.0
 36
0.0
 17
0.0
 27
1.0
 37
0.0
 76
     0
330
1E
  0
LAYOUT
  5
7172
102
{ACAD_REACTORS
330
19
102
}
330
19
100
AcDbPlotSettings
  1

  2
Canon LBP3800 LIPSLX
  4

  6

 40
0.0
 41
0.0
 42
0.0
 43
0.0
 44
0.0
 45
0.0
 46
0.0
 47
0.0
 48
0.0
 49
0.0
140
0.0
141
0.0
142
1.0
143
1.0
 70
   688
 72
     0
 73
     0
 74
     5
  7
monochrome.ctb
 75
    16
147
1.0
148
0.0
149
0.0
100
AcDbLayout
  1
ﾚｲｱｳﾄ1
 70
     1
 71
     1
 10
-5.873749
 20
-5.87375
 11
204.099579
 21
291.1369009999999
 12
0.0
 22
0.0
 32
0.0
 14
4.273573
 24
5.205245999999998
 34
0.0
 15
194.610095
 25
283.0697009999996
 35
0.0
146
0.0
 13
0.0
 23
0.0
 33
0.0
 16
1.0
 26
0.0
 36
0.0
 17
0.0
 27
1.0
 37
0.0
 76
     0
330
1A
  0
MLINESTYLE
  5
17
102
{ACAD_REACTORS
330
16
102
}
330
16
100
AcDbMlineStyle
  2
STANDARD
 70
     0
  3

 62
   256
 51
90.0
 52
90.0
 71
     2
 49
0.5
 62
   256
  6
BYLAYER
 49
-0.5
 62
   256
  6
BYLAYER
  0
ACDBPLACEHOLDER
  5
F
102
{ACAD_REACTORS
330
E
102
}
330
E
  0
XRECORD
  5
80A6
102
{ACAD_REACTORS
330
809C
102
}
330
809C
100
AcDbXrecord
280
     1
 90
        0
  0
XRECORD
  5
80AA
102
{ACAD_REACTORS
330
809C
102
}
330
809C
100
AcDbXrecord
280
     1
1000
DSTYLE
1002
{
1070
    79
 70
     3
1070
   341
340
3B2
1070
   342
340
3B2
1002
}
  0
XRECORD
  5
80A7
102
{ACAD_REACTORS
330
809C
102
}
330
809C
100
AcDbXrecord
280
     1
  1

  0
XRECORD
  5
809F
102
{ACAD_REACTORS
330
809C
102
}
330
809C
100
AcDbXrecord
280
     1
  1

  0
XRECORD
  5
80A5
102
{ACAD_REACTORS
330
809C
102
}
330
809C
100
AcDbXrecord
280
     1
 90
        0
  0
XRECORD
  5
80A1
102
{ACAD_REACTORS
330
809C
102
}
330
809C
100
AcDbXrecord
280
     1
340
19
  0
XRECORD
  5
80A4
102
{ACAD_REACTORS
330
809C
102
}
330
809C
100
AcDbXrecord
280
     1
 90
    10781
  0
XRECORD
  5
80A2
102
{ACAD_REACTORS
330
809C
102
}
330
809C
100
AcDbXrecord
280
     1
340
18
  0
XRECORD
  5
80A3
102
{ACAD_REACTORS
330
809C
102
}
330
809C
100
AcDbXrecord
280
     1
340
E
  0
XRECORD
  5
80A9
102
{ACAD_REACTORS
330
809C
102
}
330
809C
100
AcDbXrecord
280
     1
 40
0.0
  0
XRECORD
  5
80AD
102
{ACAD_REACTORS
330
809C
102
}
330
809C
100
AcDbXrecord
280
     1
340
0
  0
XRECORD
  5
80B3
102
{ACAD_REACTORS
330
809C
102
}
330
809C
100
AcDbXrecord
280
     1
 10
0.0
 20
0.0
 30
0.0
  0
XRECORD
  5
80AF
102
{ACAD_REACTORS
330
809C
102
}
330
809C
100
AcDbXrecord
280
     1
 10
0.0
 20
0.0
 30
0.0
  0
XRECORD
  5
80B2
102
{ACAD_REACTORS
330
809C
102
}
330
809C
100
AcDbXrecord
280
     1
 10
0.0
 20
0.0
 30
0.0
  0
XRECORD
  5
80B0
102
{ACAD_REACTORS
330
809C
102
}
330
809C
100
AcDbXrecord
280
     1
 10
0.0
 20
0.0
 30
0.0
  0
XRECORD
  5
80B1
102
{ACAD_REACTORS
330
809C
102
}
330
809C
100
AcDbXrecord
280
     1
 10
0.0
 20
0.0
 30
0.0
  0
XRECORD
  5
80AE
102
{ACAD_REACTORS
330
809C
102
}
330
809C
100
AcDbXrecord
280
     1
 10
0.0
 20
0.0
 30
0.0
  0
XRECORD
  5
80AB
102
{ACAD_REACTORS
330
809C
102
}
330
809C
100
AcDbXrecord
280
     1
340
0
  0
XRECORD
  5
80AC
102
{ACAD_REACTORS
330
809C
102
}
330
809C
100
AcDbXrecord
280
     1
 70
     0
  0
XRECORD
  5
80A0
102
{ACAD_REACTORS
330
809C
102
}
330
809C
100
AcDbXrecord
280
     1
  1
KIKI.CTB
  0
XRECORD
  5
809D
102
{ACAD_REACTORS
330
809C
102
}
330
809C
100
AcDbXrecord
280
     1
 90
        1
  0
XRECORD
  5
809E
102
{ACAD_REACTORS
330
809C
102
}
330
809C
100
AcDbXrecord
280
     1
 90
       70
  0
XRECORD
  5
80B6
102
{ACAD_REACTORS
330
809C
102
}
330
809C
100
AcDbXrecord
280
     1
340
0
  0
XRECORD
  5
80BC
102
{ACAD_REACTORS
330
809C
102
}
330
809C
100
AcDbXrecord
280
     1
 10
0.0
 20
0.0
 30
0.0
  0
XRECORD
  5
80B8
102
{ACAD_REACTORS
330
809C
102
}
330
809C
100
AcDbXrecord
280
     1
 10
0.0
 20
0.0
 30
0.0
  0
XRECORD
  5
80BB
102
{ACAD_REACTORS
330
809C
102
}
330
809C
100
AcDbXrecord
280
     1
 10
0.0
 20
0.0
 30
0.0
  0
XRECORD
  5
80B9
102
{ACAD_REACTORS
330
809C
102
}
330
809C
100
AcDbXrecord
280
     1
 10
0.0
 20
0.0
 30
0.0
  0
XRECORD
  5
80BA
102
{ACAD_REACTORS
330
809C
102
}
330
809C
100
AcDbXrecord
280
     1
 10
0.0
 20
0.0
 30
0.0
  0
XRECORD
  5
80B7
102
{ACAD_REACTORS
330
809C
102
}
330
809C
100
AcDbXrecord
280
     1
 10
0.0
 20
0.0
 30
0.0
  0
XRECORD
  5
80B4
102
{ACAD_REACTORS
330
809C
102
}
330
809C
100
AcDbXrecord
280
     1
340
0
  0
XRECORD
  5
80B5
102
{ACAD_REACTORS
330
809C
102
}
330
809C
100
AcDbXrecord
280
     1
 70
     0
  0
XRECORD
  5
80A8
102
{ACAD_REACTORS
330
809C
102
}
330
809C
100
AcDbXrecord
280
     1
  1
{598F7163-668A-495C-B959-D49E4B85C5B2}
  0
DICTIONARYVAR
  5
5698
102
{ACAD_REACTORS
330
5697
102
}
330
5697
100
DictionaryVariables
280
     0
  1
1
  0
ENDSEC
  0
EOF
