  0
SECTION
  2
HEADER
  9
$ACADVER
  1
AC1015
  9
$ACADMAINTVER
 70
    20
  9
$DWGCODEPAGE
  3
ANSI_932
  9
$INSBASE
 10
0.0
 20
0.0
 30
0.0
  9
$EXTMIN
 10
-72.54513687319286
 20
-350.7331968561325
 30
-0.0015258207003583
  9
$EXTMAX
 10
426.2870310995115
 20
384.9303511276803
 30
0.0000000349246037
  9
$LIMMIN
 10
-125.1996450171336
 20
-378.8528732976748
  9
$LIMMAX
 10
496.784087282236
 20
423.084024335782
  9
$ORTHOMODE
 70
     1
  9
$REGENMODE
 70
     1
  9
$FILLMODE
 70
     1
  9
$QTEXTMODE
 70
     0
  9
$MIRRTEXT
 70
     1
  9
$LTSCALE
 40
5.0
  9
$ATTMODE
 70
     1
  9
$TEXTSIZE
 40
5.0
  9
$TRACEWID
 40
0.05
  9
$TEXTSTYLE
  7
STANDARD1
  9
$CLAYER
  8
30
  9
$CELTYPE
  6
BYLAYER
  9
$CECOLOR
 62
   256
  9
$CELTSCALE
 40
1.0
  9
$DISPSILH
 70
     0
  9
$DIMSCALE
 40
1.0
  9
$DIMASZ
 40
2.0
  9
$DIMEXO
 40
1.0
  9
$DIMDLI
 40
0.5
  9
$DIMRND
 40
0.0
  9
$DIMDLE
 40
0.0
  9
$DIMEXE
 40
0.5
  9
$DIMTP
 40
0.0
  9
$DIMTM
 40
0.0
  9
$DIMTXT
 40
4.0
  9
$DIMCEN
 40
0.09
  9
$DIMTSZ
 40
0.0
  9
$DIMTOL
 70
     0
  9
$DIMLIM
 70
     0
  9
$DIMTIH
 70
     0
  9
$DIMTOH
 70
     0
  9
$DIMSE1
 70
     0
  9
$DIMSE2
 70
     0
  9
$DIMTAD
 70
     3
  9
$DIMZIN
 70
    12
  9
$DIMBLK
  1
OPEN
  9
$DIMASO
 70
     1
  9
$DIMSHO
 70
     1
  9
$DIMPOST
  1

  9
$DIMAPOST
  1

  9
$DIMALT
 70
     0
  9
$DIMALTD
 70
     2
  9
$DIMALTF
 40
25.4
  9
$DIMLFAC
 40
1.0
  9
$DIMTOFL
 70
     0
  9
$DIMTVP
 40
0.0
  9
$DIMTIX
 70
     0
  9
$DIMSOXD
 70
     0
  9
$DIMSAH
 70
     0
  9
$DIMBLK1
  1

  9
$DIMBLK2
  1

  9
$DIMSTYLE
  2
STANDARD
  9
$DIMCLRD
 70
     0
  9
$DIMCLRE
 70
     0
  9
$DIMCLRT
 70
     0
  9
$DIMTFAC
 40
1.0
  9
$DIMGAP
 40
1.0
  9
$DIMJUST
 70
     0
  9
$DIMSD1
 70
     0
  9
$DIMSD2
 70
     0
  9
$DIMTOLJ
 70
     1
  9
$DIMTZIN
 70
     0
  9
$DIMALTZ
 70
     0
  9
$DIMALTTZ
 70
     0
  9
$DIMUPT
 70
     0
  9
$DIMDEC
 70
     1
  9
$DIMTDEC
 70
     1
  9
$DIMALTU
 70
     2
  9
$DIMALTTD
 70
     2
  9
$DIMTXSTY
  7
STANDARD
  9
$DIMAUNIT
 70
     0
  9
$DIMADEC
 70
     0
  9
$DIMALTRND
 40
0.0
  9
$DIMAZIN
 70
     0
  9
$DIMDSEP
 70
    46
  9
$DIMATFIT
 70
     3
  9
$DIMFRAC
 70
     0
  9
$DIMLDRBLK
  1
OPEN
  9
$DIMLUNIT
 70
     2
  9
$DIMLWD
 70
    -2
  9
$DIMLWE
 70
    -2
  9
$DIMTMOVE
 70
     0
  9
$LUNITS
 70
     2
  9
$LUPREC
 70
     4
  9
$SKETCHINC
 40
0.1
  9
$FILLETRAD
 40
0.0
  9
$AUNITS
 70
     0
  9
$AUPREC
 70
     0
  9
$MENU
  1
.
  9
$ELEVATION
 40
0.0
  9
$PELEVATION
 40
0.0
  9
$THICKNESS
 40
0.0
  9
$LIMCHECK
 70
     0
  9
$CHAMFERA
 40
0.0
  9
$CHAMFERB
 40
0.0
  9
$CHAMFERC
 40
0.0
  9
$CHAMFERD
 40
0.0
  9
$SKPOLY
 70
     0
  9
$TDCREATE
 40
2452286.555658658
  9
$TDUCREATE
 40
2452286.180658658
  9
$TDUPDATE
 40
2457176.724987512
  9
$TDUUPDATE
 40
2457176.349987511
  9
$TDINDWG
 40
1.3990749884
  9
$TDUSRTIMER
 40
1.3990744560
  9
$USRTIMER
 70
     1
  9
$ANGBASE
 50
0.0
  9
$ANGDIR
 70
     0
  9
$PDMODE
 70
     0
  9
$PDSIZE
 40
0.0
  9
$PLINEWID
 40
0.0
  9
$SPLFRAME
 70
     0
  9
$SPLINETYPE
 70
     6
  9
$SPLINESEGS
 70
     8
  9
$HANDSEED
  5
A403
  9
$SURFTAB1
 70
     6
  9
$SURFTAB2
 70
     6
  9
$SURFTYPE
 70
     6
  9
$SURFU
 70
     6
  9
$SURFV
 70
     6
  9
$UCSBASE
  2

  9
$UCSNAME
  2

  9
$UCSORG
 10
0.0
 20
0.0
 30
0.0
  9
$UCSXDIR
 10
1.0
 20
0.0
 30
0.0
  9
$UCSYDIR
 10
0.0
 20
1.0
 30
0.0
  9
$UCSORTHOREF
  2

  9
$UCSORTHOVIEW
 70
     0
  9
$UCSORGTOP
 10
0.0
 20
0.0
 30
0.0
  9
$UCSORGBOTTOM
 10
0.0
 20
0.0
 30
0.0
  9
$UCSORGLEFT
 10
0.0
 20
0.0
 30
0.0
  9
$UCSORGRIGHT
 10
0.0
 20
0.0
 30
0.0
  9
$UCSORGFRONT
 10
0.0
 20
0.0
 30
0.0
  9
$UCSORGBACK
 10
0.0
 20
0.0
 30
0.0
  9
$PUCSBASE
  2

  9
$PUCSNAME
  2

  9
$PUCSORG
 10
0.0
 20
0.0
 30
0.0
  9
$PUCSXDIR
 10
1.0
 20
0.0
 30
0.0
  9
$PUCSYDIR
 10
0.0
 20
1.0
 30
0.0
  9
$PUCSORTHOREF
  2

  9
$PUCSORTHOVIEW
 70
     0
  9
$PUCSORGTOP
 10
0.0
 20
0.0
 30
0.0
  9
$PUCSORGBOTTOM
 10
0.0
 20
0.0
 30
0.0
  9
$PUCSORGLEFT
 10
0.0
 20
0.0
 30
0.0
  9
$PUCSORGRIGHT
 10
0.0
 20
0.0
 30
0.0
  9
$PUCSORGFRONT
 10
0.0
 20
0.0
 30
0.0
  9
$PUCSORGBACK
 10
0.0
 20
0.0
 30
0.0
  9
$USERI1
 70
     0
  9
$USERI2
 70
     0
  9
$USERI3
 70
     0
  9
$USERI4
 70
     0
  9
$USERI5
 70
     0
  9
$USERR1
 40
0.0
  9
$USERR2
 40
0.0
  9
$USERR3
 40
0.0
  9
$USERR4
 40
0.0
  9
$USERR5
 40
0.0
  9
$WORLDVIEW
 70
     1
  9
$SHADEDGE
 70
     3
  9
$SHADEDIF
 70
    70
  9
$TILEMODE
 70
     1
  9
$MAXACTVP
 70
    48
  9
$PINSBASE
 10
0.0
 20
0.0
 30
0.0
  9
$PLIMCHECK
 70
     0
  9
$PEXTMIN
 10
4.273573370203961
 20
5.205246163471485
 30
0.0
  9
$PEXTMAX
 10
194.6100952986349
 20
283.0697008572913
 30
0.0
  9
$PLIMMIN
 10
-5.873748779296875
 20
-5.873749732971191
  9
$PLIMMAX
 10
204.0995788574218
 20
291.1369009017943
  9
$UNITMODE
 70
     0
  9
$VISRETAIN
 70
     1
  9
$PLINEGEN
 70
     0
  9
$PSLTSCALE
 70
     1
  9
$TREEDEPTH
 70
  3020
  9
$CMLSTYLE
  2
STANDARD
  9
$CMLJUST
 70
     0
  9
$CMLSCALE
 40
1.0
  9
$PROXYGRAPHICS
 70
     1
  9
$MEASUREMENT
 70
     0
  9
$CELWEIGHT
370
    -1
  9
$ENDCAPS
280
     0
  9
$JOINSTYLE
280
     0
  9
$LWDISPLAY
290
     0
  9
$INSUNITS
 70
     0
  9
$HYPERLINKBASE
  1

  9
$STYLESHEET
  1
KIKI.CTB
  9
$XEDIT
290
     1
  9
$CEPSNTYPE
380
     0
  9
$PSTYLEMODE
290
     1
  9
$FINGERPRINTGUID
  2

  9
$VERSIONGUID
  2
{400865A5-BC80-4750-B737-751C872A3B8A}
  9
$EXTNAMES
290
     1
  9
$PSVPSCALE
 40
0.0
  9
$OLESTARTUP
290
     0
  0
ENDSEC
  0
SECTION
  2
CLASSES
  0
CLASS
  1
ACDBDICTIONARYWDFLT
  2
AcDbDictionaryWithDefault
  3
ObjectDBX Classes
 90
        0
280
     0
281
     0
  0
CLASS
  1
ACDBPLACEHOLDER
  2
AcDbPlaceHolder
  3
ObjectDBX Classes
 90
        0
280
     0
281
     0
  0
CLASS
  1
LAYOUT
  2
AcDbLayout
  3
ObjectDBX Classes
 90
        0
280
     0
281
     0
  0
CLASS
  1
DICTIONARYVAR
  2
AcDbDictionaryVar
  3
ObjectDBX Classes
 90
        0
280
     0
281
     0
  0
CLASS
  1
MATERIAL
  2
AcDbMaterial
  3
ObjectDBX Classes
 90
     1153
280
     0
281
     0
  0
CLASS
  1
VISUALSTYLE
  2
AcDbVisualStyle
  3
ObjectDBX Classes
 90
     4095
280
     0
281
     0
  0
CLASS
  1
TABLESTYLE
  2
AcDbTableStyle
  3
ObjectDBX Classes
 90
     4095
280
     0
281
     0
  0
CLASS
  1
SCALE
  2
AcDbScale
  3
ObjectDBX Classes
 90
     1153
280
     0
281
     0
  0
CLASS
  1
MLEADERSTYLE
  2
AcDbMLeaderStyle
  3
ACDB_MLEADERSTYLE_CLASS
 90
     4095
280
     0
281
     0
  0
CLASS
  1
CELLSTYLEMAP
  2
AcDbCellStyleMap
  3
ObjectDBX Classes
 90
     1152
280
     0
281
     0
  0
ENDSEC
  0
SECTION
  2
TABLES
  0
TABLE
  2
VPORT
  5
8
330
0
100
AcDbSymbolTable
 70
     1
  0
VPORT
  5
A329
330
8
100
AcDbSymbolTableRecord
100
AcDbViewportTableRecord
  2
*Active
 70
     0
 10
0.0
 20
0.0
 11
1.0
 21
1.0
 12
176.8709471131594
 22
17.09857713577389
 13
0.0
 23
0.0
 14
1.0
 24
1.0
 15
10.0
 25
10.0
 16
0.0
 26
0.0
 36
1.0
 17
0.0
 27
0.0
 37
0.0
 40
740.6965939221285
 41
1.746575342465753
 42
50.0
 43
0.0
 44
0.0
 50
0.0
 51
0.0
 71
     0
 72
   100
 73
     1
 74
     1
 75
     0
 76
     0
 77
     0
 78
     0
281
     0
 65
     1
110
0.0
120
0.0
130
0.0
111
1.0
121
0.0
131
0.0
112
0.0
122
1.0
132
0.0
 79
     0
146
0.0
  0
ENDTAB
  0
TABLE
  2
LTYPE
  5
5
330
0
100
AcDbSymbolTable
 70
     5
  0
LTYPE
  5
13
330
5
100
AcDbSymbolTableRecord
100
AcDbLinetypeTableRecord
  2
BYBLOCK
 70
     0
  3

 72
    65
 73
     0
 40
0.0
  0
LTYPE
  5
14
330
5
100
AcDbSymbolTableRecord
100
AcDbLinetypeTableRecord
  2
BYLAYER
 70
     0
  3

 72
    65
 73
     0
 40
0.0
  0
LTYPE
  5
15
330
5
100
AcDbSymbolTableRecord
100
AcDbLinetypeTableRecord
  2
CONTINUOUS
 70
     0
  3
Solid line
 72
    65
 73
     0
 40
0.0
  0
LTYPE
  5
22
330
5
100
AcDbSymbolTableRecord
100
AcDbLinetypeTableRecord
  2
CONTINOUS
 70
     0
  3
Solid line
 72
    65
 73
     0
 40
0.0
  0
LTYPE
  5
24
330
5
100
AcDbSymbolTableRecord
100
AcDbLinetypeTableRecord
  2
DASHDOT
 70
     0
  3
__ . __ . __ . __ . __ . __ . __ . __ . __ . __
 72
    65
 73
     4
 40
1.0
 49
0.5
 74
     0
 49
-0.25
 74
     0
 49
0.0
 74
     0
 49
-0.25
 74
     0
  0
LTYPE
  5
429E
330
5
100
AcDbSymbolTableRecord
100
AcDbLinetypeTableRecord
  2
DIVIDE
 70
     0
  3
Divide ____ . . ____ . . ____ . . ____ . . ____
 72
    65
 73
     6
 40
1.25
 49
0.5
 74
     0
 49
-0.25
 74
     0
 49
0.0
 74
     0
 49
-0.25
 74
     0
 49
0.0
 74
     0
 49
-0.25
 74
     0
  0
ENDTAB
  0
TABLE
  2
LAYER
  5
2
330
0
100
AcDbSymbolTable
 70
    13
  0
LAYER
  5
10
102
{ACAD_XDICTIONARY
360
A3AC
102
}
330
2
100
AcDbSymbolTableRecord
100
AcDbLayerTableRecord
  2
0
 70
     0
 62
     7
  6
CONTINOUS
370
    -3
390
F
  0
LAYER
  5
2F
102
{ACAD_XDICTIONARY
360
A3AE
102
}
330
2
100
AcDbSymbolTableRecord
100
AcDbLayerTableRecord
  2
10
 70
     0
 62
     4
  6
CONTINOUS
370
    -3
390
F
  0
LAYER
  5
31
102
{ACAD_XDICTIONARY
360
A3B0
102
}
330
2
100
AcDbSymbolTableRecord
100
AcDbLayerTableRecord
  2
12
 70
     0
 62
     3
  6
CONTINOUS
370
    -3
390
F
  0
LAYER
  5
35
102
{ACAD_XDICTIONARY
360
A3B2
102
}
330
2
100
AcDbSymbolTableRecord
100
AcDbLayerTableRecord
  2
16
 70
     0
 62
     6
  6
DASHDOT
370
    -3
390
F
  0
LAYER
  5
36
102
{ACAD_XDICTIONARY
360
A3B4
102
}
330
2
100
AcDbSymbolTableRecord
100
AcDbLayerTableRecord
  2
17
 70
     0
 62
     2
  6
DASHDOT
370
    -3
390
F
  0
LAYER
  5
3D
102
{ACAD_XDICTIONARY
360
A3B6
102
}
330
2
100
AcDbSymbolTableRecord
100
AcDbLayerTableRecord
  2
24
 70
     0
 62
     2
  6
CONTINOUS
370
    -3
390
F
  0
LAYER
  5
3A2
102
{ACAD_XDICTIONARY
360
A3B8
102
}
330
2
100
AcDbSymbolTableRecord
100
AcDbLayerTableRecord
  2
30
 70
     0
 62
     9
  6
CONTINUOUS
370
    -3
390
F
  0
LAYER
  5
3A4
330
2
100
AcDbSymbolTableRecord
100
AcDbLayerTableRecord
  2
DEFPOINTS
 70
     0
 62
     7
  6
CONTINUOUS
290
     0
370
    -3
390
F
  0
LAYER
  5
3BBA
102
{ACAD_XDICTIONARY
360
A3BA
102
}
330
2
100
AcDbSymbolTableRecord
100
AcDbLayerTableRecord
  2
18
 70
     0
 62
     5
  6
DIVIDE
370
    -3
390
F
  0
LAYER
  5
3BBB
102
{ACAD_XDICTIONARY
360
A3BC
102
}
330
2
100
AcDbSymbolTableRecord
100
AcDbLayerTableRecord
  2
21
 70
     0
 62
     7
  6
CONTINUOUS
370
    -3
390
F
  0
LAYER
  5
40E3
102
{ACAD_XDICTIONARY
360
A3BE
102
}
330
2
100
AcDbSymbolTableRecord
100
AcDbLayerTableRecord
  2
22
 70
     0
 62
     3
  6
CONTINUOUS
370
    -3
390
F
  0
LAYER
  5
9496
102
{ACAD_XDICTIONARY
360
A3C0
102
}
330
2
100
AcDbSymbolTableRecord
100
AcDbLayerTableRecord
  2
TOP
 70
     0
 62
     7
  6
CONTINUOUS
370
    -3
390
F
  0
LAYER
  5
98BC
102
{ACAD_XDICTIONARY
360
A3C2
102
}
330
2
100
AcDbSymbolTableRecord
100
AcDbLayerTableRecord
  2
1
 70
     0
 62
     7
  6
CONTINUOUS
370
    -3
390
F
  0
ENDTAB
  0
TABLE
  2
STYLE
  5
3
330
0
100
AcDbSymbolTable
 70
     4
  0
STYLE
  5
11
330
3
100
AcDbSymbolTableRecord
100
AcDbTextStyleTableRecord
  2
STANDARD
 70
     0
 40
0.0
 41
1.0
 50
0.0
 71
     0
 42
2.0
  3
txt.shx
  4
bigfont.shx
  0
STYLE
  5
42
330
3
100
AcDbSymbolTableRecord
100
AcDbTextStyleTableRecord
  2
STANDARD1
 70
     0
 40
0.0
 41
1.0
 50
0.0
 71
     0
 42
5.0
  3
MONOTXT
  4
BIGFONT
  0
STYLE
  5
5CC0
330
3
100
AcDbSymbolTableRecord
100
AcDbTextStyleTableRecord
  2
SMP-SET
 70
     0
 40
0.0
 41
1.0
 50
0.0
 71
     0
 42
3.0
  3
SIMPLEX
  4
BIGFONT
  0
STYLE
  5
9497
330
3
100
AcDbSymbolTableRecord
100
AcDbTextStyleTableRecord
  2
UGMTXT
 70
     0
 40
0.0
 41
1.0
 50
0.0
 71
     0
 42
0.2
  3
ugmtxt
  4
bigfont
  0
ENDTAB
  0
TABLE
  2
VIEW
  5
6
330
0
100
AcDbSymbolTable
 70
     5
  0
VIEW
  5
230C
330
6
100
AcDbSymbolTableRecord
100
AcDbViewTableRecord
  2
OLE1
 70
     0
 40
148.9124878027714
 10
429.4976280407222
 20
2.560626997828478
 41
103.1458057716444
 11
0.0
 21
0.0
 31
1.0
 12
0.0
 22
0.0
 32
0.0
 42
50.0
 43
0.0
 44
0.0
 50
0.0
 71
     0
281
     0
 72
     0
  0
VIEW
  5
230E
330
6
100
AcDbSymbolTableRecord
100
AcDbViewTableRecord
  2
OLE2
 70
     0
 40
170.7786920545775
 10
322.664969958371
 20
-5.978304054290276
 41
102.4672152327465
 11
0.0
 21
0.0
 31
1.0
 12
0.0
 22
0.0
 32
0.0
 42
50.0
 43
0.0
 44
0.0
 50
0.0
 71
     0
281
     0
 72
     0
  0
VIEW
  5
23AA
330
6
100
AcDbSymbolTableRecord
100
AcDbViewTableRecord
  2
OLE3
 70
     0
 40
591.7897393182231
 10
84.79698158148218
 20
-46.09336010803995
 41
388.7920961799953
 11
0.0
 21
0.0
 31
1.0
 12
0.0
 22
0.0
 32
0.0
 42
50.0
 43
0.0
 44
0.0
 50
0.0
 71
     0
281
     0
 72
     0
  0
VIEW
  5
4402
330
6
100
AcDbSymbolTableRecord
100
AcDbViewTableRecord
  2
OLE4
 70
     0
 40
151.7917771380923
 10
15.38766885376364
 20
-193.752550173716
 41
398.5527551557765
 11
0.0
 21
0.0
 31
1.0
 12
0.0
 22
0.0
 32
0.0
 42
50.0
 43
0.0
 44
0.0
 50
0.0
 71
     0
281
     0
 72
     0
  0
VIEW
  5
8D79
330
6
100
AcDbSymbolTableRecord
100
AcDbViewTableRecord
  2
OLE5
 70
     0
 40
473.0465752437631
 10
40.72308557678552
 20
-190.6885064073368
 41
1018.166770320803
 11
0.0
 21
0.0
 31
1.0
 12
0.0
 22
0.0
 32
0.0
 42
50.0
 43
0.0
 44
0.0
 50
0.0
 71
     0
281
     0
 72
     0
  0
ENDTAB
  0
TABLE
  2
UCS
  5
7
330
0
100
AcDbSymbolTable
 70
     0
  0
ENDTAB
  0
TABLE
  2
APPID
  5
9
330
0
100
AcDbSymbolTable
 70
     5
  0
APPID
  5
12
330
9
100
AcDbSymbolTableRecord
100
AcDbRegAppTableRecord
  2
ACAD
 70
     0
  0
APPID
  5
ECD
330
9
100
AcDbSymbolTableRecord
100
AcDbRegAppTableRecord
  2
CONTENTBLOCKICON
 70
     0
  0
APPID
  5
A3A5
330
9
100
AcDbSymbolTableRecord
100
AcDbRegAppTableRecord
  2
ACAD_EXEMPT_FROM_CAD_STANDARDS
 70
     0
  0
APPID
  5
A3C6
330
9
100
AcDbSymbolTableRecord
100
AcDbRegAppTableRecord
  2
DCO15
 70
     0
  0
APPID
  5
A402
330
9
100
AcDbSymbolTableRecord
100
AcDbRegAppTableRecord
  2
ACAD_MLEADERVER
 70
     0
  0
ENDTAB
  0
TABLE
  2
DIMSTYLE
  5
A
330
0
100
AcDbSymbolTable
 70
     2
100
AcDbDimStyleTable
 71
     1
340
175
  0
DIMSTYLE
105
175
102
{ACAD_REACTORS
330
92DA
330
933A
330
9C5E
330
9770
330
97C2
330
9795
330
9EEE
330
9E18
330
9E21
330
9E1E
330
9E1D
330
9E17
330
9C12
330
9C1B
330
9C15
330
9C14
330
9C11
330
9C10
330
9C1C
330
9C1D
330
9C2A
330
A006
330
A013
330
A029
330
993F
330
9945
330
A0C7
330
A0D4
330
A130
330
A13D
102
}
330
A
100
AcDbSymbolTableRecord
100
AcDbDimStyleTableRecord
  2
STANDARD
 70
     0
 41
2.0
 42
1.0
 43
0.5
 44
0.5
 73
     0
 74
     0
 77
     3
 78
    12
140
4.0
147
1.0
271
     1
272
     1
340
11
341
3B2
342
3B2
  0
ENDTAB
  0
TABLE
  2
BLOCK_RECORD
  5
1
330
0
100
AcDbSymbolTable
 70
    31
  0
BLOCK_RECORD
  5
1E
102
{ACAD_XDICTIONARY
360
178
102
}
330
1
100
AcDbSymbolTableRecord
100
AcDbBlockTableRecord
  2
*MODEL_SPACE
340
A324
  0
BLOCK_RECORD
  5
1A
102
{ACAD_XDICTIONARY
360
17A
102
}
330
1
100
AcDbSymbolTableRecord
100
AcDbBlockTableRecord
  2
*PAPER_SPACE
340
A325
  0
BLOCK_RECORD
  5
3B2
330
1
100
AcDbSymbolTableRecord
100
AcDbBlockTableRecord
  2
_OPEN
340
0
102
{BLKREFS
331
A14D
331
A14E
331
9EE8
331
9EE9
331
A10F
331
A110
331
A2FC
331
A2FD
331
A305
331
A306
331
A082
331
A083
331
A079
331
A07A
331
A094
331
A095
331
A066
331
A067
331
A054
331
A055
331
A05D
331
A05E
331
A039
331
A03A
331
A04B
331
A04C
331
A042
331
A043
331
A17A
331
A17B
331
A171
331
A172
331
9F61
331
9F62
331
9F58
331
9F59
331
A18D
331
A18E
331
9EF3
331
9EF4
331
A00B
331
A00C
331
A018
331
A019
331
A02E
331
A02F
331
A135
331
A136
331
A317
331
A318
331
A38B
331
A38C
331
A395
331
A396
331
A39E
331
A39F
102
}
  0
BLOCK_RECORD
  5
9830
330
1
100
AcDbSymbolTableRecord
100
AcDbBlockTableRecord
  2
*D1
340
0
  0
BLOCK_RECORD
  5
983C
330
1
100
AcDbSymbolTableRecord
100
AcDbBlockTableRecord
  2
*D2
340
0
  0
BLOCK_RECORD
  5
9848
330
1
100
AcDbSymbolTableRecord
100
AcDbBlockTableRecord
  2
*D3
340
0
  0
BLOCK_RECORD
  5
9969
330
1
100
AcDbSymbolTableRecord
100
AcDbBlockTableRecord
  2
*D4
340
0
  0
BLOCK_RECORD
  5
9981
330
1
100
AcDbSymbolTableRecord
100
AcDbBlockTableRecord
  2
*D5
340
0
  0
BLOCK_RECORD
  5
9A63
330
1
100
AcDbSymbolTableRecord
100
AcDbBlockTableRecord
  2
*U6
340
0
102
{BLKREFS
331
9C0D
102
}
  0
BLOCK_RECORD
  5
9C6E
330
1
100
AcDbSymbolTableRecord
100
AcDbBlockTableRecord
  2
*D7
340
0
  0
BLOCK_RECORD
  5
9C7A
330
1
100
AcDbSymbolTableRecord
100
AcDbBlockTableRecord
  2
*D8
340
0
  0
BLOCK_RECORD
  5
9C87
330
1
100
AcDbSymbolTableRecord
100
AcDbBlockTableRecord
  2
*D9
340
0
  0
BLOCK_RECORD
  5
9C93
330
1
100
AcDbSymbolTableRecord
100
AcDbBlockTableRecord
  2
*D10
340
0
  0
BLOCK_RECORD
  5
9C9F
330
1
100
AcDbSymbolTableRecord
100
AcDbBlockTableRecord
  2
*D11
340
0
  0
BLOCK_RECORD
  5
9CAB
330
1
100
AcDbSymbolTableRecord
100
AcDbBlockTableRecord
  2
*D12
340
0
  0
BLOCK_RECORD
  5
9CB7
330
1
100
AcDbSymbolTableRecord
100
AcDbBlockTableRecord
  2
*D13
340
0
  0
BLOCK_RECORD
  5
9CC3
330
1
100
AcDbSymbolTableRecord
100
AcDbBlockTableRecord
  2
*D14
340
0
  0
BLOCK_RECORD
  5
9CCF
330
1
100
AcDbSymbolTableRecord
100
AcDbBlockTableRecord
  2
*D15
340
0
  0
BLOCK_RECORD
  5
9CF3
330
1
100
AcDbSymbolTableRecord
100
AcDbBlockTableRecord
  2
*D16
340
0
  0
BLOCK_RECORD
  5
9E46
330
1
100
AcDbSymbolTableRecord
100
AcDbBlockTableRecord
  2
*D17
340
0
  0
BLOCK_RECORD
  5
9E52
330
1
100
AcDbSymbolTableRecord
100
AcDbBlockTableRecord
  2
*D18
340
0
  0
BLOCK_RECORD
  5
9E5E
330
1
100
AcDbSymbolTableRecord
100
AcDbBlockTableRecord
  2
*D19
340
0
  0
BLOCK_RECORD
  5
9E6A
330
1
100
AcDbSymbolTableRecord
100
AcDbBlockTableRecord
  2
*D20
340
0
  0
BLOCK_RECORD
  5
9E76
330
1
100
AcDbSymbolTableRecord
100
AcDbBlockTableRecord
  2
*D21
340
0
  0
BLOCK_RECORD
  5
9EEF
330
1
100
AcDbSymbolTableRecord
100
AcDbBlockTableRecord
  2
*D22
340
0
  0
BLOCK_RECORD
  5
A007
330
1
100
AcDbSymbolTableRecord
100
AcDbBlockTableRecord
  2
*D23
340
0
  0
BLOCK_RECORD
  5
A014
330
1
100
AcDbSymbolTableRecord
100
AcDbBlockTableRecord
  2
*D24
340
0
  0
BLOCK_RECORD
  5
A02A
330
1
100
AcDbSymbolTableRecord
100
AcDbBlockTableRecord
  2
*D25
340
0
  0
BLOCK_RECORD
  5
A0C8
330
1
100
AcDbSymbolTableRecord
100
AcDbBlockTableRecord
  2
*D26
340
0
  0
BLOCK_RECORD
  5
A0D5
330
1
100
AcDbSymbolTableRecord
100
AcDbBlockTableRecord
  2
*D27
340
0
  0
BLOCK_RECORD
  5
A131
330
1
100
AcDbSymbolTableRecord
100
AcDbBlockTableRecord
  2
*D28
340
0
  0
BLOCK_RECORD
  5
A13E
330
1
100
AcDbSymbolTableRecord
100
AcDbBlockTableRecord
  2
*D29
340
0
  0
ENDTAB
  0
ENDSEC
  0
SECTION
  2
BLOCKS
  0
BLOCK
  5
1F
330
1E
100
AcDbEntity
  8
0
100
AcDbBlockBegin
  2
*MODEL_SPACE
 70
     0
 10
0.0
 20
0.0
 30
0.0
  3
*MODEL_SPACE
  1

  0
ENDBLK
  5
20
330
1E
100
AcDbEntity
  8
0
100
AcDbBlockEnd
  0
BLOCK
  5
1B
330
1A
100
AcDbEntity
 67
     1
  8
0
100
AcDbBlockBegin
  2
*PAPER_SPACE
 70
     0
 10
0.0
 20
0.0
 30
0.0
  3
*PAPER_SPACE
  1

  0
ENDBLK
  5
1C
330
1A
100
AcDbEntity
 67
     1
  8
0
100
AcDbBlockEnd
  0
BLOCK
  5
3B6
330
3B2
100
AcDbEntity
  8
0
100
AcDbBlockBegin
  2
_OPEN
 70
     0
 10
0.0
 20
0.0
 30
0.0
  3
_OPEN
  1

  0
LINE
  5
3B3
330
3B2
100
AcDbEntity
  8
30
  6
Continuous
 62
     0
100
AcDbLine
 10
-1.0
 20
0.1666666666666666
 30
0.0
 11
0.0
 21
0.0
 31
0.0
  0
LINE
  5
3B4
330
3B2
100
AcDbEntity
  8
30
  6
Continuous
 62
     0
100
AcDbLine
 10
-1.0
 20
-0.1666666666666666
 30
0.0
 11
0.0
 21
0.0
 31
0.0
  0
LINE
  5
3B5
330
3B2
100
AcDbEntity
  8
30
  6
Continuous
 62
     0
100
AcDbLine
 10
0.0
 20
0.0
 30
0.0
 11
-1.0
 21
0.0
 31
0.0
  0
ENDBLK
  5
3B7
330
3B2
100
AcDbEntity
  8
0
100
AcDbBlockEnd
  0
BLOCK
  5
983A
330
9830
100
AcDbEntity
  8
0
100
AcDbBlockBegin
  2
*D1
 70
     1
 10
0.0
 20
0.0
 30
0.0
  3
*D1
  1

  0
LINE
  5
A14A
330
9830
100
AcDbEntity
  8
30
 62
     0
100
AcDbLine
 10
-52.49972879674436
 20
-83.49957382345539
 30
0.0
 11
-52.49972879674436
 21
-110.5071869104863
 31
0.0
  0
LINE
  5
A14B
330
9830
100
AcDbEntity
  8
30
 62
     0
100
AcDbLine
 10
52.49954799457388
 20
-83.49957382345539
 30
0.0
 11
52.49954799457388
 21
-110.5071869104863
 31
0.0
  0
LINE
  5
A14C
330
9830
100
AcDbEntity
  8
30
 62
     0
100
AcDbLine
 10
-50.49972879674434
 20
-110.0071869104862
 30
0.0
 11
50.49954799457387
 21
-110.0071869104862
 31
0.0
  0
INSERT
  5
A14D
330
9830
100
AcDbEntity
  8
30
 62
     0
100
AcDbBlockReference
  2
_OPEN
 10
-52.49972879674436
 20
-110.0071869104862
 30
0.0
 41
2.0
 42
2.0
 43
2.0
 50
180.0
  0
INSERT
  5
A14E
330
9830
100
AcDbEntity
  8
30
 62
     0
100
AcDbBlockReference
  2
_OPEN
 10
52.49954799457388
 20
-110.0071869104862
 30
0.0
 41
2.0
 42
2.0
 43
2.0
  0
MTEXT
  5
A14F
330
9830
100
AcDbEntity
  8
30
 62
     0
100
AcDbMText
 10
-0.0000904010852308
 20
-107.0071869104862
 30
0.0
 40
4.0
 41
0.0
 71
     5
 72
     1
  1
\A1;105
 73
     1
 44
1.0
1001
ACAD
1000
MTEXTBEGIN
1070
    73
1070
     1
1070
    44
1040
1.0
1070
    74
1070
     0
1000
MTEXTEND
  0
POINT
  5
A150
330
9830
100
AcDbEntity
  8
DEFPOINTS
 62
     0
100
AcDbPoint
 10
-52.49972879674436
 20
-82.4995738234554
 30
0.0
  0
POINT
  5
A151
330
9830
100
AcDbEntity
  8
DEFPOINTS
 62
     0
100
AcDbPoint
 10
52.49954799457388
 20
-82.4995738234554
 30
0.0
  0
POINT
  5
A152
330
9830
100
AcDbEntity
  8
DEFPOINTS
 62
     0
100
AcDbPoint
 10
52.49954799457388
 20
-110.0071869104862
 30
0.0
  0
ENDBLK
  5
983B
330
9830
100
AcDbEntity
  8
0
100
AcDbBlockEnd
  0
BLOCK
  5
9846
330
983C
100
AcDbEntity
  8
0
100
AcDbBlockBegin
  2
*D2
 70
     1
 10
0.0
 20
0.0
 30
0.0
  3
*D2
  1

  0
LINE
  5
9EE5
330
983C
100
AcDbEntity
  8
30
 62
     0
100
AcDbLine
 10
-48.99974687696138
 20
25.99987085559252
 30
0.0
 11
-48.99974687696138
 21
35.71301008272598
 31
0.0
  0
LINE
  5
9EE6
330
983C
100
AcDbEntity
  8
30
 62
     0
100
AcDbLine
 10
48.99974687696138
 20
25.99987085559252
 30
0.0
 11
48.99974687696138
 21
35.71301008272598
 31
0.0
  0
LINE
  5
9EE7
330
983C
100
AcDbEntity
  8
30
 62
     0
100
AcDbLine
 10
-46.99974687696138
 20
35.21301008272597
 30
0.0
 11
46.99974687696138
 21
35.21301008272597
 31
0.0
  0
INSERT
  5
9EE8
330
983C
100
AcDbEntity
  8
30
 62
     0
100
AcDbBlockReference
  2
_OPEN
 10
-48.99974687696138
 20
35.21301008272597
 30
0.0
 41
2.0
 42
2.0
 43
2.0
 50
180.0
  0
INSERT
  5
9EE9
330
983C
100
AcDbEntity
  8
30
 62
     0
100
AcDbBlockReference
  2
_OPEN
 10
48.99974687696138
 20
35.21301008272597
 30
0.0
 41
2.0
 42
2.0
 43
2.0
  0
MTEXT
  5
9EEA
330
983C
100
AcDbEntity
  8
30
 62
     0
100
AcDbMText
 10
0.0000000000000002
 20
38.21301008272598
 30
0.0
 40
4.0
 41
0.0
 71
     5
 72
     1
  1
\A1;98
 73
     1
 44
1.0
1001
ACAD
1000
MTEXTBEGIN
1070
    73
1070
     1
1070
    44
1040
1.0
1070
    74
1070
     0
1000
MTEXTEND
  0
POINT
  5
9EEB
330
983C
100
AcDbEntity
  8
DEFPOINTS
 62
     0
100
AcDbPoint
 10
-48.99974687696138
 20
24.99987085559252
 30
0.0
  0
POINT
  5
9EEC
330
983C
100
AcDbEntity
  8
DEFPOINTS
 62
     0
100
AcDbPoint
 10
48.99974687696138
 20
24.99987085559252
 30
0.0
  0
POINT
  5
9EED
330
983C
100
AcDbEntity
  8
DEFPOINTS
 62
     0
100
AcDbPoint
 10
48.99974687696138
 20
35.21301008272597
 30
0.0
  0
ENDBLK
  5
9847
330
983C
100
AcDbEntity
  8
0
100
AcDbBlockEnd
  0
BLOCK
  5
9852
330
9848
100
AcDbEntity
  8
0
100
AcDbBlockBegin
  2
*D3
 70
     1
 10
0.0
 20
0.0
 30
0.0
  3
*D3
  1

  0
LINE
  5
A10C
330
9848
100
AcDbEntity
  8
30
 62
     0
100
AcDbLine
 10
53.49954799457385
 20
-82.4995738234554
 30
0.0
 11
66.17793042261768
 21
-82.4995738234554
 31
0.0
  0
LINE
  5
A10D
330
9848
100
AcDbEntity
  8
30
 62
     0
100
AcDbLine
 10
53.49954799457385
 20
82.49957382345536
 30
0.0
 11
66.17793042261772
 21
82.49957382345536
 31
0.0
  0
LINE
  5
A10E
330
9848
100
AcDbEntity
  8
30
 62
     0
100
AcDbLine
 10
65.67793042261768
 20
-80.49957382345539
 30
0.0
 11
65.67793042261772
 21
80.49957382345537
 31
0.0
  0
INSERT
  5
A10F
330
9848
100
AcDbEntity
  8
30
 62
     0
100
AcDbBlockReference
  2
_OPEN
 10
65.67793042261768
 20
-82.4995738234554
 30
0.0
 41
2.0
 42
2.0
 43
2.0
 50
270.0
  0
INSERT
  5
A110
330
9848
100
AcDbEntity
  8
30
 62
     0
100
AcDbBlockReference
  2
_OPEN
 10
65.67793042261772
 20
82.49957382345536
 30
0.0
 41
2.0
 42
2.0
 43
2.0
 50
90.0
  0
MTEXT
  5
A111
330
9848
100
AcDbEntity
  8
30
 62
     0
100
AcDbMText
 10
62.67793042261772
 20
-0.0000000000000037
 30
0.0
 40
4.0
 41
0.0
 71
     5
 72
     1
  1
\A1;165
 11
0.0000000000000001
 21
1.0
 31
0.0
 73
     1
 44
1.0
1001
ACAD
1000
MTEXTBEGIN
1070
    73
1070
     1
1070
    44
1040
1.0
1070
    74
1070
     0
1000
MTEXTEND
  0
POINT
  5
A112
330
9848
100
AcDbEntity
  8
DEFPOINTS
 62
     0
100
AcDbPoint
 10
52.49954799457388
 20
-82.4995738234554
 30
0.0
  0
POINT
  5
A113
330
9848
100
AcDbEntity
  8
DEFPOINTS
 62
     0
100
AcDbPoint
 10
52.49954799457388
 20
82.49957382345536
 30
0.0
  0
POINT
  5
A114
330
9848
100
AcDbEntity
  8
DEFPOINTS
 62
     0
100
AcDbPoint
 10
65.67793042261772
 20
82.49957382345536
 30
0.0
  0
ENDBLK
  5
9853
330
9848
100
AcDbEntity
  8
0
100
AcDbBlockEnd
  0
BLOCK
  5
9973
330
9969
100
AcDbEntity
  8
0
100
AcDbBlockBegin
  2
*D4
 70
     1
 10
0.0
 20
0.0
 30
0.0
  3
*D4
  1

  0
LINE
  5
A2F9
330
9969
100
AcDbEntity
  8
30
 62
     0
100
AcDbLine
 10
-52.49972879674442
 20
193.9815513960022
 30
0.0
 11
-52.49972879674442
 21
149.7685903881509
 31
0.0
  0
LINE
  5
A2FA
330
9969
100
AcDbEntity
  8
30
 62
     0
100
AcDbLine
 10
52.49972879674442
 20
193.9815513960022
 30
0.0
 11
52.49972879674442
 21
149.7685903881509
 31
0.0
  0
LINE
  5
A2FB
330
9969
100
AcDbEntity
  8
30
 62
     0
100
AcDbLine
 10
-50.49972879674442
 20
150.2685903881511
 30
0.0
 11
50.49972879674442
 21
150.2685903881511
 31
0.0
  0
INSERT
  5
A2FC
330
9969
100
AcDbEntity
  8
30
 62
     0
100
AcDbBlockReference
  2
_OPEN
 10
-52.49972879674442
 20
150.2685903881511
 30
0.0
 41
2.0
 42
2.0
 43
2.0
 50
180.0
  0
INSERT
  5
A2FD
330
9969
100
AcDbEntity
  8
30
 62
     0
100
AcDbBlockReference
  2
_OPEN
 10
52.49972879674442
 20
150.2685903881511
 30
0.0
 41
2.0
 42
2.0
 43
2.0
  0
MTEXT
  5
A2FE
330
9969
100
AcDbEntity
  8
30
 62
     0
100
AcDbMText
 10
0.0000000000000002
 20
153.2685903881511
 30
0.0
 40
4.0
 41
0.0
 71
     5
 72
     1
  1
\A1;105
 73
     1
 44
1.0
1001
ACAD
1000
MTEXTBEGIN
1070
    73
1070
     1
1070
    44
1040
1.0
1070
    74
1070
     0
1000
MTEXTEND
  0
POINT
  5
A2FF
330
9969
100
AcDbEntity
  8
DEFPOINTS
 62
     0
100
AcDbPoint
 10
-52.49972879674442
 20
194.9815513960022
 30
0.0
  0
POINT
  5
A300
330
9969
100
AcDbEntity
  8
DEFPOINTS
 62
     0
100
AcDbPoint
 10
52.49972879674442
 20
194.9815513960022
 30
0.0
  0
POINT
  5
A301
330
9969
100
AcDbEntity
  8
DEFPOINTS
 62
     0
100
AcDbPoint
 10
52.49972879674442
 20
150.2685903881511
 30
0.0
  0
ENDBLK
  5
9974
330
9969
100
AcDbEntity
  8
0
100
AcDbBlockEnd
  0
BLOCK
  5
998B
330
9981
100
AcDbEntity
  8
0
100
AcDbBlockBegin
  2
*D5
 70
     1
 10
0.0
 20
0.0
 30
0.0
  3
*D5
  1

  0
LINE
  5
A302
330
9981
100
AcDbEntity
  8
30
 62
     0
100
AcDbLine
 10
20.49989926736225
 20
270.9811587970035
 30
0.0
 11
99.51863533668316
 21
270.9811587970035
 31
0.0
  0
LINE
  5
A303
330
9981
100
AcDbEntity
  8
30
 62
     0
100
AcDbLine
 10
82.52171614819244
 20
262.9812001232139
 30
0.0
 11
99.51863533668316
 21
262.9812001232139
 31
0.0
  0
LINE
  5
A304
330
9981
100
AcDbEntity
  8
30
 62
     0
100
AcDbLine
 10
99.01863533668311
 20
268.9811587970035
 30
0.0
 11
99.01863533668311
 21
264.9812001232139
 31
0.0
  0
INSERT
  5
A305
330
9981
100
AcDbEntity
  8
30
 62
     0
100
AcDbBlockReference
  2
_OPEN
 10
99.01863533668311
 20
270.9811587970035
 30
0.0
 41
2.0
 42
2.0
 43
2.0
 50
90.0
  0
INSERT
  5
A306
330
9981
100
AcDbEntity
  8
30
 62
     0
100
AcDbBlockReference
  2
_OPEN
 10
99.01863533668311
 20
262.9812001232139
 30
0.0
 41
2.0
 42
2.0
 43
2.0
 50
270.0
  0
MTEXT
  5
A307
330
9981
100
AcDbEntity
  8
30
 62
     0
100
AcDbMText
 10
96.01863533668307
 20
266.9811794601087
 30
0.0
 40
4.0
 41
0.0
 71
     5
 72
     1
  1
\A1;8
 11
0.0000000000000001
 21
1.0
 31
0.0
 73
     1
 44
1.0
1001
ACAD
1000
MTEXTBEGIN
1070
    73
1070
     1
1070
    44
1040
1.0
1070
    74
1070
     0
1000
MTEXTEND
  0
POINT
  5
A308
330
9981
100
AcDbEntity
  8
DEFPOINTS
 62
     0
100
AcDbPoint
 10
19.49989926736225
 20
270.9811587970035
 30
0.0
  0
POINT
  5
A309
330
9981
100
AcDbEntity
  8
DEFPOINTS
 62
     0
100
AcDbPoint
 10
81.52171614819247
 20
262.9812001232139
 30
0.0
  0
POINT
  5
A30A
330
9981
100
AcDbEntity
  8
DEFPOINTS
 62
     0
100
AcDbPoint
 10
99.01863533668311
 20
262.9812001232139
 30
0.0
  0
ENDBLK
  5
998C
330
9981
100
AcDbEntity
  8
0
100
AcDbBlockEnd
  0
BLOCK
  5
9A67
330
9A63
100
AcDbEntity
  8
TOP
  6
Continuous
 62
     4
100
AcDbBlockBegin
  2
*U6
 70
     1
 10
0.0
 20
0.0
 30
0.0
  3
*U6
  1

  0
LINE
  5
9A64
330
9A63
100
AcDbEntity
  8
1
  6
ByBlock
 62
     0
100
AcDbLine
 10
277.8511961722488
 20
79.86472320362056
 30
0.0
 11
283.0330054314933
 21
79.86472320362056
 31
0.0
  0
LINE
  5
9A65
330
9A63
100
AcDbEntity
  8
1
  6
ByBlock
 62
     0
100
AcDbLine
 10
275.6511961722486
 20
137.4647232036204
 30
0.0
 11
283.0330054314933
 21
137.4647232036204
 31
0.0
  0
TEXT
  5
9A66
330
9A63
100
AcDbEntity
  8
TOP
  6
ByBlock
 62
     0
100
AcDbText
 10
280.7830054229933
 20
107.7988377856377
 30
0.0
 40
2.500000003799998
  1
 
 50
89.99999999999404
 41
1.189062499999995
  7
UGMTXT
100
AcDbText
  0
ENDBLK
  5
9A68
330
9A63
100
AcDbEntity
  8
0
100
AcDbBlockEnd
  0
BLOCK
  5
9C78
330
9C6E
100
AcDbEntity
  8
0
100
AcDbBlockBegin
  2
*D7
 70
     1
 10
0.0
 20
0.0
 30
0.0
  3
*D7
  1

  0
LINE
  5
A07F
330
9C6E
100
AcDbEntity
  8
30
 62
     0
100
AcDbLine
 10
200.7872704246524
 20
-25.99987085559253
 30
0.0
 11
200.7872704246524
 21
-137.5755454950737
 31
0.0
  0
LINE
  5
A080
330
9C6E
100
AcDbEntity
  8
30
 62
     0
100
AcDbLine
 10
272.786898488759
 20
-83.49957382345539
 30
0.0
 11
272.786898488759
 21
-137.5755454950737
 31
0.0
  0
LINE
  5
A081
330
9C6E
100
AcDbEntity
  8
30
 62
     0
100
AcDbLine
 10
202.7872704246524
 20
-137.0755454950737
 30
0.0
 11
270.786898488759
 21
-137.0755454950737
 31
0.0
  0
INSERT
  5
A082
330
9C6E
100
AcDbEntity
  8
30
 62
     0
100
AcDbBlockReference
  2
_OPEN
 10
200.7872704246524
 20
-137.0755454950737
 30
0.0
 41
2.0
 42
2.0
 43
2.0
 50
180.0
  0
INSERT
  5
A083
330
9C6E
100
AcDbEntity
  8
30
 62
     0
100
AcDbBlockReference
  2
_OPEN
 10
272.786898488759
 20
-137.0755454950737
 30
0.0
 41
2.0
 42
2.0
 43
2.0
  0
MTEXT
  5
A084
330
9C6E
100
AcDbEntity
  8
30
 62
     0
100
AcDbMText
 10
236.7870844567057
 20
-134.0755454950737
 30
0.0
 40
4.0
 41
0.0
 71
     5
 72
     1
  1
\A1;72
 73
     1
 44
1.0
1001
ACAD
1000
MTEXTBEGIN
1070
    73
1070
     1
1070
    44
1040
1.0
1070
    74
1070
     0
1000
MTEXTEND
  0
POINT
  5
A085
330
9C6E
100
AcDbEntity
  8
DEFPOINTS
 62
     0
100
AcDbPoint
 10
200.7872704246524
 20
-24.99987085559253
 30
0.0
  0
POINT
  5
A086
330
9C6E
100
AcDbEntity
  8
DEFPOINTS
 62
     0
100
AcDbPoint
 10
272.786898488759
 20
-82.4995738234554
 30
0.0
  0
POINT
  5
A087
330
9C6E
100
AcDbEntity
  8
DEFPOINTS
 62
     0
100
AcDbPoint
 10
272.786898488759
 20
-137.0755454950737
 30
0.0
  0
ENDBLK
  5
9C79
330
9C6E
100
AcDbEntity
  8
0
100
AcDbBlockEnd
  0
BLOCK
  5
9C85
330
9C7A
100
AcDbEntity
  8
0
100
AcDbBlockBegin
  2
*D8
 70
     1
 10
0.0
 20
0.0
 30
0.0
  3
*D8
  1

  0
LINE
  5
A075
330
9C7A
100
AcDbEntity
  8
30
 62
     0
100
AcDbLine
 10
196.7872910877574
 20
-25.99987085559253
 30
0.0
 11
196.7872910877574
 21
-137.5755454950737
 31
0.0
  0
LINE
  5
A076
330
9C7A
100
AcDbEntity
  8
30
 62
     0
100
AcDbLine
 10
200.7872704246524
 20
-25.99987085559253
 30
0.0
 11
200.7872704246524
 21
-137.5755454950737
 31
0.0
  0
LINE
  5
A077
330
9C7A
100
AcDbEntity
  8
30
 62
     0
100
AcDbLine
 10
194.7872910877574
 20
-137.0755454950737
 30
0.0
 11
192.7872910877574
 21
-137.0755454950737
 31
0.0
  0
LINE
  5
A078
330
9C7A
100
AcDbEntity
  8
30
 62
     0
100
AcDbLine
 10
202.7872704246524
 20
-137.0755454950737
 30
0.0
 11
209.453937091319
 21
-137.0755454950737
 31
0.0
  0
INSERT
  5
A079
330
9C7A
100
AcDbEntity
  8
30
 62
     0
100
AcDbBlockReference
  2
_OPEN
 10
196.7872910877574
 20
-137.0755454950737
 30
0.0
 41
2.0
 42
2.0
 43
2.0
  0
INSERT
  5
A07A
330
9C7A
100
AcDbEntity
  8
30
 62
     0
100
AcDbBlockReference
  2
_OPEN
 10
200.7872704246524
 20
-137.0755454950737
 30
0.0
 41
2.0
 42
2.0
 43
2.0
 50
180.0
  0
MTEXT
  5
A07B
330
9C7A
100
AcDbEntity
  8
30
 62
     0
100
AcDbMText
 10
207.1206037579857
 20
-134.0755454950737
 30
0.0
 40
4.0
 41
0.0
 71
     5
 72
     1
  1
\A1;4
 73
     1
 44
1.0
1001
ACAD
1000
MTEXTBEGIN
1070
    73
1070
     1
1070
    44
1040
1.0
1070
    74
1070
     0
1000
MTEXTEND
  0
POINT
  5
A07C
330
9C7A
100
AcDbEntity
  8
DEFPOINTS
 62
     0
100
AcDbPoint
 10
196.7872910877574
 20
-24.99987085559253
 30
0.0
  0
POINT
  5
A07D
330
9C7A
100
AcDbEntity
  8
DEFPOINTS
 62
     0
100
AcDbPoint
 10
200.7872704246524
 20
-24.99987085559253
 30
0.0
  0
POINT
  5
A07E
330
9C7A
100
AcDbEntity
  8
DEFPOINTS
 62
     0
100
AcDbPoint
 10
200.7872704246524
 20
-137.0755454950737
 30
0.0
  0
ENDBLK
  5
9C86
330
9C7A
100
AcDbEntity
  8
0
100
AcDbBlockEnd
  0
BLOCK
  5
9C91
330
9C87
100
AcDbEntity
  8
0
100
AcDbBlockBegin
  2
*D9
 70
     1
 10
0.0
 20
0.0
 30
0.0
  3
*D9
  1

  0
LINE
  5
A091
330
9C87
100
AcDbEntity
  8
30
 62
     0
100
AcDbLine
 10
180.7873737401784
 20
-3.499987102059208
 30
0.0
 11
180.7873737401784
 21
-152.8998277705196
 31
0.0
  0
LINE
  5
A092
330
9C87
100
AcDbEntity
  8
30
 62
     0
100
AcDbLine
 10
272.786898488759
 20
-83.49957382345539
 30
0.0
 11
272.786898488759
 21
-152.8998277705196
 31
0.0
  0
LINE
  5
A093
330
9C87
100
AcDbEntity
  8
30
 62
     0
100
AcDbLine
 10
182.7873737401784
 20
-152.3998277705197
 30
0.0
 11
270.786898488759
 21
-152.3998277705197
 31
0.0
  0
INSERT
  5
A094
330
9C87
100
AcDbEntity
  8
30
 62
     0
100
AcDbBlockReference
  2
_OPEN
 10
180.7873737401784
 20
-152.3998277705197
 30
0.0
 41
2.0
 42
2.0
 43
2.0
 50
180.0
  0
INSERT
  5
A095
330
9C87
100
AcDbEntity
  8
30
 62
     0
100
AcDbBlockReference
  2
_OPEN
 10
272.786898488759
 20
-152.3998277705197
 30
0.0
 41
2.0
 42
2.0
 43
2.0
  0
MTEXT
  5
A096
330
9C87
100
AcDbEntity
  8
30
 62
     0
100
AcDbMText
 10
226.7871361144687
 20
-149.3998277705196
 30
0.0
 40
4.0
 41
0.0
 71
     5
 72
     1
  1
\A1;92
 73
     1
 44
1.0
1001
ACAD
1000
MTEXTBEGIN
1070
    73
1070
     1
1070
    44
1040
1.0
1070
    74
1070
     0
1000
MTEXTEND
  0
POINT
  5
A097
330
9C87
100
AcDbEntity
  8
DEFPOINTS
 62
     0
100
AcDbPoint
 10
180.7873737401784
 20
-2.499987102059208
 30
0.0
  0
POINT
  5
A098
330
9C87
100
AcDbEntity
  8
DEFPOINTS
 62
     0
100
AcDbPoint
 10
272.786898488759
 20
-82.4995738234554
 30
0.0
  0
POINT
  5
A099
330
9C87
100
AcDbEntity
  8
DEFPOINTS
 62
     0
100
AcDbPoint
 10
272.786898488759
 20
-152.3998277705197
 30
0.0
  0
ENDBLK
  5
9C92
330
9C87
100
AcDbEntity
  8
0
100
AcDbBlockEnd
  0
BLOCK
  5
9C9D
330
9C93
100
AcDbEntity
  8
0
100
AcDbBlockBegin
  2
*D10
 70
     1
 10
0.0
 20
0.0
 30
0.0
  3
*D10
  1

  0
LINE
  5
A063
330
9C93
100
AcDbEntity
  8
30
 62
     0
100
AcDbLine
 10
204.7872497615473
 20
-51.99973654540878
 30
0.0
 11
204.7872497615473
 21
-120.7235397719641
 31
0.0
  0
LINE
  5
A064
330
9C93
100
AcDbEntity
  8
30
 62
     0
100
AcDbLine
 10
272.786898488759
 20
-83.49957382345539
 30
0.0
 11
272.786898488759
 21
-120.7235397719641
 31
0.0
  0
LINE
  5
A065
330
9C93
100
AcDbEntity
  8
30
 62
     0
100
AcDbLine
 10
206.7872497615473
 20
-120.223539771964
 30
0.0
 11
270.786898488759
 21
-120.223539771964
 31
0.0
  0
INSERT
  5
A066
330
9C93
100
AcDbEntity
  8
30
 62
     0
100
AcDbBlockReference
  2
_OPEN
 10
204.7872497615473
 20
-120.223539771964
 30
0.0
 41
2.0
 42
2.0
 43
2.0
 50
180.0
  0
INSERT
  5
A067
330
9C93
100
AcDbEntity
  8
30
 62
     0
100
AcDbBlockReference
  2
_OPEN
 10
272.786898488759
 20
-120.223539771964
 30
0.0
 41
2.0
 42
2.0
 43
2.0
  0
MTEXT
  5
A068
330
9C93
100
AcDbEntity
  8
30
 62
     0
100
AcDbMText
 10
238.7870741251532
 20
-117.223539771964
 30
0.0
 40
4.0
 41
0.0
 71
     5
 72
     1
  1
\A1;68
 73
     1
 44
1.0
1001
ACAD
1000
MTEXTBEGIN
1070
    73
1070
     1
1070
    44
1040
1.0
1070
    74
1070
     0
1000
MTEXTEND
  0
POINT
  5
A069
330
9C93
100
AcDbEntity
  8
DEFPOINTS
 62
     0
100
AcDbPoint
 10
204.7872497615473
 20
-50.99973654540878
 30
0.0
  0
POINT
  5
A06A
330
9C93
100
AcDbEntity
  8
DEFPOINTS
 62
     0
100
AcDbPoint
 10
272.786898488759
 20
-82.4995738234554
 30
0.0
  0
POINT
  5
A06B
330
9C93
100
AcDbEntity
  8
DEFPOINTS
 62
     0
100
AcDbPoint
 10
272.786898488759
 20
-120.223539771964
 30
0.0
  0
ENDBLK
  5
9C9E
330
9C93
100
AcDbEntity
  8
0
100
AcDbBlockEnd
  0
BLOCK
  5
9CA9
330
9C9F
100
AcDbEntity
  8
0
100
AcDbBlockBegin
  2
*D11
 70
     1
 10
0.0
 20
0.0
 30
0.0
  3
*D11
  1

  0
LINE
  5
A051
330
9C9F
100
AcDbEntity
  8
30
 62
     0
100
AcDbLine
 10
211.7872136011131
 20
-83.49957382345539
 30
0.0
 11
211.7872136011131
 21
-105.9084993202336
 31
0.0
  0
LINE
  5
A052
330
9C9F
100
AcDbEntity
  8
30
 62
     0
100
AcDbLine
 10
272.786898488759
 20
-83.49957382345539
 30
0.0
 11
272.786898488759
 21
-105.9084993202336
 31
0.0
  0
LINE
  5
A053
330
9C9F
100
AcDbEntity
  8
30
 62
     0
100
AcDbLine
 10
213.7872136011131
 20
-105.4084993202337
 30
0.0
 11
270.786898488759
 21
-105.4084993202337
 31
0.0
  0
INSERT
  5
A054
330
9C9F
100
AcDbEntity
  8
30
 62
     0
100
AcDbBlockReference
  2
_OPEN
 10
211.7872136011131
 20
-105.4084993202337
 30
0.0
 41
2.0
 42
2.0
 43
2.0
 50
180.0
  0
INSERT
  5
A055
330
9C9F
100
AcDbEntity
  8
30
 62
     0
100
AcDbBlockReference
  2
_OPEN
 10
272.786898488759
 20
-105.4084993202337
 30
0.0
 41
2.0
 42
2.0
 43
2.0
  0
MTEXT
  5
A056
330
9C9F
100
AcDbEntity
  8
30
 62
     0
100
AcDbMText
 10
242.2870560449359
 20
-102.4084993202337
 30
0.0
 40
4.0
 41
0.0
 71
     5
 72
     1
  1
\A1;61
 73
     1
 44
1.0
1001
ACAD
1000
MTEXTBEGIN
1070
    73
1070
     1
1070
    44
1040
1.0
1070
    74
1070
     0
1000
MTEXTEND
  0
POINT
  5
A057
330
9C9F
100
AcDbEntity
  8
DEFPOINTS
 62
     0
100
AcDbPoint
 10
211.7872136011131
 20
-82.4995738234554
 30
0.0
  0
POINT
  5
A058
330
9C9F
100
AcDbEntity
  8
DEFPOINTS
 62
     0
100
AcDbPoint
 10
272.786898488759
 20
-82.4995738234554
 30
0.0
  0
POINT
  5
A059
330
9C9F
100
AcDbEntity
  8
DEFPOINTS
 62
     0
100
AcDbPoint
 10
272.786898488759
 20
-105.4084993202337
 30
0.0
  0
ENDBLK
  5
9CAA
330
9C9F
100
AcDbEntity
  8
0
100
AcDbBlockEnd
  0
BLOCK
  5
9CB5
330
9CAB
100
AcDbEntity
  8
0
100
AcDbBlockBegin
  2
*D12
 70
     1
 10
0.0
 20
0.0
 30
0.0
  3
*D12
  1

  0
LINE
  5
A05A
330
9CAB
100
AcDbEntity
  8
30
 62
     0
100
AcDbLine
 10
272.786898488759
 20
-83.49957382345539
 30
0.0
 11
272.786898488759
 21
-120.7235397719641
 31
0.0
  0
LINE
  5
A05B
330
9CAB
100
AcDbEntity
  8
30
 62
     0
100
AcDbLine
 10
378.7863509164714
 20
-72.99962806410656
 30
0.0
 11
378.7863509164714
 21
-120.7235397719641
 31
0.0
  0
LINE
  5
A05C
330
9CAB
100
AcDbEntity
  8
30
 62
     0
100
AcDbLine
 10
274.786898488759
 20
-120.223539771964
 30
0.0
 11
376.7863509164714
 21
-120.223539771964
 31
0.0
  0
INSERT
  5
A05D
330
9CAB
100
AcDbEntity
  8
30
 62
     0
100
AcDbBlockReference
  2
_OPEN
 10
272.786898488759
 20
-120.223539771964
 30
0.0
 41
2.0
 42
2.0
 43
2.0
 50
180.0
  0
INSERT
  5
A05E
330
9CAB
100
AcDbEntity
  8
30
 62
     0
100
AcDbBlockReference
  2
_OPEN
 10
378.7863509164714
 20
-120.223539771964
 30
0.0
 41
2.0
 42
2.0
 43
2.0
  0
MTEXT
  5
A05F
330
9CAB
100
AcDbEntity
  8
30
 62
     0
100
AcDbMText
 10
325.7866247026151
 20
-117.223539771964
 30
0.0
 40
4.0
 41
0.0
 71
     5
 72
     1
  1
\A1;106
 73
     1
 44
1.0
1001
ACAD
1000
MTEXTBEGIN
1070
    73
1070
     1
1070
    44
1040
1.0
1070
    74
1070
     0
1000
MTEXTEND
  0
POINT
  5
A060
330
9CAB
100
AcDbEntity
  8
DEFPOINTS
 62
     0
100
AcDbPoint
 10
272.786898488759
 20
-82.4995738234554
 30
0.0
  0
POINT
  5
A061
330
9CAB
100
AcDbEntity
  8
DEFPOINTS
 62
     0
100
AcDbPoint
 10
378.7863509164714
 20
-71.99962806410656
 30
0.0
  0
POINT
  5
A062
330
9CAB
100
AcDbEntity
  8
DEFPOINTS
 62
     0
100
AcDbPoint
 10
378.7863509164714
 20
-120.223539771964
 30
0.0
  0
ENDBLK
  5
9CB6
330
9CAB
100
AcDbEntity
  8
0
100
AcDbBlockEnd
  0
BLOCK
  5
9CC1
330
9CB7
100
AcDbEntity
  8
0
100
AcDbBlockBegin
  2
*D13
 70
     1
 10
0.0
 20
0.0
 30
0.0
  3
*D13
  1

  0
LINE
  5
A036
330
9CB7
100
AcDbEntity
  8
30
 62
     0
100
AcDbLine
 10
363.7864284031159
 20
-75.49961516616571
 30
0.0
 11
363.7864284031159
 21
-96.18587305869361
 31
0.0
  0
LINE
  5
A037
330
9CB7
100
AcDbEntity
  8
30
 62
     0
100
AcDbLine
 10
378.7863509164714
 20
-83.30733891656379
 30
0.0
 11
378.7863509164714
 21
-96.18587305869361
 31
0.0
  0
LINE
  5
A038
330
9CB7
100
AcDbEntity
  8
30
 62
     0
100
AcDbLine
 10
365.7864284031159
 20
-95.68587305869355
 30
0.0
 11
376.7863509164714
 21
-95.68587305869355
 31
0.0
  0
INSERT
  5
A039
330
9CB7
100
AcDbEntity
  8
30
 62
     0
100
AcDbBlockReference
  2
_OPEN
 10
363.7864284031159
 20
-95.68587305869355
 30
0.0
 41
2.0
 42
2.0
 43
2.0
 50
180.0
  0
INSERT
  5
A03A
330
9CB7
100
AcDbEntity
  8
30
 62
     0
100
AcDbBlockReference
  2
_OPEN
 10
378.7863509164714
 20
-95.68587305869355
 30
0.0
 41
2.0
 42
2.0
 43
2.0
  0
MTEXT
  5
A03B
330
9CB7
100
AcDbEntity
  8
30
 62
     0
100
AcDbMText
 10
371.2863896597935
 20
-92.68587305869358
 30
0.0
 40
4.0
 41
0.0
 71
     5
 72
     1
  1
\A1;15
 73
     1
 44
1.0
1001
ACAD
1000
MTEXTBEGIN
1070
    73
1070
     1
1070
    44
1040
1.0
1070
    74
1070
     0
1000
MTEXTEND
  0
POINT
  5
A03C
330
9CB7
100
AcDbEntity
  8
DEFPOINTS
 62
     0
100
AcDbPoint
 10
363.7864284031159
 20
-74.49961516616571
 30
0.0
  0
POINT
  5
A03D
330
9CB7
100
AcDbEntity
  8
DEFPOINTS
 62
     0
100
AcDbPoint
 10
378.7863509164714
 20
-82.30733891656379
 30
0.0
  0
POINT
  5
A03E
330
9CB7
100
AcDbEntity
  8
DEFPOINTS
 62
     0
100
AcDbPoint
 10
378.7863509164714
 20
-95.68587305869355
 30
0.0
  0
ENDBLK
  5
9CC2
330
9CB7
100
AcDbEntity
  8
0
100
AcDbBlockEnd
  0
BLOCK
  5
9CCD
330
9CC3
100
AcDbEntity
  8
0
100
AcDbBlockBegin
  2
*D14
 70
     1
 10
0.0
 20
0.0
 30
0.0
  3
*D14
  1

  0
LINE
  5
A048
330
9CC3
100
AcDbEntity
  8
30
 62
     0
100
AcDbLine
 10
272.786898488759
 20
-83.49957382345539
 30
0.0
 11
272.786898488759
 21
-105.9084993202336
 31
0.0
  0
LINE
  5
A049
330
9CC3
100
AcDbEntity
  8
30
 62
     0
100
AcDbLine
 10
343.7865317186417
 20
-72.99962806410656
 30
0.0
 11
343.7865317186417
 21
-105.9084993202336
 31
0.0
  0
LINE
  5
A04A
330
9CC3
100
AcDbEntity
  8
30
 62
     0
100
AcDbLine
 10
274.786898488759
 20
-105.4084993202337
 30
0.0
 11
341.7865317186418
 21
-105.4084993202337
 31
0.0
  0
INSERT
  5
A04B
330
9CC3
100
AcDbEntity
  8
30
 62
     0
100
AcDbBlockReference
  2
_OPEN
 10
272.786898488759
 20
-105.4084993202337
 30
0.0
 41
2.0
 42
2.0
 43
2.0
 50
180.0
  0
INSERT
  5
A04C
330
9CC3
100
AcDbEntity
  8
30
 62
     0
100
AcDbBlockReference
  2
_OPEN
 10
343.7865317186417
 20
-105.4084993202337
 30
0.0
 41
2.0
 42
2.0
 43
2.0
  0
MTEXT
  5
A04D
330
9CC3
100
AcDbEntity
  8
30
 62
     0
100
AcDbMText
 10
308.2867151037003
 20
-102.4084993202337
 30
0.0
 40
4.0
 41
0.0
 71
     5
 72
     1
  1
\A1;71
 73
     1
 44
1.0
1001
ACAD
1000
MTEXTBEGIN
1070
    73
1070
     1
1070
    44
1040
1.0
1070
    74
1070
     0
1000
MTEXTEND
  0
POINT
  5
A04E
330
9CC3
100
AcDbEntity
  8
DEFPOINTS
 62
     0
100
AcDbPoint
 10
272.786898488759
 20
-82.4995738234554
 30
0.0
  0
POINT
  5
A04F
330
9CC3
100
AcDbEntity
  8
DEFPOINTS
 62
     0
100
AcDbPoint
 10
343.7865317186417
 20
-71.99962806410656
 30
0.0
  0
POINT
  5
A050
330
9CC3
100
AcDbEntity
  8
DEFPOINTS
 62
     0
100
AcDbPoint
 10
343.7865317186417
 20
-105.4084993202337
 30
0.0
  0
ENDBLK
  5
9CCE
330
9CC3
100
AcDbEntity
  8
0
100
AcDbBlockEnd
  0
BLOCK
  5
9CD9
330
9CCF
100
AcDbEntity
  8
0
100
AcDbBlockBegin
  2
*D15
 70
     1
 10
0.0
 20
0.0
 30
0.0
  3
*D15
  1

  0
LINE
  5
A03F
330
9CCF
100
AcDbEntity
  8
30
 62
     0
100
AcDbLine
 10
328.7866092052863
 20
-75.49961516616571
 30
0.0
 11
328.7866092052863
 21
-96.18587305869361
 31
0.0
  0
LINE
  5
A040
330
9CCF
100
AcDbEntity
  8
30
 62
     0
100
AcDbLine
 10
343.7865317186417
 20
-83.30733891656379
 30
0.0
 11
343.7865317186417
 21
-96.18587305869361
 31
0.0
  0
LINE
  5
A041
330
9CCF
100
AcDbEntity
  8
30
 62
     0
100
AcDbLine
 10
330.7866092052863
 20
-95.68587305869355
 30
0.0
 11
341.7865317186418
 21
-95.68587305869355
 31
0.0
  0
INSERT
  5
A042
330
9CCF
100
AcDbEntity
  8
30
 62
     0
100
AcDbBlockReference
  2
_OPEN
 10
328.7866092052863
 20
-95.68587305869355
 30
0.0
 41
2.0
 42
2.0
 43
2.0
 50
180.0
  0
INSERT
  5
A043
330
9CCF
100
AcDbEntity
  8
30
 62
     0
100
AcDbBlockReference
  2
_OPEN
 10
343.7865317186417
 20
-95.68587305869355
 30
0.0
 41
2.0
 42
2.0
 43
2.0
  0
MTEXT
  5
A044
330
9CCF
100
AcDbEntity
  8
30
 62
     0
100
AcDbMText
 10
336.286570461964
 20
-92.68587305869358
 30
0.0
 40
4.0
 41
0.0
 71
     5
 72
     1
  1
\A1;15
 73
     1
 44
1.0
1001
ACAD
1000
MTEXTBEGIN
1070
    73
1070
     1
1070
    44
1040
1.0
1070
    74
1070
     0
1000
MTEXTEND
  0
POINT
  5
A045
330
9CCF
100
AcDbEntity
  8
DEFPOINTS
 62
     0
100
AcDbPoint
 10
328.7866092052863
 20
-74.49961516616571
 30
0.0
  0
POINT
  5
A046
330
9CCF
100
AcDbEntity
  8
DEFPOINTS
 62
     0
100
AcDbPoint
 10
343.7865317186417
 20
-82.30733891656379
 30
0.0
  0
POINT
  5
A047
330
9CCF
100
AcDbEntity
  8
DEFPOINTS
 62
     0
100
AcDbPoint
 10
343.7865317186417
 20
-95.68587305869355
 30
0.0
  0
ENDBLK
  5
9CDA
330
9CCF
100
AcDbEntity
  8
0
100
AcDbBlockEnd
  0
BLOCK
  5
9CFE
330
9CF3
100
AcDbEntity
  8
0
100
AcDbBlockBegin
  2
*D16
 70
     1
 10
0.0
 20
0.0
 30
0.0
  3
*D16
  1

  0
LINE
  5
A387
330
9CF3
100
AcDbEntity
  8
30
 62
     0
370
    -2
100
AcDbLine
 10
379.786898488759
 20
68.99964356143539
 30
0.0
 11
414.5331784124326
 21
68.99964356143539
 31
0.0
  0
LINE
  5
A388
330
9CF3
100
AcDbEntity
  8
30
 62
     0
370
    -2
100
AcDbLine
 10
379.786898488759
 20
74.99961256677761
 30
0.0
 11
414.5331784124326
 21
74.99961256677761
 31
0.0
  0
LINE
  5
A389
330
9CF3
100
AcDbEntity
  8
30
 62
     0
370
    -2
100
AcDbLine
 10
414.0331784124326
 20
66.99964356143539
 30
0.0
 11
414.0331784124326
 21
64.99964356143539
 31
0.0
  0
LINE
  5
A38A
330
9CF3
100
AcDbEntity
  8
30
 62
     0
370
    -2
100
AcDbLine
 10
414.0331784124326
 20
76.99961256677761
 30
0.0
 11
414.0331784124326
 21
78.99961256677761
 31
0.0
  0
INSERT
  5
A38B
330
9CF3
100
AcDbEntity
  8
30
 62
     0
370
    -2
100
AcDbBlockReference
  2
_OPEN
 10
414.0331784124326
 20
68.99964356143539
 30
0.0
 41
2.0
 42
2.0
 43
2.0
 50
90.0
  0
INSERT
  5
A38C
330
9CF3
100
AcDbEntity
  8
30
 62
     0
370
    -2
100
AcDbBlockReference
  2
_OPEN
 10
414.0331784124326
 20
74.99961256677761
 30
0.0
 41
2.0
 42
2.0
 43
2.0
 50
270.0
  0
MTEXT
  5
A38D
330
9CF3
100
AcDbEntity
  8
30
 62
     0
100
AcDbMText
 10
411.0331784124325
 20
71.99962806410656
 30
0.0
 40
4.0
 41
0.0
 71
     5
 72
     1
  1
\A1;6
 11
0.0000000000000001
 21
1.0
 31
0.0
 73
     1
 44
1.0
1001
ACAD
1000
MTEXTBEGIN
1070
    73
1070
     1
1070
    44
1040
1.0
1070
    74
1070
     0
1000
MTEXTEND
  0
POINT
  5
A38E
330
9CF3
100
AcDbEntity
  8
DEFPOINTS
 62
     0
100
AcDbPoint
 10
378.786898488759
 20
68.99964356143539
 30
0.0
  0
POINT
  5
A38F
330
9CF3
100
AcDbEntity
  8
DEFPOINTS
 62
     0
100
AcDbPoint
 10
378.786898488759
 20
74.99961256677761
 30
0.0
  0
POINT
  5
A390
330
9CF3
100
AcDbEntity
  8
DEFPOINTS
 62
     0
100
AcDbPoint
 10
414.0331784124326
 20
74.99961256677761
 30
0.0
  0
ENDBLK
  5
9CFF
330
9CF3
100
AcDbEntity
  8
0
100
AcDbBlockEnd
  0
BLOCK
  5
9E50
330
9E46
100
AcDbEntity
  8
0
100
AcDbBlockBegin
  2
*D17
 70
     1
 10
0.0
 20
0.0
 30
0.0
  3
*D17
  1

  0
LINE
  5
A177
330
9E46
100
AcDbEntity
  8
30
 62
     0
100
AcDbLine
 10
20.99989670097397
 20
-297.9996745560931
 30
0.0
 11
65.57798823329967
 21
-297.9996745560931
 31
0.0
  0
LINE
  5
A178
330
9E46
100
AcDbEntity
  8
30
 62
     0
100
AcDbLine
 10
20.99989670097397
 20
-172.0003254439066
 30
0.0
 11
65.57798823329972
 21
-172.0003254439068
 31
0.0
  0
LINE
  5
A179
330
9E46
100
AcDbEntity
  8
30
 62
     0
100
AcDbLine
 10
65.07798823329967
 20
-295.9996745560932
 30
0.0
 11
65.07798823329972
 21
-174.0003254439066
 31
0.0
  0
INSERT
  5
A17A
330
9E46
100
AcDbEntity
  8
30
 62
     0
100
AcDbBlockReference
  2
_OPEN
 10
65.07798823329967
 20
-297.9996745560931
 30
0.0
 41
2.0
 42
2.0
 43
2.0
 50
270.0
  0
INSERT
  5
A17B
330
9E46
100
AcDbEntity
  8
30
 62
     0
100
AcDbBlockReference
  2
_OPEN
 10
65.07798823329972
 20
-172.0003254439068
 30
0.0
 41
2.0
 42
2.0
 43
2.0
 50
90.0
  0
MTEXT
  5
A17C
330
9E46
100
AcDbEntity
  8
30
 62
     0
100
AcDbMText
 10
62.07798823329975
 20
-234.9999999999999
 30
0.0
 40
4.0
 41
0.0
 71
     5
 72
     1
  1
\A1;126
 11
0.0000000000000001
 21
1.0
 31
0.0
 73
     1
 44
1.0
1001
ACAD
1000
MTEXTBEGIN
1070
    73
1070
     1
1070
    44
1040
1.0
1070
    74
1070
     0
1000
MTEXTEND
  0
POINT
  5
A17D
330
9E46
100
AcDbEntity
  8
DEFPOINTS
 62
     0
100
AcDbPoint
 10
19.99989670097397
 20
-297.9996745560931
 30
0.0
  0
POINT
  5
A17E
330
9E46
100
AcDbEntity
  8
DEFPOINTS
 62
     0
100
AcDbPoint
 10
19.99989670097397
 20
-172.0003254439066
 30
0.0
  0
POINT
  5
A17F
330
9E46
100
AcDbEntity
  8
DEFPOINTS
 62
     0
100
AcDbPoint
 10
65.07798823329972
 20
-172.0003254439068
 30
0.0
  0
ENDBLK
  5
9E51
330
9E46
100
AcDbEntity
  8
0
100
AcDbBlockEnd
  0
BLOCK
  5
9E5C
330
9E52
100
AcDbEntity
  8
0
100
AcDbBlockBegin
  2
*D18
 70
     1
 10
0.0
 20
0.0
 30
0.0
  3
*D18
  1

  0
LINE
  5
A16E
330
9E52
100
AcDbEntity
  8
30
 62
     0
100
AcDbLine
 10
38.49962549771817
 20
-306.9996280641065
 30
0.0
 11
76.01405496557001
 21
-306.9996280641065
 31
0.0
  0
LINE
  5
A16F
330
9E52
100
AcDbEntity
  8
30
 62
     0
100
AcDbLine
 10
38.49962549771817
 20
-163.0003719358934
 30
0.0
 11
76.01405496557005
 21
-163.0003719358934
 31
0.0
  0
LINE
  5
A170
330
9E52
100
AcDbEntity
  8
30
 62
     0
100
AcDbLine
 10
75.51405496557001
 20
-304.9996280641065
 30
0.0
 11
75.51405496557006
 21
-165.0003719358934
 31
0.0
  0
INSERT
  5
A171
330
9E52
100
AcDbEntity
  8
30
 62
     0
100
AcDbBlockReference
  2
_OPEN
 10
75.51405496557001
 20
-306.9996280641065
 30
0.0
 41
2.0
 42
2.0
 43
2.0
 50
270.0
  0
INSERT
  5
A172
330
9E52
100
AcDbEntity
  8
30
 62
     0
100
AcDbBlockReference
  2
_OPEN
 10
75.51405496557006
 20
-163.0003719358934
 30
0.0
 41
2.0
 42
2.0
 43
2.0
 50
90.0
  0
MTEXT
  5
A173
330
9E52
100
AcDbEntity
  8
30
 62
     0
100
AcDbMText
 10
72.51405496557005
 20
-235.0
 30
0.0
 40
4.0
 41
0.0
 71
     5
 72
     1
  1
\A1;144
 11
0.0000000000000001
 21
1.0
 31
0.0
 73
     1
 44
1.0
1001
ACAD
1000
MTEXTBEGIN
1070
    73
1070
     1
1070
    44
1040
1.0
1070
    74
1070
     0
1000
MTEXTEND
  0
POINT
  5
A174
330
9E52
100
AcDbEntity
  8
DEFPOINTS
 62
     0
100
AcDbPoint
 10
37.49962549771817
 20
-306.9996280641065
 30
0.0
  0
POINT
  5
A175
330
9E52
100
AcDbEntity
  8
DEFPOINTS
 62
     0
100
AcDbPoint
 10
37.49962549771817
 20
-163.0003719358934
 30
0.0
  0
POINT
  5
A176
330
9E52
100
AcDbEntity
  8
DEFPOINTS
 62
     0
100
AcDbPoint
 10
75.51405496557006
 20
-163.0003719358934
 30
0.0
  0
ENDBLK
  5
9E5D
330
9E52
100
AcDbEntity
  8
0
100
AcDbBlockEnd
  0
BLOCK
  5
9E68
330
9E5E
100
AcDbEntity
  8
0
100
AcDbBlockBegin
  2
*D19
 70
     1
 10
0.0
 20
0.0
 30
0.0
  3
*D19
  1

  0
LINE
  5
9F5E
330
9E5E
100
AcDbEntity
  8
30
 62
     0
100
AcDbLine
 10
-0.0000000000000001
 20
-310.4996151661657
 30
0.0
 11
-0.0000000000000025
 21
-350.7250062623431
 31
0.0
  0
LINE
  5
9F5F
330
9E5E
100
AcDbEntity
  8
30
 62
     0
100
AcDbLine
 10
34.99981919782953
 20
-307.9996280641065
 30
0.0
 11
34.99981919782953
 21
-350.7250062623431
 31
0.0
  0
LINE
  5
9F60
330
9E5E
100
AcDbEntity
  8
30
 62
     0
100
AcDbLine
 10
1.999999999999995
 20
-350.2250062623431
 30
0.0
 11
32.99981919782954
 21
-350.2250062623431
 31
0.0
  0
INSERT
  5
9F61
330
9E5E
100
AcDbEntity
  8
30
 62
     0
100
AcDbBlockReference
  2
_OPEN
 10
-0.0000000000000025
 20
-350.2250062623431
 30
0.0
 41
2.0
 42
2.0
 43
2.0
 50
180.0
  0
INSERT
  5
9F62
330
9E5E
100
AcDbEntity
  8
30
 62
     0
100
AcDbBlockReference
  2
_OPEN
 10
34.99981919782953
 20
-350.2250062623431
 30
0.0
 41
2.0
 42
2.0
 43
2.0
  0
MTEXT
  5
9F63
330
9E5E
100
AcDbEntity
  8
30
 62
     0
100
AcDbMText
 10
17.49990959891476
 20
-347.2250062623432
 30
0.0
 40
4.0
 41
0.0
 71
     5
 72
     1
  1
\A1;35
 73
     1
 44
1.0
1001
ACAD
1000
MTEXTBEGIN
1070
    73
1070
     1
1070
    44
1040
1.0
1070
    74
1070
     0
1000
MTEXTEND
  0
POINT
  5
9F64
330
9E5E
100
AcDbEntity
  8
DEFPOINTS
 62
     0
100
AcDbPoint
 10
0.0
 20
-309.4996151661657
 30
0.0
  0
POINT
  5
9F65
330
9E5E
100
AcDbEntity
  8
DEFPOINTS
 62
     0
100
AcDbPoint
 10
34.99981919782953
 20
-306.9996280641065
 30
0.0
  0
POINT
  5
9F66
330
9E5E
100
AcDbEntity
  8
DEFPOINTS
 62
     0
100
AcDbPoint
 10
34.99981919782953
 20
-350.2250062623431
 30
0.0
  0
ENDBLK
  5
9E69
330
9E5E
100
AcDbEntity
  8
0
100
AcDbBlockEnd
  0
BLOCK
  5
9E74
330
9E6A
100
AcDbEntity
  8
0
100
AcDbBlockBegin
  2
*D20
 70
     1
 10
0.0
 20
0.0
 30
0.0
  3
*D20
  1

  0
LINE
  5
9F55
330
9E6A
100
AcDbEntity
  8
30
 62
     0
100
AcDbLine
 10
-34.99981919782953
 20
-310.4996151661657
 30
0.0
 11
-34.99981919782953
 21
-350.2250062623431
 31
0.0
  0
LINE
  5
9F56
330
9E6A
100
AcDbEntity
  8
30
 62
     0
100
AcDbLine
 10
-0.0000000000000001
 20
-347.9994214330546
 30
0.0
 11
-0.0000000000000002
 21
-350.2250062623431
 31
0.0
  0
LINE
  5
9F57
330
9E6A
100
AcDbEntity
  8
30
 62
     0
100
AcDbLine
 10
-32.99981919782954
 20
-349.7250062623431
 30
0.0
 11
-2.0
 21
-349.7250062623431
 31
0.0
  0
INSERT
  5
9F58
330
9E6A
100
AcDbEntity
  8
30
 62
     0
100
AcDbBlockReference
  2
_OPEN
 10
-34.99981919782953
 20
-349.7250062623431
 30
0.0
 41
2.0
 42
2.0
 43
2.0
 50
180.0
  0
INSERT
  5
9F59
330
9E6A
100
AcDbEntity
  8
30
 62
     0
100
AcDbBlockReference
  2
_OPEN
 10
-0.0000000000000002
 20
-349.7250062623431
 30
0.0
 41
2.0
 42
2.0
 43
2.0
  0
MTEXT
  5
9F5A
330
9E6A
100
AcDbEntity
  8
30
 62
     0
100
AcDbMText
 10
-17.49990959891476
 20
-346.7250062623431
 30
0.0
 40
4.0
 41
0.0
 71
     5
 72
     1
  1
\A1;35
 73
     1
 44
1.0
1001
ACAD
1000
MTEXTBEGIN
1070
    73
1070
     1
1070
    44
1040
1.0
1070
    74
1070
     0
1000
MTEXTEND
  0
POINT
  5
9F5B
330
9E6A
100
AcDbEntity
  8
DEFPOINTS
 62
     0
100
AcDbPoint
 10
-34.99981919782953
 20
-309.4996151661657
 30
0.0
  0
POINT
  5
9F5C
330
9E6A
100
AcDbEntity
  8
DEFPOINTS
 62
     0
100
AcDbPoint
 10
0.0
 20
-346.9994214330546
 30
0.0
  0
POINT
  5
9F5D
330
9E6A
100
AcDbEntity
  8
DEFPOINTS
 62
     0
100
AcDbPoint
 10
-0.0000000000000002
 20
-349.7250062623431
 30
0.0
  0
ENDBLK
  5
9E75
330
9E6A
100
AcDbEntity
  8
0
100
AcDbBlockEnd
  0
BLOCK
  5
9E80
330
9E76
100
AcDbEntity
  8
0
100
AcDbBlockBegin
  2
*D21
 70
     1
 10
0.0
 20
0.0
 30
0.0
  3
*D21
  1

  0
LINE
  5
A18A
330
9E76
100
AcDbEntity
  8
30
 62
     0
100
AcDbLine
 10
-17.49990959891476
 20
-178.5002970321371
 30
0.0
 11
-17.49990959891476
 21
-331.1448422481143
 31
0.0
  0
LINE
  5
A18B
330
9E76
100
AcDbEntity
  8
30
 62
     0
100
AcDbLine
 10
17.49990959891488
 20
-301.4996616581523
 30
0.0
 11
17.49990959891488
 21
-331.1448422481143
 31
0.0
  0
LINE
  5
A18C
330
9E76
100
AcDbEntity
  8
30
 62
     0
100
AcDbLine
 10
-15.49990959891477
 20
-330.6448422481143
 30
0.0
 11
15.49990959891488
 21
-330.6448422481143
 31
0.0
  0
INSERT
  5
A18D
330
9E76
100
AcDbEntity
  8
30
 62
     0
100
AcDbBlockReference
  2
_OPEN
 10
-17.49990959891476
 20
-330.6448422481143
 30
0.0
 41
2.0
 42
2.0
 43
2.0
 50
180.0
  0
INSERT
  5
A18E
330
9E76
100
AcDbEntity
  8
30
 62
     0
100
AcDbBlockReference
  2
_OPEN
 10
17.49990959891488
 20
-330.6448422481143
 30
0.0
 41
2.0
 42
2.0
 43
2.0
  0
MTEXT
  5
A18F
330
9E76
100
AcDbEntity
  8
30
 62
     0
100
AcDbMText
 10
0.0000000000000499
 20
-327.6448422481144
 30
0.0
 40
4.0
 41
0.0
 71
     5
 72
     1
  1
\A1;35
 73
     1
 44
1.0
1001
ACAD
1000
MTEXTBEGIN
1070
    73
1070
     1
1070
    44
1040
1.0
1070
    74
1070
     0
1000
MTEXTEND
  0
POINT
  5
A190
330
9E76
100
AcDbEntity
  8
DEFPOINTS
 62
     0
100
AcDbPoint
 10
-17.49990959891476
 20
-177.500297032137
 30
0.0
  0
POINT
  5
A191
330
9E76
100
AcDbEntity
  8
DEFPOINTS
 62
     0
100
AcDbPoint
 10
17.49990959891488
 20
-300.4996616581523
 30
0.0
  0
POINT
  5
A192
330
9E76
100
AcDbEntity
  8
DEFPOINTS
 62
     0
100
AcDbPoint
 10
17.49990959891488
 20
-330.6448422481143
 30
0.0
  0
ENDBLK
  5
9E81
330
9E76
100
AcDbEntity
  8
0
100
AcDbBlockEnd
  0
BLOCK
  5
9EF9
330
9EEF
100
AcDbEntity
  8
0
100
AcDbBlockBegin
  2
*D22
 70
     1
 10
0.0
 20
0.0
 30
0.0
  3
*D22
  1

  0
LINE
  5
9EF0
330
9EEF
100
AcDbEntity
  8
30
 62
     0
100
AcDbLine
 10
-49.99974687696137
 20
24.99987085559252
 30
0.0
 11
-65.83335521408208
 21
24.99987085559252
 31
0.0
  0
LINE
  5
9EF1
330
9EEF
100
AcDbEntity
  8
30
 62
     0
100
AcDbLine
 10
-49.99974687696137
 20
-24.99987085559256
 30
0.0
 11
-65.83335521408208
 21
-24.99987085559256
 31
0.0
  0
LINE
  5
9EF2
330
9EEF
100
AcDbEntity
  8
30
 62
     0
100
AcDbLine
 10
-65.33335521408208
 20
22.99987085559251
 30
0.0
 11
-65.33335521408208
 21
-22.99987085559256
 31
0.0
  0
INSERT
  5
9EF3
330
9EEF
100
AcDbEntity
  8
30
 62
     0
100
AcDbBlockReference
  2
_OPEN
 10
-65.33335521408208
 20
24.99987085559252
 30
0.0
 41
2.0
 42
2.0
 43
2.0
 50
90.0
  0
INSERT
  5
9EF4
330
9EEF
100
AcDbEntity
  8
30
 62
     0
100
AcDbBlockReference
  2
_OPEN
 10
-65.33335521408208
 20
-24.99987085559256
 30
0.0
 41
2.0
 42
2.0
 43
2.0
 50
270.0
  0
MTEXT
  5
9EF5
330
9EEF
100
AcDbEntity
  8
30
 62
     0
100
AcDbMText
 10
-68.33335521408208
 20
-0.0000000000000347
 30
0.0
 40
4.0
 41
0.0
 71
     5
 72
     1
  1
\A1;50
 11
0.0000000000000001
 21
1.0
 31
0.0
 73
     1
 44
1.0
1001
ACAD
1000
MTEXTBEGIN
1070
    73
1070
     1
1070
    44
1040
1.0
1070
    74
1070
     0
1000
MTEXTEND
  0
POINT
  5
9EF6
330
9EEF
100
AcDbEntity
  8
DEFPOINTS
 62
     0
100
AcDbPoint
 10
-48.99974687696135
 20
24.99987085559252
 30
0.0
  0
POINT
  5
9EF7
330
9EEF
100
AcDbEntity
  8
DEFPOINTS
 62
     0
100
AcDbPoint
 10
-48.99974687696135
 20
-24.99987085559256
 30
0.0
  0
POINT
  5
9EF8
330
9EEF
100
AcDbEntity
  8
DEFPOINTS
 62
     0
100
AcDbPoint
 10
-65.33335521408208
 20
-24.99987085559256
 30
0.0
  0
ENDBLK
  5
9EFA
330
9EEF
100
AcDbEntity
  8
0
100
AcDbBlockEnd
  0
BLOCK
  5
A011
330
A007
100
AcDbEntity
  8
0
100
AcDbBlockBegin
  2
*D23
 70
     1
 10
0.0
 20
0.0
 30
0.0
  3
*D23
  1

  0
LINE
  5
A008
330
A007
100
AcDbEntity
  8
30
 62
     0
100
AcDbLine
 10
306.7867228523683
 20
-60.99967972186956
 30
0.0
 11
306.7867228523683
 21
-45.04888516066738
 31
0.0
  0
LINE
  5
A009
330
A007
100
AcDbEntity
  8
30
 62
     0
100
AcDbLine
 10
328.78660920529
 20
-66.49965131009992
 30
0.0
 11
328.78660920529
 21
-45.04888516066738
 31
0.0
  0
LINE
  5
A00A
330
A007
100
AcDbEntity
  8
30
 62
     0
100
AcDbLine
 10
308.7867228523683
 20
-45.54888516066738
 30
0.0
 11
326.78660920529
 21
-45.54888516066738
 31
0.0
  0
INSERT
  5
A00B
330
A007
100
AcDbEntity
  8
30
 62
     0
100
AcDbBlockReference
  2
_OPEN
 10
306.7867228523683
 20
-45.54888516066738
 30
0.0
 41
2.0
 42
2.0
 43
2.0
 50
180.0
  0
INSERT
  5
A00C
330
A007
100
AcDbEntity
  8
30
 62
     0
100
AcDbBlockReference
  2
_OPEN
 10
328.78660920529
 20
-45.54888516066738
 30
0.0
 41
2.0
 42
2.0
 43
2.0
  0
MTEXT
  5
A00D
330
A007
100
AcDbEntity
  8
30
 62
     0
100
AcDbMText
 10
317.7866660288291
 20
-42.54888516066738
 30
0.0
 40
4.0
 41
0.0
 71
     5
 72
     1
  1
\A1;22
 73
     1
 44
1.0
1001
ACAD
1000
MTEXTBEGIN
1070
    73
1070
     1
1070
    44
1040
1.0
1070
    74
1070
     0
1000
MTEXTEND
  0
POINT
  5
A00E
330
A007
100
AcDbEntity
  8
DEFPOINTS
 62
     0
100
AcDbPoint
 10
306.7867228523683
 20
-61.99967972186954
 30
0.0
  0
POINT
  5
A00F
330
A007
100
AcDbEntity
  8
DEFPOINTS
 62
     0
100
AcDbPoint
 10
328.78660920529
 20
-67.49965131009992
 30
0.0
  0
POINT
  5
A010
330
A007
100
AcDbEntity
  8
DEFPOINTS
 62
     0
100
AcDbPoint
 10
328.78660920529
 20
-45.54888516066738
 30
0.0
  0
ENDBLK
  5
A012
330
A007
100
AcDbEntity
  8
0
100
AcDbBlockEnd
  0
BLOCK
  5
A01E
330
A014
100
AcDbEntity
  8
0
100
AcDbBlockBegin
  2
*D24
 70
     1
 10
0.0
 20
0.0
 30
0.0
  3
*D24
  1

  0
LINE
  5
A015
330
A014
100
AcDbEntity
  8
30
 62
     0
100
AcDbLine
 10
403.2407529037674
 20
71.99962806410463
 30
0.0
 11
426.255524609336
 21
71.9996280641046
 31
0.0
  0
LINE
  5
A016
330
A014
100
AcDbEntity
  8
30
 62
     0
100
AcDbLine
 10
403.2407529037674
 20
-71.99962806410765
 30
0.0
 11
426.255524609336
 21
-71.99962806410768
 31
0.0
  0
LINE
  5
A017
330
A014
100
AcDbEntity
  8
30
 62
     0
100
AcDbLine
 10
425.7555246093359
 20
69.9996280641046
 30
0.0
 11
425.7555246093359
 21
-69.99962806410768
 31
0.0
  0
INSERT
  5
A018
330
A014
100
AcDbEntity
  8
30
 62
     0
100
AcDbBlockReference
  2
_OPEN
 10
425.7555246093359
 20
71.9996280641046
 30
0.0
 41
2.0
 42
2.0
 43
2.0
 50
90.0
  0
INSERT
  5
A019
330
A014
100
AcDbEntity
  8
30
 62
     0
100
AcDbBlockReference
  2
_OPEN
 10
425.7555246093359
 20
-71.99962806410768
 30
0.0
 41
2.0
 42
2.0
 43
2.0
 50
270.0
  0
MTEXT
  5
A01A
330
A014
100
AcDbEntity
  8
30
 62
     0
100
AcDbMText
 10
422.755524609336
 20
-0.000000000001461
 30
0.0
 40
4.0
 41
0.0
 71
     5
 72
     1
  1
\A1;144
 11
0.0000000000000001
 21
1.0
 31
0.0
 73
     1
 44
1.0
1001
ACAD
1000
MTEXTBEGIN
1070
    73
1070
     1
1070
    44
1040
1.0
1070
    74
1070
     0
1000
MTEXTEND
  0
POINT
  5
A01B
330
A014
100
AcDbEntity
  8
DEFPOINTS
 62
     0
100
AcDbPoint
 10
402.2407529037673
 20
71.99962806410463
 30
0.0
  0
POINT
  5
A01C
330
A014
100
AcDbEntity
  8
DEFPOINTS
 62
     0
100
AcDbPoint
 10
402.2407529037673
 20
-71.99962806410765
 30
0.0
  0
POINT
  5
A01D
330
A014
100
AcDbEntity
  8
DEFPOINTS
 62
     0
100
AcDbPoint
 10
425.7555246093359
 20
-71.99962806410768
 30
0.0
  0
ENDBLK
  5
A01F
330
A014
100
AcDbEntity
  8
0
100
AcDbBlockEnd
  0
BLOCK
  5
A034
330
A02A
100
AcDbEntity
  8
0
100
AcDbBlockBegin
  2
*D25
 70
     1
 10
0.0
 20
0.0
 30
0.0
  3
*D25
  1

  0
LINE
  5
A02B
330
A02A
100
AcDbEntity
  8
30
 62
     0
100
AcDbLine
 10
377.1068728338158
 20
-61.99967972186928
 30
0.0
 11
409.9712429321806
 21
-61.99967972186928
 31
0.0
  0
LINE
  5
A02C
330
A02A
100
AcDbEntity
  8
30
 62
     0
100
AcDbLine
 10
377.106872833816
 20
-81.99957640634357
 30
0.0
 11
409.9712429321806
 21
-81.99957640634357
 31
0.0
  0
LINE
  5
A02D
330
A02A
100
AcDbEntity
  8
30
 62
     0
100
AcDbLine
 10
409.4712429321806
 20
-63.99967972186928
 30
0.0
 11
409.4712429321806
 21
-79.99957640634358
 31
0.0
  0
INSERT
  5
A02E
330
A02A
100
AcDbEntity
  8
30
 62
     0
100
AcDbBlockReference
  2
_OPEN
 10
409.4712429321806
 20
-61.99967972186928
 30
0.0
 41
2.0
 42
2.0
 43
2.0
 50
90.0
  0
INSERT
  5
A02F
330
A02A
100
AcDbEntity
  8
30
 62
     0
100
AcDbBlockReference
  2
_OPEN
 10
409.4712429321806
 20
-81.99957640634357
 30
0.0
 41
2.0
 42
2.0
 43
2.0
 50
270.0
  0
MTEXT
  5
A030
330
A02A
100
AcDbEntity
  8
30
 62
     0
100
AcDbMText
 10
406.4712429321806
 20
-71.99962806410636
 30
0.0
 40
4.0
 41
0.0
 71
     5
 72
     1
  1
\A1;20
 11
0.0000000000000001
 21
1.0
 31
0.0
 73
     1
 44
1.0
1001
ACAD
1000
MTEXTBEGIN
1070
    73
1070
     1
1070
    44
1040
1.0
1070
    74
1070
     0
1000
MTEXTEND
  0
POINT
  5
A031
330
A02A
100
AcDbEntity
  8
DEFPOINTS
 62
     0
100
AcDbPoint
 10
376.1068728338158
 20
-61.99967972186928
 30
0.0
  0
POINT
  5
A032
330
A02A
100
AcDbEntity
  8
DEFPOINTS
 62
     0
100
AcDbPoint
 10
376.1068728338158
 20
-81.99957640634357
 30
0.0
  0
POINT
  5
A033
330
A02A
100
AcDbEntity
  8
DEFPOINTS
 62
     0
100
AcDbPoint
 10
409.4712429321806
 20
-81.99957640634357
 30
0.0
  0
ENDBLK
  5
A035
330
A02A
100
AcDbEntity
  8
0
100
AcDbBlockEnd
  0
BLOCK
  5
A0D2
330
A0C8
100
AcDbEntity
  8
0
100
AcDbBlockBegin
  2
*D26
 70
     1
 10
0.0
 20
0.0
 30
0.0
  3
*D26
  1

  0
LINE
  5
A392
330
A0C8
100
AcDbEntity
  8
30
 62
     0
370
    -2
100
AcDbLine
 10
-34.99981919782964
 20
338.4808152728798
 30
0.0
 11
-34.99981919782964
 21
380.3746696354486
 31
0.0
  0
LINE
  5
A393
330
A0C8
100
AcDbEntity
  8
30
 62
     0
370
    -2
100
AcDbLine
 10
0.0000000000000573
 20
369.9812001232139
 30
0.0
 11
0.0000000000000579
 21
380.3746696354486
 31
0.0
  0
LINE
  5
A394
330
A0C8
100
AcDbEntity
  8
30
 62
     0
370
    -2
100
AcDbLine
 10
-32.99981919782965
 20
379.8746696354486
 30
0.0
 11
-1.999999999999942
 21
379.8746696354486
 31
0.0
  0
INSERT
  5
A395
330
A0C8
100
AcDbEntity
  8
30
 62
     0
370
    -2
100
AcDbBlockReference
  2
_OPEN
 10
-34.99981919782964
 20
379.8746696354486
 30
0.0
 41
2.0
 42
2.0
 43
2.0
 50
180.0
  0
INSERT
  5
A396
330
A0C8
100
AcDbEntity
  8
30
 62
     0
370
    -2
100
AcDbBlockReference
  2
_OPEN
 10
0.0000000000000579
 20
379.8746696354486
 30
0.0
 41
2.0
 42
2.0
 43
2.0
  0
MTEXT
  5
A397
330
A0C8
100
AcDbEntity
  8
30
 62
     0
100
AcDbMText
 10
-17.49990959891479
 20
382.8746696354486
 30
0.0
 40
4.0
 41
0.0
 71
     5
 72
     1
  1
\A1;35
 73
     1
 44
1.0
1001
ACAD
1000
MTEXTBEGIN
1070
    73
1070
     1
1070
    44
1040
1.0
1070
    74
1070
     0
1000
MTEXTEND
  0
POINT
  5
A398
330
A0C8
100
AcDbEntity
  8
DEFPOINTS
 62
     0
100
AcDbPoint
 10
-34.99981919782964
 20
337.4808152728799
 30
0.0
  0
POINT
  5
A399
330
A0C8
100
AcDbEntity
  8
DEFPOINTS
 62
     0
100
AcDbPoint
 10
0.0000000000000572
 20
368.9812001232139
 30
0.0
  0
POINT
  5
A39A
330
A0C8
100
AcDbEntity
  8
DEFPOINTS
 62
     0
100
AcDbPoint
 10
0.0000000000000579
 20
379.8746696354486
 30
0.0
  0
ENDBLK
  5
A0D3
330
A0C8
100
AcDbEntity
  8
0
100
AcDbBlockEnd
  0
BLOCK
  5
A0DF
330
A0D5
100
AcDbEntity
  8
0
100
AcDbBlockBegin
  2
*D27
 70
     1
 10
0.0
 20
0.0
 30
0.0
  3
*D27
  1

  0
LINE
  5
A39B
330
A0D5
100
AcDbEntity
  8
30
 62
     0
370
    -2
100
AcDbLine
 10
0.0000000000000573
 20
369.9812001232139
 30
0.0
 11
0.0000000000000579
 21
380.3746696354486
 31
0.0
  0
LINE
  5
A39C
330
A0D5
100
AcDbEntity
  8
30
 62
     0
370
    -2
100
AcDbLine
 10
34.99981919782964
 20
338.4808152728798
 30
0.0
 11
34.99981919782964
 21
380.3746696354486
 31
0.0
  0
LINE
  5
A39D
330
A0D5
100
AcDbEntity
  8
30
 62
     0
370
    -2
100
AcDbLine
 10
2.000000000000057
 20
379.8746696354486
 30
0.0
 11
32.99981919782965
 21
379.8746696354486
 31
0.0
  0
INSERT
  5
A39E
330
A0D5
100
AcDbEntity
  8
30
 62
     0
370
    -2
100
AcDbBlockReference
  2
_OPEN
 10
0.0000000000000579
 20
379.8746696354486
 30
0.0
 41
2.0
 42
2.0
 43
2.0
 50
180.0
  0
INSERT
  5
A39F
330
A0D5
100
AcDbEntity
  8
30
 62
     0
370
    -2
100
AcDbBlockReference
  2
_OPEN
 10
34.99981919782964
 20
379.8746696354486
 30
0.0
 41
2.0
 42
2.0
 43
2.0
  0
MTEXT
  5
A3A0
330
A0D5
100
AcDbEntity
  8
30
 62
     0
100
AcDbMText
 10
17.49990959891485
 20
382.8746696354486
 30
0.0
 40
4.0
 41
0.0
 71
     5
 72
     1
  1
\A1;35
 73
     1
 44
1.0
1001
ACAD
1000
MTEXTBEGIN
1070
    73
1070
     1
1070
    44
1040
1.0
1070
    74
1070
     0
1000
MTEXTEND
  0
POINT
  5
A3A1
330
A0D5
100
AcDbEntity
  8
DEFPOINTS
 62
     0
100
AcDbPoint
 10
0.0000000000000572
 20
368.9812001232139
 30
0.0
  0
POINT
  5
A3A2
330
A0D5
100
AcDbEntity
  8
DEFPOINTS
 62
     0
100
AcDbPoint
 10
34.99981919782964
 20
337.4808152728799
 30
0.0
  0
POINT
  5
A3A3
330
A0D5
100
AcDbEntity
  8
DEFPOINTS
 62
     0
100
AcDbPoint
 10
34.99981919782964
 20
379.8746696354486
 30
0.0
  0
ENDBLK
  5
A0E0
330
A0D5
100
AcDbEntity
  8
0
100
AcDbBlockEnd
  0
BLOCK
  5
A13B
330
A131
100
AcDbEntity
  8
0
100
AcDbBlockBegin
  2
*D28
 70
     1
 10
0.0
 20
0.0
 30
0.0
  3
*D28
  1

  0
LINE
  5
A132
330
A131
100
AcDbEntity
  8
30
 62
     0
100
AcDbLine
 10
-34.99981919782956
 20
-79.99959190367248
 30
0.0
 11
-34.99981919782956
 21
-96.11442890900573
 31
0.0
  0
LINE
  5
A133
330
A131
100
AcDbEntity
  8
30
 62
     0
100
AcDbLine
 10
-0.0000000000000001
 20
-77.99960223522508
 30
0.0
 11
-0.0000000000000012
 21
-96.11442890900573
 31
0.0
  0
LINE
  5
A134
330
A131
100
AcDbEntity
  8
30
 62
     0
100
AcDbLine
 10
-32.99981919782955
 20
-95.6144289090057
 30
0.0
 11
-2.0
 21
-95.6144289090057
 31
0.0
  0
INSERT
  5
A135
330
A131
100
AcDbEntity
  8
30
 62
     0
100
AcDbBlockReference
  2
_OPEN
 10
-34.99981919782956
 20
-95.6144289090057
 30
0.0
 41
2.0
 42
2.0
 43
2.0
 50
180.0
  0
INSERT
  5
A136
330
A131
100
AcDbEntity
  8
30
 62
     0
100
AcDbBlockReference
  2
_OPEN
 10
-0.0000000000000011
 20
-95.6144289090057
 30
0.0
 41
2.0
 42
2.0
 43
2.0
  0
MTEXT
  5
A137
330
A131
100
AcDbEntity
  8
30
 62
     0
100
AcDbMText
 10
-17.49990959891476
 20
-92.61442890900573
 30
0.0
 40
4.0
 41
0.0
 71
     5
 72
     1
  1
\A1;35
 73
     1
 44
1.0
1001
ACAD
1000
MTEXTBEGIN
1070
    73
1070
     1
1070
    44
1040
1.0
1070
    74
1070
     0
1000
MTEXTEND
  0
POINT
  5
A138
330
A131
100
AcDbEntity
  8
DEFPOINTS
 62
     0
100
AcDbPoint
 10
-34.99981919782956
 20
-78.99959190367248
 30
0.0
  0
POINT
  5
A139
330
A131
100
AcDbEntity
  8
DEFPOINTS
 62
     0
100
AcDbPoint
 10
0.0
 20
-76.99960223522508
 30
0.0
  0
POINT
  5
A13A
330
A131
100
AcDbEntity
  8
DEFPOINTS
 62
     0
100
AcDbPoint
 10
-0.0000000000000011
 20
-95.6144289090057
 30
0.0
  0
ENDBLK
  5
A13C
330
A131
100
AcDbEntity
  8
0
100
AcDbBlockEnd
  0
BLOCK
  5
A148
330
A13E
100
AcDbEntity
  8
0
100
AcDbBlockBegin
  2
*D29
 70
     1
 10
0.0
 20
0.0
 30
0.0
  3
*D29
  1

  0
LINE
  5
A314
330
A13E
100
AcDbEntity
  8
30
 62
     0
100
AcDbLine
 10
-0.0000000000000001
 20
-77.99960223522508
 30
0.0
 11
-0.0000000000000012
 21
-96.11442890900573
 31
0.0
  0
LINE
  5
A315
330
A13E
100
AcDbEntity
  8
30
 62
     0
100
AcDbLine
 10
34.99981919782956
 20
-79.99959190367248
 30
0.0
 11
34.99981919782956
 21
-96.11442890900573
 31
0.0
  0
LINE
  5
A316
330
A13E
100
AcDbEntity
  8
30
 62
     0
100
AcDbLine
 10
1.999999999999998
 20
-95.6144289090057
 30
0.0
 11
32.99981919782956
 21
-95.6144289090057
 31
0.0
  0
INSERT
  5
A317
330
A13E
100
AcDbEntity
  8
30
 62
     0
100
AcDbBlockReference
  2
_OPEN
 10
-0.0000000000000011
 20
-95.6144289090057
 30
0.0
 41
2.0
 42
2.0
 43
2.0
 50
180.0
  0
INSERT
  5
A318
330
A13E
100
AcDbEntity
  8
30
 62
     0
100
AcDbBlockReference
  2
_OPEN
 10
34.99981919782956
 20
-95.6144289090057
 30
0.0
 41
2.0
 42
2.0
 43
2.0
  0
MTEXT
  5
A319
330
A13E
100
AcDbEntity
  8
30
 62
     0
100
AcDbMText
 10
17.49990959891477
 20
-92.61442890900573
 30
0.0
 40
4.0
 41
0.0
 71
     5
 72
     1
  1
\A1;35
 73
     1
 44
1.0
1001
ACAD
1000
MTEXTBEGIN
1070
    73
1070
     1
1070
    44
1040
1.0
1070
    74
1070
     0
1000
MTEXTEND
  0
POINT
  5
A31A
330
A13E
100
AcDbEntity
  8
DEFPOINTS
 62
     0
100
AcDbPoint
 10
0.0
 20
-76.99960223522508
 30
0.0
  0
POINT
  5
A31B
330
A13E
100
AcDbEntity
  8
DEFPOINTS
 62
     0
100
AcDbPoint
 10
34.99981919782956
 20
-78.99959190367248
 30
0.0
  0
POINT
  5
A31C
330
A13E
100
AcDbEntity
  8
DEFPOINTS
 62
     0
100
AcDbPoint
 10
34.99981919782956
 20
-95.6144289090057
 30
0.0
  0
ENDBLK
  5
A149
330
A13E
100
AcDbEntity
  8
0
100
AcDbBlockEnd
  0
ENDSEC
  0
SECTION
  2
ENTITIES
  0
LINE
  5
B4
330
1E
100
AcDbEntity
  8
16
100
AcDbLine
 10
0.0
 20
-105.0883879261506
 30
0.0
 11
0.0
 21
86.25
 31
0.0
  0
LINE
  5
B5
330
1E
100
AcDbEntity
  8
16
100
AcDbLine
 10
89.74013214434672
 20
0.0000000000000089
 30
0.0
 11
-56.60868885537141
 21
0.0
 31
0.0
  0
MTEXT
  5
BF3
330
1E
100
AcDbEntity
  8
24
  6
Continuous
100
AcDbMText
 10
142.1181906098743
 20
192.5
 30
0.0
 40
3.0
 41
0.0
 71
     1
 72
     1
  1
\A1;
 73
     1
 44
1.0
1001
ACAD
1000
MTEXTBEGIN
1070
    73
1070
     1
1070
    44
1040
1.0
1070
    74
1070
     0
1000
MTEXTEND
  0
LINE
  5
1C9A
330
1E
100
AcDbEntity
  8
16
100
AcDbLine
 10
0.0
 20
126.8811670622457
 30
0.0
 11
0.0
 21
269.3811670622458
 31
0.0
  0
LINE
  5
1C9B
330
1E
100
AcDbEntity
  8
16
100
AcDbLine
 10
330.554086031632
 20
0.0
 30
0.0
 11
171.0696978557111
 21
0.0
 31
0.0
  0
LINE
  5
2260
330
1E
100
AcDbEntity
  8
16
100
AcDbLine
 10
89.90743607736431
 20
-235.0
 30
0.0
 11
-67.93042662644572
 21
-235.0
 31
0.0
  0
LINE
  5
2261
330
1E
100
AcDbEntity
  8
16
100
AcDbLine
 10
0.0
 20
-317.4374692359974
 30
0.0
 11
0.0
 21
-149.5
 31
0.0
  0
LEADER
  5
92DA
330
1E
100
AcDbEntity
  8
30
100
AcDbLeader
  3
STANDARD
 76
     3
 10
-17.54378491053535
 20
-166.5490984563776
 30
0.0
 10
-24.6222311397928
 20
-139.6055030113512
 30
0.0
 10
-37.77707622258275
 20
-139.6055030113512
 30
0.0
1001
ACAD
1000
DSTYLE
1002
{
1070
     5
1000
OPEN
1070
    77
1070
     0
1070
    79
1070
     3
1070
   147
1040
1.0
1002
}
  0
TEXT
  5
92DB
330
1E
100
AcDbEntity
  8
30
100
AcDbText
 10
-36.44830264495293
 20
-138.9418781241207
 30
0.0
 40
5.0
  1
M4
  7
STANDARD1
100
AcDbText
  0
LEADER
  5
933A
330
1E
100
AcDbEntity
  8
30
100
AcDbLeader
  3
STANDARD
 76
     3
 10
367.2113726997402
 20
-66.65631172905668
 30
0.0
 10
381.1428113877377
 20
-48.80763993108053
 30
0.0
 10
399.7263428981095
 20
-48.80763993108053
 30
0.0
1001
ACAD
1000
DSTYLE
1002
{
1070
     5
1000
OPEN
1070
    77
1070
     0
1070
    79
1070
     3
1070
   147
1040
1.0
1002
}
  0
TEXT
  5
933B
330
1E
100
AcDbEntity
  8
30
100
AcDbText
 10
385.3400579756426
 20
-47.75953037389672
 30
0.0
 40
5.0
  1
%%c9
  7
STANDARD1
100
AcDbText
  0
LINE
  5
9764
330
1E
100
AcDbEntity
  8
10
100
AcDbLine
 10
-52.49972879674436
 20
-82.4995738234554
 30
0.0
 11
52.49954799457388
 21
-82.4995738234554
 31
0.0
  0
LINE
  5
9765
330
1E
100
AcDbEntity
  8
10
100
AcDbLine
 10
52.49954799457388
 20
82.49957382345536
 30
0.0
 11
-52.49972879674436
 21
82.49957382345536
 31
0.0
  0
LINE
  5
9766
330
1E
100
AcDbEntity
  8
10
100
AcDbLine
 10
-52.49972879674436
 20
50.99973654540878
 30
0.0
 11
52.49954799457388
 21
50.99973654540878
 31
0.0
  0
LINE
  5
9767
330
1E
100
AcDbEntity
  8
10
100
AcDbLine
 10
-52.49972879674436
 20
-50.99973654540878
 30
0.0
 11
52.49954799457388
 21
-50.99973654540878
 31
0.0
  0
DIMENSION
  5
9770
330
1E
100
AcDbEntity
  8
30
100
AcDbDimension
  2
*D1
 10
52.49954799457388
 20
-110.0071869104862
 30
0.0
 11
-0.0000904010852308
 21
-107.0071869104862
 31
0.0
 70
    32
 71
     5
 42
-1.0
  3
STANDARD
100
AcDbAlignedDimension
 13
-52.49972879674436
 23
-82.4995738234554
 33
0.0
 14
52.49954799457388
 24
-82.4995738234554
 34
0.0
 50
180.0
100
AcDbRotatedDimension
  0
LINE
  5
9771
330
1E
100
AcDbEntity
  8
10
100
AcDbLine
 10
-52.49972879674436
 20
82.49957382345536
 30
0.0
 11
-52.49972879674436
 21
-82.4995738234554
 31
0.0
  0
ARC
  5
9773
330
1E
100
AcDbEntity
  8
10
100
AcDbCircle
 10
41.99978303739546
 20
-64.99966422454061
 30
0.0
 40
4.999974171118506
210
0.0
220
0.0
230
-1.0
100
AcDbArc
 50
0.0
 51
90.0
  0
LINE
  5
9774
330
1E
100
AcDbEntity
  8
10
100
AcDbLine
 10
-46.99975720851396
 20
-82.4995738234554
 30
0.0
 11
-46.99975720851396
 21
-64.99966422454061
 31
0.0
  0
ARC
  5
9775
330
1E
100
AcDbEntity
  8
10
100
AcDbCircle
 10
-6.999963839565991
 20
-64.99966422454061
 30
0.0
 40
4.999974171118506
210
0.0
220
0.0
230
-1.0
100
AcDbArc
 50
90.0
 51
180.0
  0
LINE
  5
9776
330
1E
100
AcDbEntity
  8
12
100
AcDbLine
 10
-22.99988118714505
 20
-62.99967455609319
 30
0.0
 11
-11.99993801068435
 21
-62.99967455609319
 31
0.0
  0
CIRCLE
  5
9777
330
1E
100
AcDbEntity
  8
12
100
AcDbCircle
 10
17.49990959891476
 20
-62.99967455609319
 30
0.0
 40
3.999979336894806
210
0.0
220
0.0
230
-1.0
  0
LINE
  5
9778
330
1E
100
AcDbEntity
  8
12
100
AcDbLine
 10
-17.49990959891476
 20
-68.49964614432359
 30
0.0
 11
-17.49990959891476
 21
-57.49970296786287
 31
0.0
  0
ARC
  5
9779
330
1E
100
AcDbEntity
  8
10
100
AcDbCircle
 10
27.99985535826357
 20
-64.99966422454061
 30
0.0
 40
4.999974171118506
210
0.0
220
0.0
230
-1.0
100
AcDbArc
 50
90.0
 51
180.0
  0
LINE
  5
977A
330
1E
100
AcDbEntity
  8
17
100
AcDbLine
 10
-41.99978303739546
 20
-71.99962806410656
 30
0.0
 11
-27.99985535826357
 21
-71.99962806410656
 31
0.0
  0
LINE
  5
977B
330
1E
100
AcDbEntity
  8
17
100
AcDbLine
 10
-34.99981919782956
 20
-64.99966422454061
 30
0.0
 11
-34.99981919782956
 21
-78.99959190367248
 31
0.0
  0
CIRCLE
  5
977C
330
1E
100
AcDbEntity
  8
24
100
AcDbCircle
 10
-34.99981919782956
 20
-71.99962806410656
 30
0.0
 40
4.999974171118506
  0
LINE
  5
977D
330
1E
100
AcDbEntity
  8
10
100
AcDbLine
 10
-22.99988118714505
 20
-82.4995738234554
 30
0.0
 11
-22.99988118714505
 21
-64.99966422454061
 31
0.0
  0
LINE
  5
977E
330
1E
100
AcDbEntity
  8
10
100
AcDbLine
 10
-27.99985535826357
 20
-59.99969005342212
 30
0.0
 11
-41.99978303739546
 21
-59.99969005342212
 31
0.0
  0
ARC
  5
977F
330
1E
100
AcDbEntity
  8
10
100
AcDbCircle
 10
6.999963839565879
 20
-64.99966422454061
 30
0.0
 40
4.999974171118506
210
0.0
220
0.0
230
-1.0
100
AcDbArc
 50
0.0
 51
90.0
  0
LINE
  5
9780
330
1E
100
AcDbEntity
  8
17
100
AcDbLine
 10
-6.999963839565879
 20
-71.99962806410656
 30
0.0
 11
6.999963839565991
 21
-71.99962806410656
 31
0.0
  0
CIRCLE
  5
9781
330
1E
100
AcDbEntity
  8
24
100
AcDbCircle
 10
0.0
 20
-71.99962806410656
 30
0.0
 40
4.999974171118506
  0
LINE
  5
9782
330
1E
100
AcDbEntity
  8
10
100
AcDbLine
 10
-11.99993801068435
 20
-82.4995738234554
 30
0.0
 11
-11.99993801068435
 21
-64.99966422454061
 31
0.0
  0
LINE
  5
9783
330
1E
100
AcDbEntity
  8
10
100
AcDbLine
 10
6.999963839565991
 20
-59.99969005342212
 30
0.0
 11
-6.999963839565879
 21
-59.99969005342212
 31
0.0
  0
LINE
  5
9784
330
1E
100
AcDbEntity
  8
17
100
AcDbLine
 10
27.99985535826371
 20
-71.99962806410656
 30
0.0
 11
41.9997830373955
 21
-71.99962806410656
 31
0.0
  0
LINE
  5
9785
330
1E
100
AcDbEntity
  8
10
100
AcDbLine
 10
41.9997830373955
 20
-59.99969005342212
 30
0.0
 11
27.99985535826371
 21
-59.99969005342212
 31
0.0
  0
CIRCLE
  5
9786
330
1E
100
AcDbEntity
  8
24
100
AcDbCircle
 10
34.99981919782956
 20
-71.99962806410656
 30
0.0
 40
4.999974171118506
  0
LINE
  5
9787
330
1E
100
AcDbEntity
  8
12
100
AcDbLine
 10
17.49990959891479
 20
-68.49964614432359
 30
0.0
 11
17.49990959891479
 21
-57.49970296786287
 31
0.0
  0
ARC
  5
9788
330
1E
100
AcDbEntity
  8
10
100
AcDbCircle
 10
-27.99985535826371
 20
-64.99966422454061
 30
0.0
 40
4.999974171118506
210
0.0
220
0.0
230
-1.0
100
AcDbArc
 50
0.0
 51
90.0
  0
CIRCLE
  5
9789
330
1E
100
AcDbEntity
  8
12
100
AcDbCircle
 10
17.49990959891479
 20
-62.99967455609319
 30
0.0
 40
3.999979336894806
  0
LINE
  5
978A
330
1E
100
AcDbEntity
  8
10
100
AcDbLine
 10
22.99988118714517
 20
-82.4995738234554
 30
0.0
 11
22.99988118714517
 21
-64.99966422454061
 31
0.0
  0
LINE
  5
978B
330
1E
100
AcDbEntity
  8
10
100
AcDbLine
 10
11.99993801068447
 20
-82.4995738234554
 30
0.0
 11
11.99993801068447
 21
-64.99966422454061
 31
0.0
  0
LINE
  5
978C
330
1E
100
AcDbEntity
  8
17
100
AcDbLine
 10
34.99981919782956
 20
-64.99966422454061
 30
0.0
 11
34.99981919782956
 21
-78.99959190367248
 31
0.0
  0
LINE
  5
978D
330
1E
100
AcDbEntity
  8
12
100
AcDbLine
 10
11.99993801068447
 20
-62.99967455609319
 30
0.0
 11
22.99988118714517
 21
-62.99967455609319
 31
0.0
  0
ARC
  5
978E
330
1E
100
AcDbEntity
  8
10
100
AcDbCircle
 10
-41.9997830373955
 20
-64.99966422454061
 30
0.0
 40
4.999974171118506
210
0.0
220
0.0
230
-1.0
100
AcDbArc
 50
90.0
 51
180.0
  0
LINE
  5
9790
330
1E
100
AcDbEntity
  8
10
100
AcDbLine
 10
46.99975720851401
 20
-82.4995738234554
 30
0.0
 11
46.99975720851401
 21
-64.99966422454061
 31
0.0
  0
LINE
  5
9792
330
1E
100
AcDbEntity
  8
10
100
AcDbLine
 10
-48.99974687696135
 20
24.99987085559252
 30
0.0
 11
48.99974687696138
 21
24.99987085559252
 31
0.0
  0
LINE
  5
9793
330
1E
100
AcDbEntity
  8
10
100
AcDbLine
 10
-48.99974687696135
 20
-24.99987085559256
 30
0.0
 11
48.99974687696138
 21
-24.99987085559256
 31
0.0
  0
ARC
  5
9794
330
1E
100
AcDbEntity
  8
10
100
AcDbCircle
 10
-41.99978303739546
 20
64.99966422454059
 30
0.0
 40
4.999974171118506
100
AcDbArc
 50
180.0
 51
270.0
  0
DIMENSION
  5
9795
330
1E
100
AcDbEntity
  8
30
100
AcDbDimension
  2
*D2
 10
48.99974687696138
 20
35.21301008272597
 30
0.0
 11
0.0000000000000002
 21
38.21301008272598
 31
0.0
 70
    32
 71
     5
 42
-1.0
  3
STANDARD
100
AcDbAlignedDimension
 13
-48.99974687696138
 23
24.99987085559252
 33
0.0
 14
48.99974687696138
 24
24.99987085559252
 34
0.0
100
AcDbRotatedDimension
  0
LINE
  5
9796
330
1E
100
AcDbEntity
  8
10
100
AcDbLine
 10
-48.99974687696135
 20
24.99987085559252
 30
0.0
 11
-48.99974687696135
 21
-24.99987085559256
 31
0.0
  0
LINE
  5
9797
330
1E
100
AcDbEntity
  8
10
100
AcDbLine
 10
-46.99975720851396
 20
82.49957382345536
 30
0.0
 11
-46.99975720851396
 21
64.99966422454059
 31
0.0
  0
LINE
  5
9798
330
1E
100
AcDbEntity
  8
10
100
AcDbLine
 10
-10.99994317646076
 20
24.99987085559252
 30
0.0
 11
-10.99994317646076
 21
-24.99987085559256
 31
0.0
  0
LINE
  5
9799
330
1E
100
AcDbEntity
  8
10
100
AcDbLine
 10
6.999963839565991
 20
-18.49990443313847
 30
0.0
 11
6.999963839566021
 21
20.15476459026723
 31
0.0
  0
LINE
  5
979A
330
1E
100
AcDbEntity
  8
10
100
AcDbLine
 10
-6.999963839565879
 20
-18.49990443313847
 30
0.0
 11
-6.999963839565879
 21
20.15476459026723
 31
0.0
  0
LINE
  5
979B
330
1E
100
AcDbEntity
  8
10
100
AcDbLine
 10
-6.999963839565879
 20
-18.49990443313847
 30
0.0
 11
6.999963839565991
 21
-18.49990443313847
 31
0.0
  0
LINE
  5
979C
330
1E
100
AcDbEntity
  8
10
100
AcDbLine
 10
6.999963839565991
 20
6.840753968874253
 30
0.0
 11
-6.999963839565026
 21
6.840753968874253
 31
0.0
  0
LINE
  5
979D
330
1E
100
AcDbEntity
  8
10
100
AcDbLine
 10
6.999963839565991
 20
15.23987771387089
 30
0.0
 11
-6.999963839565879
 21
15.23987771387089
 31
0.0
  0
LINE
  5
979E
330
1E
100
AcDbEntity
  8
10
100
AcDbLine
 10
6.999963839565991
 20
20.15476459026723
 30
0.0
 11
-6.99996383956676
 21
20.15476459026723
 31
0.0
  0
LINE
  5
979F
330
1E
100
AcDbEntity
  8
10
100
AcDbLine
 10
48.99974687696138
 20
24.99987085559252
 30
0.0
 11
48.99974687696138
 21
-24.99987085559256
 31
0.0
  0
LINE
  5
97A0
330
1E
100
AcDbEntity
  8
10
100
AcDbLine
 10
10.99994317646077
 20
24.99987085559252
 30
0.0
 11
10.99994317646077
 21
-24.99987085559256
 31
0.0
  0
ARC
  5
97A1
330
1E
100
AcDbEntity
  8
10
100
AcDbCircle
 10
6.999963839565991
 20
64.99966422454059
 30
0.0
 40
4.999974171118506
100
AcDbArc
 50
270.0
 51
0.0
  0
LINE
  5
97A2
330
1E
100
AcDbEntity
  8
17
100
AcDbLine
 10
-34.99981919782956
 20
78.99959190367241
 30
0.0
 11
-34.99981919782956
 21
64.99966422454059
 31
0.0
  0
LINE
  5
97A3
330
1E
100
AcDbEntity
  8
10
100
AcDbLine
 10
-11.99993801068435
 20
82.49957382345536
 30
0.0
 11
-11.99993801068435
 21
64.99966422454059
 31
0.0
  0
LINE
  5
97A4
330
1E
100
AcDbEntity
  8
10
100
AcDbLine
 10
-22.99988118714505
 20
82.49957382345536
 30
0.0
 11
-22.99988118714505
 21
64.99966422454059
 31
0.0
  0
CIRCLE
  5
97A5
330
1E
100
AcDbEntity
  8
24
100
AcDbCircle
 10
-34.99981919782956
 20
71.99962806410656
 30
0.0
 40
4.999974171118506
  0
CIRCLE
  5
97A6
330
1E
100
AcDbEntity
  8
24
100
AcDbCircle
 10
0.0
 20
71.99962806410656
 30
0.0
 40
4.999974171118506
  0
LINE
  5
97A7
330
1E
100
AcDbEntity
  8
12
100
AcDbLine
 10
-22.99988118714505
 20
62.99967455609323
 30
0.0
 11
-11.99993801068435
 21
62.99967455609323
 31
0.0
  0
CIRCLE
  5
97A8
330
1E
100
AcDbEntity
  8
12
100
AcDbCircle
 10
-17.49990959891476
 20
62.99967455609323
 30
0.0
 40
3.999979336894806
  0
LINE
  5
97A9
330
1E
100
AcDbEntity
  8
10
100
AcDbLine
 10
-27.99985535826357
 20
59.99969005342205
 30
0.0
 11
-41.99978303739546
 21
59.99969005342205
 31
0.0
  0
LINE
  5
97AA
330
1E
100
AcDbEntity
  8
12
100
AcDbLine
 10
-17.49990959891476
 20
68.49964614432355
 30
0.0
 11
-17.49990959891476
 21
57.49970296786284
 31
0.0
  0
ARC
  5
97AB
330
1E
100
AcDbEntity
  8
10
100
AcDbCircle
 10
-27.99985535826357
 20
64.99966422454059
 30
0.0
 40
4.999974171118506
100
AcDbArc
 50
270.0
 51
0.0
  0
LINE
  5
97AC
330
1E
100
AcDbEntity
  8
10
100
AcDbLine
 10
6.999963839565991
 20
59.99969005342205
 30
0.0
 11
-6.999963839565879
 21
59.99969005342205
 31
0.0
  0
ARC
  5
97AD
330
1E
100
AcDbEntity
  8
10
100
AcDbCircle
 10
-6.999963839565879
 20
64.99966422454059
 30
0.0
 40
4.999974171118506
100
AcDbArc
 50
180.0
 51
270.0
  0
LINE
  5
97AE
330
1E
100
AcDbEntity
  8
17
100
AcDbLine
 10
-41.99978303739546
 20
71.99962806410656
 30
0.0
 11
-27.99985535826357
 21
71.99962806410656
 31
0.0
  0
LINE
  5
97AF
330
1E
100
AcDbEntity
  8
17
100
AcDbLine
 10
-6.999963839565879
 20
71.99962806410656
 30
0.0
 11
6.999963839565991
 21
71.99962806410656
 31
0.0
  0
LINE
  5
97B2
330
1E
100
AcDbEntity
  8
17
100
AcDbLine
 10
34.99981919782956
 20
78.99959190367241
 30
0.0
 11
34.99981919782956
 21
64.99966422454059
 31
0.0
  0
LINE
  5
97B3
330
1E
100
AcDbEntity
  8
10
100
AcDbLine
 10
22.99988118714517
 20
82.49957382345536
 30
0.0
 11
22.99988118714517
 21
64.99966422454059
 31
0.0
  0
LINE
  5
97B4
330
1E
100
AcDbEntity
  8
10
100
AcDbLine
 10
46.99975720851401
 20
82.49957382345536
 30
0.0
 11
46.99975720851401
 21
64.99966422454059
 31
0.0
  0
LINE
  5
97B5
330
1E
100
AcDbEntity
  8
10
100
AcDbLine
 10
11.99993801068447
 20
82.49957382345536
 30
0.0
 11
11.99993801068447
 21
64.99966422454059
 31
0.0
  0
CIRCLE
  5
97B7
330
1E
100
AcDbEntity
  8
24
100
AcDbCircle
 10
34.99981919782956
 20
71.99962806410656
 30
0.0
 40
4.999974171118506
  0
LINE
  5
97B8
330
1E
100
AcDbEntity
  8
10
100
AcDbLine
 10
41.9997830373955
 20
59.99969005342205
 30
0.0
 11
27.99985535826371
 21
59.99969005342205
 31
0.0
  0
ARC
  5
97B9
330
1E
100
AcDbEntity
  8
10
100
AcDbCircle
 10
27.99985535826371
 20
64.99966422454059
 30
0.0
 40
4.999974171118506
100
AcDbArc
 50
180.0
 51
270.0
  0
LINE
  5
97BA
330
1E
100
AcDbEntity
  8
12
100
AcDbLine
 10
17.49990959891479
 20
68.49964614432355
 30
0.0
 11
17.49990959891479
 21
57.49970296786284
 31
0.0
  0
CIRCLE
  5
97BB
330
1E
100
AcDbEntity
  8
12
100
AcDbCircle
 10
-17.49990959891479
 20
62.99967455609323
 30
0.0
 40
3.999979336894806
210
0.0
220
0.0
230
-1.0
  0
LINE
  5
97BC
330
1E
100
AcDbEntity
  8
12
100
AcDbLine
 10
11.99993801068447
 20
62.99967455609323
 30
0.0
 11
22.99988118714517
 21
62.99967455609323
 31
0.0
  0
ARC
  5
97BD
330
1E
100
AcDbEntity
  8
10
100
AcDbCircle
 10
41.9997830373955
 20
64.99966422454059
 30
0.0
 40
4.999974171118506
100
AcDbArc
 50
270.0
 51
0.0
  0
LINE
  5
97BF
330
1E
100
AcDbEntity
  8
17
100
AcDbLine
 10
27.99985535826371
 20
71.99962806410656
 30
0.0
 11
41.9997830373955
 21
71.99962806410656
 31
0.0
  0
LINE
  5
97C1
330
1E
100
AcDbEntity
  8
10
100
AcDbLine
 10
52.49954799457388
 20
82.49957382345536
 30
0.0
 11
52.49954799457388
 21
-82.4995738234554
 31
0.0
  0
DIMENSION
  5
97C2
330
1E
100
AcDbEntity
  8
30
100
AcDbDimension
  2
*D3
 10
65.67793042261772
 20
82.49957382345536
 30
0.0
 11
62.67793042261772
 21
-0.0000000000000037
 31
0.0
 70
    32
 71
     5
 42
-1.0
  3
STANDARD
100
AcDbAlignedDimension
 13
52.49954799457388
 23
-82.4995738234554
 33
0.0
 14
52.49954799457388
 24
82.49957382345536
 34
0.0
 50
270.0
100
AcDbRotatedDimension
  0
LINE
  5
9917
330
1E
100
AcDbEntity
  8
21
100
AcDbLine
 10
9.999948342236962
 20
262.9812001232139
 30
0.0
 11
9.999948342236962
 21
325.4812001232139
 31
0.0
  0
LINE
  5
9918
330
1E
100
AcDbEntity
  8
21
100
AcDbLine
 10
-9.999948342237077
 20
262.9812001232139
 30
0.0
 11
-9.999948342237077
 21
325.4812001232139
 31
0.0
  0
LINE
  5
991D
330
1E
100
AcDbEntity
  8
21
100
AcDbLine
 10
-31.99983469515848
 20
296.9810244868198
 30
0.0
 11
-31.99983469515848
 21
333.9808333530967
 31
0.0
  0
LINE
  5
991E
330
1E
100
AcDbEntity
  8
21
100
AcDbLine
 10
-37.9998037005006
 20
296.9810244868198
 30
0.0
 11
-37.9998037005006
 21
333.9808333530967
 31
0.0
  0
LINE
  5
991F
330
1E
100
AcDbEntity
  8
21
100
AcDbLine
 10
37.99980370050071
 20
296.9810244868198
 30
0.0
 11
37.99980370050071
 21
333.9808333530967
 31
0.0
  0
LINE
  5
9920
330
1E
100
AcDbEntity
  8
21
100
AcDbLine
 10
31.99983469515859
 20
296.9810244868198
 30
0.0
 11
31.99983469515859
 21
333.9808333530967
 31
0.0
  0
LINE
  5
9925
330
1E
100
AcDbEntity
  8
21
100
AcDbLine
 10
9.999948342236962
 20
325.4812001232139
 30
0.0
 11
-9.999948342237077
 21
325.4812001232139
 31
0.0
  0
LINE
  5
9926
330
1E
100
AcDbEntity
  8
17
100
AcDbLine
 10
12.999932844908
 20
353.9812001232139
 30
0.0
 11
-12.99993284490799
 21
353.9812001232139
 31
0.0
  0
LINE
  5
9927
330
1E
100
AcDbEntity
  8
17
100
AcDbLine
 10
-21.99988635292152
 20
318.9809108397411
 30
0.0
 11
-47.99975204273764
 21
318.9809108397411
 31
0.0
  0
LINE
  5
9928
330
1E
100
AcDbEntity
  8
21
100
AcDbLine
 10
-37.9998037005006
 20
333.9808333530967
 30
0.0
 11
-31.99983469515848
 21
333.9808333530967
 31
0.0
  0
LINE
  5
9929
330
1E
100
AcDbEntity
  8
21
100
AcDbLine
 10
-2.999984502670939
 20
331.9812001232138
 30
0.0
 11
-2.999984502670938
 21
368.9812001232139
 31
0.0
  0
LINE
  5
992A
330
1E
100
AcDbEntity
  8
21
100
AcDbLine
 10
2.999984502671054
 20
331.9812001232138
 30
0.0
 11
2.999984502671054
 21
368.9812001232139
 31
0.0
  0
LINE
  5
992B
330
1E
100
AcDbEntity
  8
21
100
AcDbLine
 10
-2.999984502670938
 20
368.9812001232139
 30
0.0
 11
2.999984502671054
 21
368.9812001232139
 31
0.0
  0
LINE
  5
992C
330
1E
100
AcDbEntity
  8
21
100
AcDbLine
 10
-4.999974171118537
 20
325.4812001232139
 30
0.0
 11
-4.999974171118537
 21
331.9812001232139
 31
0.0
  0
LINE
  5
992D
330
1E
100
AcDbEntity
  8
21
100
AcDbLine
 10
4.999974171118424
 20
325.4812001232139
 30
0.0
 11
4.999974171118424
 21
331.9812001232139
 31
0.0
  0
LINE
  5
992E
330
1E
100
AcDbEntity
  8
21
100
AcDbLine
 10
-2.999984502670939
 20
331.9812001232139
 30
0.0
 11
-4.999974171118537
 21
331.9812001232139
 31
0.0
  0
LINE
  5
992F
330
1E
100
AcDbEntity
  8
21
100
AcDbLine
 10
4.999974171118424
 20
331.9812001232139
 30
0.0
 11
2.999984502671054
 21
331.9812001232139
 31
0.0
  0
LINE
  5
9930
330
1E
100
AcDbEntity
  8
21
100
AcDbLine
 10
31.99983469515859
 20
333.9808333530967
 30
0.0
 11
37.99980370050071
 21
333.9808333530967
 31
0.0
  0
LINE
  5
9931
330
1E
100
AcDbEntity
  8
17
100
AcDbLine
 10
47.99975204273756
 20
318.9809108397411
 30
0.0
 11
21.99988635292118
 21
318.9809108397411
 31
0.0
  0
LINE
  5
993D
330
1E
100
AcDbEntity
  8
18
100
AcDbLine
 10
81.52171614819247
 20
266.1811835927299
 30
0.0
 11
-72.49962548121846
 21
266.1811835927299
 31
0.0
  0
LINE
  5
993E
330
1E
100
AcDbEntity
  8
18
100
AcDbLine
 10
-52.49972879674442
 20
262.9812001232139
 30
0.0
 11
-72.49962548121846
 21
262.9812001232139
 31
0.0
  0
DIMENSION
  5
993F
330
1E
100
AcDbEntity
  8
30
100
AcDbDimension
  2
*D4
 10
52.49972879674442
 20
150.2685903881511
 30
0.0
 11
0.0000000000000002
 21
153.2685903881511
 31
0.0
 70
    32
 71
     5
 42
-1.0
  3
STANDARD
100
AcDbAlignedDimension
 13
-52.49972879674442
 23
194.9815513960022
 33
0.0
 14
52.49972879674442
 24
194.9815513960022
 34
0.0
100
AcDbRotatedDimension
1001
ACAD
1000
DSTYLE
1002
{
1070
   287
1070
     4
1070
    79
1070
     3
1070
   279
1070
     1
1002
}
  0
LINE
  5
9941
330
1E
100
AcDbEntity
  8
10
100
AcDbLine
 10
52.49972879674442
 20
201.981515235568
 30
0.0
 11
-52.4997287967442
 21
201.981515235568
 31
0.0
  0
LINE
  5
9942
330
1E
100
AcDbEntity
  8
10
100
AcDbLine
 10
48.99974687696135
 20
190.9815720591074
 30
0.0
 11
-48.99974687696147
 21
190.9815720591074
 31
0.0
  0
LINE
  5
9943
330
1E
100
AcDbEntity
  8
10
100
AcDbLine
 10
52.49972879674442
 20
194.9815513960022
 30
0.0
 11
-52.49972879674442
 21
194.9815513960022
 31
0.0
  0
LINE
  5
9944
330
1E
100
AcDbEntity
  8
10
100
AcDbLine
 10
52.49972879674442
 20
262.9812001232139
 30
0.0
 11
-52.49972879674442
 21
262.9812001232139
 31
0.0
  0
DIMENSION
  5
9945
330
1E
100
AcDbEntity
  8
30
100
AcDbDimension
  2
*D5
 10
99.01863533668311
 20
262.9812001232139
 30
0.0
 11
96.01863533668307
 21
266.9811794601087
 31
0.0
 70
    32
 71
     5
 42
-1.0
  3
STANDARD
100
AcDbAlignedDimension
 13
19.49989926736225
 23
270.9811587970035
 33
0.0
 14
81.52171614819247
 24
262.9812001232139
 34
0.0
 50
90.00000000000005
100
AcDbRotatedDimension
1001
ACAD
1000
DSTYLE
1002
{
1070
   287
1070
     4
1070
    79
1070
     3
1070
   279
1070
     1
1002
}
  0
LINE
  5
9946
330
1E
100
AcDbEntity
  8
10
100
AcDbLine
 10
-52.49972879674442
 20
194.9815513960022
 30
0.0
 11
-52.49972879674442
 21
262.9812001232139
 31
0.0
  0
LINE
  5
9947
330
1E
100
AcDbEntity
  8
21
100
AcDbLine
 10
-24.99987085559256
 20
262.9812001232139
 30
0.0
 11
-24.99987085559256
 21
290.4810580643658
 31
0.0
  0
LINE
  5
9948
330
1E
100
AcDbEntity
  8
21
100
AcDbLine
 10
-44.9997675400666
 20
262.9812001232139
 30
0.0
 11
-44.9997675400666
 21
290.4810580643658
 31
0.0
  0
LINE
  5
9949
330
1E
100
AcDbEntity
  8
12
100
AcDbLine
 10
-19.49989926736225
 20
262.9812001232139
 30
0.0
 11
-19.49989926736225
 21
270.9811587970035
 31
0.0
  0
LINE
  5
994A
330
1E
100
AcDbEntity
  8
12
100
AcDbLine
 10
-15.49991993046727
 20
262.9812001232139
 30
0.0
 11
-15.49991993046727
 21
270.9811587970035
 31
0.0
  0
LINE
  5
994B
330
1E
100
AcDbEntity
  8
21
100
AcDbLine
 10
-24.99987085559256
 20
290.4810580643658
 30
0.0
 11
-44.9997675400666
 21
290.4810580643658
 31
0.0
  0
LINE
  5
994C
330
1E
100
AcDbEntity
  8
21
100
AcDbLine
 10
-31.99983469515848
 20
296.9810244868198
 30
0.0
 11
-29.99984502671111
 21
296.9810244868198
 31
0.0
  0
LINE
  5
994D
330
1E
100
AcDbEntity
  8
21
100
AcDbLine
 10
-39.99979336894806
 20
296.9810244868198
 30
0.0
 11
-37.9998037005006
 21
296.9810244868198
 31
0.0
  0
LINE
  5
994E
330
1E
100
AcDbEntity
  8
21
100
AcDbLine
 10
-39.99979336894806
 20
290.4810580643658
 30
0.0
 11
-39.99979336894806
 21
296.9810244868198
 31
0.0
  0
LINE
  5
994F
330
1E
100
AcDbEntity
  8
21
100
AcDbLine
 10
-29.99984502671111
 20
290.4810580643658
 30
0.0
 11
-29.99984502671111
 21
296.9810244868198
 31
0.0
  0
LINE
  5
9950
330
1E
100
AcDbEntity
  8
12
100
AcDbLine
 10
-15.49991993046727
 20
270.9811587970035
 30
0.0
 11
-19.49989926736225
 21
270.9811587970035
 31
0.0
  0
LINE
  5
9951
330
1E
100
AcDbEntity
  8
12
100
AcDbLine
 10
19.49989926736225
 20
262.9812001232139
 30
0.0
 11
19.49989926736225
 21
270.9811587970035
 31
0.0
  0
LINE
  5
9952
330
1E
100
AcDbEntity
  8
21
100
AcDbLine
 10
44.99976754006673
 20
262.9812001232139
 30
0.0
 11
44.99976754006673
 21
290.4810580643658
 31
0.0
  0
LINE
  5
9953
330
1E
100
AcDbEntity
  8
21
100
AcDbLine
 10
24.99987085559268
 20
262.9812001232139
 30
0.0
 11
24.99987085559268
 21
290.4810580643658
 31
0.0
  0
LINE
  5
9954
330
1E
100
AcDbEntity
  8
12
100
AcDbLine
 10
15.49991993046727
 20
262.9812001232139
 30
0.0
 11
15.49991993046727
 21
270.9811587970035
 31
0.0
  0
LINE
  5
9955
330
1E
100
AcDbEntity
  8
12
100
AcDbLine
 10
19.49989926736225
 20
270.9811587970035
 30
0.0
 11
15.49991993046727
 21
270.9811587970035
 31
0.0
  0
LINE
  5
9956
330
1E
100
AcDbEntity
  8
21
100
AcDbLine
 10
44.99976754006673
 20
290.4810580643658
 30
0.0
 11
24.99987085559268
 21
290.4810580643658
 31
0.0
  0
LINE
  5
9957
330
1E
100
AcDbEntity
  8
21
100
AcDbLine
 10
29.99984502671111
 20
296.9810244868198
 30
0.0
 11
31.99983469515859
 21
296.9810244868198
 31
0.0
  0
LINE
  5
9958
330
1E
100
AcDbEntity
  8
21
100
AcDbLine
 10
29.99984502671111
 20
290.4810580643658
 30
0.0
 11
29.99984502671111
 21
296.9810244868198
 31
0.0
  0
LINE
  5
9959
330
1E
100
AcDbEntity
  8
21
100
AcDbLine
 10
37.99980370050071
 20
296.9810244868198
 30
0.0
 11
39.99979336894819
 21
296.9810244868198
 31
0.0
  0
LINE
  5
995A
330
1E
100
AcDbEntity
  8
21
100
AcDbLine
 10
39.99979336894819
 20
290.4810580643658
 30
0.0
 11
39.99979336894819
 21
296.9810244868198
 31
0.0
  0
LINE
  5
995B
330
1E
100
AcDbEntity
  8
10
100
AcDbLine
 10
10.99994317646064
 20
186.9815927222126
 30
0.0
 11
-10.99994317646076
 21
186.9815927222126
 31
0.0
  0
LINE
  5
995C
330
1E
100
AcDbEntity
  8
10
100
AcDbLine
 10
-6.999963839566021
 20
174.986400887415
 30
0.0
 11
6.999963839566021
 21
174.986400887415
 31
0.0
  0
LINE
  5
995D
330
1E
100
AcDbEntity
  8
10
100
AcDbLine
 10
-48.99974687696147
 20
190.9815720591074
 30
0.0
 11
-48.99974687696147
 21
194.9815513960022
 31
0.0
  0
LINE
  5
995E
330
1E
100
AcDbEntity
  8
10
100
AcDbLine
 10
-6.999963839566021
 20
186.9815927222126
 30
0.0
 11
-6.999963839566021
 21
174.986400887415
 31
0.0
  0
LINE
  5
995F
330
1E
100
AcDbEntity
  8
10
100
AcDbLine
 10
-10.99994317646076
 20
186.9815927222128
 30
0.0
 11
-10.99994317646076
 21
190.9815720591074
 31
0.0
  0
LINE
  5
9960
330
1E
100
AcDbEntity
  8
10
100
AcDbLine
 10
6.999963839566021
 20
186.9815927222126
 30
0.0
 11
6.999963839566021
 21
174.986400887415
 31
0.0
  0
LINE
  5
9961
330
1E
100
AcDbEntity
  8
10
100
AcDbLine
 10
10.99994317646064
 20
186.9815927222128
 30
0.0
 11
10.99994317646064
 21
190.9815720591074
 31
0.0
  0
LINE
  5
9964
330
1E
100
AcDbEntity
  8
10
100
AcDbLine
 10
52.49972879674442
 20
262.9812001232139
 30
0.0
 11
52.49972879674442
 21
194.9815513960022
 31
0.0
  0
LINE
  5
9966
330
1E
100
AcDbEntity
  8
18
100
AcDbLine
 10
81.52171614819247
 20
262.9812001232139
 30
0.0
 11
52.49972879674442
 21
262.9812001232139
 31
0.0
  0
LINE
  5
9968
330
1E
100
AcDbEntity
  8
10
100
AcDbLine
 10
48.99974687696135
 20
190.9815720591074
 30
0.0
 11
48.99974687696135
 21
194.9815513960022
 31
0.0
  0
LINE
  5
9C0A
330
1E
100
AcDbEntity
  8
10
100
AcDbLine
 10
272.786898488759
 20
82.49957382345536
 30
0.0
 11
272.786898488759
 21
-82.4995738234554
 31
0.0
  0
LINE
  5
9C0B
330
1E
100
AcDbEntity
  8
10
100
AcDbLine
 10
204.7872497615473
 20
50.99973654540878
 30
0.0
 11
204.7872497615473
 21
-50.99973654540878
 31
0.0
  0
LINE
  5
9C0C
330
1E
100
AcDbEntity
  8
18
100
AcDbLine
 10
275.9868819582748
 20
112.4994188501662
 30
0.0
 11
275.9868819582748
 21
-112.4994188501663
 31
0.0
  0
INSERT
  5
9C0D
330
1E
100
AcDbEntity
  8
0
100
AcDbBlockReference
  2
*U6
 10
-305.3381054619927
 20
-271.6604046649225
 30
0.0
 41
2.499987085559268
 42
2.49998708555924
 43
2.499987085559252
  0
DIMENSION
  5
9C10
330
1E
100
AcDbEntity
  8
30
100
AcDbDimension
  2
*D7
 10
272.786898488759
 20
-137.0755454950737
 30
0.0
 11
236.7870844567057
 21
-134.0755454950737
 31
0.0
 70
    32
 71
     5
 42
-1.0
  3
STANDARD
100
AcDbAlignedDimension
 13
200.7872704246524
 23
-24.99987085559253
 33
0.0
 14
272.786898488759
 24
-82.4995738234554
 34
0.0
 50
180.0
100
AcDbRotatedDimension
  0
DIMENSION
  5
9C11
330
1E
100
AcDbEntity
  8
30
100
AcDbDimension
  2
*D8
 10
200.7872704246524
 20
-137.0755454950737
 30
0.0
 11
207.1206037579857
 21
-134.0755454950737
 31
0.0
 70
    32
 71
     5
 42
-1.0
  3
STANDARD
100
AcDbAlignedDimension
 13
196.7872910877574
 23
-24.99987085559253
 33
0.0
 14
200.7872704246524
 24
-24.99987085559253
 34
0.0
 50
180.0
100
AcDbRotatedDimension
  0
DIMENSION
  5
9C12
330
1E
100
AcDbEntity
  8
30
100
AcDbDimension
  2
*D9
 10
272.786898488759
 20
-152.3998277705197
 30
0.0
 11
226.7871361144687
 21
-149.3998277705196
 31
0.0
 70
    32
 71
     5
 42
-1.0
  3
STANDARD
100
AcDbAlignedDimension
 13
180.7873737401784
 23
-2.499987102059208
 33
0.0
 14
272.786898488759
 24
-82.4995738234554
 34
0.0
 50
180.0
100
AcDbRotatedDimension
  0
LINE
  5
9C13
330
1E
100
AcDbEntity
  8
10
100
AcDbLine
 10
211.7872136011131
 20
-82.4995738234554
 30
0.0
 11
272.786898488759
 21
-82.4995738234554
 31
0.0
  0
DIMENSION
  5
9C14
330
1E
100
AcDbEntity
  8
30
100
AcDbDimension
  2
*D10
 10
272.786898488759
 20
-120.223539771964
 30
0.0
 11
238.7870741251532
 21
-117.223539771964
 31
0.0
 70
    32
 71
     5
 42
-1.0
  3
STANDARD
100
AcDbAlignedDimension
 13
204.7872497615473
 23
-50.99973654540878
 33
0.0
 14
272.786898488759
 24
-82.4995738234554
 34
0.0
 50
180.0
100
AcDbRotatedDimension
  0
DIMENSION
  5
9C15
330
1E
100
AcDbEntity
  8
30
100
AcDbDimension
  2
*D11
 10
272.786898488759
 20
-105.4084993202337
 30
0.0
 11
242.2870560449359
 21
-102.4084993202337
 31
0.0
 70
    32
 71
     5
 42
-1.0
  3
STANDARD
100
AcDbAlignedDimension
 13
211.7872136011131
 23
-82.4995738234554
 33
0.0
 14
272.786898488759
 24
-82.4995738234554
 34
0.0
 50
180.0
100
AcDbRotatedDimension
  0
LINE
  5
9C16
330
1E
100
AcDbEntity
  8
10
100
AcDbLine
 10
204.7872497615473
 20
-50.99973654540878
 30
0.0
 11
211.7872136011131
 21
-50.99973654540878
 31
0.0
  0
LINE
  5
9C17
330
1E
100
AcDbEntity
  8
10
100
AcDbLine
 10
211.7872136011131
 20
-50.99973654540878
 30
0.0
 11
211.7872136011131
 21
-82.4995738234554
 31
0.0
  0
LINE
  5
9C18
330
1E
100
AcDbEntity
  8
0
100
AcDbLine
 10
343.8309401445848
 20
-81.99957640634359
 30
0.0
 11
376.1068728338158
 21
-81.99957640634359
 31
0.0
  0
LINE
  5
9C19
330
1E
100
AcDbEntity
  8
0
100
AcDbLine
 10
343.8309401445848
 20
-61.99967972186954
 30
0.0
 11
376.1068728338158
 21
-61.99967972186954
 31
0.0
  0
LINE
  5
9C1A
330
1E
100
AcDbEntity
  8
0
100
AcDbLine
 10
267.7869243176404
 20
-71.99962806410656
 30
0.0
 11
389.2862966758203
 21
-71.99962806410656
 31
0.0
  0
DIMENSION
  5
9C1B
330
1E
100
AcDbEntity
  8
30
100
AcDbDimension
  2
*D12
 10
378.7863509164714
 20
-120.223539771964
 30
0.0
 11
325.7866247026151
 21
-117.223539771964
 31
0.0
 70
    32
 71
     5
 42
-1.0
  3
STANDARD
100
AcDbAlignedDimension
 13
272.786898488759
 23
-82.4995738234554
 33
0.0
 14
378.7863509164714
 24
-71.99962806410656
 34
0.0
 50
180.0
100
AcDbRotatedDimension
  0
DIMENSION
  5
9C1C
330
1E
100
AcDbEntity
  8
30
100
AcDbDimension
  2
*D13
 10
378.7863509164714
 20
-95.68587305869355
 30
0.0
 11
371.2863896597935
 21
-92.68587305869358
 31
0.0
 70
    32
 71
     5
 42
-1.0
  3
STANDARD
100
AcDbAlignedDimension
 13
363.7864284031159
 23
-74.49961516616571
 33
0.0
 14
378.7863509164714
 24
-82.30733891656379
 34
0.0
 50
180.0
100
AcDbRotatedDimension
  0
DIMENSION
  5
9C1D
330
1E
100
AcDbEntity
  8
30
100
AcDbDimension
  2
*D14
 10
343.7865317186417
 20
-105.4084993202337
 30
0.0
 11
308.2867151037003
 21
-102.4084993202337
 31
0.0
 70
    32
 71
     5
 42
-1.0
  3
STANDARD
100
AcDbAlignedDimension
 13
272.786898488759
 23
-82.4995738234554
 33
0.0
 14
343.7865317186417
 24
-71.99962806410656
 34
0.0
 50
180.0
100
AcDbRotatedDimension
  0
LINE
  5
9C1E
330
1E
100
AcDbEntity
  8
0
100
AcDbLine
 10
272.786898488759
 20
-61.99967972186954
 30
0.0
 11
341.1070536359864
 21
-61.99967972186954
 31
0.0
  0
LINE
  5
9C1F
330
1E
100
AcDbEntity
  8
0
100
AcDbLine
 10
272.786898488759
 20
-81.99957640634359
 30
0.0
 11
341.1070536359864
 21
-81.99957640634359
 31
0.0
  0
LINE
  5
9C21
330
1E
100
AcDbEntity
  8
0
100
AcDbLine
 10
272.786898488759
 20
-82.4995738234554
 30
0.0
 11
272.786898488759
 21
-112.4994188501663
 31
0.0
  0
LINE
  5
9C23
330
1E
100
AcDbEntity
  8
0
100
AcDbLine
 10
300.2867564299108
 20
-61.99967972186954
 30
0.0
 11
300.2867564299108
 21
-81.99957640634359
 31
0.0
  0
ARC
  5
9C24
330
1E
100
AcDbEntity
  8
0
100
AcDbCircle
 10
-326.1515395485738
 20
-71.99962806410656
 30
0.0
 40
19.99989668447403
210
0.0
220
0.0
230
-1.0
100
AcDbArc
 50
14.47751218593018
 51
30.00000000000095
  0
LINE
  5
9C25
330
1E
100
AcDbEntity
  8
0
100
AcDbLine
 10
300.2867564299108
 20
-66.99965389298808
 30
0.0
 11
306.7867228523648
 21
-66.99965389298808
 31
0.0
  0
LINE
  5
9C26
330
1E
100
AcDbEntity
  8
0
100
AcDbLine
 10
300.2867564299108
 20
-76.99960223522508
 30
0.0
 11
306.7867228523648
 21
-76.99960223522508
 31
0.0
  0
ARC
  5
9C27
330
1E
100
AcDbEntity
  8
0
100
AcDbCircle
 10
-326.1515395485738
 20
-71.99962806410656
 30
0.0
 40
19.99989668447403
210
0.0
220
0.0
230
-1.0
100
AcDbArc
 50
329.999999999999
 51
345.5224878140697
  0
LINE
  5
9C28
330
1E
100
AcDbEntity
  8
17
100
AcDbLine
 10
328.7866092052863
 20
-58.99969521919842
 30
0.0
 11
328.7866092052863
 21
-84.99956090901465
 31
0.0
  0
LINE
  5
9C29
330
1E
100
AcDbEntity
  8
17
100
AcDbLine
 10
363.7864284031159
 20
-58.99969521919842
 30
0.0
 11
363.7864284031159
 21
-84.99956090901465
 31
0.0
  0
DIMENSION
  5
9C2A
330
1E
100
AcDbEntity
  8
30
100
AcDbDimension
  2
*D15
 10
343.7865317186417
 20
-95.68587305869355
 30
0.0
 11
336.286570461964
 21
-92.68587305869358
 31
0.0
 70
    32
 71
     5
 42
-1.0
  3
STANDARD
100
AcDbAlignedDimension
 13
328.7866092052863
 23
-74.49961516616571
 33
0.0
 14
343.7865317186417
 24
-82.30733891656379
 34
0.0
 50
180.0
100
AcDbRotatedDimension
  0
ARC
  5
9C2B
330
1E
100
AcDbEntity
  8
0
100
AcDbCircle
 10
323.7866350341678
 20
-71.99962806410656
 30
0.0
 40
19.99989668447403
100
AcDbArc
 50
329.999999999999
 51
30.00000000000095
  0
ARC
  5
9C2C
330
1E
100
AcDbEntity
  8
0
100
AcDbCircle
 10
-361.1513587464035
 20
-71.99962806410656
 30
0.0
 40
19.99989668447403
210
0.0
220
0.0
230
-1.0
100
AcDbArc
 50
20.91309481829409
 51
30.00000000000095
  0
ARC
  5
9C2D
330
1E
100
AcDbEntity
  8
0
100
AcDbCircle
 10
-361.1513587464035
 20
-71.99962806410656
 30
0.0
 40
19.99989668447403
210
0.0
220
0.0
230
-1.0
100
AcDbArc
 50
329.999999999999
 51
339.0869051817058
  0
CIRCLE
  5
9C2E
330
1E
100
AcDbEntity
  8
0
100
AcDbCircle
 10
328.7866092052863
 20
-71.99962806410656
 30
0.0
 40
4.499976754006658
  0
CIRCLE
  5
9C2F
330
1E
100
AcDbEntity
  8
0
100
AcDbCircle
 10
363.7864284031159
 20
-71.99962806410656
 30
0.0
 40
4.499976754006658
  0
ARC
  5
9C34
330
1E
100
AcDbEntity
  8
0
100
AcDbCircle
 10
358.7864542319973
 20
-71.99962806410656
 30
0.0
 40
19.99989668447403
100
AcDbArc
 50
329.999999999999
 51
30.00000000000095
  0
LINE
  5
9C35
330
1E
100
AcDbEntity
  8
10
100
AcDbLine
 10
272.786898488759
 20
82.49957382345536
 30
0.0
 11
211.7872136011131
 21
82.49957382345536
 31
0.0
  0
LINE
  5
9C37
330
1E
100
AcDbEntity
  8
10
100
AcDbLine
 10
196.7872910877574
 20
24.99987085559252
 30
0.0
 11
196.7872910877574
 21
-24.99987085559256
 31
0.0
  0
LINE
  5
9C38
330
1E
100
AcDbEntity
  8
10
100
AcDbLine
 10
200.7872704246524
 20
24.99987085559252
 30
0.0
 11
200.7872704246524
 21
-24.99987085559256
 31
0.0
  0
LINE
  5
9C3B
330
1E
100
AcDbEntity
  8
10
100
AcDbLine
 10
196.7872910877574
 20
-24.99987085559256
 30
0.0
 11
204.7872497615473
 21
-24.99987085559256
 31
0.0
  0
ARC
  5
9C3C
330
1E
100
AcDbEntity
  8
30
100
AcDbCircle
 10
211.7872136011131
 20
0.0
 30
0.0
 40
30.99983986093475
100
AcDbArc
 50
150.5534441956586
 51
180.0
  0
LINE
  5
9C3E
330
1E
100
AcDbEntity
  8
10
100
AcDbLine
 10
196.7872910877574
 20
6.840753968873968
 30
0.0
 11
184.7920992529602
 21
15.23987771387089
 31
0.0
  0
LINE
  5
9C3F
330
1E
100
AcDbEntity
  8
10
100
AcDbLine
 10
196.7872910877574
 20
14.16536366395211
 30
0.0
 11
188.2335400932609
 21
20.15476459026751
 31
0.0
  0
LINE
  5
9C40
330
1E
100
AcDbEntity
  8
10
100
AcDbLine
 10
184.7920992529602
 20
15.23987771387089
 30
0.0
 11
188.2335400932609
 21
20.15476459026751
 31
0.0
  0
LINE
  5
9C41
330
1E
100
AcDbEntity
  8
10
100
AcDbLine
 10
196.7872910877574
 20
24.99987085559252
 30
0.0
 11
204.7872497615473
 21
24.99987085559252
 31
0.0
  0
LINE
  5
9C42
330
1E
100
AcDbEntity
  8
10
100
AcDbLine
 10
204.7872497615473
 20
50.99973654540878
 30
0.0
 11
211.7872136011131
 21
50.99973654540878
 31
0.0
  0
LINE
  5
9C43
330
1E
100
AcDbEntity
  8
10
100
AcDbLine
 10
211.7872136011131
 20
82.49957382345536
 30
0.0
 11
211.7872136011131
 21
50.99973654540878
 31
0.0
  0
LINE
  5
9C44
330
1E
100
AcDbEntity
  8
18
100
AcDbLine
 10
272.786898488759
 20
82.49957382345536
 30
0.0
 11
272.786898488759
 21
112.4994188501663
 31
0.0
  0
LINE
  5
9C47
330
1E
100
AcDbEntity
  8
0
100
AcDbLine
 10
341.7868984887589
 20
68.99964356143539
 30
0.0
 11
378.786898488759
 21
68.99964356143539
 31
0.0
  0
LINE
  5
9C48
330
1E
100
AcDbEntity
  8
0
100
AcDbLine
 10
341.7868984887589
 20
74.99961256677761
 30
0.0
 11
378.786898488759
 21
74.99961256677761
 31
0.0
  0
LINE
  5
9C49
330
1E
100
AcDbEntity
  8
0
100
AcDbLine
 10
267.7869243176405
 20
71.99962806410656
 30
0.0
 11
383.7868726598773
 21
71.99962806410656
 31
0.0
  0
LINE
  5
9C4B
330
1E
100
AcDbEntity
  8
0
100
AcDbLine
 10
272.786898488759
 20
81.99957640634357
 30
0.0
 11
335.286898488759
 21
81.99957640634357
 31
0.0
  0
LINE
  5
9C4C
330
1E
100
AcDbEntity
  8
0
100
AcDbLine
 10
272.786898488759
 20
61.99967972186954
 30
0.0
 11
335.286898488759
 21
61.99967972186954
 31
0.0
  0
LINE
  5
9C4D
330
1E
100
AcDbEntity
  8
0
100
AcDbLine
 10
306.7867228523648
 20
74.99961256677761
 30
0.0
 11
343.7865652961876
 21
74.99961256677761
 31
0.0
  0
LINE
  5
9C4E
330
1E
100
AcDbEntity
  8
0
100
AcDbLine
 10
306.7867228523648
 20
68.99964356143539
 30
0.0
 11
343.7865652961876
 21
68.99964356143539
 31
0.0
  0
LINE
  5
9C4F
330
1E
100
AcDbEntity
  8
0
100
AcDbLine
 10
300.2867564299108
 20
81.99957640634357
 30
0.0
 11
300.2867564299108
 21
61.99967972186954
 31
0.0
  0
LINE
  5
9C50
330
1E
100
AcDbEntity
  8
0
100
AcDbLine
 10
300.2867564299108
 20
66.99965389298802
 30
0.0
 11
306.7867228523648
 21
66.99965389298802
 31
0.0
  0
LINE
  5
9C51
330
1E
100
AcDbEntity
  8
0
100
AcDbLine
 10
306.7867228523648
 20
68.99964356143539
 30
0.0
 11
306.7867228523648
 21
66.99965389298802
 31
0.0
  0
LINE
  5
9C52
330
1E
100
AcDbEntity
  8
0
100
AcDbLine
 10
300.2867564299108
 20
76.99960223522507
 30
0.0
 11
306.7867228523648
 21
76.99960223522507
 31
0.0
  0
LINE
  5
9C53
330
1E
100
AcDbEntity
  8
0
100
AcDbLine
 10
306.7867228523648
 20
76.99960223522507
 30
0.0
 11
306.7867228523648
 21
74.99961256677761
 31
0.0
  0
LINE
  5
9C54
330
1E
100
AcDbEntity
  8
17
100
AcDbLine
 10
328.7866092052863
 20
84.99956090901461
 30
0.0
 11
328.7866092052863
 21
58.99969521919837
 31
0.0
  0
LINE
  5
9C55
330
1E
100
AcDbEntity
  8
17
100
AcDbLine
 10
363.786898488759
 20
84.99956090901461
 30
0.0
 11
363.786898488759
 21
58.99969521919837
 31
0.0
  0
LINE
  5
9C56
330
1E
100
AcDbEntity
  8
0
100
AcDbLine
 10
343.7865652961876
 20
68.99964356143539
 30
0.0
 11
343.7865652961876
 21
74.99961256677761
 31
0.0
  0
LINE
  5
9C57
330
1E
100
AcDbEntity
  8
0
100
AcDbLine
 10
335.286898488759
 20
66.99965389298802
 30
0.0
 11
341.786898488759
 21
66.99965389298802
 31
0.0
  0
LINE
  5
9C58
330
1E
100
AcDbEntity
  8
0
100
AcDbLine
 10
335.286898488759
 20
68.99964356143539
 30
0.0
 11
335.286898488759
 21
61.99967972186954
 31
0.0
  0
LINE
  5
9C59
330
1E
100
AcDbEntity
  8
0
100
AcDbLine
 10
341.786898488759
 20
68.99964356143539
 30
0.0
 11
341.786898488759
 21
66.99965389298802
 31
0.0
  0
LINE
  5
9C5A
330
1E
100
AcDbEntity
  8
0
100
AcDbLine
 10
335.286898488759
 20
76.99960223522507
 30
0.0
 11
341.786898488759
 21
76.99960223522507
 31
0.0
  0
LINE
  5
9C5B
330
1E
100
AcDbEntity
  8
0
100
AcDbLine
 10
335.286898488759
 20
81.99957640634357
 30
0.0
 11
335.286898488759
 21
74.99961256677761
 31
0.0
  0
LINE
  5
9C5C
330
1E
100
AcDbEntity
  8
0
100
AcDbLine
 10
341.786898488759
 20
76.99960223522507
 30
0.0
 11
341.786898488759
 21
74.99961256677761
 31
0.0
  0
LINE
  5
9C5D
330
1E
100
AcDbEntity
  8
0
100
AcDbLine
 10
378.786898488759
 20
68.99964356143539
 30
0.0
 11
378.786898488759
 21
74.99961256677761
 31
0.0
  0
DIMENSION
  5
9C5E
330
1E
100
AcDbEntity
  8
30
100
AcDbDimension
  2
*D16
 10
414.0331784124326
 20
74.99961256677761
 30
0.0
 11
411.0331784124325
 21
71.99962806410656
 31
0.0
 70
    32
 71
     5
 42
5.999969005342222
  3
STANDARD
100
AcDbAlignedDimension
 13
378.786898488759
 23
68.99964356143539
 33
0.0
 14
378.786898488759
 24
74.99961256677761
 34
0.0
 50
270.0
100
AcDbRotatedDimension
1001
ACAD
1000
DSTYLE
1002
{
1070
   340
1005
11
1002
}
  0
LINE
  5
9E14
330
1E
100
AcDbEntity
  8
18
 48
2.0
100
AcDbLine
 10
-52.4997287967443
 20
-152.5004261765445
 30
0.0
 11
-52.4997287967443
 21
-317.4995738234553
 31
0.0
  0
LINE
  5
9E15
330
1E
100
AcDbEntity
  8
18
 48
2.0
100
AcDbLine
 10
52.49954799457396
 20
-152.5004261765445
 30
0.0
 11
52.49954799457396
 21
-317.4995738234553
 31
0.0
  0
DIMENSION
  5
9E17
330
1E
100
AcDbEntity
  8
30
100
AcDbDimension
  2
*D17
 10
65.07798823329972
 20
-172.0003254439068
 30
0.0
 11
62.07798823329975
 21
-234.9999999999999
 31
0.0
 70
    32
 71
     5
 42
-1.0
  3
STANDARD
100
AcDbAlignedDimension
 13
19.99989670097397
 23
-297.9996745560931
 33
0.0
 14
19.99989670097397
 24
-172.0003254439066
 34
0.0
 50
270.0
100
AcDbRotatedDimension
  0
DIMENSION
  5
9E18
330
1E
100
AcDbEntity
  8
30
100
AcDbDimension
  2
*D18
 10
75.51405496557006
 20
-163.0003719358934
 30
0.0
 11
72.51405496557005
 21
-235.0
 31
0.0
 70
    32
 71
     5
 42
-1.0
  3
STANDARD
100
AcDbAlignedDimension
 13
37.49962549771817
 23
-306.9996280641065
 33
0.0
 14
37.49962549771817
 24
-163.0003719358934
 34
0.0
 50
270.0
100
AcDbRotatedDimension
  0
LINE
  5
9E19
330
1E
100
AcDbEntity
  8
18
 48
2.0
100
AcDbLine
 10
-52.4997287967443
 20
-317.4995738234553
 30
0.0
 11
52.49954799457396
 21
-317.4995738234553
 31
0.0
  0
LINE
  5
9E1A
330
1E
100
AcDbEntity
  8
22
100
AcDbLine
 10
-51.99973137963239
 20
-306.9996280641065
 30
0.0
 11
51.99955057746206
 21
-306.9996280641065
 31
0.0
  0
CIRCLE
  5
9E1B
330
1E
100
AcDbEntity
  8
22
100
AcDbCircle
 10
-34.99981919782953
 20
-306.9996280641065
 30
0.0
 40
11.99993801068442
210
0.0
220
0.0
230
-1.0
  0
DIMENSION
  5
9E1D
330
1E
100
AcDbEntity
  8
30
100
AcDbDimension
  2
*D19
 10
34.99981919782953
 20
-350.2250062623431
 30
0.0
 11
17.49990959891476
 21
-347.2250062623432
 31
0.0
 70
    32
 71
     5
 42
-1.0
  3
STANDARD
100
AcDbAlignedDimension
 13
0.0
 23
-309.4996151661657
 33
0.0
 14
34.99981919782953
 24
-306.9996280641065
 34
0.0
 50
180.0
100
AcDbRotatedDimension
  0
DIMENSION
  5
9E1E
330
1E
100
AcDbEntity
  8
30
100
AcDbDimension
  2
*D20
 10
-0.0000000000000002
 20
-349.7250062623431
 30
0.0
 11
-17.49990959891476
 21
-346.7250062623431
 31
0.0
 70
    32
 71
     5
 42
-1.0
  3
STANDARD
100
AcDbAlignedDimension
 13
-34.99981919782953
 23
-309.4996151661657
 33
0.0
 14
0.0
 24
-346.9994214330546
 34
0.0
 50
180.0
100
AcDbRotatedDimension
  0
CIRCLE
  5
9E1F
330
1E
100
AcDbEntity
  8
22
100
AcDbCircle
 10
34.99981919782953
 20
-306.9996280641065
 30
0.0
 40
11.99993801068442
210
0.0
220
0.0
230
-1.0
  0
LINE
  5
9E20
330
1E
100
AcDbEntity
  8
22
100
AcDbLine
 10
-34.99981919782953
 20
-289.9997158823035
 30
0.0
 11
-34.99981919782953
 21
-323.9995402459094
 31
0.0
  0
DIMENSION
  5
9E21
330
1E
100
AcDbEntity
  8
30
100
AcDbDimension
  2
*D21
 10
17.49990959891488
 20
-330.6448422481143
 30
0.0
 11
0.0000000000000499
 21
-327.6448422481144
 31
0.0
 70
    32
 71
     5
 42
-1.0
  3
STANDARD
100
AcDbAlignedDimension
 13
-17.49990959891476
 23
-177.500297032137
 33
0.0
 14
17.49990959891488
 24
-300.4996616581523
 34
0.0
 50
180.0
100
AcDbRotatedDimension
  0
CIRCLE
  5
9E22
330
1E
100
AcDbEntity
  8
22
100
AcDbCircle
 10
0.0
 20
-306.9996280641065
 30
0.0
 40
11.99993801068442
210
0.0
220
0.0
230
-1.0
  0
LINE
  5
9E26
330
1E
100
AcDbEntity
  8
12
100
AcDbLine
 10
17.49990959891488
 20
-303.4996461443236
 30
0.0
 11
17.49990959891488
 21
-292.4997029678627
 31
0.0
  0
CIRCLE
  5
9E27
330
1E
100
AcDbEntity
  8
12
100
AcDbCircle
 10
17.49990959891488
 20
-297.9996745560931
 30
0.0
 40
1.999989668447403
  0
LINE
  5
9E28
330
1E
100
AcDbEntity
  8
12
100
AcDbLine
 10
11.99993801068444
 20
-297.9996745560931
 30
0.0
 11
22.99988118714531
 21
-297.9996745560931
 31
0.0
  0
LINE
  5
9E2D
330
1E
100
AcDbEntity
  8
22
100
AcDbLine
 10
34.99981919782953
 20
-289.9997158823035
 30
0.0
 11
34.99981919782953
 21
-323.9995402459094
 31
0.0
  0
LINE
  5
9E32
330
1E
100
AcDbEntity
  8
18
 48
2.0
100
AcDbLine
 10
52.49954799457396
 20
-152.5004261765445
 30
0.0
 11
-52.4997287967443
 21
-152.5004261765445
 31
0.0
  0
LINE
  5
9E33
330
1E
100
AcDbEntity
  8
22
100
AcDbLine
 10
-51.99973137963239
 20
-163.0003719358934
 30
0.0
 11
51.99955057746206
 21
-163.0003719358934
 31
0.0
  0
CIRCLE
  5
9E34
330
1E
100
AcDbEntity
  8
22
100
AcDbCircle
 10
34.99981919782953
 20
-163.0003719358934
 30
0.0
 40
11.99993801068442
  0
CIRCLE
  5
9E36
330
1E
100
AcDbEntity
  8
22
100
AcDbCircle
 10
-34.99981919782953
 20
-163.0003719358934
 30
0.0
 40
11.99993801068442
  0
LINE
  5
9E37
330
1E
100
AcDbEntity
  8
22
100
AcDbLine
 10
-34.99981919782953
 20
-146.0004597540905
 30
0.0
 11
-34.99981919782953
 21
-180.0002841176964
 31
0.0
  0
CIRCLE
  5
9E38
330
1E
100
AcDbEntity
  8
22
100
AcDbCircle
 10
0.0
 20
-163.0003719358934
 30
0.0
 40
11.99993801068442
  0
LINE
  5
9E39
330
1E
100
AcDbEntity
  8
12
100
AcDbLine
 10
-22.99988118714507
 20
-172.0003254439066
 30
0.0
 11
-11.99993801068444
 21
-172.0003254439066
 31
0.0
  0
LINE
  5
9E3A
330
1E
100
AcDbEntity
  8
12
100
AcDbLine
 10
-17.49990959891476
 20
-166.5003538556764
 30
0.0
 11
-17.49990959891476
 21
-177.500297032137
 31
0.0
  0
CIRCLE
  5
9E3B
330
1E
100
AcDbEntity
  8
12
100
AcDbCircle
 10
-17.49990959891476
 20
-172.0003254439066
 30
0.0
 40
1.999989668447403
  0
LINE
  5
9E3C
330
1E
100
AcDbEntity
  8
12
100
AcDbLine
 10
11.99993801068444
 20
-172.0003254439066
 30
0.0
 11
22.99988118714531
 21
-172.0003254439066
 31
0.0
  0
LINE
  5
9E43
330
1E
100
AcDbEntity
  8
22
100
AcDbLine
 10
34.99981919782953
 20
-146.0004597540905
 30
0.0
 11
34.99981919782953
 21
-180.0002841176964
 31
0.0
  0
DIMENSION
  5
9EEE
330
1E
100
AcDbEntity
  8
30
100
AcDbDimension
  2
*D22
 10
-65.33335521408208
 20
-24.99987085559256
 30
0.0
 11
-68.33335521408208
 21
-0.0000000000000347
 31
0.0
 70
    32
 71
     5
 42
-1.0
  3
STANDARD
100
AcDbAlignedDimension
 13
-48.99974687696135
 23
24.99987085559252
 33
0.0
 14
-48.99974687696135
 24
-24.99987085559256
 34
0.0
 50
90.0
100
AcDbRotatedDimension
  0
LEADER
  5
9F70
330
1E
100
AcDbEntity
  8
30
100
AcDbLeader
  3
STANDARD
 76
     3
 10
-38.13200454139678
 20
-313.9567880945508
 30
0.0
 10
-43.5799719983911
 20
-325.238401394519
 30
0.0
 10
-63.24580129463493
 20
-325.238401394519
 30
0.0
1001
ACAD
1000
DSTYLE
1002
{
1070
     5
1000
OPEN
1070
    77
1070
     0
1070
    79
1070
     3
1070
   147
1040
1.0
1002
}
  0
TEXT
  5
9F71
330
1E
100
AcDbEntity
  8
30
100
AcDbText
 10
-58.99372724998238
 20
-324.176602227147
 30
0.0
 40
5.0
  1
%%c24
  7
STANDARD1
100
AcDbText
  0
DIMENSION
  5
A006
330
1E
100
AcDbEntity
  8
30
100
AcDbDimension
  2
*D23
 10
328.78660920529
 20
-45.54888516066738
 30
0.0
 11
317.7866660288291
 21
-42.54888516066738
 31
0.0
 70
    32
 71
     5
 42
-1.0
  3
STANDARD
100
AcDbAlignedDimension
 13
306.7867228523683
 23
-61.99967972186954
 33
0.0
 14
328.78660920529
 24
-67.49965131009992
 34
0.0
100
AcDbRotatedDimension
  0
DIMENSION
  5
A013
330
1E
100
AcDbEntity
  8
30
100
AcDbDimension
  2
*D24
 10
425.7555246093359
 20
-71.99962806410768
 30
0.0
 11
422.755524609336
 21
-0.000000000001461
 31
0.0
 70
    32
 71
     5
 42
-1.0
  3
STANDARD
100
AcDbAlignedDimension
 13
402.2407529037673
 23
71.99962806410463
 33
0.0
 14
402.2407529037673
 24
-71.99962806410765
 34
0.0
 50
90.0
100
AcDbRotatedDimension
  0
DIMENSION
  5
A029
330
1E
100
AcDbEntity
  8
30
100
AcDbDimension
  2
*D25
 10
409.4712429321806
 20
-81.99957640634357
 30
0.0
 11
406.4712429321806
 21
-71.99962806410636
 31
0.0
 70
    32
 71
     5
 42
-1.0
  3
STANDARD
100
AcDbAlignedDimension
 13
376.1068728338158
 23
-61.99967972186928
 33
0.0
 14
376.1068728338158
 24
-81.99957640634357
 34
0.0
 50
90.0
100
AcDbRotatedDimension
  0
DIMENSION
  5
A0C7
330
1E
100
AcDbEntity
  8
30
100
AcDbDimension
  2
*D26
 10
0.0000000000000579
 20
379.8746696354486
 30
0.0
 11
-17.49990959891479
 21
382.8746696354486
 31
0.0
 70
    32
 71
     5
 42
34.9998191978297
  3
STANDARD
100
AcDbAlignedDimension
 13
-34.99981919782964
 23
337.4808152728799
 33
0.0
 14
0.0000000000000572
 24
368.9812001232139
 34
0.0
100
AcDbRotatedDimension
  0
DIMENSION
  5
A0D4
330
1E
100
AcDbEntity
  8
30
100
AcDbDimension
  2
*D27
 10
34.99981919782964
 20
379.8746696354486
 30
0.0
 11
17.49990959891485
 21
382.8746696354486
 31
0.0
 70
    32
 71
     5
 42
34.99981919782959
  3
STANDARD
100
AcDbAlignedDimension
 13
0.0000000000000572
 23
368.9812001232139
 33
0.0
 14
34.99981919782964
 24
337.4808152728799
 34
0.0
100
AcDbRotatedDimension
1001
ACAD
1000
DSTYLE
1002
{
1070
   287
1070
     4
1070
   279
1070
     1
1002
}
  0
DIMENSION
  5
A130
330
1E
100
AcDbEntity
  8
30
100
AcDbDimension
  2
*D28
 10
-0.0000000000000011
 20
-95.6144289090057
 30
0.0
 11
-17.49990959891476
 21
-92.61442890900573
 31
0.0
 70
    32
 71
     5
 42
-1.0
  3
STANDARD
100
AcDbAlignedDimension
 13
-34.99981919782956
 23
-78.99959190367248
 33
0.0
 14
0.0
 24
-76.99960223522508
 34
0.0
100
AcDbRotatedDimension
  0
DIMENSION
  5
A13D
330
1E
100
AcDbEntity
  8
30
100
AcDbDimension
  2
*D29
 10
34.99981919782956
 20
-95.6144289090057
 30
0.0
 11
17.49990959891477
 21
-92.61442890900573
 31
0.0
 70
    32
 71
     5
 42
-1.0
  3
STANDARD
100
AcDbAlignedDimension
 13
0.0
 23
-76.99960223522508
 33
0.0
 14
34.99981919782956
 24
-78.99959190367248
 34
0.0
100
AcDbRotatedDimension
1001
ACAD
1000
DSTYLE
1002
{
1070
   287
1070
     4
1070
   279
1070
     1
1002
}
  0
CIRCLE
  5
A1C6
330
1E
100
AcDbEntity
  8
10
  6
CONTINOUS
100
AcDbCircle
 10
31.10000000000002
 20
5.799999999999952
 30
0.0
 40
3.6
  0
CIRCLE
  5
A1C7
330
1E
100
AcDbEntity
  8
10
  6
CONTINOUS
100
AcDbCircle
 10
31.10000000000002
 20
5.799999999999952
 30
0.0
 40
2.6
  0
LINE
  5
A1C8
330
1E
100
AcDbEntity
  8
10
  6
CONTINOUS
100
AcDbLine
 10
36.2
 20
-7.000000000000027
 30
0.0
 11
36.2
 21
-11.00000000000002
 31
0.0
  0
LINE
  5
A1C9
330
1E
100
AcDbEntity
  8
10
  6
CONTINOUS
100
AcDbLine
 10
27.00000000000001
 20
-7.000000000000027
 30
0.0
 11
27.00000000000001
 21
-11.00000000000002
 31
0.0
  0
LINE
  5
A1CA
330
1E
100
AcDbEntity
  8
10
  6
CONTINOUS
100
AcDbLine
 10
27.00000000000001
 20
-11.0
 30
0.0
 11
36.20000000000008
 21
-11.0
 31
0.0
  0
LINE
  5
A1CB
330
1E
100
AcDbEntity
  8
10
  6
CONTINOUS
100
AcDbLine
 10
27.00000000000001
 20
-16.0
 30
0.0
 11
36.20000000000008
 21
-16.0
 31
0.0
  0
LINE
  5
A1CC
330
1E
100
AcDbEntity
  8
10
  6
CONTINOUS
100
AcDbLine
 10
27.00000000000001
 20
-12.0
 30
0.0
 11
36.20000000000008
 21
-12.0
 31
0.0
  0
LINE
  5
A1CD
330
1E
100
AcDbEntity
  8
10
  6
CONTINOUS
100
AcDbLine
 10
27.00000000000001
 20
-12.00000000000001
 30
0.0
 11
27.00000000000001
 21
-16.00000000000003
 31
0.0
  0
LINE
  5
A1CE
330
1E
100
AcDbEntity
  8
10
  6
CONTINOUS
100
AcDbLine
 10
36.2
 20
-12.00000000000001
 30
0.0
 11
36.2
 21
-16.00000000000003
 31
0.0
  0
CIRCLE
  5
A1CF
330
1E
100
AcDbEntity
  8
10
  6
CONTINOUS
100
AcDbCircle
 10
31.10000000000002
 20
-1.900000000000004
 30
0.0
 40
3.6
  0
CIRCLE
  5
A1D0
330
1E
100
AcDbEntity
  8
10
  6
CONTINOUS
100
AcDbCircle
 10
31.10000000000002
 20
-1.900000000000004
 30
0.0
 40
2.6
  0
LINE
  5
A1D1
330
1E
100
AcDbEntity
  8
10
  6
CONTINOUS
100
AcDbLine
 10
27.00000000000001
 20
-7.0
 30
0.0
 11
36.20000000000008
 21
-7.0
 31
0.0
  0
CIRCLE
  5
A1D2
330
1E
100
AcDbEntity
  8
10
  6
CONTINOUS
100
AcDbCircle
 10
31.10000000000002
 20
12.29999999999995
 30
0.0
 40
1.5
  0
LINE
  5
A1D3
330
1E
100
AcDbEntity
  8
18
100
AcDbLine
 10
90.00000000000005
 20
3.5
 30
0.0
 11
105.0
 21
3.5
 31
0.0
  0
LINE
  5
A1D4
330
1E
100
AcDbEntity
  8
18
100
AcDbLine
 10
90.00000000000005
 20
-3.5
 30
0.0
 11
105.0
 21
-3.5
 31
0.0
  0
LINE
  5
A1D5
330
1E
100
AcDbEntity
  8
18
100
AcDbLine
 10
49.00000000000003
 20
3.0
 30
0.0
 11
68.03759425381321
 21
3.0
 31
0.0
  0
LINE
  5
A1D6
330
1E
100
AcDbEntity
  8
18
100
AcDbLine
 10
49.00000000000003
 20
1.0
 30
0.0
 11
68.82452196686751
 21
1.0
 31
0.0
  0
LINE
  5
A1D7
330
1E
100
AcDbEntity
  8
18
100
AcDbLine
 10
49.00000000000003
 20
-1.0
 30
0.0
 11
67.88665256638473
 21
-1.0
 31
0.0
  0
LINE
  5
A1D8
330
1E
100
AcDbEntity
  8
18
100
AcDbLine
 10
49.00000000000003
 20
-3.0
 30
0.0
 11
68.60386098955624
 21
-3.0
 31
0.0
  0
LINE
  5
A1D9
330
1E
100
AcDbEntity
  8
18
100
AcDbLine
 10
72.0375942538132
 20
3.0
 30
0.0
 11
90.00000000000005
 21
3.0
 31
0.0
  0
LINE
  5
A1DA
330
1E
100
AcDbEntity
  8
18
100
AcDbLine
 10
72.82452196686739
 20
1.0
 30
0.0
 11
90.00000000000005
 21
1.0
 31
0.0
  0
LINE
  5
A1DB
330
1E
100
AcDbEntity
  8
18
100
AcDbLine
 10
71.88665256638464
 20
-1.0
 30
0.0
 11
90.00000000000005
 21
-1.0
 31
0.0
  0
LINE
  5
A1DC
330
1E
100
AcDbEntity
  8
18
100
AcDbLine
 10
72.60386098955629
 20
-3.0
 30
0.0
 11
90.00000000000005
 21
-3.0
 31
0.0
  0
LINE
  5
A1DD
330
1E
100
AcDbEntity
  8
18
100
AcDbLine
 10
90.00000000000005
 20
-3.5
 30
0.0
 11
90.00000000000005
 21
3.5
 31
0.0
  0
LINE
  5
A1DE
330
1E
100
AcDbEntity
  8
18
100
AcDbLine
 10
105.0
 20
3.0
 30
0.0
 11
137.5
 21
3.0
 31
0.0
  0
LINE
  5
A1DF
330
1E
100
AcDbEntity
  8
18
100
AcDbLine
 10
105.0
 20
-1.0
 30
0.0
 11
137.5
 21
-1.0
 31
0.0
  0
LINE
  5
A1E0
330
1E
100
AcDbEntity
  8
18
100
AcDbLine
 10
105.0
 20
1.0
 30
0.0
 11
137.5
 21
1.0
 31
0.0
  0
LINE
  5
A1E1
330
1E
100
AcDbEntity
  8
18
100
AcDbLine
 10
105.0
 20
-3.0
 30
0.0
 11
137.5
 21
-3.0
 31
0.0
  0
LINE
  5
A1E2
330
1E
100
AcDbEntity
  8
18
100
AcDbLine
 10
105.0
 20
-3.5
 30
0.0
 11
105.0
 21
3.5
 31
0.0
  0
LINE
  5
A1E3
330
1E
100
AcDbEntity
  8
18
100
AcDbLine
 10
142.5
 20
-2.5
 30
0.0
 11
142.5
 21
-1.5
 31
0.0
  0
LINE
  5
A1E4
330
1E
100
AcDbEntity
  8
18
100
AcDbLine
 10
142.5
 20
1.5
 30
0.0
 11
142.5
 21
2.5
 31
0.0
  0
LINE
  5
A1E5
330
1E
100
AcDbEntity
  8
18
100
AcDbLine
 10
142.5
 20
-0.5
 30
0.0
 11
142.5
 21
0.5
 31
0.0
  0
LINE
  5
A1E6
330
1E
100
AcDbEntity
  8
18
100
AcDbLine
 10
137.5
 20
-3.0
 30
0.0
 11
137.5
 21
-1.0
 31
0.0
  0
LINE
  5
A1E7
330
1E
100
AcDbEntity
  8
18
100
AcDbLine
 10
137.5
 20
1.0
 30
0.0
 11
137.5
 21
3.0
 31
0.0
  0
LINE
  5
A1E8
330
1E
100
AcDbEntity
  8
18
100
AcDbLine
 10
137.5
 20
-1.0
 30
0.0
 11
137.5
 21
1.0
 31
0.0
  0
LINE
  5
A1E9
330
1E
100
AcDbEntity
  8
18
100
AcDbLine
 10
137.5
 20
0.5
 30
0.0
 11
142.5
 21
0.5
 31
0.0
  0
LINE
  5
A1EA
330
1E
100
AcDbEntity
  8
18
100
AcDbLine
 10
137.5
 20
1.5
 30
0.0
 11
142.5
 21
1.5
 31
0.0
  0
LINE
  5
A1EB
330
1E
100
AcDbEntity
  8
18
100
AcDbLine
 10
137.5
 20
-2.5
 30
0.0
 11
142.5
 21
-2.5
 31
0.0
  0
LINE
  5
A1EC
330
1E
100
AcDbEntity
  8
18
100
AcDbLine
 10
137.5
 20
-0.5
 30
0.0
 11
142.5
 21
-0.5
 31
0.0
  0
LINE
  5
A1ED
330
1E
100
AcDbEntity
  8
18
100
AcDbLine
 10
137.5
 20
-1.5
 30
0.0
 11
142.5
 21
-1.5
 31
0.0
  0
LINE
  5
A1EE
330
1E
100
AcDbEntity
  8
18
100
AcDbLine
 10
137.5
 20
2.5
 30
0.0
 11
142.5
 21
2.5
 31
0.0
  0
MTEXT
  5
A327
330
1E
100
AcDbEntity
  8
30
100
AcDbMText
 10
256.3463671110816
 20
262.3894844922874
 30
0.0
 40
5.0
 41
107.4153
 71
     1
 72
     5
  1
ZAE225-NF 3P RC\PZAS225-NF 3P RC\PZAS225-GF 3P RC\PZAE250-NF 3P RC\PZAS250-NF 3P RC\PZAS250-GF 3P RC
  7
STANDARD1
 73
     1
 44
1.0
1001
ACAD
1000
MTEXTBEGIN
1070
    73
1070
     1
1070
    44
1040
1.0
1070
    74
1070
     0
1000
MTEXTEND
  0
VIEWPORT
  5
9AC
102
{ACAD_XDICTIONARY
360
A3D2
102
}
330
1A
100
AcDbEntity
 67
     1
  8
0
  6
Continuous
100
AcDbViewport
 10
171.9995348790992
 20
144.1384735538403
 30
0.0
 40
488.8676857773511
 41
292.3514905034161
 68
     1
 69
     1
 12
171.9995348790992
 22
144.1384735538403
 13
0.0
 23
0.0
 14
10.0
 24
10.0
 15
10.0
 25
10.0
 16
0.0
 26
0.0
 36
1.0
 17
0.0
 27
0.0
 37
0.0
 42
50.0
 43
0.0
 44
0.0
 45
292.3514905034161
 50
0.0
 51
0.0
 72
   100
 90
    32800
  1

281
     0
 71
     1
 74
     0
110
0.0
120
0.0
130
0.0
111
1.0
121
0.0
131
0.0
112
0.0
122
1.0
132
0.0
 79
     0
146
0.0
  0
ENDSEC
  0
SECTION
  2
OBJECTS
  0
DICTIONARY
  5
C
330
0
100
AcDbDictionary
281
     1
  3
ACAD_COLOR
350
A35E
  3
ACAD_GROUP
350
D
  3
ACAD_LAYOUT
350
19
  3
ACAD_MATERIAL
350
A331
  3
ACAD_MLEADERSTYLE
350
A383
  3
ACAD_MLINESTYLE
350
16
  3
ACAD_PLOTSETTINGS
350
18
  3
ACAD_PLOTSTYLENAME
350
E
  3
ACAD_SCALELIST
350
A361
  3
ACAD_TABLESTYLE
350
A35F
  3
ACAD_VISUALSTYLE
350
A34A
  3
ACADDIM
350
92CE
  3
ACDB_RECOMPOSE_DATA
350
A3D0
  3
ACDBVARIABLEDICTIONARY
350
5B5E
  3
ASE_INDEX_DICTIONARY
350
A3C5
  3
DWGPROPS
350
A3D1
  0
DICTIONARY
  5
A3AC
330
10
100
AcDbDictionary
280
     1
281
     1
  3
ADSK_XREC_LAYER_RECONCILED
360
A3AD
  0
DICTIONARY
  5
A3AE
330
2F
100
AcDbDictionary
280
     1
281
     1
  3
ADSK_XREC_LAYER_RECONCILED
360
A3AF
  0
DICTIONARY
  5
A3B0
330
31
100
AcDbDictionary
280
     1
281
     1
  3
ADSK_XREC_LAYER_RECONCILED
360
A3B1
  0
DICTIONARY
  5
A3B2
330
35
100
AcDbDictionary
280
     1
281
     1
  3
ADSK_XREC_LAYER_RECONCILED
360
A3B3
  0
DICTIONARY
  5
A3B4
330
36
100
AcDbDictionary
280
     1
281
     1
  3
ADSK_XREC_LAYER_RECONCILED
360
A3B5
  0
DICTIONARY
  5
A3B6
330
3D
100
AcDbDictionary
280
     1
281
     1
  3
ADSK_XREC_LAYER_RECONCILED
360
A3B7
  0
DICTIONARY
  5
A3B8
330
3A2
100
AcDbDictionary
280
     1
281
     1
  3
ADSK_XREC_LAYER_RECONCILED
360
A3B9
  0
DICTIONARY
  5
A3BA
330
3BBA
100
AcDbDictionary
280
     1
281
     1
  3
ADSK_XREC_LAYER_RECONCILED
360
A3BB
  0
DICTIONARY
  5
A3BC
330
3BBB
100
AcDbDictionary
280
     1
281
     1
  3
ADSK_XREC_LAYER_RECONCILED
360
A3BD
  0
DICTIONARY
  5
A3BE
330
40E3
100
AcDbDictionary
280
     1
281
     1
  3
ADSK_XREC_LAYER_RECONCILED
360
A3BF
  0
DICTIONARY
  5
A3C0
330
9496
100
AcDbDictionary
280
     1
281
     1
  3
ADSK_XREC_LAYER_RECONCILED
360
A3C1
  0
DICTIONARY
  5
A3C2
330
98BC
100
AcDbDictionary
280
     1
281
     1
  3
ADSK_XREC_LAYER_RECONCILED
360
A3C3
  0
DICTIONARY
  5
178
330
1E
100
AcDbDictionary
280
     1
281
     1
  3
ACAD_LAYOUTSELFREF
360
A2F8
  0
DICTIONARY
  5
17A
330
1A
100
AcDbDictionary
280
     1
281
     1
  3
ACAD_LAYOUTSELFREF
360
A2F7
  0
DICTIONARY
  5
A3D2
330
9AC
100
AcDbDictionary
280
     1
281
     1
  3
ACAD_XREC_ROUNDTRIP
360
A3D3
  0
DICTIONARY
  5
A35E
102
{ACAD_REACTORS
330
C
102
}
330
C
100
AcDbDictionary
281
     1
  0
DICTIONARY
  5
D
102
{ACAD_REACTORS
330
C
102
}
330
C
100
AcDbDictionary
281
     1
  0
DICTIONARY
  5
19
102
{ACAD_REACTORS
330
C
102
}
330
C
100
AcDbDictionary
281
     1
  3
Model
350
A324
  3
ﾚｲｱｳﾄ1
350
A325
  0
DICTIONARY
  5
A331
102
{ACAD_REACTORS
330
C
102
}
330
C
100
AcDbDictionary
281
     1
  3
ByBlock
350
A33A
  3
ByLayer
350
A332
  3
Global
350
A342
  0
DICTIONARY
  5
A383
102
{ACAD_REACTORS
330
C
102
}
330
C
100
AcDbDictionary
281
     1
  3
Standard
350
A384
  0
DICTIONARY
  5
16
102
{ACAD_REACTORS
330
C
102
}
330
C
100
AcDbDictionary
281
     1
  3
STANDARD
350
17
  0
DICTIONARY
  5
18
102
{ACAD_REACTORS
330
C
102
}
330
C
100
AcDbDictionary
281
     1
  0
ACDBDICTIONARYWDFLT
  5
E
102
{ACAD_REACTORS
330
C
102
}
330
C
100
AcDbDictionary
281
     1
  3
Normal
350
F
100
AcDbDictionaryWithDefault
340
F
  0
DICTIONARY
  5
A361
102
{ACAD_REACTORS
330
C
102
}
330
C
100
AcDbDictionary
281
     1
  3
A0
350
A362
  3
A1
350
A363
  3
A2
350
A364
  3
A3
350
A365
  3
A4
350
A366
  3
A5
350
A367
  3
A6
350
A368
  3
A7
350
A369
  3
A8
350
A36A
  3
A9
350
A36B
  3
B0
350
A36C
  3
B1
350
A36D
  3
B2
350
A36E
  3
B3
350
A36F
  3
B4
350
A370
  3
B5
350
A371
  3
B6
350
A372
  3
B7
350
A373
  3
B8
350
A374
  3
B9
350
A375
  3
C0
350
A376
  3
C1
350
A377
  3
C2
350
A378
  3
C3
350
A379
  3
C4
350
A37A
  3
C5
350
A37B
  3
C6
350
A37C
  3
C7
350
A37D
  3
C8
350
A37E
  3
C9
350
A37F
  3
D0
350
A380
  3
D1
350
A381
  3
D2
350
A382
  0
DICTIONARY
  5
A35F
102
{ACAD_REACTORS
330
C
102
}
330
C
100
AcDbDictionary
281
     1
  3
Standard
350
A360
  0
DICTIONARY
  5
A34A
102
{ACAD_REACTORS
330
C
102
}
330
C
100
AcDbDictionary
281
     1
  3
2dWireframe
350
A350
  3
3D Hidden
350
A352
  3
3dWireframe
350
A351
  3
Basic
350
A34F
  3
Brighten
350
A356
  3
ColorChange
350
A35A
  3
Conceptual
350
A353
  3
Dim
350
A355
  3
EdgeColorOff
350
A35D
  3
Facepattern
350
A359
  3
Flat
350
A34B
  3
FlatWithEdges
350
A34C
  3
Gouraud
350
A34D
  3
GouraudWithEdges
350
A34E
  3
JitterOff
350
A35B
  3
Linepattern
350
A358
  3
OverhangOff
350
A35C
  3
Realistic
350
A354
  3
Thicken
350
A357
  0
XRECORD
  5
92CE
102
{ACAD_REACTORS
330
C
102
}
330
C
100
AcDbXrecord
280
     1
 90
   990106
  3

 60
     0
 61
     0
 62
     1
 63
     3
 64
     0
 65
     0
 66
     0
 67
     3
 68
     1
 69
     0
 70
     0
 71
     0
 72
     0
 40
0.0
170
     0
  0
XRECORD
  5
A3D0
102
{ACAD_REACTORS
330
C
102
}
330
C
100
AcDbXrecord
280
     1
 90
        1
330
A360
  0
DICTIONARY
  5
5B5E
102
{ACAD_REACTORS
330
C
102
}
330
C
100
AcDbDictionary
281
     1
  3
CANNOSCALE
350
A3CA
  3
CMLEADERSTYLE
350
A3C9
  3
CTABLESTYLE
350
A3C8
  3
DIMASSOC
350
5B5F
  3
INDEXCTL
350
A3CC
  3
SORTENTS
350
A3CB
  3
XCLIPFRAME
350
A3CD
  0
DICTIONARY
  5
A3C5
102
{ACAD_REACTORS
330
C
102
}
330
C
100
AcDbDictionary
281
     1
  3
ASEBlockHierarchyIndexRecord
350
A3C7
1001
DCO15
1040
1846671534.921
  0
XRECORD
  5
A3D1
102
{ACAD_REACTORS
330
C
102
}
330
C
100
AcDbXrecord
280
     1
  1
DWGPROPS COOKIE
  2

  3

  4

  6

  7

  8
CAD-PC
  9

300
=
301
=
302
=
303
=
304
=
305
=
306
=
307
=
308
=
309
=
 40
1.399074872685185
 41
2452286.555658658
 42
2457176.724987512
  1

 90
        0
  0
XRECORD
  5
A3AD
102
{ACAD_REACTORS
330
A3AC
102
}
330
A3AC
100
AcDbXrecord
280
     1
290
     1
  0
XRECORD
  5
A3AF
102
{ACAD_REACTORS
330
A3AE
102
}
330
A3AE
100
AcDbXrecord
280
     1
290
     1
  0
XRECORD
  5
A3B1
102
{ACAD_REACTORS
330
A3B0
102
}
330
A3B0
100
AcDbXrecord
280
     1
290
     1
  0
XRECORD
  5
A3B3
102
{ACAD_REACTORS
330
A3B2
102
}
330
A3B2
100
AcDbXrecord
280
     1
290
     1
  0
XRECORD
  5
A3B5
102
{ACAD_REACTORS
330
A3B4
102
}
330
A3B4
100
AcDbXrecord
280
     1
290
     1
  0
XRECORD
  5
A3B7
102
{ACAD_REACTORS
330
A3B6
102
}
330
A3B6
100
AcDbXrecord
280
     1
290
     1
  0
XRECORD
  5
A3B9
102
{ACAD_REACTORS
330
A3B8
102
}
330
A3B8
100
AcDbXrecord
280
     1
290
     1
  0
XRECORD
  5
A3BB
102
{ACAD_REACTORS
330
A3BA
102
}
330
A3BA
100
AcDbXrecord
280
     1
290
     1
  0
XRECORD
  5
A3BD
102
{ACAD_REACTORS
330
A3BC
102
}
330
A3BC
100
AcDbXrecord
280
     1
290
     1
  0
XRECORD
  5
A3BF
102
{ACAD_REACTORS
330
A3BE
102
}
330
A3BE
100
AcDbXrecord
280
     1
290
     1
  0
XRECORD
  5
A3C1
102
{ACAD_REACTORS
330
A3C0
102
}
330
A3C0
100
AcDbXrecord
280
     1
290
     1
  0
XRECORD
  5
A3C3
102
{ACAD_REACTORS
330
A3C2
102
}
330
A3C2
100
AcDbXrecord
280
     1
290
     1
  0
XRECORD
  5
A2F8
102
{ACAD_REACTORS
330
178
102
}
330
178
100
AcDbXrecord
280
     1
340
1E
  0
XRECORD
  5
A2F7
102
{ACAD_REACTORS
330
17A
102
}
330
17A
100
AcDbXrecord
280
     1
340
1A
  0
XRECORD
  5
A3D3
102
{ACAD_REACTORS
330
A3D2
102
}
330
A3D2
100
AcDbXrecord
280
     1
102
SHADEPLOT
 70
     0
  0
LAYOUT
  5
A324
102
{ACAD_XDICTIONARY
360
A3D4
102
}
102
{ACAD_REACTORS
330
19
102
}
330
19
100
AcDbPlotSettings
  1

  2
Canon LBP3800 LIPSLX
  4

  6

 40
0.0
 41
0.0
 42
0.0
 43
0.0
 44
0.0
 45
0.0
 46
0.0
 47
0.0
 48
0.0
 49
0.0
140
0.0
141
0.0
142
1.0
143
1.0
 70
  1712
 72
     0
 73
     0
 74
     0
  7
monochrome.ctb
 75
     0
147
1.0
148
0.0
149
0.0
100
AcDbLayout
  1
Model
 70
     1
 71
     0
 10
0.0
 20
0.0
 11
12.0
 21
9.0
 12
0.0
 22
0.0
 32
0.0
 14
0.0
 24
0.0
 34
0.0
 15
0.0
 25
0.0
 35
0.0
146
0.0
 13
0.0
 23
0.0
 33
0.0
 16
1.0
 26
0.0
 36
0.0
 17
0.0
 27
1.0
 37
0.0
 76
     0
330
1E
331
A329
  0
LAYOUT
  5
A325
102
{ACAD_XDICTIONARY
360
A3D6
102
}
102
{ACAD_REACTORS
330
19
102
}
330
19
100
AcDbPlotSettings
  1

  2
Canon LBP3800 LIPSLX
  4

  6

 40
0.0
 41
0.0
 42
0.0
 43
0.0
 44
0.0
 45
0.0
 46
0.0
 47
0.0
 48
0.0
 49
0.0
140
0.0
141
0.0
142
1.0
143
1.0
 70
   688
 72
     0
 73
     0
 74
     5
  7
monochrome.ctb
 75
    16
147
1.0
148
0.0
149
0.0
100
AcDbLayout
  1
ﾚｲｱｳﾄ1
 70
     1
 71
     1
 10
-5.873748779296875
 20
-5.873749732971191
 11
204.0995788574218
 21
291.1369009017943
 12
0.0
 22
0.0
 32
0.0
 14
4.273573370203961
 24
5.205246163471485
 34
0.0
 15
194.6100952986349
 25
283.0697008572913
 35
0.0
146
0.0
 13
0.0
 23
0.0
 33
0.0
 16
1.0
 26
0.0
 36
0.0
 17
0.0
 27
1.0
 37
0.0
 76
     0
330
1A
331
9AC
  0
MATERIAL
  5
A33A
102
{ACAD_XDICTIONARY
360
A33B
102
}
102
{ACAD_REACTORS
330
A331
102
}
330
A331
100
AcDbMaterial
  1
ByBlock
 72
     0
 43
0.0208333333333333
 43
0.0
 43
0.0
 43
0.0
 43
0.0
 43
0.0208333333333333
 43
0.0
 43
0.0
 43
0.0
 43
0.0
 43
1.0
 43
0.0
 43
0.0
 43
0.0
 43
0.0
 43
1.0
 77
     0
 47
0.0208333333333333
 47
0.0
 47
0.0
 47
0.0
 47
0.0
 47
0.0208333333333333
 47
0.0
 47
0.0
 47
0.0
 47
0.0
 47
1.0
 47
0.0
 47
0.0
 47
0.0
 47
0.0
 47
1.0
171
     0
 49
0.0208333333333333
 49
0.0
 49
0.0
 49
0.0
 49
0.0
 49
0.0208333333333333
 49
0.0
 49
0.0
 49
0.0
 49
0.0
 49
1.0
 49
0.0
 49
0.0
 49
0.0
 49
0.0
 49
1.0
175
     0
142
0.0208333333333333
142
0.0
142
0.0
142
0.0
142
0.0
142
0.0208333333333333
142
0.0
142
0.0
142
0.0
142
0.0
142
1.0
142
0.0
142
0.0
142
0.0
142
0.0
142
1.0
179
     0
144
0.0208333333333333
144
0.0
144
0.0
144
0.0
144
0.0
144
0.0208333333333333
144
0.0
144
0.0
144
0.0
144
0.0
144
1.0
144
0.0
144
0.0
144
0.0
144
0.0
144
1.0
147
0.0208333333333333
147
0.0
147
0.0
147
0.0
147
0.0
147
0.0208333333333333
147
0.0
147
0.0
147
0.0
147
0.0
147
1.0
147
0.0
147
0.0
147
0.0
147
0.0
147
1.0
  0
MATERIAL
  5
A332
102
{ACAD_XDICTIONARY
360
A333
102
}
102
{ACAD_REACTORS
330
A331
102
}
330
A331
100
AcDbMaterial
  1
ByLayer
 72
     0
 43
0.0208333333333333
 43
0.0
 43
0.0
 43
0.0
 43
0.0
 43
0.0208333333333333
 43
0.0
 43
0.0
 43
0.0
 43
0.0
 43
1.0
 43
0.0
 43
0.0
 43
0.0
 43
0.0
 43
1.0
 77
     0
 47
0.0208333333333333
 47
0.0
 47
0.0
 47
0.0
 47
0.0
 47
0.0208333333333333
 47
0.0
 47
0.0
 47
0.0
 47
0.0
 47
1.0
 47
0.0
 47
0.0
 47
0.0
 47
0.0
 47
1.0
171
     0
 49
0.0208333333333333
 49
0.0
 49
0.0
 49
0.0
 49
0.0
 49
0.0208333333333333
 49
0.0
 49
0.0
 49
0.0
 49
0.0
 49
1.0
 49
0.0
 49
0.0
 49
0.0
 49
0.0
 49
1.0
175
     0
142
0.0208333333333333
142
0.0
142
0.0
142
0.0
142
0.0
142
0.0208333333333333
142
0.0
142
0.0
142
0.0
142
0.0
142
1.0
142
0.0
142
0.0
142
0.0
142
0.0
142
1.0
179
     0
144
0.0208333333333333
144
0.0
144
0.0
144
0.0
144
0.0
144
0.0208333333333333
144
0.0
144
0.0
144
0.0
144
0.0
144
1.0
144
0.0
144
0.0
144
0.0
144
0.0
144
1.0
147
0.0208333333333333
147
0.0
147
0.0
147
0.0
147
0.0
147
0.0208333333333333
147
0.0
147
0.0
147
0.0
147
0.0
147
1.0
147
0.0
147
0.0
147
0.0
147
0.0
147
1.0
  0
MATERIAL
  5
A342
102
{ACAD_XDICTIONARY
360
A343
102
}
102
{ACAD_REACTORS
330
A331
102
}
330
A331
100
AcDbMaterial
  1
Global
 72
     0
 43
0.0208333333333333
 43
0.0
 43
0.0
 43
0.0
 43
0.0
 43
0.0208333333333333
 43
0.0
 43
0.0
 43
0.0
 43
0.0
 43
1.0
 43
0.0
 43
0.0
 43
0.0
 43
0.0
 43
1.0
 77
     0
 47
0.0208333333333333
 47
0.0
 47
0.0
 47
0.0
 47
0.0
 47
0.0208333333333333
 47
0.0
 47
0.0
 47
0.0
 47
0.0
 47
1.0
 47
0.0
 47
0.0
 47
0.0
 47
0.0
 47
1.0
171
     0
 49
0.0208333333333333
 49
0.0
 49
0.0
 49
0.0
 49
0.0
 49
0.0208333333333333
 49
0.0
 49
0.0
 49
0.0
 49
0.0
 49
1.0
 49
0.0
 49
0.0
 49
0.0
 49
0.0
 49
1.0
175
     0
142
0.0208333333333333
142
0.0
142
0.0
142
0.0
142
0.0
142
0.0208333333333333
142
0.0
142
0.0
142
0.0
142
0.0
142
1.0
142
0.0
142
0.0
142
0.0
142
0.0
142
1.0
179
     0
144
0.0208333333333333
144
0.0
144
0.0
144
0.0
144
0.0
144
0.0208333333333333
144
0.0
144
0.0
144
0.0
144
0.0
144
1.0
144
0.0
144
0.0
144
0.0
144
0.0
144
1.0
147
0.0208333333333333
147
0.0
147
0.0
147
0.0
147
0.0
147
0.0208333333333333
147
0.0
147
0.0
147
0.0
147
0.0
147
1.0
147
0.0
147
0.0
147
0.0
147
0.0
147
1.0
  0
MLEADERSTYLE
  5
A384
102
{ACAD_REACTORS
330
A383
102
}
330
A383
100
AcDbMLeaderStyle
170
     2
171
     1
172
     0
 90
        2
 40
0.0
 41
0.0
173
     1
 91
-1056964608
340
13
 92
       -2
290
     1
 42
0.09
291
     1
 43
0.36
  3
Standard
 44
0.18
300

342
11
174
     1
178
     6
175
     1
176
     0
 93
-1056964608
 45
0.18
292
     0
297
     0
 46
0.18
 94
-1056964608
 47
1.0
 49
1.0
140
1.0
293
     1
141
0.0
294
     1
177
     0
142
1.0
295
     0
296
     0
143
0.125
1001
ACAD_MLEADERVER
1070
     2
  0
MLINESTYLE
  5
17
102
{ACAD_REACTORS
330
16
102
}
330
16
100
AcDbMlineStyle
  2
STANDARD
 70
     0
  3

 62
   256
 51
90.0
 52
90.0
 71
     2
 49
0.5
 62
   256
  6
BYLAYER
 49
-0.5
 62
   256
  6
BYLAYER
  0
ACDBPLACEHOLDER
  5
F
102
{ACAD_REACTORS
330
E
102
}
330
E
  0
SCALE
  5
A362
102
{ACAD_REACTORS
330
A361
102
}
330
A361
100
AcDbScale
 70
     0
300
1:1
140
1.0
141
1.0
290
     1
  0
SCALE
  5
A363
102
{ACAD_REACTORS
330
A361
102
}
330
A361
100
AcDbScale
 70
     0
300
1:2
140
1.0
141
2.0
290
     0
  0
SCALE
  5
A364
102
{ACAD_REACTORS
330
A361
102
}
330
A361
100
AcDbScale
 70
     0
300
1:4
140
1.0
141
4.0
290
     0
  0
SCALE
  5
A365
102
{ACAD_REACTORS
330
A361
102
}
330
A361
100
AcDbScale
 70
     0
300
1:5
140
1.0
141
5.0
290
     0
  0
SCALE
  5
A366
102
{ACAD_REACTORS
330
A361
102
}
330
A361
100
AcDbScale
 70
     0
300
1:8
140
1.0
141
8.0
290
     0
  0
SCALE
  5
A367
102
{ACAD_REACTORS
330
A361
102
}
330
A361
100
AcDbScale
 70
     0
300
1:10
140
1.0
141
10.0
290
     0
  0
SCALE
  5
A368
102
{ACAD_REACTORS
330
A361
102
}
330
A361
100
AcDbScale
 70
     0
300
1:16
140
1.0
141
16.0
290
     0
  0
SCALE
  5
A369
102
{ACAD_REACTORS
330
A361
102
}
330
A361
100
AcDbScale
 70
     0
300
1:20
140
1.0
141
20.0
290
     0
  0
SCALE
  5
A36A
102
{ACAD_REACTORS
330
A361
102
}
330
A361
100
AcDbScale
 70
     0
300
1:30
140
1.0
141
30.0
290
     0
  0
SCALE
  5
A36B
102
{ACAD_REACTORS
330
A361
102
}
330
A361
100
AcDbScale
 70
     0
300
1:40
140
1.0
141
40.0
290
     0
  0
SCALE
  5
A36C
102
{ACAD_REACTORS
330
A361
102
}
330
A361
100
AcDbScale
 70
     0
300
1:50
140
1.0
141
50.0
290
     0
  0
SCALE
  5
A36D
102
{ACAD_REACTORS
330
A361
102
}
330
A361
100
AcDbScale
 70
     0
300
1:100
140
1.0
141
100.0
290
     0
  0
SCALE
  5
A36E
102
{ACAD_REACTORS
330
A361
102
}
330
A361
100
AcDbScale
 70
     0
300
2:1
140
2.0
141
1.0
290
     0
  0
SCALE
  5
A36F
102
{ACAD_REACTORS
330
A361
102
}
330
A361
100
AcDbScale
 70
     0
300
4:1
140
4.0
141
1.0
290
     0
  0
SCALE
  5
A370
102
{ACAD_REACTORS
330
A361
102
}
330
A361
100
AcDbScale
 70
     0
300
8:1
140
8.0
141
1.0
290
     0
  0
SCALE
  5
A371
102
{ACAD_REACTORS
330
A361
102
}
330
A361
100
AcDbScale
 70
     0
300
10:1
140
10.0
141
1.0
290
     0
  0
SCALE
  5
A372
102
{ACAD_REACTORS
330
A361
102
}
330
A361
100
AcDbScale
 70
     0
300
100:1
140
100.0
141
1.0
290
     0
  0
SCALE
  5
A373
102
{ACAD_REACTORS
330
A361
102
}
330
A361
100
AcDbScale
 70
     0
300
1/128" = 1'-0"
140
0.0078125
141
12.0
290
     0
  0
SCALE
  5
A374
102
{ACAD_REACTORS
330
A361
102
}
330
A361
100
AcDbScale
 70
     0
300
1/64" = 1'-0"
140
0.015625
141
12.0
290
     0
  0
SCALE
  5
A375
102
{ACAD_REACTORS
330
A361
102
}
330
A361
100
AcDbScale
 70
     0
300
1/32" = 1'-0"
140
0.03125
141
12.0
290
     0
  0
SCALE
  5
A376
102
{ACAD_REACTORS
330
A361
102
}
330
A361
100
AcDbScale
 70
     0
300
1/16" = 1'-0"
140
0.0625
141
12.0
290
     0
  0
SCALE
  5
A377
102
{ACAD_REACTORS
330
A361
102
}
330
A361
100
AcDbScale
 70
     0
300
3/32" = 1'-0"
140
0.09375
141
12.0
290
     0
  0
SCALE
  5
A378
102
{ACAD_REACTORS
330
A361
102
}
330
A361
100
AcDbScale
 70
     0
300
1/8" = 1'-0"
140
0.125
141
12.0
290
     0
  0
SCALE
  5
A379
102
{ACAD_REACTORS
330
A361
102
}
330
A361
100
AcDbScale
 70
     0
300
3/16" = 1'-0"
140
0.1875
141
12.0
290
     0
  0
SCALE
  5
A37A
102
{ACAD_REACTORS
330
A361
102
}
330
A361
100
AcDbScale
 70
     0
300
1/4" = 1'-0"
140
0.25
141
12.0
290
     0
  0
SCALE
  5
A37B
102
{ACAD_REACTORS
330
A361
102
}
330
A361
100
AcDbScale
 70
     0
300
3/8" = 1'-0"
140
0.375
141
12.0
290
     0
  0
SCALE
  5
A37C
102
{ACAD_REACTORS
330
A361
102
}
330
A361
100
AcDbScale
 70
     0
300
1/2" = 1'-0"
140
0.5
141
12.0
290
     0
  0
SCALE
  5
A37D
102
{ACAD_REACTORS
330
A361
102
}
330
A361
100
AcDbScale
 70
     0
300
3/4" = 1'-0"
140
0.75
141
12.0
290
     0
  0
SCALE
  5
A37E
102
{ACAD_REACTORS
330
A361
102
}
330
A361
100
AcDbScale
 70
     0
300
1" = 1'-0"
140
1.0
141
12.0
290
     0
  0
SCALE
  5
A37F
102
{ACAD_REACTORS
330
A361
102
}
330
A361
100
AcDbScale
 70
     0
300
1-1/2" = 1'-0"
140
1.5
141
12.0
290
     0
  0
SCALE
  5
A380
102
{ACAD_REACTORS
330
A361
102
}
330
A361
100
AcDbScale
 70
     0
300
3" = 1'-0"
140
3.0
141
12.0
290
     0
  0
SCALE
  5
A381
102
{ACAD_REACTORS
330
A361
102
}
330
A361
100
AcDbScale
 70
     0
300
6" = 1'-0"
140
6.0
141
12.0
290
     0
  0
SCALE
  5
A382
102
{ACAD_REACTORS
330
A361
102
}
330
A361
100
AcDbScale
 70
     0
300
1'-0" = 1'-0"
140
12.0
141
12.0
290
     0
  0
TABLESTYLE
  5
A360
102
{ACAD_XDICTIONARY
360
A3CE
102
}
102
{ACAD_REACTORS
330
A35F
102
}
330
A35F
100
AcDbTableStyle
  3
Standard
 70
     0
 71
     0
 40
0.06
 41
0.06
280
     0
281
     0
  7
STANDARD
140
0.18
170
     2
 62
     0
 63
     7
283
     0
274
    -2
284
     1
 64
     0
275
    -2
285
     1
 65
     0
276
    -2
286
     1
 66
     0
277
    -2
287
     1
 67
     0
278
    -2
288
     1
 68
     0
279
    -2
289
     1
 69
     0
  7
STANDARD
140
0.25
170
     5
 62
     0
 63
     7
283
     0
274
    -2
284
     1
 64
     0
275
    -2
285
     1
 65
     0
276
    -2
286
     1
 66
     0
277
    -2
287
     1
 67
     0
278
    -2
288
     1
 68
     0
279
    -2
289
     1
 69
     0
  7
STANDARD
140
0.18
170
     5
 62
     0
 63
     7
283
     0
274
    -2
284
     1
 64
     0
275
    -2
285
     1
 65
     0
276
    -2
286
     1
 66
     0
277
    -2
287
     1
 67
     0
278
    -2
288
     1
 68
     0
279
    -2
289
     1
 69
     0
  0
VISUALSTYLE
  5
A350
102
{ACAD_XDICTIONARY
360
A3E5
102
}
102
{ACAD_REACTORS
330
A34A
102
}
330
A34A
100
AcDbVisualStyle
  2
2dWireframe
 70
     4
 71
     0
 72
     2
 73
     0
 90
        0
 40
-0.6
 41
-30.0
 62
     5
 63
     7
 74
     1
 91
        4
 64
     7
 65
   257
 75
     1
175
     1
 42
1.0
 92
        0
 66
   257
 43
1.0
 76
     1
 77
     6
 78
     2
 67
     7
 79
     5
170
     0
171
     0
290
     0
174
     0
 93
        1
 44
0.0
173
     0
291
     0
 45
0.0
1001
ACAD
1000
AcDbSavedByObjectVersion
1070
     0
  0
VISUALSTYLE
  5
A352
102
{ACAD_XDICTIONARY
360
A3E9
102
}
102
{ACAD_REACTORS
330
A34A
102
}
330
A34A
100
AcDbVisualStyle
  2
3D Hidden
 70
     6
 71
     1
 72
     2
 73
     2
 90
        0
 40
-0.6
 41
-30.0
 62
     5
 63
     7
 74
     2
 91
        2
 64
     7
 65
   257
 75
     2
175
     1
 42
179.0
 92
        0
 66
   257
 43
1.0
 76
     1
 77
     6
 78
     2
 67
     7
 79
     3
170
     0
171
     0
290
     0
174
     0
 93
        1
 44
0.0
173
     0
291
     0
 45
0.0
1001
ACAD
1000
AcDbSavedByObjectVersion
1070
     0
  0
VISUALSTYLE
  5
A351
102
{ACAD_XDICTIONARY
360
A3E7
102
}
102
{ACAD_REACTORS
330
A34A
102
}
330
A34A
100
AcDbVisualStyle
  2
3dWireframe
 70
     5
 71
     0
 72
     2
 73
     0
 90
        0
 40
-0.6
 41
-30.0
 62
     5
 63
     7
 74
     1
 91
        4
 64
     7
 65
   257
 75
     1
175
     1
 42
1.0
 92
        0
 66
   257
 43
1.0
 76
     1
 77
     6
 78
     2
 67
     7
 79
     5
170
     0
171
     0
290
     0
174
     0
 93
        1
 44
0.0
173
     0
291
     0
 45
0.0
1001
ACAD
1000
AcDbSavedByObjectVersion
1070
     0
  0
VISUALSTYLE
  5
A34F
102
{ACAD_XDICTIONARY
360
A3E3
102
}
102
{ACAD_REACTORS
330
A34A
102
}
330
A34A
100
AcDbVisualStyle
  2
Basic
 70
     7
 71
     1
 72
     0
 73
     1
 90
        0
 40
-0.6
 41
-30.0
 62
     5
 63
     7
 74
     0
 91
        4
 64
     7
 65
   257
 75
     1
175
     1
 42
1.0
 92
        8
 66
     7
 43
1.0
 76
     1
 77
     6
 78
     2
 67
     7
 79
     5
170
     0
171
     0
290
     0
174
     0
 93
        1
 44
0.0
173
     0
291
     1
 45
0.0
1001
ACAD
1000
AcDbSavedByObjectVersion
1070
     0
  0
VISUALSTYLE
  5
A356
102
{ACAD_XDICTIONARY
360
A3F1
102
}
102
{ACAD_REACTORS
330
A34A
102
}
330
A34A
100
AcDbVisualStyle
  2
Brighten
 70
    12
 71
     2
 72
     2
 73
     0
 90
        0
 40
-0.6
 41
-30.0
 62
     5
 63
     7
 74
     1
 91
        4
 64
     7
 65
   257
 75
     1
175
     1
 42
1.0
 92
        8
 66
     7
 43
1.0
 76
     1
 77
     6
 78
     2
 67
     7
 79
     5
170
     0
171
     0
290
     0
174
     0
 93
        1
 44
50.0
173
     0
291
     1
 45
0.0
1001
ACAD
1000
AcDbSavedByObjectVersion
1070
     0
  0
VISUALSTYLE
  5
A35A
102
{ACAD_XDICTIONARY
360
A3F9
102
}
102
{ACAD_REACTORS
330
A34A
102
}
330
A34A
100
AcDbVisualStyle
  2
ColorChange
 70
    16
 71
     2
 72
     2
 73
     3
 90
        0
 40
-0.6
 41
-30.0
 62
     5
 63
     8
 74
     1
 91
        4
 64
     7
 65
   257
 75
     1
175
     1
 42
1.0
 92
        8
 66
     8
 43
1.0
 76
     1
 77
     6
 78
     2
 67
     7
 79
     5
170
     0
171
     0
290
     0
174
     0
 93
        1
 44
0.0
173
     0
291
     1
 45
0.0
1001
ACAD
1000
AcDbSavedByObjectVersion
1070
     0
  0
VISUALSTYLE
  5
A353
102
{ACAD_XDICTIONARY
360
A3EB
102
}
102
{ACAD_REACTORS
330
A34A
102
}
330
A34A
100
AcDbVisualStyle
  2
Conceptual
 70
     9
 71
     3
 72
     2
 73
     0
 90
        0
 40
-0.6
 41
-30.0
 62
     5
 63
     7
 74
     2
 91
        2
 64
     7
 65
   257
 75
     1
175
     1
 42
179.0
 92
        8
 66
     7
 43
1.0
 76
     1
 77
     6
 78
     2
 67
     7
 79
     3
170
     0
171
     0
290
     0
174
     0
 93
        1
 44
0.0
173
     0
291
     0
 45
0.0
1001
ACAD
1000
AcDbSavedByObjectVersion
1070
     0
  0
VISUALSTYLE
  5
A355
102
{ACAD_XDICTIONARY
360
A3EF
102
}
102
{ACAD_REACTORS
330
A34A
102
}
330
A34A
100
AcDbVisualStyle
  2
Dim
 70
    11
 71
     2
 72
     2
 73
     0
 90
        0
 40
-0.6
 41
-30.0
 62
     5
 63
     7
 74
     1
 91
        4
 64
     7
 65
   257
 75
     1
175
     1
 42
1.0
 92
        8
 66
     7
 43
1.0
 76
     1
 77
     6
 78
     2
 67
     7
 79
     5
170
     0
171
     0
290
     0
174
     0
 93
        1
 44
-50.0
173
     0
291
     1
 45
0.0
1001
ACAD
1000
AcDbSavedByObjectVersion
1070
     0
  0
VISUALSTYLE
  5
A35D
102
{ACAD_XDICTIONARY
360
A3FF
102
}
102
{ACAD_REACTORS
330
A34A
102
}
330
A34A
100
AcDbVisualStyle
  2
EdgeColorOff
 70
    22
 71
     2
 72
     2
 73
     0
 90
        0
 40
-0.6
 41
-30.0
 62
     5
 63
     7
 74
     1
 91
        4
 64
     7
 65
   257
 75
     1
175
     1
 42
1.0
 92
        8
 66
     7
 43
1.0
 76
     1
 77
     6
 78
     2
 67
     7
 79
     5
170
     0
171
     0
290
     0
174
     0
 93
        1
 44
0.0
173
     0
291
     1
 45
0.0
1001
ACAD
1000
AcDbSavedByObjectVersion
1070
     0
  0
VISUALSTYLE
  5
A359
102
{ACAD_XDICTIONARY
360
A3F7
102
}
102
{ACAD_REACTORS
330
A34A
102
}
330
A34A
100
AcDbVisualStyle
  2
Facepattern
 70
    15
 71
     2
 72
     2
 73
     0
 90
        0
 40
-0.6
 41
-30.0
 62
     5
 63
     7
 74
     1
 91
        4
 64
     7
 65
   257
 75
     1
175
     1
 42
1.0
 92
        8
 66
     7
 43
1.0
 76
     1
 77
     6
 78
     2
 67
     7
 79
     5
170
     0
171
     0
290
     0
174
     0
 93
        1
 44
0.0
173
     0
291
     1
 45
0.0
1001
ACAD
1000
AcDbSavedByObjectVersion
1070
     0
  0
VISUALSTYLE
  5
A34B
102
{ACAD_XDICTIONARY
360
A3DB
102
}
102
{ACAD_REACTORS
330
A34A
102
}
330
A34A
100
AcDbVisualStyle
  2
Flat
 70
     0
 71
     2
 72
     1
 73
     1
 90
        2
 40
-0.6
 41
30.0
 62
     5
 63
     7
 74
     0
 91
        4
 64
     7
 65
   257
 75
     1
175
     1
 42
1.0
 92
        8
 66
     7
 43
1.0
 76
     1
 77
     6
 78
     2
 67
     7
 79
     5
170
     0
171
     0
290
     0
174
     0
 93
       13
 44
0.0
173
     0
291
     1
 45
0.0
1001
ACAD
1000
AcDbSavedByObjectVersion
1070
     0
  0
VISUALSTYLE
  5
A34C
102
{ACAD_XDICTIONARY
360
A3DD
102
}
102
{ACAD_REACTORS
330
A34A
102
}
330
A34A
100
AcDbVisualStyle
  2
FlatWithEdges
 70
     1
 71
     2
 72
     1
 73
     1
 90
        2
 40
-0.6
 41
30.0
 62
     5
 63
     7
 74
     1
 91
        4
 64
     7
 65
   257
 75
     1
175
     1
 42
1.0
 92
        0
 66
   257
 43
1.0
 76
     1
 77
     6
 78
     2
 67
     7
 79
     5
170
     0
171
     0
290
     0
174
     0
 93
       13
 44
0.0
173
     0
291
     1
 45
0.0
1001
ACAD
1000
AcDbSavedByObjectVersion
1070
     0
  0
VISUALSTYLE
  5
A34D
102
{ACAD_XDICTIONARY
360
A3DF
102
}
102
{ACAD_REACTORS
330
A34A
102
}
330
A34A
100
AcDbVisualStyle
  2
Gouraud
 70
     2
 71
     2
 72
     2
 73
     1
 90
        2
 40
-0.6
 41
30.0
 62
     5
 63
     7
 74
     0
 91
        4
 64
     7
 65
   257
 75
     1
175
     1
 42
1.0
 92
        0
 66
     7
 43
1.0
 76
     1
 77
     6
 78
     2
 67
     7
 79
     5
170
     0
171
     0
290
     0
174
     0
 93
       13
 44
0.0
173
     0
291
     1
 45
0.0
1001
ACAD
1000
AcDbSavedByObjectVersion
1070
     0
  0
VISUALSTYLE
  5
A34E
102
{ACAD_XDICTIONARY
360
A3E1
102
}
102
{ACAD_REACTORS
330
A34A
102
}
330
A34A
100
AcDbVisualStyle
  2
GouraudWithEdges
 70
     3
 71
     2
 72
     2
 73
     1
 90
        2
 40
-0.6
 41
30.0
 62
     5
 63
     7
 74
     1
 91
        4
 64
     7
 65
   257
 75
     1
175
     1
 42
1.0
 92
        0
 66
   257
 43
1.0
 76
     1
 77
     6
 78
     2
 67
     7
 79
     5
170
     0
171
     0
290
     0
174
     0
 93
       13
 44
0.0
173
     0
291
     1
 45
0.0
1001
ACAD
1000
AcDbSavedByObjectVersion
1070
     0
  0
VISUALSTYLE
  5
A35B
102
{ACAD_XDICTIONARY
360
A3FB
102
}
102
{ACAD_REACTORS
330
A34A
102
}
330
A34A
100
AcDbVisualStyle
  2
JitterOff
 70
    20
 71
     2
 72
     2
 73
     0
 90
        0
 40
-0.6
 41
-30.0
 62
     5
 63
     7
 74
     1
 91
        4
 64
     7
 65
   257
 75
     1
175
     1
 42
1.0
 92
       10
 66
     7
 43
1.0
 76
     1
 77
     6
 78
     2
 67
     7
 79
     5
170
     0
171
     0
290
     0
174
     0
 93
        1
 44
0.0
173
     0
291
     1
 45
0.0
1001
ACAD
1000
AcDbSavedByObjectVersion
1070
     0
  0
VISUALSTYLE
  5
A358
102
{ACAD_XDICTIONARY
360
A3F5
102
}
102
{ACAD_REACTORS
330
A34A
102
}
330
A34A
100
AcDbVisualStyle
  2
Linepattern
 70
    14
 71
     2
 72
     2
 73
     0
 90
        0
 40
-0.6
 41
-30.0
 62
     5
 63
     7
 74
     1
 91
        4
 64
     7
 65
   257
 75
     7
175
     7
 42
1.0
 92
        8
 66
     7
 43
1.0
 76
     1
 77
     6
 78
     2
 67
     7
 79
     5
170
     0
171
     0
290
     0
174
     0
 93
        1
 44
0.0
173
     0
291
     1
 45
0.0
1001
ACAD
1000
AcDbSavedByObjectVersion
1070
     0
  0
VISUALSTYLE
  5
A35C
102
{ACAD_XDICTIONARY
360
A3FD
102
}
102
{ACAD_REACTORS
330
A34A
102
}
330
A34A
100
AcDbVisualStyle
  2
OverhangOff
 70
    21
 71
     2
 72
     2
 73
     0
 90
        0
 40
-0.6
 41
-30.0
 62
     5
 63
     7
 74
     1
 91
        4
 64
     7
 65
   257
 75
     1
175
     1
 42
1.0
 92
        9
 66
     7
 43
1.0
 76
     1
 77
     6
 78
     2
 67
     7
 79
     5
170
     0
171
     0
290
     0
174
     0
 93
        1
 44
0.0
173
     0
291
     1
 45
0.0
1001
ACAD
1000
AcDbSavedByObjectVersion
1070
     0
  0
VISUALSTYLE
  5
A354
102
{ACAD_XDICTIONARY
360
A3ED
102
}
102
{ACAD_REACTORS
330
A34A
102
}
330
A34A
100
AcDbVisualStyle
  2
Realistic
 70
     8
 71
     2
 72
     2
 73
     0
 90
        0
 40
-0.6
 41
-30.0
 62
     5
 63
     7
 74
     1
 91
        0
 64
     7
 65
   257
 75
     1
175
     1
 42
1.0
 92
        8
 66
     8
 43
1.0
 76
     1
 77
     6
 78
     2
 67
     7
 79
     5
170
     0
171
     0
290
     0
174
     0
 93
       13
 44
0.0
173
     0
291
     0
 45
0.0
1001
ACAD
1000
AcDbSavedByObjectVersion
1070
     0
  0
VISUALSTYLE
  5
A357
102
{ACAD_XDICTIONARY
360
A3F3
102
}
102
{ACAD_REACTORS
330
A34A
102
}
330
A34A
100
AcDbVisualStyle
  2
Thicken
 70
    13
 71
     2
 72
     2
 73
     0
 90
        0
 40
-0.6
 41
-30.0
 62
     5
 63
     7
 74
     1
 91
        4
 64
     7
 65
   257
 75
     1
175
     1
 42
1.0
 92
       12
 66
     7
 43
1.0
 76
     1
 77
     6
 78
     2
 67
     7
 79
     5
170
     0
171
     0
290
     0
174
     0
 93
        1
 44
0.0
173
     0
291
     1
 45
0.0
1001
ACAD
1000
AcDbSavedByObjectVersion
1070
     0
  0
DICTIONARYVAR
  5
A3CA
102
{ACAD_REACTORS
330
5B5E
102
}
330
5B5E
100
DictionaryVariables
280
     0
  1
1:1
  0
DICTIONARYVAR
  5
A3C9
102
{ACAD_REACTORS
330
5B5E
102
}
330
5B5E
100
DictionaryVariables
280
     0
  1
STANDARD
  0
DICTIONARYVAR
  5
A3C8
102
{ACAD_REACTORS
330
5B5E
102
}
330
5B5E
100
DictionaryVariables
280
     0
  1
STANDARD
  0
DICTIONARYVAR
  5
5B5F
102
{ACAD_REACTORS
330
5B5E
102
}
330
5B5E
100
DictionaryVariables
280
     0
  1
1
  0
DICTIONARYVAR
  5
A3CC
102
{ACAD_REACTORS
330
5B5E
102
}
330
5B5E
100
DictionaryVariables
280
     0
  1
0
  0
DICTIONARYVAR
  5
A3CB
102
{ACAD_REACTORS
330
5B5E
102
}
330
5B5E
100
DictionaryVariables
280
     0
  1
127
  0
DICTIONARYVAR
  5
A3CD
102
{ACAD_REACTORS
330
5B5E
102
}
330
5B5E
100
DictionaryVariables
280
     0
  1
2
  0
XRECORD
  5
A3C7
102
{ACAD_REACTORS
330
A3C5
102
}
330
A3C5
100
AcDbXrecord
280
     1
330
9C0D
330
A14D
330
A14E
330
9EE8
330
9EE9
330
A10F
330
A110
330
A2FC
330
A2FD
330
A305
330
A306
330
A082
330
A083
330
A079
330
A07A
330
A094
330
A095
330
A066
330
A067
330
A054
330
A055
330
A05D
330
A05E
330
A039
330
A03A
330
A04B
330
A04C
330
A042
330
A043
330
A38B
330
A38C
330
A17A
330
A17B
330
A171
330
A172
330
9F61
330
9F62
330
9F58
330
9F59
330
A18D
330
A18E
330
9EF3
330
9EF4
330
A00B
330
A00C
330
A018
330
A019
330
A02E
330
A02F
330
A395
330
A396
330
A39E
330
A39F
330
A135
330
A136
330
A317
330
A318
  0
DICTIONARY
  5
A3D4
330
A324
100
AcDbDictionary
280
     1
281
     1
  3
ACAD_XREC_ROUNDTRIP
360
A3D5
  0
DICTIONARY
  5
A3D6
330
A325
100
AcDbDictionary
280
     1
281
     1
  3
ACAD_XREC_ROUNDTRIP
360
A3D7
  0
DICTIONARY
  5
A33B
330
A33A
100
AcDbDictionary
280
     1
281
     1
  3
ACAD_XREC_ROUNDTRIP
360
A3D9
  3
BUMPTILE
360
A33D
  3
DIFFUSETILE
360
A33C
  3
OPACITYTILE
360
A340
  3
REFLECTIONTILE
360
A33F
  3
REFRACTIONTILE
360
A341
  3
SPECULARTILE
360
A33E
  0
DICTIONARY
  5
A333
330
A332
100
AcDbDictionary
280
     1
281
     1
  3
ACAD_XREC_ROUNDTRIP
360
A3D8
  3
BUMPTILE
360
A335
  3
DIFFUSETILE
360
A334
  3
OPACITYTILE
360
A338
  3
REFLECTIONTILE
360
A337
  3
REFRACTIONTILE
360
A339
  3
SPECULARTILE
360
A336
  0
DICTIONARY
  5
A343
330
A342
100
AcDbDictionary
280
     1
281
     1
  3
ACAD_XREC_ROUNDTRIP
360
A3DA
  3
BUMPTILE
360
A345
  3
DIFFUSETILE
360
A344
  3
OPACITYTILE
360
A348
  3
REFLECTIONTILE
360
A347
  3
REFRACTIONTILE
360
A349
  3
SPECULARTILE
360
A346
  0
DICTIONARY
  5
A3CE
330
A360
100
AcDbDictionary
280
     1
281
     1
  3
ACAD_ROUNDTRIP_2008_TABLESTYLE_CELLSTYLEMAP
360
A3CF
  3
ACAD_XREC_ROUNDTRIP
360
A401
  0
DICTIONARY
  5
A3E5
330
A350
100
AcDbDictionary
280
     1
281
     1
  3
ACAD_XREC_ROUNDTRIP
360
A3E6
  0
DICTIONARY
  5
A3E9
330
A352
100
AcDbDictionary
280
     1
281
     1
  3
ACAD_XREC_ROUNDTRIP
360
A3EA
  0
DICTIONARY
  5
A3E7
330
A351
100
AcDbDictionary
280
     1
281
     1
  3
ACAD_XREC_ROUNDTRIP
360
A3E8
  0
DICTIONARY
  5
A3E3
330
A34F
100
AcDbDictionary
280
     1
281
     1
  3
ACAD_XREC_ROUNDTRIP
360
A3E4
  0
DICTIONARY
  5
A3F1
330
A356
100
AcDbDictionary
280
     1
281
     1
  3
ACAD_XREC_ROUNDTRIP
360
A3F2
  0
DICTIONARY
  5
A3F9
330
A35A
100
AcDbDictionary
280
     1
281
     1
  3
ACAD_XREC_ROUNDTRIP
360
A3FA
  0
DICTIONARY
  5
A3EB
330
A353
100
AcDbDictionary
280
     1
281
     1
  3
ACAD_XREC_ROUNDTRIP
360
A3EC
  0
DICTIONARY
  5
A3EF
330
A355
100
AcDbDictionary
280
     1
281
     1
  3
ACAD_XREC_ROUNDTRIP
360
A3F0
  0
DICTIONARY
  5
A3FF
330
A35D
100
AcDbDictionary
280
     1
281
     1
  3
ACAD_XREC_ROUNDTRIP
360
A400
  0
DICTIONARY
  5
A3F7
330
A359
100
AcDbDictionary
280
     1
281
     1
  3
ACAD_XREC_ROUNDTRIP
360
A3F8
  0
DICTIONARY
  5
A3DB
330
A34B
100
AcDbDictionary
280
     1
281
     1
  3
ACAD_XREC_ROUNDTRIP
360
A3DC
  0
DICTIONARY
  5
A3DD
330
A34C
100
AcDbDictionary
280
     1
281
     1
  3
ACAD_XREC_ROUNDTRIP
360
A3DE
  0
DICTIONARY
  5
A3DF
330
A34D
100
AcDbDictionary
280
     1
281
     1
  3
ACAD_XREC_ROUNDTRIP
360
A3E0
  0
DICTIONARY
  5
A3E1
330
A34E
100
AcDbDictionary
280
     1
281
     1
  3
ACAD_XREC_ROUNDTRIP
360
A3E2
  0
DICTIONARY
  5
A3FB
330
A35B
100
AcDbDictionary
280
     1
281
     1
  3
ACAD_XREC_ROUNDTRIP
360
A3FC
  0
DICTIONARY
  5
A3F5
330
A358
100
AcDbDictionary
280
     1
281
     1
  3
ACAD_XREC_ROUNDTRIP
360
A3F6
  0
DICTIONARY
  5
A3FD
330
A35C
100
AcDbDictionary
280
     1
281
     1
  3
ACAD_XREC_ROUNDTRIP
360
A3FE
  0
DICTIONARY
  5
A3ED
330
A354
100
AcDbDictionary
280
     1
281
     1
  3
ACAD_XREC_ROUNDTRIP
360
A3EE
  0
DICTIONARY
  5
A3F3
330
A357
100
AcDbDictionary
280
     1
281
     1
  3
ACAD_XREC_ROUNDTRIP
360
A3F4
  0
XRECORD
  5
A3D5
102
{ACAD_REACTORS
330
A3D4
102
}
330
A3D4
100
AcDbXrecord
280
     1
102
SHADEPLOT
 70
     0
102
SHADEPLOTRESLEVEL
 70
     2
102
SHADEPLOTCUSTOMDPI
 70
   300
  0
XRECORD
  5
A3D7
102
{ACAD_REACTORS
330
A3D6
102
}
330
A3D6
100
AcDbXrecord
280
     1
102
SHADEPLOT
 70
     0
102
SHADEPLOTRESLEVEL
 70
     2
102
SHADEPLOTCUSTOMDPI
 70
   300
  0
XRECORD
  5
A3D9
102
{ACAD_REACTORS
330
A33B
102
}
330
A33B
100
AcDbXrecord
280
     1
102
MATERIAL
148
0.0
149
0.0
149
0.0
 93
        0
 94
      127
282
     0
 72
     0
 77
     0
171
     0
175
     0
179
     0
273
     0
  0
XRECORD
  5
A33D
102
{ACAD_REACTORS
330
A33B
102
}
330
A33B
100
AcDbXrecord
280
     1
270
     1
271
     1
  0
XRECORD
  5
A33C
102
{ACAD_REACTORS
330
A33B
102
}
330
A33B
100
AcDbXrecord
280
     1
270
     1
271
     1
  0
XRECORD
  5
A340
102
{ACAD_REACTORS
330
A33B
102
}
330
A33B
100
AcDbXrecord
280
     1
270
     1
271
     1
  0
XRECORD
  5
A33F
102
{ACAD_REACTORS
330
A33B
102
}
330
A33B
100
AcDbXrecord
280
     1
270
     1
271
     1
  0
XRECORD
  5
A341
102
{ACAD_REACTORS
330
A33B
102
}
330
A33B
100
AcDbXrecord
280
     1
270
     1
271
     1
  0
XRECORD
  5
A33E
102
{ACAD_REACTORS
330
A33B
102
}
330
A33B
100
AcDbXrecord
280
     1
270
     1
271
     1
  0
XRECORD
  5
A3D8
102
{ACAD_REACTORS
330
A333
102
}
330
A333
100
AcDbXrecord
280
     1
102
MATERIAL
148
0.0
149
0.0
149
0.0
 93
        0
 94
      127
282
     0
 72
     0
 77
     0
171
     0
175
     0
179
     0
273
     0
  0
XRECORD
  5
A335
102
{ACAD_REACTORS
330
A333
102
}
330
A333
100
AcDbXrecord
280
     1
270
     1
271
     1
  0
XRECORD
  5
A334
102
{ACAD_REACTORS
330
A333
102
}
330
A333
100
AcDbXrecord
280
     1
270
     1
271
     1
  0
XRECORD
  5
A338
102
{ACAD_REACTORS
330
A333
102
}
330
A333
100
AcDbXrecord
280
     1
270
     1
271
     1
  0
XRECORD
  5
A337
102
{ACAD_REACTORS
330
A333
102
}
330
A333
100
AcDbXrecord
280
     1
270
     1
271
     1
  0
XRECORD
  5
A339
102
{ACAD_REACTORS
330
A333
102
}
330
A333
100
AcDbXrecord
280
     1
270
     1
271
     1
  0
XRECORD
  5
A336
102
{ACAD_REACTORS
330
A333
102
}
330
A333
100
AcDbXrecord
280
     1
270
     1
271
     1
  0
XRECORD
  5
A3DA
102
{ACAD_REACTORS
330
A343
102
}
330
A343
100
AcDbXrecord
280
     1
102
MATERIAL
148
0.0
149
0.0
149
0.0
 93
        0
 94
      127
282
     0
 72
     0
 77
     0
171
     0
175
     0
179
     0
273
     0
  0
XRECORD
  5
A345
102
{ACAD_REACTORS
330
A343
102
}
330
A343
100
AcDbXrecord
280
     1
270
     1
271
     1
  0
XRECORD
  5
A344
102
{ACAD_REACTORS
330
A343
102
}
330
A343
100
AcDbXrecord
280
     1
270
     1
271
     1
  0
XRECORD
  5
A348
102
{ACAD_REACTORS
330
A343
102
}
330
A343
100
AcDbXrecord
280
     1
270
     1
271
     1
  0
XRECORD
  5
A347
102
{ACAD_REACTORS
330
A343
102
}
330
A343
100
AcDbXrecord
280
     1
270
     1
271
     1
  0
XRECORD
  5
A349
102
{ACAD_REACTORS
330
A343
102
}
330
A343
100
AcDbXrecord
280
     1
270
     1
271
     1
  0
XRECORD
  5
A346
102
{ACAD_REACTORS
330
A343
102
}
330
A343
100
AcDbXrecord
280
     1
270
     1
271
     1
  0
CELLSTYLEMAP
  5
A3CF
102
{ACAD_REACTORS
330
A3CE
102
}
330
A3CE
100
AcDbCellStyleMap
 90
        3
300
CELLSTYLE
  1
TABLEFORMAT_BEGIN
 90
        5
170
     1
 91
        0
 92
    32768
 62
   257
 93
        1
300
CONTENTFORMAT
  1
CONTENTFORMAT_BEGIN
 90
        0
 91
        0
 92
      512
 93
        0
300

 40
0.0
140
1.0
 94
        5
 62
     0
340
11
144
0.25
309
CONTENTFORMAT_END
171
     0
 94
        0
309
TABLEFORMAT_END
  1
CELLSTYLE_BEGIN
 90
        1
 91
        1
300
_TITLE
309
CELLSTYLE_END
300
CELLSTYLE
  1
TABLEFORMAT_BEGIN
 90
        5
170
     1
 91
        0
 92
        0
 62
   257
 93
        1
300
CONTENTFORMAT
  1
CONTENTFORMAT_BEGIN
 90
        0
 91
        0
 92
      512
 93
        0
300

 40
0.0
140
1.0
 94
        5
 62
     0
340
11
144
0.18
309
CONTENTFORMAT_END
171
     0
 94
        0
309
TABLEFORMAT_END
  1
CELLSTYLE_BEGIN
 90
        2
 91
        1
300
_HEADER
309
CELLSTYLE_END
300
CELLSTYLE
  1
TABLEFORMAT_BEGIN
 90
        5
170
     1
 91
        0
 92
        0
 62
   257
 93
        1
300
CONTENTFORMAT
  1
CONTENTFORMAT_BEGIN
 90
        0
 91
        0
 92
      512
 93
        0
300

 40
0.0
140
1.0
 94
        2
 62
     0
340
11
144
0.18
309
CONTENTFORMAT_END
171
     0
 94
        0
309
TABLEFORMAT_END
  1
CELLSTYLE_BEGIN
 90
        3
 91
        2
300
_DATA
309
CELLSTYLE_END
  0
XRECORD
  5
A401
102
{ACAD_REACTORS
330
A3CE
102
}
330
A3CE
100
AcDbXrecord
280
     1
102
ACAD_ROUNDTRIP_PRE2007_TABLESTYLE
 90
      512
 91
        0
  1

 92
      512
 93
        0
  2

 94
      512
 95
        0
  3

  0
XRECORD
  5
A3E6
102
{ACAD_REACTORS
330
A3E5
102
}
330
A3E5
100
AcDbXrecord
280
     1
102
RTVSPropertyOp0
 70
     1
102
RTVSPropertyOp1
 70
     1
102
RTVSPropertyOp2
 70
     1
102
RTVSPropertyOp3
 70
     1
102
RTVSPropertyOp4
 70
     1
102
RTVSPropertyOp5
 70
     1
102
RTVSPropertyOp6
 70
     1
102
RTVSPropertyOp7
 70
     1
102
RTVSPropertyOp8
 70
     1
102
RTVSPropertyOp9
 70
     1
102
RTVSPropertyOp10
 70
     1
102
RTVSPropertyOp11
 70
     1
102
RTVSPropertyOp12
 70
     1
102
RTVSPropertyOp13
 70
     1
102
RTVSPropertyOp14
 70
     1
102
RTVSPropertyOp15
 70
     1
102
RTVSPropertyOp16
 70
     1
102
RTVSPropertyOp17
 70
     1
102
RTVSPropertyOp18
 70
     1
102
RTVSPropertyOp19
 70
     1
102
RTVSPropertyOp20
 70
     1
102
RTVSPropertyOp21
 70
     1
102
RTVSPropertyOp22
 70
     1
102
RTVSPropertyOp23
 70
     1
102
RTVSPropertyOp24
 70
     1
102
RTVSPropertyOp25
 70
     1
102
RTVSPropertyOp26
 70
     1
102
RTVSPropertyOp27
 70
     1
  0
XRECORD
  5
A3EA
102
{ACAD_REACTORS
330
A3E9
102
}
330
A3E9
100
AcDbXrecord
280
     1
102
RTVSPropertyOp0
 70
     1
102
RTVSPropertyOp1
 70
     1
102
RTVSPropertyOp2
 70
     1
102
RTVSPropertyOp3
 70
     1
102
RTVSPropertyOp4
 70
     1
102
RTVSPropertyOp5
 70
     1
102
RTVSPropertyOp6
 70
     1
102
RTVSPropertyOp7
 70
     1
102
RTVSPropertyOp8
 70
     1
102
RTVSPropertyOp9
 70
     1
102
RTVSPropertyOp10
 70
     1
102
RTVSPropertyOp11
 70
     1
102
RTVSPropertyOp12
 70
     1
102
RTVSPropertyOp13
 70
     1
102
RTVSPropertyOp14
 70
     1
102
RTVSPropertyOp15
 70
     1
102
RTVSPropertyOp16
 70
     1
102
RTVSPropertyOp17
 70
     1
102
RTVSPropertyOp18
 70
     1
102
RTVSPropertyOp19
 70
     1
102
RTVSPropertyOp20
 70
     1
102
RTVSPropertyOp21
 70
     1
102
RTVSPropertyOp22
 70
     1
102
RTVSPropertyOp23
 70
     1
102
RTVSPropertyOp24
 70
     1
102
RTVSPropertyOp25
 70
     1
102
RTVSPropertyOp26
 70
     1
102
RTVSPropertyOp27
 70
     1
  0
XRECORD
  5
A3E8
102
{ACAD_REACTORS
330
A3E7
102
}
330
A3E7
100
AcDbXrecord
280
     1
102
RTVSPropertyOp0
 70
     1
102
RTVSPropertyOp1
 70
     1
102
RTVSPropertyOp2
 70
     1
102
RTVSPropertyOp3
 70
     1
102
RTVSPropertyOp4
 70
     1
102
RTVSPropertyOp5
 70
     1
102
RTVSPropertyOp6
 70
     1
102
RTVSPropertyOp7
 70
     1
102
RTVSPropertyOp8
 70
     1
102
RTVSPropertyOp9
 70
     1
102
RTVSPropertyOp10
 70
     1
102
RTVSPropertyOp11
 70
     1
102
RTVSPropertyOp12
 70
     1
102
RTVSPropertyOp13
 70
     1
102
RTVSPropertyOp14
 70
     1
102
RTVSPropertyOp15
 70
     1
102
RTVSPropertyOp16
 70
     1
102
RTVSPropertyOp17
 70
     1
102
RTVSPropertyOp18
 70
     1
102
RTVSPropertyOp19
 70
     1
102
RTVSPropertyOp20
 70
     1
102
RTVSPropertyOp21
 70
     1
102
RTVSPropertyOp22
 70
     1
102
RTVSPropertyOp23
 70
     1
102
RTVSPropertyOp24
 70
     1
102
RTVSPropertyOp25
 70
     1
102
RTVSPropertyOp26
 70
     1
102
RTVSPropertyOp27
 70
     1
  0
XRECORD
  5
A3E4
102
{ACAD_REACTORS
330
A3E3
102
}
330
A3E3
100
AcDbXrecord
280
     1
102
RTVSPropertyOp0
 70
     1
102
RTVSPropertyOp1
 70
     1
102
RTVSPropertyOp2
 70
     1
102
RTVSPropertyOp3
 70
     1
102
RTVSPropertyOp4
 70
     1
102
RTVSPropertyOp5
 70
     1
102
RTVSPropertyOp6
 70
     1
102
RTVSPropertyOp7
 70
     1
102
RTVSPropertyOp8
 70
     1
102
RTVSPropertyOp9
 70
     1
102
RTVSPropertyOp10
 70
     1
102
RTVSPropertyOp11
 70
     1
102
RTVSPropertyOp12
 70
     1
102
RTVSPropertyOp13
 70
     1
102
RTVSPropertyOp14
 70
     1
102
RTVSPropertyOp15
 70
     1
102
RTVSPropertyOp16
 70
     1
102
RTVSPropertyOp17
 70
     1
102
RTVSPropertyOp18
 70
     1
102
RTVSPropertyOp19
 70
     1
102
RTVSPropertyOp20
 70
     1
102
RTVSPropertyOp21
 70
     1
102
RTVSPropertyOp22
 70
     1
102
RTVSPropertyOp23
 70
     1
102
RTVSPropertyOp24
 70
     1
102
RTVSPropertyOp25
 70
     1
102
RTVSPropertyOp26
 70
     1
102
RTVSPropertyOp27
 70
     1
  0
XRECORD
  5
A3F2
102
{ACAD_REACTORS
330
A3F1
102
}
330
A3F1
100
AcDbXrecord
280
     1
102
RTVSPropertyOp0
 70
     1
102
RTVSPropertyOp1
 70
     1
102
RTVSPropertyOp2
 70
     1
102
RTVSPropertyOp3
 70
     1
102
RTVSPropertyOp4
 70
     1
102
RTVSPropertyOp5
 70
     1
102
RTVSPropertyOp6
 70
     1
102
RTVSPropertyOp7
 70
     1
102
RTVSPropertyOp8
 70
     1
102
RTVSPropertyOp9
 70
     1
102
RTVSPropertyOp10
 70
     1
102
RTVSPropertyOp11
 70
     1
102
RTVSPropertyOp12
 70
     1
102
RTVSPropertyOp13
 70
     1
102
RTVSPropertyOp14
 70
     1
102
RTVSPropertyOp15
 70
     1
102
RTVSPropertyOp16
 70
     1
102
RTVSPropertyOp17
 70
     1
102
RTVSPropertyOp18
 70
     1
102
RTVSPropertyOp19
 70
     1
102
RTVSPropertyOp20
 70
     1
102
RTVSPropertyOp21
 70
     1
102
RTVSPropertyOp22
 70
     1
102
RTVSPropertyOp23
 70
     1
102
RTVSPropertyOp24
 70
     1
102
RTVSPropertyOp25
 70
     1
102
RTVSPropertyOp26
 70
     1
102
RTVSPropertyOp27
 70
     1
  0
XRECORD
  5
A3FA
102
{ACAD_REACTORS
330
A3F9
102
}
330
A3F9
100
AcDbXrecord
280
     1
102
RTVSPropertyOp0
 70
     1
102
RTVSPropertyOp1
 70
     1
102
RTVSPropertyOp2
 70
     1
102
RTVSPropertyOp3
 70
     1
102
RTVSPropertyOp4
 70
     1
102
RTVSPropertyOp5
 70
     1
102
RTVSPropertyOp6
 70
     1
102
RTVSPropertyOp7
 70
     1
102
RTVSPropertyOp8
 70
     1
102
RTVSPropertyOp9
 70
     1
102
RTVSPropertyOp10
 70
     1
102
RTVSPropertyOp11
 70
     1
102
RTVSPropertyOp12
 70
     1
102
RTVSPropertyOp13
 70
     1
102
RTVSPropertyOp14
 70
     1
102
RTVSPropertyOp15
 70
     1
102
RTVSPropertyOp16
 70
     1
102
RTVSPropertyOp17
 70
     1
102
RTVSPropertyOp18
 70
     1
102
RTVSPropertyOp19
 70
     1
102
RTVSPropertyOp20
 70
     1
102
RTVSPropertyOp21
 70
     1
102
RTVSPropertyOp22
 70
     1
102
RTVSPropertyOp23
 70
     1
102
RTVSPropertyOp24
 70
     1
102
RTVSPropertyOp25
 70
     1
102
RTVSPropertyOp26
 70
     1
102
RTVSPropertyOp27
 70
     1
  0
XRECORD
  5
A3EC
102
{ACAD_REACTORS
330
A3EB
102
}
330
A3EB
100
AcDbXrecord
280
     1
102
RTVSPropertyOp0
 70
     1
102
RTVSPropertyOp1
 70
     1
102
RTVSPropertyOp2
 70
     1
102
RTVSPropertyOp3
 70
     1
102
RTVSPropertyOp4
 70
     1
102
RTVSPropertyOp5
 70
     1
102
RTVSPropertyOp6
 70
     1
102
RTVSPropertyOp7
 70
     1
102
RTVSPropertyOp8
 70
     1
102
RTVSPropertyOp9
 70
     1
102
RTVSPropertyOp10
 70
     1
102
RTVSPropertyOp11
 70
     1
102
RTVSPropertyOp12
 70
     1
102
RTVSPropertyOp13
 70
     1
102
RTVSPropertyOp14
 70
     1
102
RTVSPropertyOp15
 70
     1
102
RTVSPropertyOp16
 70
     1
102
RTVSPropertyOp17
 70
     1
102
RTVSPropertyOp18
 70
     1
102
RTVSPropertyOp19
 70
     1
102
RTVSPropertyOp20
 70
     1
102
RTVSPropertyOp21
 70
     1
102
RTVSPropertyOp22
 70
     1
102
RTVSPropertyOp23
 70
     1
102
RTVSPropertyOp24
 70
     1
102
RTVSPropertyOp25
 70
     1
102
RTVSPropertyOp26
 70
     1
102
RTVSPropertyOp27
 70
     1
  0
XRECORD
  5
A3F0
102
{ACAD_REACTORS
330
A3EF
102
}
330
A3EF
100
AcDbXrecord
280
     1
102
RTVSPropertyOp0
 70
     1
102
RTVSPropertyOp1
 70
     1
102
RTVSPropertyOp2
 70
     1
102
RTVSPropertyOp3
 70
     1
102
RTVSPropertyOp4
 70
     1
102
RTVSPropertyOp5
 70
     1
102
RTVSPropertyOp6
 70
     1
102
RTVSPropertyOp7
 70
     1
102
RTVSPropertyOp8
 70
     1
102
RTVSPropertyOp9
 70
     1
102
RTVSPropertyOp10
 70
     1
102
RTVSPropertyOp11
 70
     1
102
RTVSPropertyOp12
 70
     1
102
RTVSPropertyOp13
 70
     1
102
RTVSPropertyOp14
 70
     1
102
RTVSPropertyOp15
 70
     1
102
RTVSPropertyOp16
 70
     1
102
RTVSPropertyOp17
 70
     1
102
RTVSPropertyOp18
 70
     1
102
RTVSPropertyOp19
 70
     1
102
RTVSPropertyOp20
 70
     1
102
RTVSPropertyOp21
 70
     1
102
RTVSPropertyOp22
 70
     1
102
RTVSPropertyOp23
 70
     1
102
RTVSPropertyOp24
 70
     1
102
RTVSPropertyOp25
 70
     1
102
RTVSPropertyOp26
 70
     1
102
RTVSPropertyOp27
 70
     1
  0
XRECORD
  5
A400
102
{ACAD_REACTORS
330
A3FF
102
}
330
A3FF
100
AcDbXrecord
280
     1
102
RTVSPropertyOp0
 70
     0
102
RTVSPropertyOp1
 70
     0
102
RTVSPropertyOp2
 70
     0
102
RTVSPropertyOp3
 70
     0
102
RTVSPropertyOp4
 70
     0
102
RTVSPropertyOp5
 70
     0
102
RTVSPropertyOp6
 70
     0
102
RTVSPropertyOp7
 70
     0
102
RTVSPropertyOp8
 70
     0
102
RTVSPropertyOp9
 70
     0
102
RTVSPropertyOp10
 70
     0
102
RTVSPropertyOp11
 70
     0
102
RTVSPropertyOp12
 70
     0
102
RTVSPropertyOp13
 70
     0
102
RTVSPropertyOp14
 70
     2
102
RTVSPropertyOp15
 70
     0
102
RTVSPropertyOp16
 70
     0
102
RTVSPropertyOp17
 70
     0
102
RTVSPropertyOp18
 70
     0
102
RTVSPropertyOp19
 70
     0
102
RTVSPropertyOp20
 70
     0
102
RTVSPropertyOp21
 70
     0
102
RTVSPropertyOp22
 70
     0
102
RTVSPropertyOp23
 70
     0
102
RTVSPropertyOp24
 70
     0
102
RTVSPropertyOp25
 70
     0
102
RTVSPropertyOp26
 70
     0
102
RTVSPropertyOp27
 70
     0
  0
XRECORD
  5
A3F8
102
{ACAD_REACTORS
330
A3F7
102
}
330
A3F7
100
AcDbXrecord
280
     1
102
RTVSPropertyOp0
 70
     1
102
RTVSPropertyOp1
 70
     1
102
RTVSPropertyOp2
 70
     1
102
RTVSPropertyOp3
 70
     1
102
RTVSPropertyOp4
 70
     1
102
RTVSPropertyOp5
 70
     1
102
RTVSPropertyOp6
 70
     1
102
RTVSPropertyOp7
 70
     1
102
RTVSPropertyOp8
 70
     1
102
RTVSPropertyOp9
 70
     1
102
RTVSPropertyOp10
 70
     1
102
RTVSPropertyOp11
 70
     1
102
RTVSPropertyOp12
 70
     1
102
RTVSPropertyOp13
 70
     1
102
RTVSPropertyOp14
 70
     1
102
RTVSPropertyOp15
 70
     1
102
RTVSPropertyOp16
 70
     1
102
RTVSPropertyOp17
 70
     1
102
RTVSPropertyOp18
 70
     1
102
RTVSPropertyOp19
 70
     1
102
RTVSPropertyOp20
 70
     1
102
RTVSPropertyOp21
 70
     1
102
RTVSPropertyOp22
 70
     1
102
RTVSPropertyOp23
 70
     1
102
RTVSPropertyOp24
 70
     1
102
RTVSPropertyOp25
 70
     1
102
RTVSPropertyOp26
 70
     1
102
RTVSPropertyOp27
 70
     1
  0
XRECORD
  5
A3DC
102
{ACAD_REACTORS
330
A3DB
102
}
330
A3DB
100
AcDbXrecord
280
     1
102
RTVSPropertyOp0
 70
     1
102
RTVSPropertyOp1
 70
     1
102
RTVSPropertyOp2
 70
     1
102
RTVSPropertyOp3
 70
     1
102
RTVSPropertyOp4
 70
     1
102
RTVSPropertyOp5
 70
     1
102
RTVSPropertyOp6
 70
     1
102
RTVSPropertyOp7
 70
     1
102
RTVSPropertyOp8
 70
     1
102
RTVSPropertyOp9
 70
     1
102
RTVSPropertyOp10
 70
     1
102
RTVSPropertyOp11
 70
     1
102
RTVSPropertyOp12
 70
     1
102
RTVSPropertyOp13
 70
     1
102
RTVSPropertyOp14
 70
     1
102
RTVSPropertyOp15
 70
     1
102
RTVSPropertyOp16
 70
     1
102
RTVSPropertyOp17
 70
     1
102
RTVSPropertyOp18
 70
     1
102
RTVSPropertyOp19
 70
     1
102
RTVSPropertyOp20
 70
     1
102
RTVSPropertyOp21
 70
     1
102
RTVSPropertyOp22
 70
     1
102
RTVSPropertyOp23
 70
     1
102
RTVSPropertyOp24
 70
     1
102
RTVSPropertyOp25
 70
     1
102
RTVSPropertyOp26
 70
     1
102
RTVSPropertyOp27
 70
     1
  0
XRECORD
  5
A3DE
102
{ACAD_REACTORS
330
A3DD
102
}
330
A3DD
100
AcDbXrecord
280
     1
102
RTVSPropertyOp0
 70
     1
102
RTVSPropertyOp1
 70
     1
102
RTVSPropertyOp2
 70
     1
102
RTVSPropertyOp3
 70
     1
102
RTVSPropertyOp4
 70
     1
102
RTVSPropertyOp5
 70
     1
102
RTVSPropertyOp6
 70
     1
102
RTVSPropertyOp7
 70
     1
102
RTVSPropertyOp8
 70
     1
102
RTVSPropertyOp9
 70
     1
102
RTVSPropertyOp10
 70
     1
102
RTVSPropertyOp11
 70
     1
102
RTVSPropertyOp12
 70
     1
102
RTVSPropertyOp13
 70
     1
102
RTVSPropertyOp14
 70
     1
102
RTVSPropertyOp15
 70
     1
102
RTVSPropertyOp16
 70
     1
102
RTVSPropertyOp17
 70
     1
102
RTVSPropertyOp18
 70
     1
102
RTVSPropertyOp19
 70
     1
102
RTVSPropertyOp20
 70
     1
102
RTVSPropertyOp21
 70
     1
102
RTVSPropertyOp22
 70
     1
102
RTVSPropertyOp23
 70
     1
102
RTVSPropertyOp24
 70
     1
102
RTVSPropertyOp25
 70
     1
102
RTVSPropertyOp26
 70
     1
102
RTVSPropertyOp27
 70
     1
  0
XRECORD
  5
A3E0
102
{ACAD_REACTORS
330
A3DF
102
}
330
A3DF
100
AcDbXrecord
280
     1
102
RTVSPropertyOp0
 70
     1
102
RTVSPropertyOp1
 70
     1
102
RTVSPropertyOp2
 70
     1
102
RTVSPropertyOp3
 70
     1
102
RTVSPropertyOp4
 70
     1
102
RTVSPropertyOp5
 70
     1
102
RTVSPropertyOp6
 70
     1
102
RTVSPropertyOp7
 70
     1
102
RTVSPropertyOp8
 70
     1
102
RTVSPropertyOp9
 70
     1
102
RTVSPropertyOp10
 70
     1
102
RTVSPropertyOp11
 70
     1
102
RTVSPropertyOp12
 70
     1
102
RTVSPropertyOp13
 70
     1
102
RTVSPropertyOp14
 70
     1
102
RTVSPropertyOp15
 70
     1
102
RTVSPropertyOp16
 70
     1
102
RTVSPropertyOp17
 70
     1
102
RTVSPropertyOp18
 70
     1
102
RTVSPropertyOp19
 70
     1
102
RTVSPropertyOp20
 70
     1
102
RTVSPropertyOp21
 70
     1
102
RTVSPropertyOp22
 70
     1
102
RTVSPropertyOp23
 70
     1
102
RTVSPropertyOp24
 70
     1
102
RTVSPropertyOp25
 70
     1
102
RTVSPropertyOp26
 70
     1
102
RTVSPropertyOp27
 70
     1
  0
XRECORD
  5
A3E2
102
{ACAD_REACTORS
330
A3E1
102
}
330
A3E1
100
AcDbXrecord
280
     1
102
RTVSPropertyOp0
 70
     1
102
RTVSPropertyOp1
 70
     1
102
RTVSPropertyOp2
 70
     1
102
RTVSPropertyOp3
 70
     1
102
RTVSPropertyOp4
 70
     1
102
RTVSPropertyOp5
 70
     1
102
RTVSPropertyOp6
 70
     1
102
RTVSPropertyOp7
 70
     1
102
RTVSPropertyOp8
 70
     1
102
RTVSPropertyOp9
 70
     1
102
RTVSPropertyOp10
 70
     1
102
RTVSPropertyOp11
 70
     1
102
RTVSPropertyOp12
 70
     1
102
RTVSPropertyOp13
 70
     1
102
RTVSPropertyOp14
 70
     1
102
RTVSPropertyOp15
 70
     1
102
RTVSPropertyOp16
 70
     1
102
RTVSPropertyOp17
 70
     1
102
RTVSPropertyOp18
 70
     1
102
RTVSPropertyOp19
 70
     1
102
RTVSPropertyOp20
 70
     1
102
RTVSPropertyOp21
 70
     1
102
RTVSPropertyOp22
 70
     1
102
RTVSPropertyOp23
 70
     1
102
RTVSPropertyOp24
 70
     1
102
RTVSPropertyOp25
 70
     1
102
RTVSPropertyOp26
 70
     1
102
RTVSPropertyOp27
 70
     1
  0
XRECORD
  5
A3FC
102
{ACAD_REACTORS
330
A3FB
102
}
330
A3FB
100
AcDbXrecord
280
     1
102
RTVSPropertyOp0
 70
     0
102
RTVSPropertyOp1
 70
     0
102
RTVSPropertyOp2
 70
     0
102
RTVSPropertyOp3
 70
     0
102
RTVSPropertyOp4
 70
     0
102
RTVSPropertyOp5
 70
     0
102
RTVSPropertyOp6
 70
     0
102
RTVSPropertyOp7
 70
     0
102
RTVSPropertyOp8
 70
     0
102
RTVSPropertyOp9
 70
     0
102
RTVSPropertyOp10
 70
     0
102
RTVSPropertyOp11
 70
     0
102
RTVSPropertyOp12
 70
     0
102
RTVSPropertyOp13
 70
     0
102
RTVSPropertyOp14
 70
     2
102
RTVSPropertyOp15
 70
     0
102
RTVSPropertyOp16
 70
     0
102
RTVSPropertyOp17
 70
     0
102
RTVSPropertyOp18
 70
     0
102
RTVSPropertyOp19
 70
     0
102
RTVSPropertyOp20
 70
     0
102
RTVSPropertyOp21
 70
     0
102
RTVSPropertyOp22
 70
     0
102
RTVSPropertyOp23
 70
     0
102
RTVSPropertyOp24
 70
     0
102
RTVSPropertyOp25
 70
     0
102
RTVSPropertyOp26
 70
     0
102
RTVSPropertyOp27
 70
     0
  0
XRECORD
  5
A3F6
102
{ACAD_REACTORS
330
A3F5
102
}
330
A3F5
100
AcDbXrecord
280
     1
102
RTVSPropertyOp0
 70
     1
102
RTVSPropertyOp1
 70
     1
102
RTVSPropertyOp2
 70
     1
102
RTVSPropertyOp3
 70
     1
102
RTVSPropertyOp4
 70
     1
102
RTVSPropertyOp5
 70
     1
102
RTVSPropertyOp6
 70
     1
102
RTVSPropertyOp7
 70
     1
102
RTVSPropertyOp8
 70
     1
102
RTVSPropertyOp9
 70
     1
102
RTVSPropertyOp10
 70
     1
102
RTVSPropertyOp11
 70
     1
102
RTVSPropertyOp12
 70
     1
102
RTVSPropertyOp13
 70
     1
102
RTVSPropertyOp14
 70
     1
102
RTVSPropertyOp15
 70
     1
102
RTVSPropertyOp16
 70
     1
102
RTVSPropertyOp17
 70
     1
102
RTVSPropertyOp18
 70
     1
102
RTVSPropertyOp19
 70
     1
102
RTVSPropertyOp20
 70
     1
102
RTVSPropertyOp21
 70
     1
102
RTVSPropertyOp22
 70
     1
102
RTVSPropertyOp23
 70
     1
102
RTVSPropertyOp24
 70
     1
102
RTVSPropertyOp25
 70
     1
102
RTVSPropertyOp26
 70
     1
102
RTVSPropertyOp27
 70
     1
  0
XRECORD
  5
A3FE
102
{ACAD_REACTORS
330
A3FD
102
}
330
A3FD
100
AcDbXrecord
280
     1
102
RTVSPropertyOp0
 70
     0
102
RTVSPropertyOp1
 70
     0
102
RTVSPropertyOp2
 70
     0
102
RTVSPropertyOp3
 70
     0
102
RTVSPropertyOp4
 70
     0
102
RTVSPropertyOp5
 70
     0
102
RTVSPropertyOp6
 70
     0
102
RTVSPropertyOp7
 70
     0
102
RTVSPropertyOp8
 70
     0
102
RTVSPropertyOp9
 70
     0
102
RTVSPropertyOp10
 70
     0
102
RTVSPropertyOp11
 70
     0
102
RTVSPropertyOp12
 70
     0
102
RTVSPropertyOp13
 70
     0
102
RTVSPropertyOp14
 70
     2
102
RTVSPropertyOp15
 70
     0
102
RTVSPropertyOp16
 70
     0
102
RTVSPropertyOp17
 70
     0
102
RTVSPropertyOp18
 70
     0
102
RTVSPropertyOp19
 70
     0
102
RTVSPropertyOp20
 70
     0
102
RTVSPropertyOp21
 70
     0
102
RTVSPropertyOp22
 70
     0
102
RTVSPropertyOp23
 70
     0
102
RTVSPropertyOp24
 70
     0
102
RTVSPropertyOp25
 70
     0
102
RTVSPropertyOp26
 70
     0
102
RTVSPropertyOp27
 70
     0
  0
XRECORD
  5
A3EE
102
{ACAD_REACTORS
330
A3ED
102
}
330
A3ED
100
AcDbXrecord
280
     1
102
RTVSPropertyOp0
 70
     1
102
RTVSPropertyOp1
 70
     1
102
RTVSPropertyOp2
 70
     1
102
RTVSPropertyOp3
 70
     1
102
RTVSPropertyOp4
 70
     1
102
RTVSPropertyOp5
 70
     1
102
RTVSPropertyOp6
 70
     1
102
RTVSPropertyOp7
 70
     1
102
RTVSPropertyOp8
 70
     1
102
RTVSPropertyOp9
 70
     1
102
RTVSPropertyOp10
 70
     1
102
RTVSPropertyOp11
 70
     1
102
RTVSPropertyOp12
 70
     1
102
RTVSPropertyOp13
 70
     1
102
RTVSPropertyOp14
 70
     1
102
RTVSPropertyOp15
 70
     1
102
RTVSPropertyOp16
 70
     1
102
RTVSPropertyOp17
 70
     1
102
RTVSPropertyOp18
 70
     1
102
RTVSPropertyOp19
 70
     1
102
RTVSPropertyOp20
 70
     1
102
RTVSPropertyOp21
 70
     1
102
RTVSPropertyOp22
 70
     1
102
RTVSPropertyOp23
 70
     1
102
RTVSPropertyOp24
 70
     1
102
RTVSPropertyOp25
 70
     1
102
RTVSPropertyOp26
 70
     1
102
RTVSPropertyOp27
 70
     1
  0
XRECORD
  5
A3F4
102
{ACAD_REACTORS
330
A3F3
102
}
330
A3F3
100
AcDbXrecord
280
     1
102
RTVSPropertyOp0
 70
     1
102
RTVSPropertyOp1
 70
     1
102
RTVSPropertyOp2
 70
     1
102
RTVSPropertyOp3
 70
     1
102
RTVSPropertyOp4
 70
     1
102
RTVSPropertyOp5
 70
     1
102
RTVSPropertyOp6
 70
     1
102
RTVSPropertyOp7
 70
     1
102
RTVSPropertyOp8
 70
     1
102
RTVSPropertyOp9
 70
     1
102
RTVSPropertyOp10
 70
     1
102
RTVSPropertyOp11
 70
     1
102
RTVSPropertyOp12
 70
     1
102
RTVSPropertyOp13
 70
     1
102
RTVSPropertyOp14
 70
     1
102
RTVSPropertyOp15
 70
     1
102
RTVSPropertyOp16
 70
     1
102
RTVSPropertyOp17
 70
     1
102
RTVSPropertyOp18
 70
     1
102
RTVSPropertyOp19
 70
     1
102
RTVSPropertyOp20
 70
     1
102
RTVSPropertyOp21
 70
     1
102
RTVSPropertyOp22
 70
     1
102
RTVSPropertyOp23
 70
     1
102
RTVSPropertyOp24
 70
     1
102
RTVSPropertyOp25
 70
     1
102
RTVSPropertyOp26
 70
     1
102
RTVSPropertyOp27
 70
     1
  0
ENDSEC
  0
EOF
