  0
SECTION
  2
HEADER
  9
$ACADVER
  1
AC1015
  9
$ACADMAINTVER
 70
    20
  9
$DWGCODEPAGE
  3
ANSI_932
  9
$INSBASE
 10
0.0
 20
0.0
 30
0.0
  9
$EXTMIN
 10
-83.96411608460175
 20
-365.6815949742949
 30
-0.0000000000000058
  9
$EXTMAX
 10
354.47940195315
 20
332.5463987697169
 30
0.0000000000000104
  9
$LIMMIN
 10
-296.316999476111
 20
-370.7034300441653
  9
$LIMMAX
 10
623.3128432133979
 20
328.6261559379898
  9
$ORTHOMODE
 70
     0
  9
$REGENMODE
 70
     1
  9
$FILLMODE
 70
     1
  9
$QTEXTMODE
 70
     0
  9
$MIRRTEXT
 70
     1
  9
$LTSCALE
 40
10.0
  9
$ATTMODE
 70
     1
  9
$TEXTSIZE
 40
5.0
  9
$TRACEWID
 40
0.05
  9
$TEXTSTYLE
  7
STANDARD1
  9
$CLAYER
  8
30
  9
$CELTYPE
  6
CONTINUOUS
  9
$CECOLOR
 62
   256
  9
$CELTSCALE
 40
1.0
  9
$DISPSILH
 70
     0
  9
$DIMSCALE
 40
1.0
  9
$DIMASZ
 40
2.0
  9
$DIMEXO
 40
1.0
  9
$DIMDLI
 40
0.5
  9
$DIMRND
 40
0.0
  9
$DIMDLE
 40
0.0
  9
$DIMEXE
 40
0.5
  9
$DIMTP
 40
0.0
  9
$DIMTM
 40
0.0
  9
$DIMTXT
 40
4.0
  9
$DIMCEN
 40
0.09
  9
$DIMTSZ
 40
0.0
  9
$DIMTOL
 70
     0
  9
$DIMLIM
 70
     0
  9
$DIMTIH
 70
     0
  9
$DIMTOH
 70
     1
  9
$DIMSE1
 70
     0
  9
$DIMSE2
 70
     0
  9
$DIMTAD
 70
     3
  9
$DIMZIN
 70
    12
  9
$DIMBLK
  1
OPEN
  9
$DIMASO
 70
     1
  9
$DIMSHO
 70
     1
  9
$DIMPOST
  1

  9
$DIMAPOST
  1

  9
$DIMALT
 70
     0
  9
$DIMALTD
 70
     2
  9
$DIMALTF
 40
25.4
  9
$DIMLFAC
 40
1.0
  9
$DIMTOFL
 70
     0
  9
$DIMTVP
 40
0.0
  9
$DIMTIX
 70
     0
  9
$DIMSOXD
 70
     0
  9
$DIMSAH
 70
     0
  9
$DIMBLK1
  1

  9
$DIMBLK2
  1

  9
$DIMSTYLE
  2
STANDARD
  9
$DIMCLRD
 70
     0
  9
$DIMCLRE
 70
     0
  9
$DIMCLRT
 70
     0
  9
$DIMTFAC
 40
1.0
  9
$DIMGAP
 40
1.0
  9
$DIMJUST
 70
     0
  9
$DIMSD1
 70
     0
  9
$DIMSD2
 70
     0
  9
$DIMTOLJ
 70
     1
  9
$DIMTZIN
 70
     0
  9
$DIMALTZ
 70
     0
  9
$DIMALTTZ
 70
     0
  9
$DIMUPT
 70
     0
  9
$DIMDEC
 70
     1
  9
$DIMTDEC
 70
     1
  9
$DIMALTU
 70
     2
  9
$DIMALTTD
 70
     2
  9
$DIMTXSTY
  7
STANDARD
  9
$DIMAUNIT
 70
     0
  9
$DIMADEC
 70
     0
  9
$DIMALTRND
 40
0.0
  9
$DIMAZIN
 70
     3
  9
$DIMDSEP
 70
    46
  9
$DIMATFIT
 70
     3
  9
$DIMFRAC
 70
     0
  9
$DIMLDRBLK
  1
OPEN
  9
$DIMLUNIT
 70
     2
  9
$DIMLWD
 70
    -2
  9
$DIMLWE
 70
    -2
  9
$DIMTMOVE
 70
     0
  9
$LUNITS
 70
     2
  9
$LUPREC
 70
     4
  9
$SKETCHINC
 40
0.1
  9
$FILLETRAD
 40
1.0
  9
$AUNITS
 70
     0
  9
$AUPREC
 70
     0
  9
$MENU
  1
.
  9
$ELEVATION
 40
0.0
  9
$PELEVATION
 40
0.0
  9
$THICKNESS
 40
0.0
  9
$LIMCHECK
 70
     0
  9
$CHAMFERA
 40
0.0
  9
$CHAMFERB
 40
0.0
  9
$CHAMFERC
 40
0.0
  9
$CHAMFERD
 40
0.0
  9
$SKPOLY
 70
     0
  9
$TDCREATE
 40
2452286.555658658
  9
$TDUCREATE
 40
2452286.180658658
  9
$TDUPDATE
 40
2455873.473070926
  9
$TDUUPDATE
 40
2455873.098070926
  9
$TDINDWG
 40
1.2385737269
  9
$TDUSRTIMER
 40
1.2385722685
  9
$USRTIMER
 70
     1
  9
$ANGBASE
 50
0.0
  9
$ANGDIR
 70
     0
  9
$PDMODE
 70
     0
  9
$PDSIZE
 40
0.0
  9
$PLINEWID
 40
0.0
  9
$SPLFRAME
 70
     0
  9
$SPLINETYPE
 70
     6
  9
$SPLINESEGS
 70
     8
  9
$HANDSEED
  5
7B34
  9
$SURFTAB1
 70
     6
  9
$SURFTAB2
 70
     6
  9
$SURFTYPE
 70
     6
  9
$SURFU
 70
     6
  9
$SURFV
 70
     6
  9
$UCSBASE
  2

  9
$UCSNAME
  2

  9
$UCSORG
 10
0.0
 20
0.0
 30
0.0
  9
$UCSXDIR
 10
1.0
 20
0.0
 30
0.0
  9
$UCSYDIR
 10
0.0
 20
1.0
 30
0.0
  9
$UCSORTHOREF
  2

  9
$UCSORTHOVIEW
 70
     0
  9
$UCSORGTOP
 10
0.0
 20
0.0
 30
0.0
  9
$UCSORGBOTTOM
 10
0.0
 20
0.0
 30
0.0
  9
$UCSORGLEFT
 10
0.0
 20
0.0
 30
0.0
  9
$UCSORGRIGHT
 10
0.0
 20
0.0
 30
0.0
  9
$UCSORGFRONT
 10
0.0
 20
0.0
 30
0.0
  9
$UCSORGBACK
 10
0.0
 20
0.0
 30
0.0
  9
$PUCSBASE
  2

  9
$PUCSNAME
  2

  9
$PUCSORG
 10
0.0
 20
0.0
 30
0.0
  9
$PUCSXDIR
 10
1.0
 20
0.0
 30
0.0
  9
$PUCSYDIR
 10
0.0
 20
1.0
 30
0.0
  9
$PUCSORTHOREF
  2

  9
$PUCSORTHOVIEW
 70
     0
  9
$PUCSORGTOP
 10
0.0
 20
0.0
 30
0.0
  9
$PUCSORGBOTTOM
 10
0.0
 20
0.0
 30
0.0
  9
$PUCSORGLEFT
 10
0.0
 20
0.0
 30
0.0
  9
$PUCSORGRIGHT
 10
0.0
 20
0.0
 30
0.0
  9
$PUCSORGFRONT
 10
0.0
 20
0.0
 30
0.0
  9
$PUCSORGBACK
 10
0.0
 20
0.0
 30
0.0
  9
$USERI1
 70
     0
  9
$USERI2
 70
     0
  9
$USERI3
 70
     0
  9
$USERI4
 70
     0
  9
$USERI5
 70
     0
  9
$USERR1
 40
0.0
  9
$USERR2
 40
0.0
  9
$USERR3
 40
0.0
  9
$USERR4
 40
0.0
  9
$USERR5
 40
0.0
  9
$WORLDVIEW
 70
     1
  9
$SHADEDGE
 70
     3
  9
$SHADEDIF
 70
    70
  9
$TILEMODE
 70
     1
  9
$MAXACTVP
 70
    48
  9
$PINSBASE
 10
0.0
 20
0.0
 30
0.0
  9
$PLIMCHECK
 70
     0
  9
$PEXTMIN
 10
4.273573
 20
5.205245999999998
 30
0.0
  9
$PEXTMAX
 10
194.610095
 20
283.0697009999996
 30
0.0
  9
$PLIMMIN
 10
-5.873749
 20
-5.87375
  9
$PLIMMAX
 10
204.099579
 20
291.1369009999999
  9
$UNITMODE
 70
     0
  9
$VISRETAIN
 70
     1
  9
$PLINEGEN
 70
     0
  9
$PSLTSCALE
 70
     1
  9
$TREEDEPTH
 70
  3020
  9
$CMLSTYLE
  2
STANDARD
  9
$CMLJUST
 70
     0
  9
$CMLSCALE
 40
1.0
  9
$PROXYGRAPHICS
 70
     1
  9
$MEASUREMENT
 70
     0
  9
$CELWEIGHT
370
    -1
  9
$ENDCAPS
280
     0
  9
$JOINSTYLE
280
     0
  9
$LWDISPLAY
290
     0
  9
$INSUNITS
 70
     0
  9
$HYPERLINKBASE
  1

  9
$STYLESHEET
  1
monochrome.ctb
  9
$XEDIT
290
     1
  9
$CEPSNTYPE
380
     0
  9
$PSTYLEMODE
290
     1
  9
$FINGERPRINTGUID
  2

  9
$VERSIONGUID
  2
{07C4E6A3-E592-4A9A-9ACD-57D8D94BBDC6}
  9
$EXTNAMES
290
     1
  9
$PSVPSCALE
 40
0.0
  9
$OLESTARTUP
290
     0
  0
ENDSEC
  0
SECTION
  2
CLASSES
  0
CLASS
  1
ACDBDICTIONARYWDFLT
  2
AcDbDictionaryWithDefault
  3
ObjectDBX Classes
 90
        0
280
     0
281
     0
  0
CLASS
  1
ACDBPLACEHOLDER
  2
AcDbPlaceHolder
  3
ObjectDBX Classes
 90
        0
280
     0
281
     0
  0
CLASS
  1
LAYOUT
  2
AcDbLayout
  3
ObjectDBX Classes
 90
        0
280
     0
281
     0
  0
CLASS
  1
DICTIONARYVAR
  2
AcDbDictionaryVar
  3
ObjectDBX Classes
 90
        0
280
     0
281
     0
  0
CLASS
  1
MATERIAL
  2
AcDbMaterial
  3
ObjectDBX Classes
 90
     1153
280
     0
281
     0
  0
CLASS
  1
VISUALSTYLE
  2
AcDbVisualStyle
  3
ObjectDBX Classes
 90
     4095
280
     0
281
     0
  0
CLASS
  1
TABLESTYLE
  2
AcDbTableStyle
  3
ObjectDBX Classes
 90
     4095
280
     0
281
     0
  0
CLASS
  1
SCALE
  2
AcDbScale
  3
ObjectDBX Classes
 90
     1153
280
     0
281
     0
  0
CLASS
  1
MLEADERSTYLE
  2
AcDbMLeaderStyle
  3
ACDB_MLEADERSTYLE_CLASS
 90
     4095
280
     0
281
     0
  0
CLASS
  1
CELLSTYLEMAP
  2
AcDbCellStyleMap
  3
ObjectDBX Classes
 90
     1152
280
     0
281
     0
  0
ENDSEC
  0
SECTION
  2
TABLES
  0
TABLE
  2
VPORT
  5
8
330
0
100
AcDbSymbolTable
 70
     1
  0
VPORT
  5
714E
330
8
100
AcDbSymbolTableRecord
100
AcDbViewportTableRecord
  2
*Active
 70
     0
 10
0.0
 20
0.0
 11
1.0
 21
1.0
 12
135.2576429342743
 22
-16.57821439417353
 13
0.0
 23
0.0
 14
1.0
 24
1.0
 15
10.0
 25
10.0
 16
0.0
 26
0.0
 36
1.0
 17
0.0
 27
0.0
 37
0.0
 40
703.3594200397427
 41
1.733409610983981
 42
50.0
 43
0.0
 44
0.0
 50
0.0
 51
0.0
 71
     0
 72
   100
 73
     1
 74
     1
 75
     0
 76
     0
 77
     0
 78
     0
281
     0
 65
     1
110
0.0
120
0.0
130
0.0
111
1.0
121
0.0
131
0.0
112
0.0
122
1.0
132
0.0
 79
     0
146
0.0
  0
ENDTAB
  0
TABLE
  2
LTYPE
  5
5
330
0
100
AcDbSymbolTable
 70
     6
  0
LTYPE
  5
13
330
5
100
AcDbSymbolTableRecord
100
AcDbLinetypeTableRecord
  2
BYBLOCK
 70
     0
  3

 72
    65
 73
     0
 40
0.0
  0
LTYPE
  5
14
330
5
100
AcDbSymbolTableRecord
100
AcDbLinetypeTableRecord
  2
BYLAYER
 70
     0
  3

 72
    65
 73
     0
 40
0.0
  0
LTYPE
  5
15
330
5
100
AcDbSymbolTableRecord
100
AcDbLinetypeTableRecord
  2
CONTINUOUS
 70
     0
  3
Solid line
 72
    65
 73
     0
 40
0.0
  0
LTYPE
  5
22
330
5
100
AcDbSymbolTableRecord
100
AcDbLinetypeTableRecord
  2
CONTINOUS
 70
     0
  3
Solid line
 72
    65
 73
     0
 40
0.0
  0
LTYPE
  5
23
330
5
100
AcDbSymbolTableRecord
100
AcDbLinetypeTableRecord
  2
DASHED
 70
     0
  3
__ __ __ __ __ __ __ __ __ __ __ __ __ __ __
 72
    65
 73
     2
 40
0.75
 49
0.5
 74
     0
 49
-0.25
 74
     0
  0
LTYPE
  5
24
330
5
100
AcDbSymbolTableRecord
100
AcDbLinetypeTableRecord
  2
DASHDOT
 70
     0
  3
__ . __ . __ . __ . __ . __ . __ . __ . __ . __
 72
    65
 73
     4
 40
1.0
 49
0.5
 74
     0
 49
-0.25
 74
     0
 49
0.0
 74
     0
 49
-0.25
 74
     0
  0
LTYPE
  5
4C47
330
5
100
AcDbSymbolTableRecord
100
AcDbLinetypeTableRecord
  2
DIVIDE
 70
     0
  3
Divide ____ . . ____ . . ____ . . ____ . . ____
 72
    65
 73
     6
 40
1.25
 49
0.5
 74
     0
 49
-0.25
 74
     0
 49
0.0
 74
     0
 49
-0.25
 74
     0
 49
0.0
 74
     0
 49
-0.25
 74
     0
  0
LTYPE
  5
72C4
330
5
100
AcDbSymbolTableRecord
100
AcDbLinetypeTableRecord
  2
CENTER
 70
     0
  3
____ _ ____ _ ____ _ ____
 72
    65
 73
     4
 40
2.0
 49
1.25
 74
     0
 49
-0.25
 74
     0
 49
0.25
 74
     0
 49
-0.25
 74
     0
  0
ENDTAB
  0
TABLE
  2
LAYER
  5
2
330
0
100
AcDbSymbolTable
 70
    16
  0
LAYER
  5
10
102
{ACAD_XDICTIONARY
360
71AB
102
}
330
2
100
AcDbSymbolTableRecord
100
AcDbLayerTableRecord
  2
0
 70
     0
 62
     7
  6
CONTINOUS
370
    -3
390
F
  0
LAYER
  5
2F
102
{ACAD_XDICTIONARY
360
71AD
102
}
330
2
100
AcDbSymbolTableRecord
100
AcDbLayerTableRecord
  2
10
 70
     0
 62
     4
  6
CONTINOUS
370
    -3
390
F
  0
LAYER
  5
31
102
{ACAD_XDICTIONARY
360
71AF
102
}
330
2
100
AcDbSymbolTableRecord
100
AcDbLayerTableRecord
  2
12
 70
     0
 62
     3
  6
CONTINOUS
370
    -3
390
F
  0
LAYER
  5
35
102
{ACAD_XDICTIONARY
360
71B1
102
}
330
2
100
AcDbSymbolTableRecord
100
AcDbLayerTableRecord
  2
16
 70
     0
 62
     6
  6
DASHDOT
370
    -3
390
F
  0
LAYER
  5
38
102
{ACAD_XDICTIONARY
360
71B3
102
}
330
2
100
AcDbSymbolTableRecord
100
AcDbLayerTableRecord
  2
19
 70
     0
 62
     7
  6
CONTINOUS
370
    -3
390
F
  0
LAYER
  5
3C
102
{ACAD_XDICTIONARY
360
71B5
102
}
330
2
100
AcDbSymbolTableRecord
100
AcDbLayerTableRecord
  2
11
 70
     0
 62
     1
  6
CONTINOUS
370
    -3
390
F
  0
LAYER
  5
3D
102
{ACAD_XDICTIONARY
360
71B7
102
}
330
2
100
AcDbSymbolTableRecord
100
AcDbLayerTableRecord
  2
24
 70
     0
 62
     2
  6
CONTINOUS
370
    -3
390
F
  0
LAYER
  5
3A2
102
{ACAD_XDICTIONARY
360
71B9
102
}
330
2
100
AcDbSymbolTableRecord
100
AcDbLayerTableRecord
  2
30
 70
     0
 62
     9
  6
CONTINUOUS
370
    -3
390
F
  0
LAYER
  5
3A4
330
2
100
AcDbSymbolTableRecord
100
AcDbLayerTableRecord
  2
DEFPOINTS
 70
     0
 62
     7
  6
CONTINUOUS
290
     0
370
    -3
390
F
  0
LAYER
  5
3BBA
102
{ACAD_XDICTIONARY
360
71BB
102
}
330
2
100
AcDbSymbolTableRecord
100
AcDbLayerTableRecord
  2
18
 70
     0
 62
     5
  6
DIVIDE
370
    -3
390
F
  0
LAYER
  5
5117
102
{ACAD_XDICTIONARY
360
71BD
102
}
330
2
100
AcDbSymbolTableRecord
100
AcDbLayerTableRecord
  2
TOP
 70
     0
 62
     7
  6
CONTINUOUS
370
    -3
390
F
  0
LAYER
  5
64C0
102
{ACAD_XDICTIONARY
360
71BF
102
}
330
2
100
AcDbSymbolTableRecord
100
AcDbLayerTableRecord
  2
5
 70
     0
 62
     7
  6
CONTINUOUS
370
    -3
390
F
  0
LAYER
  5
72C5
330
2
100
AcDbSymbolTableRecord
100
AcDbLayerTableRecord
  2
1
 70
     0
 62
     7
  6
CONTINUOUS
370
    -3
390
F
  0
LAYER
  5
72C6
330
2
100
AcDbSymbolTableRecord
100
AcDbLayerTableRecord
  2
4
 70
     0
 62
     7
  6
CONTINUOUS
370
    -3
390
F
  0
LAYER
  5
72C7
330
2
100
AcDbSymbolTableRecord
100
AcDbLayerTableRecord
  2
2
 70
     0
 62
     7
  6
CONTINUOUS
370
    -3
390
F
  0
LAYER
  5
72C8
330
2
100
AcDbSymbolTableRecord
100
AcDbLayerTableRecord
  2
3
 70
     0
 62
     7
  6
CONTINUOUS
370
    -3
390
F
  0
ENDTAB
  0
TABLE
  2
STYLE
  5
3
330
0
100
AcDbSymbolTable
 70
     5
  0
STYLE
  5
11
330
3
100
AcDbSymbolTableRecord
100
AcDbTextStyleTableRecord
  2
STANDARD
 70
     0
 40
0.0
 41
1.0
 50
0.0
 71
     0
 42
2.0
  3
txt.shx
  4
bigfont.shx
  0
STYLE
  5
42
330
3
100
AcDbSymbolTableRecord
100
AcDbTextStyleTableRecord
  2
STANDARD1
 70
     0
 40
0.0
 41
1.0
 50
0.0
 71
     0
 42
5.0
  3
MONOTXT
  4
BIGFONT
  0
STYLE
  5
5016
330
3
100
AcDbSymbolTableRecord
100
AcDbTextStyleTableRecord
  2
UGMTXT
 70
     0
 40
0.0
 41
1.0
 50
0.0
 71
     0
 42
0.2
  3
ugmtxt
  4
bigfont
  0
STYLE
  5
72C9
330
3
100
AcDbSymbolTableRecord
100
AcDbTextStyleTableRecord
  2
blockfont
 70
     0
 40
0.0
 41
1.0
 50
0.0
 71
     0
 42
0.2
  3
simplex.shx
  4
bigfont
  0
ENDTAB
  0
TABLE
  2
VIEW
  5
6
330
0
100
AcDbSymbolTable
 70
     3
  0
VIEW
  5
230C
330
6
100
AcDbSymbolTableRecord
100
AcDbViewTableRecord
  2
OLE1
 70
     0
 40
148.912488
 10
429.497628
 20
2.560627
 41
103.145806
 11
0.0
 21
0.0
 31
1.0
 12
0.0
 22
0.0
 32
0.0
 42
50.0
 43
0.0
 44
0.0
 50
0.0
 71
     0
281
     0
 72
     0
  0
VIEW
  5
230E
330
6
100
AcDbSymbolTableRecord
100
AcDbViewTableRecord
  2
OLE2
 70
     0
 40
170.778692
 10
322.66497
 20
-5.978304
 41
102.467215
 11
0.0
 21
0.0
 31
1.0
 12
0.0
 22
0.0
 32
0.0
 42
50.0
 43
0.0
 44
0.0
 50
0.0
 71
     0
281
     0
 72
     0
  0
VIEW
  5
23AA
330
6
100
AcDbSymbolTableRecord
100
AcDbViewTableRecord
  2
OLE3
 70
     0
 40
591.7897389999998
 10
84.79698199999999
 20
-46.09335999999998
 41
388.792096
 11
0.0
 21
0.0
 31
1.0
 12
0.0
 22
0.0
 32
0.0
 42
50.0
 43
0.0
 44
0.0
 50
0.0
 71
     0
281
     0
 72
     0
  0
ENDTAB
  0
TABLE
  2
UCS
  5
7
330
0
100
AcDbSymbolTable
 70
     0
  0
ENDTAB
  0
TABLE
  2
APPID
  5
9
330
0
100
AcDbSymbolTable
 70
     6
  0
APPID
  5
12
330
9
100
AcDbSymbolTableRecord
100
AcDbRegAppTableRecord
  2
ACAD
 70
     0
  0
APPID
  5
ECD
330
9
100
AcDbSymbolTableRecord
100
AcDbRegAppTableRecord
  2
CONTENTBLOCKICON
 70
     0
  0
APPID
  5
71C3
330
9
100
AcDbSymbolTableRecord
100
AcDbRegAppTableRecord
  2
DCO15
 70
     0
  0
APPID
  5
7A6F
330
9
100
AcDbSymbolTableRecord
100
AcDbRegAppTableRecord
  2
ACAD_MLEADERVER
 70
     0
  0
APPID
  5
7A7A
330
9
100
AcDbSymbolTableRecord
100
AcDbRegAppTableRecord
  2
ACAD_EXEMPT_FROM_CAD_STANDARDS
 70
     0
  0
APPID
  5
7AF8
330
9
100
AcDbSymbolTableRecord
100
AcDbRegAppTableRecord
  2
ACAD_PSEXT
 70
     0
  0
ENDTAB
  0
TABLE
  2
DIMSTYLE
  5
A
330
0
100
AcDbSymbolTable
 70
     2
100
AcDbDimStyleTable
 71
     1
340
175
  0
DIMSTYLE
105
175
102
{ACAD_REACTORS
330
62D4
330
62D3
330
62F8
330
62D2
330
657D
330
657C
330
6592
330
65B0
330
65AC
330
67C1
330
6571
330
6575
330
6573
330
6570
330
6593
330
63B5
330
68F3
330
6909
330
6916
330
6923
330
6930
330
693D
330
6967
330
6974
330
6B4E
330
6B39
330
6B40
330
79A0
330
79A3
330
79A4
330
79A5
102
}
330
A
100
AcDbSymbolTableRecord
100
AcDbDimStyleTableRecord
  2
STANDARD
 70
     0
 41
2.0
 42
1.0
 43
0.5
 44
0.5
 73
     0
 77
     3
 78
    12
140
4.0
147
1.0
271
     1
272
     1
340
11
341
3B2
342
3B2
  0
ENDTAB
  0
TABLE
  2
BLOCK_RECORD
  5
1
330
0
100
AcDbSymbolTable
 70
   103
  0
BLOCK_RECORD
  5
1E
102
{ACAD_XDICTIONARY
360
178
102
}
330
1
100
AcDbSymbolTableRecord
100
AcDbBlockTableRecord
  2
*MODEL_SPACE
340
714A
  0
BLOCK_RECORD
  5
1A
102
{ACAD_XDICTIONARY
360
17A
102
}
330
1
100
AcDbSymbolTableRecord
100
AcDbBlockTableRecord
  2
*PAPER_SPACE
340
714B
  0
BLOCK_RECORD
  5
3B2
330
1
100
AcDbSymbolTableRecord
100
AcDbBlockTableRecord
  2
_OPEN
340
0
102
{BLKREFS
331
6F64
331
6F65
331
6F5B
331
6F5C
331
6F52
331
6F53
331
6F49
331
6F4A
331
7085
331
7086
331
68D8
331
6F37
331
6F38
331
6F2E
331
6F2F
331
6F25
331
6F26
331
6F1C
331
6F1D
331
6F13
331
6F14
331
6F0A
331
6F0B
331
6F01
331
6F02
331
6EF8
331
6EF9
331
6EEF
331
6EF0
331
6EE6
331
6EE7
331
6EDD
331
6EDE
331
6ED4
331
6ED5
331
68E0
331
68E1
331
707C
331
707D
331
6EC1
331
6EC2
331
6EB8
331
6EB9
331
6EAF
331
6EB0
331
7133
331
7134
331
713C
331
713D
331
695B
331
695C
331
6E8B
331
6E8C
331
6C02
331
6C03
331
702D
331
7024
331
7025
331
6BF0
331
6BF1
331
701B
331
701C
331
7641
331
7711
331
7712
331
771B
331
771C
331
7724
331
7725
331
772D
331
772E
331
7736
331
7737
331
773F
331
7740
331
7748
331
7749
331
7751
331
7752
331
776C
331
776D
331
7775
331
7776
331
777E
331
777F
331
7788
331
7789
331
7792
331
7793
331
779C
331
779D
331
77A6
331
77A7
331
77B0
331
77B1
331
77BA
331
77BB
331
77C4
331
77C5
331
77CE
331
77CF
331
77D8
331
77D9
331
77E4
331
77E5
331
7817
331
7818
331
7820
331
7821
331
7829
331
782A
331
78CD
331
78CE
331
78D9
331
78DA
331
78E5
331
78E6
331
78F1
331
78F2
331
7940
331
7941
331
7949
331
794A
331
7952
331
7953
331
795B
331
795C
331
7966
331
7967
331
7972
331
7973
331
797E
331
797F
331
798A
331
798B
331
79FD
331
79FE
331
7A1A
331
7A1B
331
7A2C
331
7A2D
331
7A35
331
7A36
102
}
  0
BLOCK_RECORD
  5
6328
330
1
100
AcDbSymbolTableRecord
100
AcDbBlockTableRecord
  2
*D1
340
0
  0
BLOCK_RECORD
  5
6334
330
1
100
AcDbSymbolTableRecord
100
AcDbBlockTableRecord
  2
*D2
340
0
  0
BLOCK_RECORD
  5
6340
330
1
100
AcDbSymbolTableRecord
100
AcDbBlockTableRecord
  2
*D3
340
0
  0
BLOCK_RECORD
  5
634C
330
1
100
AcDbSymbolTableRecord
100
AcDbBlockTableRecord
  2
*D4
340
0
  0
BLOCK_RECORD
  5
63CC
330
1
100
AcDbSymbolTableRecord
100
AcDbBlockTableRecord
  2
*D5
340
0
  0
BLOCK_RECORD
  5
63D8
330
1
100
AcDbSymbolTableRecord
100
AcDbBlockTableRecord
  2
*D6
340
0
  0
BLOCK_RECORD
  5
6402
330
1
100
AcDbSymbolTableRecord
100
AcDbBlockTableRecord
  2
*U7
340
0
102
{BLKREFS
331
65AF
102
}
  0
BLOCK_RECORD
  5
6406
330
1
100
AcDbSymbolTableRecord
100
AcDbBlockTableRecord
  2
*U8
340
0
102
{BLKREFS
331
65AE
102
}
  0
BLOCK_RECORD
  5
640A
330
1
100
AcDbSymbolTableRecord
100
AcDbBlockTableRecord
  2
*U9
340
0
102
{BLKREFS
331
65BC
102
}
  0
BLOCK_RECORD
  5
640E
330
1
100
AcDbSymbolTableRecord
100
AcDbBlockTableRecord
  2
*U10
340
0
102
{BLKREFS
331
65BB
102
}
  0
BLOCK_RECORD
  5
641D
330
1
100
AcDbSymbolTableRecord
100
AcDbBlockTableRecord
  2
*U11
340
0
102
{BLKREFS
331
65AD
102
}
  0
BLOCK_RECORD
  5
6421
330
1
100
AcDbSymbolTableRecord
100
AcDbBlockTableRecord
  2
*U12
340
0
  0
BLOCK_RECORD
  5
65BE
330
1
100
AcDbSymbolTableRecord
100
AcDbBlockTableRecord
  2
*D13
340
0
  0
BLOCK_RECORD
  5
65CA
330
1
100
AcDbSymbolTableRecord
100
AcDbBlockTableRecord
  2
*D14
340
0
  0
BLOCK_RECORD
  5
65D6
330
1
100
AcDbSymbolTableRecord
100
AcDbBlockTableRecord
  2
*D15
340
0
  0
BLOCK_RECORD
  5
65E2
330
1
100
AcDbSymbolTableRecord
100
AcDbBlockTableRecord
  2
*D16
340
0
  0
BLOCK_RECORD
  5
65EE
330
1
100
AcDbSymbolTableRecord
100
AcDbBlockTableRecord
  2
*D17
340
0
  0
BLOCK_RECORD
  5
65FA
330
1
100
AcDbSymbolTableRecord
100
AcDbBlockTableRecord
  2
*D18
340
0
  0
BLOCK_RECORD
  5
6606
330
1
100
AcDbSymbolTableRecord
100
AcDbBlockTableRecord
  2
*D19
340
0
  0
BLOCK_RECORD
  5
6612
330
1
100
AcDbSymbolTableRecord
100
AcDbBlockTableRecord
  2
*D20
340
0
  0
BLOCK_RECORD
  5
661E
330
1
100
AcDbSymbolTableRecord
100
AcDbBlockTableRecord
  2
*D21
340
0
  0
BLOCK_RECORD
  5
662A
330
1
100
AcDbSymbolTableRecord
100
AcDbBlockTableRecord
  2
*D22
340
0
  0
BLOCK_RECORD
  5
6636
330
1
100
AcDbSymbolTableRecord
100
AcDbBlockTableRecord
  2
*D23
340
0
  0
BLOCK_RECORD
  5
67C2
330
1
100
AcDbSymbolTableRecord
100
AcDbBlockTableRecord
  2
*D24
340
0
  0
BLOCK_RECORD
  5
6818
330
1
100
AcDbSymbolTableRecord
100
AcDbBlockTableRecord
  2
*D25
340
0
  0
BLOCK_RECORD
  5
68F4
330
1
100
AcDbSymbolTableRecord
100
AcDbBlockTableRecord
  2
*D26
340
0
  0
BLOCK_RECORD
  5
690A
330
1
100
AcDbSymbolTableRecord
100
AcDbBlockTableRecord
  2
*D27
340
0
  0
BLOCK_RECORD
  5
6917
330
1
100
AcDbSymbolTableRecord
100
AcDbBlockTableRecord
  2
*D28
340
0
  0
BLOCK_RECORD
  5
6924
330
1
100
AcDbSymbolTableRecord
100
AcDbBlockTableRecord
  2
*D29
340
0
  0
BLOCK_RECORD
  5
6931
330
1
100
AcDbSymbolTableRecord
100
AcDbBlockTableRecord
  2
*D30
340
0
  0
BLOCK_RECORD
  5
693E
330
1
100
AcDbSymbolTableRecord
100
AcDbBlockTableRecord
  2
*D31
340
0
  0
BLOCK_RECORD
  5
694C
330
1
100
AcDbSymbolTableRecord
100
AcDbBlockTableRecord
  2
*D32
340
0
  0
BLOCK_RECORD
  5
6968
330
1
100
AcDbSymbolTableRecord
100
AcDbBlockTableRecord
  2
*D33
340
0
  0
BLOCK_RECORD
  5
6975
330
1
100
AcDbSymbolTableRecord
100
AcDbBlockTableRecord
  2
*D34
340
0
  0
BLOCK_RECORD
  5
6B51
330
1
100
AcDbSymbolTableRecord
100
AcDbBlockTableRecord
  2
*D35
340
0
  0
BLOCK_RECORD
  5
6B5D
330
1
100
AcDbSymbolTableRecord
100
AcDbBlockTableRecord
  2
*D36
340
0
  0
BLOCK_RECORD
  5
6B68
330
1
100
AcDbSymbolTableRecord
100
AcDbBlockTableRecord
  2
*D37
340
0
  0
BLOCK_RECORD
  5
6B74
330
1
100
AcDbSymbolTableRecord
100
AcDbBlockTableRecord
  2
*D38
340
0
  0
BLOCK_RECORD
  5
6B80
330
1
100
AcDbSymbolTableRecord
100
AcDbBlockTableRecord
  2
*D39
340
0
  0
BLOCK_RECORD
  5
7200
330
1
100
AcDbSymbolTableRecord
100
AcDbBlockTableRecord
  2
_D0
340
0
  0
BLOCK_RECORD
  5
7209
330
1
100
AcDbSymbolTableRecord
100
AcDbBlockTableRecord
  2
_D1
340
0
  0
BLOCK_RECORD
  5
7212
330
1
100
AcDbSymbolTableRecord
100
AcDbBlockTableRecord
  2
_D2
340
0
  0
BLOCK_RECORD
  5
721B
330
1
100
AcDbSymbolTableRecord
100
AcDbBlockTableRecord
  2
_D3
340
0
  0
BLOCK_RECORD
  5
7224
330
1
100
AcDbSymbolTableRecord
100
AcDbBlockTableRecord
  2
_D4
340
0
  0
BLOCK_RECORD
  5
722D
330
1
100
AcDbSymbolTableRecord
100
AcDbBlockTableRecord
  2
_D5
340
0
  0
BLOCK_RECORD
  5
7236
330
1
100
AcDbSymbolTableRecord
100
AcDbBlockTableRecord
  2
_D11
340
0
  0
BLOCK_RECORD
  5
723F
330
1
100
AcDbSymbolTableRecord
100
AcDbBlockTableRecord
  2
_D12
340
0
  0
BLOCK_RECORD
  5
7248
330
1
100
AcDbSymbolTableRecord
100
AcDbBlockTableRecord
  2
_D17
340
0
  0
BLOCK_RECORD
  5
7251
330
1
100
AcDbSymbolTableRecord
100
AcDbBlockTableRecord
  2
_D18
340
0
  0
BLOCK_RECORD
  5
725A
330
1
100
AcDbSymbolTableRecord
100
AcDbBlockTableRecord
  2
_D19
340
0
  0
BLOCK_RECORD
  5
7263
330
1
100
AcDbSymbolTableRecord
100
AcDbBlockTableRecord
  2
_D20
340
0
  0
BLOCK_RECORD
  5
726C
330
1
100
AcDbSymbolTableRecord
100
AcDbBlockTableRecord
  2
_D27
340
0
  0
BLOCK_RECORD
  5
7275
330
1
100
AcDbSymbolTableRecord
100
AcDbBlockTableRecord
  2
_D35
340
0
  0
BLOCK_RECORD
  5
727E
330
1
100
AcDbSymbolTableRecord
100
AcDbBlockTableRecord
  2
_D36
340
0
  0
BLOCK_RECORD
  5
7287
330
1
100
AcDbSymbolTableRecord
100
AcDbBlockTableRecord
  2
_D37
340
0
  0
BLOCK_RECORD
  5
7290
330
1
100
AcDbSymbolTableRecord
100
AcDbBlockTableRecord
  2
_D38
340
0
  0
BLOCK_RECORD
  5
7299
330
1
100
AcDbSymbolTableRecord
100
AcDbBlockTableRecord
  2
_D39
340
0
  0
BLOCK_RECORD
  5
72A2
330
1
100
AcDbSymbolTableRecord
100
AcDbBlockTableRecord
  2
_D40
340
0
  0
BLOCK_RECORD
  5
72AB
330
1
100
AcDbSymbolTableRecord
100
AcDbBlockTableRecord
  2
_D41
340
0
  0
BLOCK_RECORD
  5
72B4
330
1
100
AcDbSymbolTableRecord
100
AcDbBlockTableRecord
  2
_D43
340
0
  0
BLOCK_RECORD
  5
72BD
330
1
100
AcDbSymbolTableRecord
100
AcDbBlockTableRecord
  2
_D44
340
0
  0
BLOCK_RECORD
  5
7466
330
1
100
AcDbSymbolTableRecord
100
AcDbBlockTableRecord
  2
*D62
340
0
  0
BLOCK_RECORD
  5
7472
330
1
100
AcDbSymbolTableRecord
100
AcDbBlockTableRecord
  2
*D63
340
0
  0
BLOCK_RECORD
  5
747F
330
1
100
AcDbSymbolTableRecord
100
AcDbBlockTableRecord
  2
*D64
340
0
  0
BLOCK_RECORD
  5
748B
330
1
100
AcDbSymbolTableRecord
100
AcDbBlockTableRecord
  2
*D65
340
0
  0
BLOCK_RECORD
  5
7497
330
1
100
AcDbSymbolTableRecord
100
AcDbBlockTableRecord
  2
*D66
340
0
  0
BLOCK_RECORD
  5
74A3
330
1
100
AcDbSymbolTableRecord
100
AcDbBlockTableRecord
  2
*D67
340
0
  0
BLOCK_RECORD
  5
74AF
330
1
100
AcDbSymbolTableRecord
100
AcDbBlockTableRecord
  2
*D68
340
0
  0
BLOCK_RECORD
  5
74BB
330
1
100
AcDbSymbolTableRecord
100
AcDbBlockTableRecord
  2
*D69
340
0
  0
BLOCK_RECORD
  5
74C7
330
1
100
AcDbSymbolTableRecord
100
AcDbBlockTableRecord
  2
*D70
340
0
  0
BLOCK_RECORD
  5
74D3
330
1
100
AcDbSymbolTableRecord
100
AcDbBlockTableRecord
  2
*D71
340
0
  0
BLOCK_RECORD
  5
74DF
330
1
100
AcDbSymbolTableRecord
100
AcDbBlockTableRecord
  2
*D72
340
0
  0
BLOCK_RECORD
  5
74EB
330
1
100
AcDbSymbolTableRecord
100
AcDbBlockTableRecord
  2
*D73
340
0
  0
BLOCK_RECORD
  5
74F7
330
1
100
AcDbSymbolTableRecord
100
AcDbBlockTableRecord
  2
*D74
340
0
  0
BLOCK_RECORD
  5
7503
330
1
100
AcDbSymbolTableRecord
100
AcDbBlockTableRecord
  2
*D75
340
0
  0
BLOCK_RECORD
  5
7510
330
1
100
AcDbSymbolTableRecord
100
AcDbBlockTableRecord
  2
*D76
340
0
  0
BLOCK_RECORD
  5
751D
330
1
100
AcDbSymbolTableRecord
100
AcDbBlockTableRecord
  2
*D77
340
0
  0
BLOCK_RECORD
  5
752A
330
1
100
AcDbSymbolTableRecord
100
AcDbBlockTableRecord
  2
*D78
340
0
  0
BLOCK_RECORD
  5
7537
330
1
100
AcDbSymbolTableRecord
100
AcDbBlockTableRecord
  2
*D79
340
0
  0
BLOCK_RECORD
  5
7545
330
1
100
AcDbSymbolTableRecord
100
AcDbBlockTableRecord
  2
*D80
340
0
  0
BLOCK_RECORD
  5
7552
330
1
100
AcDbSymbolTableRecord
100
AcDbBlockTableRecord
  2
*D81
340
0
  0
BLOCK_RECORD
  5
755F
330
1
100
AcDbSymbolTableRecord
100
AcDbBlockTableRecord
  2
*D82
340
0
  0
BLOCK_RECORD
  5
756C
330
1
100
AcDbSymbolTableRecord
100
AcDbBlockTableRecord
  2
*D83
340
0
  0
BLOCK_RECORD
  5
77DF
330
1
100
AcDbSymbolTableRecord
100
AcDbBlockTableRecord
  2
*D84
340
0
  0
BLOCK_RECORD
  5
77F6
330
1
100
AcDbSymbolTableRecord
100
AcDbBlockTableRecord
  2
*D85
340
0
  0
BLOCK_RECORD
  5
78C8
330
1
100
AcDbSymbolTableRecord
100
AcDbBlockTableRecord
  2
*D86
340
0
  0
BLOCK_RECORD
  5
78D4
330
1
100
AcDbSymbolTableRecord
100
AcDbBlockTableRecord
  2
*D87
340
0
  0
BLOCK_RECORD
  5
78E0
330
1
100
AcDbSymbolTableRecord
100
AcDbBlockTableRecord
  2
*D88
340
0
  0
BLOCK_RECORD
  5
78EC
330
1
100
AcDbSymbolTableRecord
100
AcDbBlockTableRecord
  2
*D89
340
0
  0
BLOCK_RECORD
  5
790D
330
1
100
AcDbSymbolTableRecord
100
AcDbBlockTableRecord
  2
*D90
340
0
  0
BLOCK_RECORD
  5
7919
330
1
100
AcDbSymbolTableRecord
100
AcDbBlockTableRecord
  2
*D91
340
0
  0
BLOCK_RECORD
  5
7925
330
1
100
AcDbSymbolTableRecord
100
AcDbBlockTableRecord
  2
*D92
340
0
  0
BLOCK_RECORD
  5
7931
330
1
100
AcDbSymbolTableRecord
100
AcDbBlockTableRecord
  2
*D93
340
0
  0
BLOCK_RECORD
  5
7961
330
1
100
AcDbSymbolTableRecord
100
AcDbBlockTableRecord
  2
*D94
340
0
  0
BLOCK_RECORD
  5
796D
330
1
100
AcDbSymbolTableRecord
100
AcDbBlockTableRecord
  2
*D95
340
0
  0
BLOCK_RECORD
  5
7979
330
1
100
AcDbSymbolTableRecord
100
AcDbBlockTableRecord
  2
*D96
340
0
  0
BLOCK_RECORD
  5
7985
330
1
100
AcDbSymbolTableRecord
100
AcDbBlockTableRecord
  2
*D97
340
0
  0
BLOCK_RECORD
  5
79A6
330
1
100
AcDbSymbolTableRecord
100
AcDbBlockTableRecord
  2
*D98
340
0
  0
BLOCK_RECORD
  5
79B2
330
1
100
AcDbSymbolTableRecord
100
AcDbBlockTableRecord
  2
*D99
340
0
  0
BLOCK_RECORD
  5
79BE
330
1
100
AcDbSymbolTableRecord
100
AcDbBlockTableRecord
  2
*D100
340
0
  0
BLOCK_RECORD
  5
79CA
330
1
100
AcDbSymbolTableRecord
100
AcDbBlockTableRecord
  2
*D101
340
0
  0
ENDTAB
  0
ENDSEC
  0
SECTION
  2
BLOCKS
  0
BLOCK
  5
1F
330
1E
100
AcDbEntity
  8
0
100
AcDbBlockBegin
  2
*MODEL_SPACE
 70
     0
 10
0.0
 20
0.0
 30
0.0
  3
*MODEL_SPACE
  1

  0
ENDBLK
  5
20
330
1E
100
AcDbEntity
  8
0
100
AcDbBlockEnd
  0
BLOCK
  5
1B
330
1A
100
AcDbEntity
 67
     1
  8
0
100
AcDbBlockBegin
  2
*PAPER_SPACE
 70
     0
 10
0.0
 20
0.0
 30
0.0
  3
*PAPER_SPACE
  1

  0
ENDBLK
  5
1C
330
1A
100
AcDbEntity
 67
     1
  8
0
100
AcDbBlockEnd
  0
BLOCK
  5
3B6
330
3B2
100
AcDbEntity
  8
0
100
AcDbBlockBegin
  2
_OPEN
 70
     0
 10
0.0
 20
0.0
 30
0.0
  3
_OPEN
  1

  0
LINE
  5
3B3
330
3B2
100
AcDbEntity
  8
30
  6
Continuous
 62
     0
100
AcDbLine
 10
-1.0
 20
0.166667
 30
0.0
 11
0.0
 21
0.0
 31
0.0
  0
LINE
  5
3B4
330
3B2
100
AcDbEntity
  8
30
  6
Continuous
 62
     0
100
AcDbLine
 10
-1.0
 20
-0.166667
 30
0.0
 11
0.0
 21
0.0
 31
0.0
  0
LINE
  5
3B5
330
3B2
100
AcDbEntity
  8
30
  6
Continuous
 62
     0
100
AcDbLine
 10
0.0
 20
0.0
 30
0.0
 11
-1.0
 21
0.0
 31
0.0
  0
ENDBLK
  5
3B7
330
3B2
100
AcDbEntity
  8
0
100
AcDbBlockEnd
  0
BLOCK
  5
6332
330
6328
100
AcDbEntity
  8
0
100
AcDbBlockBegin
  2
*D1
 70
     1
 10
0.0
 20
0.0
 30
0.0
  3
*D1
  1

  0
LINE
  5
6F61
330
6328
100
AcDbEntity
  8
30
  6
Continuous
 62
     0
100
AcDbLine
 10
-48.99999999999998
 20
26.0
 30
0.0
 11
-48.99999999999998
 21
35.71319198619852
 31
0.0
  0
LINE
  5
6F62
330
6328
100
AcDbEntity
  8
30
  6
Continuous
 62
     0
100
AcDbLine
 10
49.00000000000003
 20
26.0
 30
0.0
 11
49.00000000000003
 21
35.71319198619852
 31
0.0
  0
LINE
  5
6F63
330
6328
100
AcDbEntity
  8
30
  6
Continuous
 62
     0
100
AcDbLine
 10
-46.99999999999998
 20
35.21319198619853
 30
0.0
 11
47.00000000000001
 21
35.21319198619853
 31
0.0
  0
INSERT
  5
6F64
330
6328
100
AcDbEntity
  8
30
  6
Continuous
 62
     0
100
AcDbBlockReference
  2
_OPEN
 10
-48.99999999999998
 20
35.21319198619853
 30
0.0
 41
2.0
 42
2.0
 43
2.0
 50
180.0
  0
INSERT
  5
6F65
330
6328
100
AcDbEntity
  8
30
  6
Continuous
 62
     0
100
AcDbBlockReference
  2
_OPEN
 10
49.00000000000003
 20
35.21319198619853
 30
0.0
 41
2.0
 42
2.0
 43
2.0
  0
MTEXT
  5
6F66
330
6328
100
AcDbEntity
  8
30
  6
Continuous
 62
     0
100
AcDbMText
 10
0.0000000000000251
 20
38.21319198619852
 30
0.0
 40
4.0
 41
0.0
 71
     5
 72
     1
  1
\A1;98
 73
     1
 44
1.0
1001
ACAD
1000
MTEXTBEGIN
1070
    73
1070
     1
1070
    44
1040
1.0
1070
    74
1070
     0
1000
MTEXTEND
  0
POINT
  5
6F67
330
6328
100
AcDbEntity
  8
DEFPOINTS
  6
Continuous
 62
     0
100
AcDbPoint
 10
-48.99999999999998
 20
25.0
 30
0.0
  0
POINT
  5
6F68
330
6328
100
AcDbEntity
  8
DEFPOINTS
  6
Continuous
 62
     0
100
AcDbPoint
 10
49.00000000000003
 20
25.0
 30
0.0
  0
POINT
  5
6F69
330
6328
100
AcDbEntity
  8
DEFPOINTS
  6
Continuous
 62
     0
100
AcDbPoint
 10
49.00000000000003
 20
35.21319198619853
 30
0.0
  0
ENDBLK
  5
6333
330
6328
100
AcDbEntity
  8
0
100
AcDbBlockEnd
  0
BLOCK
  5
633E
330
6334
100
AcDbEntity
  8
0
100
AcDbBlockBegin
  2
*D2
 70
     1
 10
0.0
 20
0.0
 30
0.0
  3
*D2
  1

  0
LINE
  5
6F58
330
6334
100
AcDbEntity
  8
30
  6
Continuous
 62
     0
100
AcDbLine
 10
-52.5
 20
-83.49999999999999
 30
0.0
 11
-52.5
 21
-130.9544464119911
 31
0.0
  0
LINE
  5
6F59
330
6334
100
AcDbEntity
  8
30
  6
Continuous
 62
     0
100
AcDbLine
 10
87.50000000000005
 20
-83.49999999999999
 30
0.0
 11
87.50000000000005
 21
-130.9544464119911
 31
0.0
  0
LINE
  5
6F5A
330
6334
100
AcDbEntity
  8
30
  6
Continuous
 62
     0
100
AcDbLine
 10
-50.5
 20
-130.4544464119911
 30
0.0
 11
85.50000000000004
 21
-130.4544464119911
 31
0.0
  0
INSERT
  5
6F5B
330
6334
100
AcDbEntity
  8
30
  6
Continuous
 62
     0
100
AcDbBlockReference
  2
_OPEN
 10
-52.5
 20
-130.4544464119911
 30
0.0
 41
2.0
 42
2.0
 43
2.0
 50
180.0
  0
INSERT
  5
6F5C
330
6334
100
AcDbEntity
  8
30
  6
Continuous
 62
     0
100
AcDbBlockReference
  2
_OPEN
 10
87.50000000000005
 20
-130.4544464119911
 30
0.0
 41
2.0
 42
2.0
 43
2.0
  0
MTEXT
  5
6F5D
330
6334
100
AcDbEntity
  8
30
  6
Continuous
 62
     0
100
AcDbMText
 10
17.50000000000001
 20
-127.4544464119911
 30
0.0
 40
4.0
 41
0.0
 71
     5
 72
     1
  1
\A1;140
 73
     1
 44
1.0
1001
ACAD
1000
MTEXTBEGIN
1070
    73
1070
     1
1070
    44
1040
1.0
1070
    74
1070
     0
1000
MTEXTEND
  0
POINT
  5
6F5E
330
6334
100
AcDbEntity
  8
DEFPOINTS
  6
Continuous
 62
     0
100
AcDbPoint
 10
-52.5
 20
-82.5
 30
0.0
  0
POINT
  5
6F5F
330
6334
100
AcDbEntity
  8
DEFPOINTS
  6
Continuous
 62
     0
100
AcDbPoint
 10
87.50000000000005
 20
-82.5
 30
0.0
  0
POINT
  5
6F60
330
6334
100
AcDbEntity
  8
DEFPOINTS
  6
Continuous
 62
     0
100
AcDbPoint
 10
87.50000000000005
 20
-130.4544464119911
 30
0.0
  0
ENDBLK
  5
633F
330
6334
100
AcDbEntity
  8
0
100
AcDbBlockEnd
  0
BLOCK
  5
634A
330
6340
100
AcDbEntity
  8
0
100
AcDbBlockBegin
  2
*D3
 70
     1
 10
0.0
 20
0.0
 30
0.0
  3
*D3
  1

  0
LINE
  5
6F4F
330
6340
100
AcDbEntity
  8
30
  6
Continuous
 62
     0
100
AcDbLine
 10
-35.0
 20
-75.50000001650001
 30
0.0
 11
-35.0
 21
-110.9544464119909
 31
0.0
  0
LINE
  5
6F50
330
6340
100
AcDbEntity
  8
30
  6
Continuous
 62
     0
100
AcDbLine
 10
-0.0000000000000001
 20
-78.00000000000007
 30
0.0
 11
-0.0000000000000021
 21
-110.9544464119909
 31
0.0
  0
LINE
  5
6F51
330
6340
100
AcDbEntity
  8
30
  6
Continuous
 62
     0
100
AcDbLine
 10
-32.99999999999999
 20
-110.454446411991
 30
0.0
 11
-2.000000000000002
 21
-110.454446411991
 31
0.0
  0
INSERT
  5
6F52
330
6340
100
AcDbEntity
  8
30
  6
Continuous
 62
     0
100
AcDbBlockReference
  2
_OPEN
 10
-35.0
 20
-110.454446411991
 30
0.0
 41
2.0
 42
2.0
 43
2.0
 50
180.0
  0
INSERT
  5
6F53
330
6340
100
AcDbEntity
  8
30
  6
Continuous
 62
     0
100
AcDbBlockReference
  2
_OPEN
 10
-0.000000000000002
 20
-110.454446411991
 30
0.0
 41
2.0
 42
2.0
 43
2.0
  0
MTEXT
  5
6F54
330
6340
100
AcDbEntity
  8
30
  6
Continuous
 62
     0
100
AcDbMText
 10
-17.49999999999999
 20
-107.454446411991
 30
0.0
 40
4.0
 41
0.0
 71
     5
 72
     1
  1
\A1;35
 73
     1
 44
1.0
1001
ACAD
1000
MTEXTBEGIN
1070
    73
1070
     1
1070
    44
1040
1.0
1070
    74
1070
     0
1000
MTEXTEND
  0
POINT
  5
6F55
330
6340
100
AcDbEntity
  8
DEFPOINTS
  6
Continuous
 62
     0
100
AcDbPoint
 10
-35.0
 20
-74.50000001650001
 30
0.0
  0
POINT
  5
6F56
330
6340
100
AcDbEntity
  8
DEFPOINTS
  6
Continuous
 62
     0
100
AcDbPoint
 10
0.0
 20
-77.00000000000007
 30
0.0
  0
POINT
  5
6F57
330
6340
100
AcDbEntity
  8
DEFPOINTS
  6
Continuous
 62
     0
100
AcDbPoint
 10
-0.000000000000002
 20
-110.454446411991
 30
0.0
  0
ENDBLK
  5
634B
330
6340
100
AcDbEntity
  8
0
100
AcDbBlockEnd
  0
BLOCK
  5
6356
330
634C
100
AcDbEntity
  8
0
100
AcDbBlockBegin
  2
*D4
 70
     1
 10
0.0
 20
0.0
 30
0.0
  3
*D4
  1

  0
LINE
  5
6F46
330
634C
100
AcDbEntity
  8
30
  6
Continuous
 62
     0
100
AcDbLine
 10
-10.99999999999999
 20
-26.0
 30
0.0
 11
-10.99999999999999
 21
-40.95444641199117
 31
0.0
  0
LINE
  5
6F47
330
634C
100
AcDbEntity
  8
30
  6
Continuous
 62
     0
100
AcDbLine
 10
10.99999999999999
 20
-26.0
 30
0.0
 11
10.99999999999998
 21
-40.95444641199117
 31
0.0
  0
LINE
  5
6F48
330
634C
100
AcDbEntity
  8
30
  6
Continuous
 62
     0
100
AcDbLine
 10
-8.999999999999991
 20
-40.45444641199117
 30
0.0
 11
8.999999999999987
 21
-40.45444641199117
 31
0.0
  0
INSERT
  5
6F49
330
634C
100
AcDbEntity
  8
30
  6
Continuous
 62
     0
100
AcDbBlockReference
  2
_OPEN
 10
-10.99999999999999
 20
-40.45444641199117
 30
0.0
 41
2.0
 42
2.0
 43
2.0
 50
180.0
  0
INSERT
  5
6F4A
330
634C
100
AcDbEntity
  8
30
  6
Continuous
 62
     0
100
AcDbBlockReference
  2
_OPEN
 10
10.99999999999998
 20
-40.45444641199117
 30
0.0
 41
2.0
 42
2.0
 43
2.0
  0
MTEXT
  5
6F4B
330
634C
100
AcDbEntity
  8
30
  6
Continuous
 62
     0
100
AcDbMText
 10
-0.0000000000000016
 20
-37.45444641199117
 30
0.0
 40
4.0
 41
0.0
 71
     5
 72
     1
  1
\A1;22
 73
     1
 44
1.0
1001
ACAD
1000
MTEXTBEGIN
1070
    73
1070
     1
1070
    44
1040
1.0
1070
    74
1070
     0
1000
MTEXTEND
  0
POINT
  5
6F4C
330
634C
100
AcDbEntity
  8
DEFPOINTS
  6
Continuous
 62
     0
100
AcDbPoint
 10
-10.99999999999999
 20
-25.0
 30
0.0
  0
POINT
  5
6F4D
330
634C
100
AcDbEntity
  8
DEFPOINTS
  6
Continuous
 62
     0
100
AcDbPoint
 10
10.99999999999999
 20
-25.0
 30
0.0
  0
POINT
  5
6F4E
330
634C
100
AcDbEntity
  8
DEFPOINTS
  6
Continuous
 62
     0
100
AcDbPoint
 10
10.99999999999998
 20
-40.45444641199117
 30
0.0
  0
ENDBLK
  5
6357
330
634C
100
AcDbEntity
  8
0
100
AcDbBlockEnd
  0
BLOCK
  5
63D6
330
63CC
100
AcDbEntity
  8
0
100
AcDbBlockBegin
  2
*D5
 70
     1
 10
0.0
 20
0.0
 30
0.0
  3
*D5
  1

  0
LINE
  5
7082
330
63CC
100
AcDbEntity
  8
30
  6
Continuous
 62
     0
100
AcDbLine
 10
-17.88009453517117
 20
-320.3473940210347
 30
0.0
 11
-17.88009453517117
 21
-361.8018404330259
 31
0.0
  0
LINE
  5
7083
330
63CC
100
AcDbEntity
  8
30
  6
Continuous
 62
     0
100
AcDbLine
 10
17.1199054648288
 20
-317.3473940375349
 30
0.0
 11
17.11990546482879
 21
-361.8018404330259
 31
0.0
  0
LINE
  5
7084
330
63CC
100
AcDbEntity
  8
30
  6
Continuous
 62
     0
100
AcDbLine
 10
-15.88009453517118
 20
-361.3018404330259
 30
0.0
 11
15.11990546482879
 21
-361.3018404330259
 31
0.0
  0
INSERT
  5
7085
330
63CC
100
AcDbEntity
  8
30
  6
Continuous
 62
     0
100
AcDbBlockReference
  2
_OPEN
 10
-17.88009453517117
 20
-361.3018404330259
 30
0.0
 41
2.0
 42
2.0
 43
2.0
 50
180.0
  0
INSERT
  5
7086
330
63CC
100
AcDbEntity
  8
30
  6
Continuous
 62
     0
100
AcDbBlockReference
  2
_OPEN
 10
17.11990546482879
 20
-361.3018404330259
 30
0.0
 41
2.0
 42
2.0
 43
2.0
  0
MTEXT
  5
7087
330
63CC
100
AcDbEntity
  8
30
  6
Continuous
 62
     0
100
AcDbMText
 10
-0.3800945351711922
 20
-358.3018404330259
 30
0.0
 40
4.0
 41
0.0
 71
     5
 72
     1
  1
\A1;35
 73
     1
 44
1.0
1001
ACAD
1000
MTEXTBEGIN
1070
    73
1070
     1
1070
    44
1040
1.0
1070
    74
1070
     0
1000
MTEXTEND
  0
POINT
  5
7088
330
63CC
100
AcDbEntity
  8
DEFPOINTS
  6
Continuous
 62
     0
100
AcDbPoint
 10
-17.88009453517117
 20
-319.3473940210346
 30
0.0
  0
POINT
  5
7089
330
63CC
100
AcDbEntity
  8
DEFPOINTS
  6
Continuous
 62
     0
100
AcDbPoint
 10
17.1199054648288
 20
-316.3473940375348
 30
0.0
  0
POINT
  5
708A
330
63CC
100
AcDbEntity
  8
DEFPOINTS
  6
Continuous
 62
     0
100
AcDbPoint
 10
17.11990546482879
 20
-361.3018404330259
 30
0.0
  0
ENDBLK
  5
63D7
330
63CC
100
AcDbEntity
  8
0
100
AcDbBlockEnd
  0
BLOCK
  5
63E1
330
63D8
100
AcDbEntity
  8
0
100
AcDbBlockBegin
  2
*D6
 70
     1
 10
0.0
 20
0.0
 30
0.0
  3
*D6
  1

  0
LINE
  5
68D5
330
63D8
100
AcDbEntity
  8
30
  6
Continuous
 62
     0
100
AcDbLine
 10
60.18503154433857
 20
-223.6428351593878
 30
0.0
 11
53.85169821100524
 21
-223.6428351593878
 31
0.0
  0
LINE
  5
68D6
330
63D8
100
AcDbEntity
  8
30
  6
Continuous
 62
     0
100
AcDbLine
 10
53.85169821100524
 20
-223.6428351593878
 30
0.0
 11
52.21341892660323
 21
-224.7900234553096
 31
0.0
  0
MTEXT
  5
68D7
330
63D8
100
AcDbEntity
  8
30
  6
Continuous
 62
     0
100
AcDbMText
 10
57.51836487767187
 20
-220.642835159388
 30
0.0
 40
4.0
 41
0.0
 71
     5
 72
     1
  1
\A1;R1
 73
     1
 44
1.0
1001
ACAD
1000
MTEXTBEGIN
1070
    73
1070
     1
1070
    44
1040
1.0
1070
    74
1070
     0
1000
MTEXTEND
  0
INSERT
  5
68D8
330
63D8
100
AcDbEntity
  8
30
  6
Continuous
 62
     0
100
AcDbBlockReference
  2
_OPEN
 10
50.57513964220119
 20
-225.937211751231
 30
0.0
 41
2.0
 42
2.0
 43
2.0
 50
215.0012388520208
  0
LINE
  5
68D9
330
63D8
100
AcDbEntity
  8
30
  6
Continuous
 62
     0
100
AcDbLine
 10
49.66600000000031
 20
-226.5108058991915
 30
0.0
 11
49.84600000000032
 21
-226.5108058991915
 31
0.0
  0
LINE
  5
68DA
330
63D8
100
AcDbEntity
  8
30
  6
Continuous
 62
     0
100
AcDbLine
 10
49.75600000000037
 20
-226.6008058991916
 30
0.0
 11
49.75600000000035
 21
-226.4208058991917
 31
0.0
  0
POINT
  5
68DB
330
63D8
100
AcDbEntity
  8
DEFPOINTS
  6
Continuous
 62
     0
100
AcDbPoint
 10
50.57513964220119
 20
-225.937211751231
 30
0.0
  0
POINT
  5
68DC
330
63D8
100
AcDbEntity
  8
DEFPOINTS
  6
Continuous
 62
     0
100
AcDbPoint
 10
49.75600000000032
 20
-226.5108058991915
 30
0.0
  0
ENDBLK
  5
63E2
330
63D8
100
AcDbEntity
  8
0
100
AcDbBlockEnd
  0
BLOCK
  5
6404
330
6402
100
AcDbEntity
  8
TOP
  6
Continuous
 62
     4
100
AcDbBlockBegin
  2
*U7
 70
     1
 10
0.0
 20
0.0
 30
0.0
  3
*U7
  1

  0
TEXT
  5
6403
330
6402
100
AcDbEntity
  8
TOP
  6
ByBlock
 62
     0
100
AcDbText
 10
241.0
 20
103.4999999999999
 30
0.0
 40
2.500000003799998
  1
25
 41
0.8912499999999965
  7
UGMTXT
100
AcDbText
  0
ENDBLK
  5
6405
330
6402
100
AcDbEntity
  8
0
100
AcDbBlockEnd
  0
BLOCK
  5
6408
330
6406
100
AcDbEntity
  8
TOP
  6
Continuous
 62
     4
100
AcDbBlockBegin
  2
*U8
 70
     1
 10
0.0
 20
0.0
 30
0.0
  3
*U8
  1

  0
TEXT
  5
6407
330
6406
100
AcDbEntity
  8
TOP
  6
ByBlock
 62
     0
100
AcDbText
 10
245.0
 20
103.4999999999999
 30
0.0
 40
2.500000003799998
  1
(max.)
 41
0.8216911764705852
  7
UGMTXT
100
AcDbText
  0
ENDBLK
  5
6409
330
6406
100
AcDbEntity
  8
0
100
AcDbBlockEnd
  0
BLOCK
  5
640C
330
640A
100
AcDbEntity
  8
TOP
  6
Continuous
 62
     4
100
AcDbBlockBegin
  2
*U9
 70
     1
 10
0.0
 20
0.0
 30
0.0
  3
*U9
  1

  0
TEXT
  5
640B
330
640A
100
AcDbEntity
  8
TOP
  6
ByBlock
 62
     0
100
AcDbText
 10
262.5
 20
115.0
 30
0.0
 40
2.500000003799998
  1
10
 50
90.00000000000005
 41
0.8912499999999965
  7
UGMTXT
100
AcDbText
  0
ENDBLK
  5
640D
330
640A
100
AcDbEntity
  8
0
100
AcDbBlockEnd
  0
BLOCK
  5
6410
330
640E
100
AcDbEntity
  8
TOP
  6
Continuous
 62
     4
100
AcDbBlockBegin
  2
*U10
 70
     1
 10
0.0
 20
0.0
 30
0.0
  3
*U10
  1

  0
TEXT
  5
640F
330
640E
100
AcDbEntity
  8
TOP
  6
ByBlock
 62
     0
100
AcDbText
 10
262.5
 20
119.5
 30
0.0
 40
2.500000003799998
  1
(max.)
 50
90.00000000000005
 41
0.8216911764705852
  7
UGMTXT
100
AcDbText
  0
ENDBLK
  5
6411
330
640E
100
AcDbEntity
  8
0
100
AcDbBlockEnd
  0
BLOCK
  5
641F
330
641D
100
AcDbEntity
  8
TOP
  6
Continuous
 62
     4
100
AcDbBlockBegin
  2
*U11
 70
     1
 10
0.0
 20
0.0
 30
0.0
  3
*U11
  1

  0
TEXT
  5
641E
330
641D
100
AcDbEntity
  8
TOP
  6
ByBlock
 62
     0
100
AcDbText
 10
243.0
 20
98.50000000000001
 30
0.0
 40
2.500000003799998
  1
max.t7
 41
0.8216911764705852
  7
UGMTXT
100
AcDbText
  0
ENDBLK
  5
6420
330
641D
100
AcDbEntity
  8
0
100
AcDbBlockEnd
  0
BLOCK
  5
6427
330
6421
100
AcDbEntity
  8
TOP
  6
Continuous
 62
     4
100
AcDbBlockBegin
  2
*U12
 70
     1
 10
0.0
 20
0.0
 30
0.0
  3
*U12
  1

  0
LINE
  5
6422
330
6421
100
AcDbEntity
  8
5
  6
ByBlock
 62
     0
100
AcDbLine
 10
187.4932291666666
 20
140.0
 30
0.0
 11
187.4932291666666
 21
140.0
 31
0.0
  0
LINE
  5
6423
330
6421
100
AcDbEntity
  8
5
  6
ByBlock
 62
     0
100
AcDbLine
 10
212.3871961722488
 20
130.0647232036205
 30
0.0
 11
204.0
 21
140.0
 31
0.0
  0
LINE
  5
6424
330
6421
100
AcDbEntity
  8
5
  6
ByBlock
 62
     0
100
AcDbLine
 10
204.0
 20
140.0
 30
0.0
 11
187.4932291666666
 21
140.0
 31
0.0
  0
SOLID
  5
6425
330
6421
100
AcDbEntity
  8
5
  6
ByBlock
 62
     0
100
AcDbTrace
 10
212.3871961722488
 20
130.0647232036205
 30
0.0
 11
210.8423579767661
 21
131.3779581845569
 31
0.0
 12
211.3517767919609
 22
131.8080011138521
 32
0.0
 13
211.3517767919609
 23
131.8080011138521
 33
0.0
  0
TEXT
  5
6426
330
6421
100
AcDbEntity
  8
TOP
  6
ByBlock
 62
     0
100
AcDbText
 10
187.4932291666666
 20
138.7499999999999
 30
0.0
 40
2.5
  1
 
 41
1.054062499999991
  7
UGMTXT
100
AcDbText
  0
ENDBLK
  5
6428
330
6421
100
AcDbEntity
  8
0
100
AcDbBlockEnd
  0
BLOCK
  5
65C8
330
65BE
100
AcDbEntity
  8
0
100
AcDbBlockBegin
  2
*D13
 70
     1
 10
0.0
 20
0.0
 30
0.0
  3
*D13
  1

  0
LINE
  5
6F34
330
65BE
100
AcDbEntity
  8
30
  6
Continuous
 62
     0
100
AcDbLine
 10
191.2602819584348
 20
-52.00000000000002
 30
0.0
 11
191.2602819584348
 21
-115.9544464119911
 31
0.0
  0
LINE
  5
6F35
330
65BE
100
AcDbEntity
  8
30
  6
Continuous
 62
     0
100
AcDbLine
 10
259.2602819584348
 20
-83.49999999999999
 30
0.0
 11
259.2602819584348
 21
-115.9544464119911
 31
0.0
  0
LINE
  5
6F36
330
65BE
100
AcDbEntity
  8
30
  6
Continuous
 62
     0
100
AcDbLine
 10
193.2602819584348
 20
-115.454446411991
 30
0.0
 11
257.2602819584348
 21
-115.454446411991
 31
0.0
  0
INSERT
  5
6F37
330
65BE
100
AcDbEntity
  8
30
  6
Continuous
 62
     0
100
AcDbBlockReference
  2
_OPEN
 10
191.2602819584348
 20
-115.454446411991
 30
0.0
 41
2.0
 42
2.0
 43
2.0
 50
180.0
  0
INSERT
  5
6F38
330
65BE
100
AcDbEntity
  8
30
  6
Continuous
 62
     0
100
AcDbBlockReference
  2
_OPEN
 10
259.2602819584348
 20
-115.454446411991
 30
0.0
 41
2.0
 42
2.0
 43
2.0
  0
MTEXT
  5
6F39
330
65BE
100
AcDbEntity
  8
30
  6
Continuous
 62
     0
100
AcDbMText
 10
225.2602819584347
 20
-112.454446411991
 30
0.0
 40
4.0
 41
0.0
 71
     5
 72
     1
  1
\A1;68
 73
     1
 44
1.0
1001
ACAD
1000
MTEXTBEGIN
1070
    73
1070
     1
1070
    44
1040
1.0
1070
    74
1070
     0
1000
MTEXTEND
  0
POINT
  5
6F3A
330
65BE
100
AcDbEntity
  8
DEFPOINTS
  6
Continuous
 62
     0
100
AcDbPoint
 10
191.2602819584348
 20
-51.00000000000002
 30
0.0
  0
POINT
  5
6F3B
330
65BE
100
AcDbEntity
  8
DEFPOINTS
  6
Continuous
 62
     0
100
AcDbPoint
 10
259.2602819584348
 20
-82.5
 30
0.0
  0
POINT
  5
6F3C
330
65BE
100
AcDbEntity
  8
DEFPOINTS
  6
Continuous
 62
     0
100
AcDbPoint
 10
259.2602819584348
 20
-115.454446411991
 30
0.0
  0
ENDBLK
  5
65C9
330
65BE
100
AcDbEntity
  8
0
100
AcDbBlockEnd
  0
BLOCK
  5
65D4
330
65CA
100
AcDbEntity
  8
0
100
AcDbBlockBegin
  2
*D14
 70
     1
 10
0.0
 20
0.0
 30
0.0
  3
*D14
  1

  0
LINE
  5
6F2B
330
65CA
100
AcDbEntity
  8
30
  6
Continuous
 62
     0
100
AcDbLine
 10
167.2602819584346
 20
-1.000000000000001
 30
0.0
 11
167.2602819584346
 21
-138.9544464119911
 31
0.0
  0
LINE
  5
6F2C
330
65CA
100
AcDbEntity
  8
30
  6
Continuous
 62
     0
100
AcDbLine
 10
259.2602819584348
 20
-83.49999999999999
 30
0.0
 11
259.2602819584348
 21
-138.9544464119911
 31
0.0
  0
LINE
  5
6F2D
330
65CA
100
AcDbEntity
  8
30
  6
Continuous
 62
     0
100
AcDbLine
 10
169.2602819584346
 20
-138.4544464119911
 30
0.0
 11
257.2602819584348
 21
-138.4544464119911
 31
0.0
  0
INSERT
  5
6F2E
330
65CA
100
AcDbEntity
  8
30
  6
Continuous
 62
     0
100
AcDbBlockReference
  2
_OPEN
 10
167.2602819584346
 20
-138.4544464119911
 30
0.0
 41
2.0
 42
2.0
 43
2.0
 50
180.0
  0
INSERT
  5
6F2F
330
65CA
100
AcDbEntity
  8
30
  6
Continuous
 62
     0
100
AcDbBlockReference
  2
_OPEN
 10
259.2602819584348
 20
-138.4544464119911
 30
0.0
 41
2.0
 42
2.0
 43
2.0
  0
MTEXT
  5
6F30
330
65CA
100
AcDbEntity
  8
30
  6
Continuous
 62
     0
100
AcDbMText
 10
213.2602819584346
 20
-135.4544464119911
 30
0.0
 40
4.0
 41
0.0
 71
     5
 72
     1
  1
\A1;92
 73
     1
 44
1.0
1001
ACAD
1000
MTEXTBEGIN
1070
    73
1070
     1
1070
    44
1040
1.0
1070
    74
1070
     0
1000
MTEXTEND
  0
POINT
  5
6F31
330
65CA
100
AcDbEntity
  8
DEFPOINTS
  6
Continuous
 62
     0
100
AcDbPoint
 10
167.2602819584346
 20
-0.0000000000000027
 30
0.0
  0
POINT
  5
6F32
330
65CA
100
AcDbEntity
  8
DEFPOINTS
  6
Continuous
 62
     0
100
AcDbPoint
 10
259.2602819584348
 20
-82.5
 30
0.0
  0
POINT
  5
6F33
330
65CA
100
AcDbEntity
  8
DEFPOINTS
  6
Continuous
 62
     0
100
AcDbPoint
 10
259.2602819584348
 20
-138.4544464119911
 30
0.0
  0
ENDBLK
  5
65D5
330
65CA
100
AcDbEntity
  8
0
100
AcDbBlockEnd
  0
BLOCK
  5
65E0
330
65D6
100
AcDbEntity
  8
0
100
AcDbBlockBegin
  2
*D15
 70
     1
 10
0.0
 20
0.0
 30
0.0
  3
*D15
  1

  0
LINE
  5
6F22
330
65D6
100
AcDbEntity
  8
30
  6
Continuous
 62
     0
100
AcDbLine
 10
187.2602819584348
 20
-26.0
 30
0.0
 11
187.2602819584348
 21
-126.954446411991
 31
0.0
  0
LINE
  5
6F23
330
65D6
100
AcDbEntity
  8
30
  6
Continuous
 62
     0
100
AcDbLine
 10
259.2602819584348
 20
-83.49999999999999
 30
0.0
 11
259.2602819584348
 21
-126.954446411991
 31
0.0
  0
LINE
  5
6F24
330
65D6
100
AcDbEntity
  8
30
  6
Continuous
 62
     0
100
AcDbLine
 10
189.2602819584348
 20
-126.4544464119911
 30
0.0
 11
257.2602819584348
 21
-126.4544464119911
 31
0.0
  0
INSERT
  5
6F25
330
65D6
100
AcDbEntity
  8
30
  6
Continuous
 62
     0
100
AcDbBlockReference
  2
_OPEN
 10
187.2602819584348
 20
-126.4544464119911
 30
0.0
 41
2.0
 42
2.0
 43
2.0
 50
180.0
  0
INSERT
  5
6F26
330
65D6
100
AcDbEntity
  8
30
  6
Continuous
 62
     0
100
AcDbBlockReference
  2
_OPEN
 10
259.2602819584348
 20
-126.4544464119911
 30
0.0
 41
2.0
 42
2.0
 43
2.0
  0
MTEXT
  5
6F27
330
65D6
100
AcDbEntity
  8
30
  6
Continuous
 62
     0
100
AcDbMText
 10
223.2602819584347
 20
-123.4544464119911
 30
0.0
 40
4.0
 41
0.0
 71
     5
 72
     1
  1
\A1;72
 73
     1
 44
1.0
1001
ACAD
1000
MTEXTBEGIN
1070
    73
1070
     1
1070
    44
1040
1.0
1070
    74
1070
     0
1000
MTEXTEND
  0
POINT
  5
6F28
330
65D6
100
AcDbEntity
  8
DEFPOINTS
  6
Continuous
 62
     0
100
AcDbPoint
 10
187.2602819584348
 20
-25.0
 30
0.0
  0
POINT
  5
6F29
330
65D6
100
AcDbEntity
  8
DEFPOINTS
  6
Continuous
 62
     0
100
AcDbPoint
 10
259.2602819584348
 20
-82.5
 30
0.0
  0
POINT
  5
6F2A
330
65D6
100
AcDbEntity
  8
DEFPOINTS
  6
Continuous
 62
     0
100
AcDbPoint
 10
259.2602819584348
 20
-126.4544464119911
 30
0.0
  0
ENDBLK
  5
65E1
330
65D6
100
AcDbEntity
  8
0
100
AcDbBlockEnd
  0
BLOCK
  5
65EC
330
65E2
100
AcDbEntity
  8
0
100
AcDbBlockBegin
  2
*D16
 70
     1
 10
0.0
 20
0.0
 30
0.0
  3
*D16
  1

  0
LINE
  5
6F19
330
65E2
100
AcDbEntity
  8
30
  6
Continuous
 62
     0
100
AcDbLine
 10
198.2602819584347
 20
-83.49999999999999
 30
0.0
 11
198.2602819584347
 21
-103.954446411991
 31
0.0
  0
LINE
  5
6F1A
330
65E2
100
AcDbEntity
  8
30
  6
Continuous
 62
     0
100
AcDbLine
 10
259.2602819584348
 20
-83.49999999999999
 30
0.0
 11
259.2602819584348
 21
-103.954446411991
 31
0.0
  0
LINE
  5
6F1B
330
65E2
100
AcDbEntity
  8
30
  6
Continuous
 62
     0
100
AcDbLine
 10
200.2602819584347
 20
-103.4544464119911
 30
0.0
 11
257.2602819584348
 21
-103.4544464119911
 31
0.0
  0
INSERT
  5
6F1C
330
65E2
100
AcDbEntity
  8
30
  6
Continuous
 62
     0
100
AcDbBlockReference
  2
_OPEN
 10
198.2602819584347
 20
-103.4544464119911
 30
0.0
 41
2.0
 42
2.0
 43
2.0
 50
180.0
  0
INSERT
  5
6F1D
330
65E2
100
AcDbEntity
  8
30
  6
Continuous
 62
     0
100
AcDbBlockReference
  2
_OPEN
 10
259.2602819584348
 20
-103.4544464119911
 30
0.0
 41
2.0
 42
2.0
 43
2.0
  0
MTEXT
  5
6F1E
330
65E2
100
AcDbEntity
  8
30
  6
Continuous
 62
     0
100
AcDbMText
 10
228.7602819584346
 20
-100.4544464119911
 30
0.0
 40
4.0
 41
0.0
 71
     5
 72
     1
  1
\A1;61
 73
     1
 44
1.0
1001
ACAD
1000
MTEXTBEGIN
1070
    73
1070
     1
1070
    44
1040
1.0
1070
    74
1070
     0
1000
MTEXTEND
  0
POINT
  5
6F1F
330
65E2
100
AcDbEntity
  8
DEFPOINTS
  6
Continuous
 62
     0
100
AcDbPoint
 10
198.2602819584347
 20
-82.5
 30
0.0
  0
POINT
  5
6F20
330
65E2
100
AcDbEntity
  8
DEFPOINTS
  6
Continuous
 62
     0
100
AcDbPoint
 10
259.2602819584348
 20
-82.5
 30
0.0
  0
POINT
  5
6F21
330
65E2
100
AcDbEntity
  8
DEFPOINTS
  6
Continuous
 62
     0
100
AcDbPoint
 10
259.2602819584348
 20
-103.4544464119911
 30
0.0
  0
ENDBLK
  5
65ED
330
65E2
100
AcDbEntity
  8
0
100
AcDbBlockEnd
  0
BLOCK
  5
65F8
330
65EE
100
AcDbEntity
  8
0
100
AcDbBlockBegin
  2
*D17
 70
     1
 10
0.0
 20
0.0
 30
0.0
  3
*D17
  1

  0
LINE
  5
6F10
330
65EE
100
AcDbEntity
  8
30
  6
Continuous
 62
     0
100
AcDbLine
 10
190.2602819584348
 20
51.0
 30
0.0
 11
123.7572915325626
 21
51.00000000000002
 31
0.0
  0
LINE
  5
6F11
330
65EE
100
AcDbEntity
  8
30
  6
Continuous
 62
     0
100
AcDbLine
 10
190.2602819584348
 20
-51.00000000000002
 30
0.0
 11
123.7572915325626
 21
-51.0
 31
0.0
  0
LINE
  5
6F12
330
65EE
100
AcDbEntity
  8
30
  6
Continuous
 62
     0
100
AcDbLine
 10
124.2572915325625
 20
49.00000000000002
 30
0.0
 11
124.2572915325625
 21
-49.0
 31
0.0
  0
INSERT
  5
6F13
330
65EE
100
AcDbEntity
  8
30
  6
Continuous
 62
     0
100
AcDbBlockReference
  2
_OPEN
 10
124.2572915325625
 20
51.00000000000002
 30
0.0
 41
2.0
 42
2.0
 43
2.0
 50
90.0
  0
INSERT
  5
6F14
330
65EE
100
AcDbEntity
  8
30
  6
Continuous
 62
     0
100
AcDbBlockReference
  2
_OPEN
 10
124.2572915325625
 20
-51.0
 30
0.0
 41
2.0
 42
2.0
 43
2.0
 50
270.0
  0
MTEXT
  5
6F15
330
65EE
100
AcDbEntity
  8
30
  6
Continuous
 62
     0
100
AcDbMText
 10
121.2572915325626
 20
0.0000000000000318
 30
0.0
 40
4.0
 41
0.0
 71
     5
 72
     1
  1
\A1;102
 11
0.0000000000000001
 21
1.0
 31
0.0
 73
     1
 44
1.0
1001
ACAD
1000
MTEXTBEGIN
1070
    73
1070
     1
1070
    44
1040
1.0
1070
    74
1070
     0
1000
MTEXTEND
  0
POINT
  5
6F16
330
65EE
100
AcDbEntity
  8
DEFPOINTS
  6
Continuous
 62
     0
100
AcDbPoint
 10
191.2602819584348
 20
51.0
 30
0.0
  0
POINT
  5
6F17
330
65EE
100
AcDbEntity
  8
DEFPOINTS
  6
Continuous
 62
     0
100
AcDbPoint
 10
191.2602819584348
 20
-51.00000000000002
 30
0.0
  0
POINT
  5
6F18
330
65EE
100
AcDbEntity
  8
DEFPOINTS
  6
Continuous
 62
     0
100
AcDbPoint
 10
124.2572915325625
 20
-51.0
 30
0.0
  0
ENDBLK
  5
65F9
330
65EE
100
AcDbEntity
  8
0
100
AcDbBlockEnd
  0
BLOCK
  5
6604
330
65FA
100
AcDbEntity
  8
0
100
AcDbBlockBegin
  2
*D18
 70
     1
 10
0.0
 20
0.0
 30
0.0
  3
*D18
  1

  0
LINE
  5
6F07
330
65FA
100
AcDbEntity
  8
30
  6
Continuous
 62
     0
100
AcDbLine
 10
182.2602819584346
 20
24.99999999999999
 30
0.0
 11
142.5072915325625
 21
25.0
 31
0.0
  0
LINE
  5
6F08
330
65FA
100
AcDbEntity
  8
30
  6
Continuous
 62
     0
100
AcDbLine
 10
182.2602819584346
 20
-25.0
 30
0.0
 11
142.5072915325625
 21
-24.99999999999999
 31
0.0
  0
LINE
  5
6F09
330
65FA
100
AcDbEntity
  8
30
  6
Continuous
 62
     0
100
AcDbLine
 10
143.0072915325627
 20
23.0
 30
0.0
 11
143.0072915325627
 21
-22.99999999999998
 31
0.0
  0
INSERT
  5
6F0A
330
65FA
100
AcDbEntity
  8
30
  6
Continuous
 62
     0
100
AcDbBlockReference
  2
_OPEN
 10
143.0072915325627
 20
25.0
 30
0.0
 41
2.0
 42
2.0
 43
2.0
 50
90.0
  0
INSERT
  5
6F0B
330
65FA
100
AcDbEntity
  8
30
  6
Continuous
 62
     0
100
AcDbBlockReference
  2
_OPEN
 10
143.0072915325627
 20
-24.99999999999999
 30
0.0
 41
2.0
 42
2.0
 43
2.0
 50
270.0
  0
MTEXT
  5
6F0C
330
65FA
100
AcDbEntity
  8
30
  6
Continuous
 62
     0
100
AcDbMText
 10
140.0072915325627
 20
0.0000000000000289
 30
0.0
 40
4.0
 41
0.0
 71
     5
 72
     1
  1
\A1;50
 11
0.0000000000000001
 21
1.0
 31
0.0
 73
     1
 44
1.0
1001
ACAD
1000
MTEXTBEGIN
1070
    73
1070
     1
1070
    44
1040
1.0
1070
    74
1070
     0
1000
MTEXTEND
  0
POINT
  5
6F0D
330
65FA
100
AcDbEntity
  8
DEFPOINTS
  6
Continuous
 62
     0
100
AcDbPoint
 10
183.2602819584344
 20
24.99999999999999
 30
0.0
  0
POINT
  5
6F0E
330
65FA
100
AcDbEntity
  8
DEFPOINTS
  6
Continuous
 62
     0
100
AcDbPoint
 10
183.2602819584344
 20
-25.0
 30
0.0
  0
POINT
  5
6F0F
330
65FA
100
AcDbEntity
  8
DEFPOINTS
  6
Continuous
 62
     0
100
AcDbPoint
 10
143.0072915325627
 20
-24.99999999999999
 30
0.0
  0
ENDBLK
  5
6605
330
65FA
100
AcDbEntity
  8
0
100
AcDbBlockEnd
  0
BLOCK
  5
6610
330
6606
100
AcDbEntity
  8
0
100
AcDbBlockBegin
  2
*D19
 70
     1
 10
0.0
 20
0.0
 30
0.0
  3
*D19
  1

  0
LINE
  5
6EFE
330
6606
100
AcDbEntity
  8
30
  6
Continuous
 62
     0
100
AcDbLine
 10
235.2602819584347
 20
83.50000000000001
 30
0.0
 11
235.2602819584347
 21
110.0455535880087
 31
0.0
  0
LINE
  5
6EFF
330
6606
100
AcDbEntity
  8
30
  6
Continuous
 62
     0
100
AcDbLine
 10
259.2602819584348
 20
83.50000000000001
 30
0.0
 11
259.2602819584348
 21
110.0455535880087
 31
0.0
  0
LINE
  5
6F00
330
6606
100
AcDbEntity
  8
30
  6
Continuous
 62
     0
100
AcDbLine
 10
237.2602819584347
 20
109.5455535880087
 30
0.0
 11
257.2602819584348
 21
109.5455535880087
 31
0.0
  0
INSERT
  5
6F01
330
6606
100
AcDbEntity
  8
30
  6
Continuous
 62
     0
100
AcDbBlockReference
  2
_OPEN
 10
235.2602819584347
 20
109.5455535880087
 30
0.0
 41
2.0
 42
2.0
 43
2.0
 50
180.0
  0
INSERT
  5
6F02
330
6606
100
AcDbEntity
  8
30
  6
Continuous
 62
     0
100
AcDbBlockReference
  2
_OPEN
 10
259.2602819584348
 20
109.5455535880087
 30
0.0
 41
2.0
 42
2.0
 43
2.0
  0
MTEXT
  5
6F03
330
6606
100
AcDbEntity
  8
30
  6
Continuous
 62
     0
100
AcDbMText
 10
247.2602819584345
 20
112.5455535880087
 30
0.0
 40
4.0
 41
0.0
 71
     5
 72
     1
  1
\A1;24
 73
     1
 44
1.0
1001
ACAD
1000
MTEXTBEGIN
1070
    73
1070
     1
1070
    44
1040
1.0
1070
    74
1070
     0
1000
MTEXTEND
  0
POINT
  5
6F04
330
6606
100
AcDbEntity
  8
DEFPOINTS
  6
Continuous
 62
     0
100
AcDbPoint
 10
235.2602819584347
 20
82.50000000000001
 30
0.0
  0
POINT
  5
6F05
330
6606
100
AcDbEntity
  8
DEFPOINTS
  6
Continuous
 62
     0
100
AcDbPoint
 10
259.2602819584348
 20
82.50000000000001
 30
0.0
  0
POINT
  5
6F06
330
6606
100
AcDbEntity
  8
DEFPOINTS
  6
Continuous
 62
     0
100
AcDbPoint
 10
259.2602819584348
 20
109.5455535880087
 30
0.0
  0
ENDBLK
  5
6611
330
6606
100
AcDbEntity
  8
0
100
AcDbBlockEnd
  0
BLOCK
  5
661C
330
6612
100
AcDbEntity
  8
0
100
AcDbBlockBegin
  2
*D20
 70
     1
 10
0.0
 20
0.0
 30
0.0
  3
*D20
  1

  0
LINE
  5
6EF5
330
6612
100
AcDbEntity
  8
30
  6
Continuous
 62
     0
100
AcDbLine
 10
259.2602819584348
 20
-83.49999999999999
 30
0.0
 11
259.2602819584348
 21
-93.95444641199111
 31
0.0
  0
LINE
  5
6EF6
330
6612
100
AcDbEntity
  8
30
  6
Continuous
 62
     0
100
AcDbLine
 10
267.2602819584344
 20
-66.25000000000003
 30
0.0
 11
267.2602819584344
 21
-93.95444641199111
 31
0.0
  0
LINE
  5
6EF7
330
6612
100
AcDbEntity
  8
30
  6
Continuous
 62
     0
100
AcDbLine
 10
261.2602819584348
 20
-93.45444641199112
 30
0.0
 11
265.2602819584344
 21
-93.45444641199112
 31
0.0
  0
INSERT
  5
6EF8
330
6612
100
AcDbEntity
  8
30
  6
Continuous
 62
     0
100
AcDbBlockReference
  2
_OPEN
 10
259.2602819584348
 20
-93.45444641199112
 30
0.0
 41
2.0
 42
2.0
 43
2.0
 50
180.0
  0
INSERT
  5
6EF9
330
6612
100
AcDbEntity
  8
30
  6
Continuous
 62
     0
100
AcDbBlockReference
  2
_OPEN
 10
267.2602819584344
 20
-93.45444641199112
 30
0.0
 41
2.0
 42
2.0
 43
2.0
  0
MTEXT
  5
6EFA
330
6612
100
AcDbEntity
  8
30
  6
Continuous
 62
     0
100
AcDbMText
 10
263.2602819584344
 20
-90.45444641199111
 30
0.0
 40
4.0
 41
0.0
 71
     5
 72
     1
  1
\A1;8
 73
     1
 44
1.0
1001
ACAD
1000
MTEXTBEGIN
1070
    73
1070
     1
1070
    44
1040
1.0
1070
    74
1070
     0
1000
MTEXTEND
  0
POINT
  5
6EFB
330
6612
100
AcDbEntity
  8
DEFPOINTS
  6
Continuous
 62
     0
100
AcDbPoint
 10
259.2602819584348
 20
-82.5
 30
0.0
  0
POINT
  5
6EFC
330
6612
100
AcDbEntity
  8
DEFPOINTS
  6
Continuous
 62
     0
100
AcDbPoint
 10
267.2602819584344
 20
-65.25000000000003
 30
0.0
  0
POINT
  5
6EFD
330
6612
100
AcDbEntity
  8
DEFPOINTS
  6
Continuous
 62
     0
100
AcDbPoint
 10
267.2602819584344
 20
-93.45444641199112
 30
0.0
  0
ENDBLK
  5
661D
330
6612
100
AcDbEntity
  8
0
100
AcDbBlockEnd
  0
BLOCK
  5
6628
330
661E
100
AcDbEntity
  8
0
100
AcDbBlockBegin
  2
*D21
 70
     1
 10
0.0
 20
0.0
 30
0.0
  3
*D21
  1

  0
LINE
  5
6EEC
330
661E
100
AcDbEntity
  8
30
  6
Continuous
 62
     0
100
AcDbLine
 10
214.2602819584348
 20
-68.25000000000001
 30
0.0
 11
214.2602819584348
 21
-93.95444641199111
 31
0.0
  0
LINE
  5
6EED
330
661E
100
AcDbEntity
  8
30
  6
Continuous
 62
     0
100
AcDbLine
 10
259.2602819584348
 20
-83.49999999999999
 30
0.0
 11
259.2602819584348
 21
-93.95444641199111
 31
0.0
  0
LINE
  5
6EEE
330
661E
100
AcDbEntity
  8
30
  6
Continuous
 62
     0
100
AcDbLine
 10
216.2602819584348
 20
-93.45444641199112
 30
0.0
 11
257.2602819584348
 21
-93.45444641199112
 31
0.0
  0
INSERT
  5
6EEF
330
661E
100
AcDbEntity
  8
30
  6
Continuous
 62
     0
100
AcDbBlockReference
  2
_OPEN
 10
214.2602819584348
 20
-93.45444641199112
 30
0.0
 41
2.0
 42
2.0
 43
2.0
 50
180.0
  0
INSERT
  5
6EF0
330
661E
100
AcDbEntity
  8
30
  6
Continuous
 62
     0
100
AcDbBlockReference
  2
_OPEN
 10
259.2602819584348
 20
-93.45444641199112
 30
0.0
 41
2.0
 42
2.0
 43
2.0
  0
MTEXT
  5
6EF1
330
661E
100
AcDbEntity
  8
30
  6
Continuous
 62
     0
100
AcDbMText
 10
236.7602819584348
 20
-90.45444641199111
 30
0.0
 40
4.0
 41
0.0
 71
     5
 72
     1
  1
\A1;45
 73
     1
 44
1.0
1001
ACAD
1000
MTEXTBEGIN
1070
    73
1070
     1
1070
    44
1040
1.0
1070
    74
1070
     0
1000
MTEXTEND
  0
POINT
  5
6EF2
330
661E
100
AcDbEntity
  8
DEFPOINTS
  6
Continuous
 62
     0
100
AcDbPoint
 10
214.2602819584348
 20
-67.25000000000003
 30
0.0
  0
POINT
  5
6EF3
330
661E
100
AcDbEntity
  8
DEFPOINTS
  6
Continuous
 62
     0
100
AcDbPoint
 10
259.2602819584348
 20
-82.5
 30
0.0
  0
POINT
  5
6EF4
330
661E
100
AcDbEntity
  8
DEFPOINTS
  6
Continuous
 62
     0
100
AcDbPoint
 10
259.2602819584348
 20
-93.45444641199112
 30
0.0
  0
ENDBLK
  5
6629
330
661E
100
AcDbEntity
  8
0
100
AcDbBlockEnd
  0
BLOCK
  5
6634
330
662A
100
AcDbEntity
  8
0
100
AcDbBlockBegin
  2
*D22
 70
     1
 10
0.0
 20
0.0
 30
0.0
  3
*D22
  1

  0
LINE
  5
6EE3
330
662A
100
AcDbEntity
  8
30
  6
Continuous
 62
     0
100
AcDbLine
 10
303.2602819584328
 20
47.92504825041532
 30
0.0
 11
303.2602819584328
 21
24.71319198619851
 31
0.0
  0
LINE
  5
6EE4
330
662A
100
AcDbEntity
  8
30
  6
Continuous
 62
     0
100
AcDbLine
 10
328.2602819584328
 20
47.92504825041532
 30
0.0
 11
328.2602819584328
 21
24.71319198619851
 31
0.0
  0
LINE
  5
6EE5
330
662A
100
AcDbEntity
  8
30
  6
Continuous
 62
     0
100
AcDbLine
 10
305.2602819584328
 20
25.21319198619851
 30
0.0
 11
326.2602819584328
 21
25.21319198619851
 31
0.0
  0
INSERT
  5
6EE6
330
662A
100
AcDbEntity
  8
30
  6
Continuous
 62
     0
100
AcDbBlockReference
  2
_OPEN
 10
303.2602819584328
 20
25.21319198619851
 30
0.0
 41
2.0
 42
2.0
 43
2.0
 50
180.0
  0
INSERT
  5
6EE7
330
662A
100
AcDbEntity
  8
30
  6
Continuous
 62
     0
100
AcDbBlockReference
  2
_OPEN
 10
328.2602819584328
 20
25.21319198619851
 30
0.0
 41
2.0
 42
2.0
 43
2.0
  0
MTEXT
  5
6EE8
330
662A
100
AcDbEntity
  8
30
  6
Continuous
 62
     0
100
AcDbMText
 10
315.7602819584328
 20
28.21319198619851
 30
0.0
 40
4.0
 41
0.0
 71
     5
 72
     1
  1
\A1;25
 73
     1
 44
1.0
1001
ACAD
1000
MTEXTBEGIN
1070
    73
1070
     1
1070
    44
1040
1.0
1070
    74
1070
     0
1000
MTEXTEND
  0
POINT
  5
6EE9
330
662A
100
AcDbEntity
  8
DEFPOINTS
  6
Continuous
 62
     0
100
AcDbPoint
 10
303.2602819584328
 20
48.92504825041531
 30
0.0
  0
POINT
  5
6EEA
330
662A
100
AcDbEntity
  8
DEFPOINTS
  6
Continuous
 62
     0
100
AcDbPoint
 10
328.2602819584328
 20
48.92504825041531
 30
0.0
  0
POINT
  5
6EEB
330
662A
100
AcDbEntity
  8
DEFPOINTS
  6
Continuous
 62
     0
100
AcDbPoint
 10
328.2602819584328
 20
25.21319198619851
 30
0.0
  0
ENDBLK
  5
6635
330
662A
100
AcDbEntity
  8
0
100
AcDbBlockEnd
  0
BLOCK
  5
6640
330
6636
100
AcDbEntity
  8
0
100
AcDbBlockBegin
  2
*D23
 70
     1
 10
0.0
 20
0.0
 30
0.0
  3
*D23
  1

  0
LINE
  5
6EDA
330
6636
100
AcDbEntity
  8
30
  6
Continuous
 62
     0
100
AcDbLine
 10
329.2602819584327
 20
48.92504825041531
 30
0.0
 11
339.0828896186868
 21
48.92504825041529
 31
0.0
  0
LINE
  5
6EDB
330
6636
100
AcDbEntity
  8
30
  6
Continuous
 62
     0
100
AcDbLine
 10
319.2602819749328
 20
58.92504825041531
 30
0.0
 11
339.0828896186868
 21
58.92504825041531
 31
0.0
  0
LINE
  5
6EDC
330
6636
100
AcDbEntity
  8
30
  6
Continuous
 62
     0
100
AcDbLine
 10
338.5828896186868
 20
50.92504825041531
 30
0.0
 11
338.5828896186868
 21
56.92504825041531
 31
0.0
  0
INSERT
  5
6EDD
330
6636
100
AcDbEntity
  8
30
  6
Continuous
 62
     0
100
AcDbBlockReference
  2
_OPEN
 10
338.5828896186868
 20
48.92504825041529
 30
0.0
 41
2.0
 42
2.0
 43
2.0
 50
270.0
  0
INSERT
  5
6EDE
330
6636
100
AcDbEntity
  8
30
  6
Continuous
 62
     0
100
AcDbBlockReference
  2
_OPEN
 10
338.5828896186868
 20
58.92504825041531
 30
0.0
 41
2.0
 42
2.0
 43
2.0
 50
90.0
  0
MTEXT
  5
6EDF
330
6636
100
AcDbEntity
  8
30
  6
Continuous
 62
     0
100
AcDbMText
 10
335.5828896186868
 20
53.92504825041537
 30
0.0
 40
4.0
 41
0.0
 71
     5
 72
     1
  1
\A1;10
 11
0.0000000000000001
 21
1.0
 31
0.0
 73
     1
 44
1.0
1001
ACAD
1000
MTEXTBEGIN
1070
    73
1070
     1
1070
    44
1040
1.0
1070
    74
1070
     0
1000
MTEXTEND
  0
POINT
  5
6EE0
330
6636
100
AcDbEntity
  8
DEFPOINTS
  6
Continuous
 62
     0
100
AcDbPoint
 10
328.2602819584328
 20
48.92504825041531
 30
0.0
  0
POINT
  5
6EE1
330
6636
100
AcDbEntity
  8
DEFPOINTS
  6
Continuous
 62
     0
100
AcDbPoint
 10
318.2602819749328
 20
58.92504825041531
 30
0.0
  0
POINT
  5
6EE2
330
6636
100
AcDbEntity
  8
DEFPOINTS
  6
Continuous
 62
     0
100
AcDbPoint
 10
338.5828896186868
 20
58.92504825041531
 30
0.0
  0
ENDBLK
  5
6641
330
6636
100
AcDbEntity
  8
0
100
AcDbBlockEnd
  0
BLOCK
  5
67CD
330
67C2
100
AcDbEntity
  8
0
100
AcDbBlockBegin
  2
*D24
 70
     1
 10
0.0
 20
0.0
 30
0.0
  3
*D24
  1

  0
LINE
  5
6ED0
330
67C2
100
AcDbEntity
  8
30
  6
Continuous
 62
     0
100
AcDbLine
 10
183.2602819584344
 20
-26.0
 30
0.0
 11
183.2602819584344
 21
-126.954446411991
 31
0.0
  0
LINE
  5
6ED1
330
67C2
100
AcDbEntity
  8
30
  6
Continuous
 62
     0
100
AcDbLine
 10
187.2602819584348
 20
-26.0
 30
0.0
 11
187.2602819584348
 21
-126.954446411991
 31
0.0
  0
LINE
  5
6ED2
330
67C2
100
AcDbEntity
  8
30
  6
Continuous
 62
     0
100
AcDbLine
 10
181.2602819584346
 20
-126.4544464119911
 30
0.0
 11
179.2602819584342
 21
-126.4544464119911
 31
0.0
  0
LINE
  5
6ED3
330
67C2
100
AcDbEntity
  8
30
  6
Continuous
 62
     0
100
AcDbLine
 10
189.2602819584348
 20
-126.4544464119911
 30
0.0
 11
195.9269486251015
 21
-126.4544464119911
 31
0.0
  0
INSERT
  5
6ED4
330
67C2
100
AcDbEntity
  8
30
  6
Continuous
 62
     0
100
AcDbBlockReference
  2
_OPEN
 10
183.2602819584344
 20
-126.4544464119911
 30
0.0
 41
2.0
 42
2.0
 43
2.0
  0
INSERT
  5
6ED5
330
67C2
100
AcDbEntity
  8
30
  6
Continuous
 62
     0
100
AcDbBlockReference
  2
_OPEN
 10
187.2602819584348
 20
-126.4544464119911
 30
0.0
 41
2.0
 42
2.0
 43
2.0
 50
180.0
  0
MTEXT
  5
6ED6
330
67C2
100
AcDbEntity
  8
30
  6
Continuous
 62
     0
100
AcDbMText
 10
193.5936152917681
 20
-123.4544464119911
 30
0.0
 40
4.0
 41
0.0
 71
     5
 72
     1
  1
\A1;4
 73
     1
 44
1.0
1001
ACAD
1000
MTEXTBEGIN
1070
    73
1070
     1
1070
    44
1040
1.0
1070
    74
1070
     0
1000
MTEXTEND
  0
POINT
  5
6ED7
330
67C2
100
AcDbEntity
  8
DEFPOINTS
  6
Continuous
 62
     0
100
AcDbPoint
 10
183.2602819584344
 20
-25.0
 30
0.0
  0
POINT
  5
6ED8
330
67C2
100
AcDbEntity
  8
DEFPOINTS
  6
Continuous
 62
     0
100
AcDbPoint
 10
187.2602819584348
 20
-25.0
 30
0.0
  0
POINT
  5
6ED9
330
67C2
100
AcDbEntity
  8
DEFPOINTS
  6
Continuous
 62
     0
100
AcDbPoint
 10
187.2602819584348
 20
-126.4544464119911
 30
0.0
  0
ENDBLK
  5
67CE
330
67C2
100
AcDbEntity
  8
0
100
AcDbBlockEnd
  0
BLOCK
  5
6822
330
6818
100
AcDbEntity
  8
0
100
AcDbBlockBegin
  2
*D25
 70
     1
 10
0.0
 20
0.0
 30
0.0
  3
*D25
  1

  0
LINE
  5
68DD
330
6818
100
AcDbEntity
  8
30
  6
Continuous
 62
     0
100
AcDbLine
 10
50.75600000000031
 20
-225.5108058991918
 30
0.0
 11
98.18663497335158
 21
-225.5108058991918
 31
0.0
  0
LINE
  5
68DE
330
6818
100
AcDbEntity
  8
30
  6
Continuous
 62
     0
100
AcDbLine
 10
50.75600000000031
 20
-277.5108058991918
 30
0.0
 11
98.18663497335158
 21
-277.5108058991918
 31
0.0
  0
LINE
  5
68DF
330
6818
100
AcDbEntity
  8
30
  6
Continuous
 62
     0
100
AcDbLine
 10
97.68663497335159
 20
-227.5108058991917
 30
0.0
 11
97.68663497335159
 21
-275.5108058991918
 31
0.0
  0
INSERT
  5
68E0
330
6818
100
AcDbEntity
  8
30
  6
Continuous
 62
     0
100
AcDbBlockReference
  2
_OPEN
 10
97.68663497335159
 20
-225.5108058991918
 30
0.0
 41
2.0
 42
2.0
 43
2.0
 50
90.0
  0
INSERT
  5
68E1
330
6818
100
AcDbEntity
  8
30
  6
Continuous
 62
     0
100
AcDbBlockReference
  2
_OPEN
 10
97.68663497335159
 20
-277.5108058991918
 30
0.0
 41
2.0
 42
2.0
 43
2.0
 50
270.0
  0
MTEXT
  5
68E2
330
6818
100
AcDbEntity
  8
30
  6
Continuous
 62
     0
100
AcDbMText
 10
94.68663497335162
 20
-251.5108058991919
 30
0.0
 40
4.0
 41
0.0
 71
     5
 72
     1
  1
\A1;52
 11
0.0000000000000001
 21
1.0
 31
0.0
 73
     1
 44
1.0
1001
ACAD
1000
MTEXTBEGIN
1070
    73
1070
     1
1070
    44
1040
1.0
1070
    74
1070
     0
1000
MTEXTEND
  0
POINT
  5
68E3
330
6818
100
AcDbEntity
  8
DEFPOINTS
  6
Continuous
 62
     0
100
AcDbPoint
 10
49.75600000000031
 20
-225.5108058991918
 30
0.0
  0
POINT
  5
68E4
330
6818
100
AcDbEntity
  8
DEFPOINTS
  6
Continuous
 62
     0
100
AcDbPoint
 10
49.75600000000031
 20
-277.5108058991918
 30
0.0
  0
POINT
  5
68E5
330
6818
100
AcDbEntity
  8
DEFPOINTS
  6
Continuous
 62
     0
100
AcDbPoint
 10
97.68663497335159
 20
-277.5108058991918
 30
0.0
  0
ENDBLK
  5
6823
330
6818
100
AcDbEntity
  8
0
100
AcDbBlockEnd
  0
BLOCK
  5
68FE
330
68F4
100
AcDbEntity
  8
0
100
AcDbBlockBegin
  2
*D26
 70
     1
 10
0.0
 20
0.0
 30
0.0
  3
*D26
  1

  0
LINE
  5
7079
330
68F4
100
AcDbEntity
  8
30
  6
Continuous
 62
     0
100
AcDbLine
 10
23.61990546482869
 20
-187.8473940210345
 30
0.0
 11
108.6947822581959
 21
-187.8473940210345
 31
0.0
  0
LINE
  5
707A
330
68F4
100
AcDbEntity
  8
30
  6
Continuous
 62
     0
100
AcDbLine
 10
23.6199054648288
 20
-313.8473940210346
 30
0.0
 11
108.6947822581959
 21
-313.8473940210346
 31
0.0
  0
LINE
  5
707B
330
68F4
100
AcDbEntity
  8
30
  6
Continuous
 62
     0
100
AcDbLine
 10
108.1947822581959
 20
-189.8473940210345
 30
0.0
 11
108.1947822581959
 21
-311.8473940210346
 31
0.0
  0
INSERT
  5
707C
330
68F4
100
AcDbEntity
  8
30
  6
Continuous
 62
     0
100
AcDbBlockReference
  2
_OPEN
 10
108.1947822581959
 20
-187.8473940210345
 30
0.0
 41
2.0
 42
2.0
 43
2.0
 50
90.0
  0
INSERT
  5
707D
330
68F4
100
AcDbEntity
  8
30
  6
Continuous
 62
     0
100
AcDbBlockReference
  2
_OPEN
 10
108.1947822581959
 20
-313.8473940210346
 30
0.0
 41
2.0
 42
2.0
 43
2.0
 50
270.0
  0
MTEXT
  5
707E
330
68F4
100
AcDbEntity
  8
30
  6
Continuous
 62
     0
100
AcDbMText
 10
105.1947822581959
 20
-250.8473940210345
 30
0.0
 40
4.0
 41
0.0
 71
     5
 72
     1
  1
\A1;126
 11
0.0000000000000001
 21
1.0
 31
0.0
 73
     1
 44
1.0
1001
ACAD
1000
MTEXTBEGIN
1070
    73
1070
     1
1070
    44
1040
1.0
1070
    74
1070
     0
1000
MTEXTEND
  0
POINT
  5
707F
330
68F4
100
AcDbEntity
  8
DEFPOINTS
  6
Continuous
 62
     0
100
AcDbPoint
 10
22.61990546482869
 20
-187.8473940210345
 30
0.0
  0
POINT
  5
7080
330
68F4
100
AcDbEntity
  8
DEFPOINTS
  6
Continuous
 62
     0
100
AcDbPoint
 10
22.6199054648288
 20
-313.8473940210346
 30
0.0
  0
POINT
  5
7081
330
68F4
100
AcDbEntity
  8
DEFPOINTS
  6
Continuous
 62
     0
100
AcDbPoint
 10
108.1947822581959
 20
-313.8473940210346
 30
0.0
  0
ENDBLK
  5
68FF
330
68F4
100
AcDbEntity
  8
0
100
AcDbBlockEnd
  0
BLOCK
  5
6914
330
690A
100
AcDbEntity
  8
0
100
AcDbBlockBegin
  2
*D27
 70
     1
 10
0.0
 20
0.0
 30
0.0
  3
*D27
  1

  0
LINE
  5
6EBE
330
690A
100
AcDbEntity
  8
30
  6
Continuous
 62
     0
100
AcDbLine
 10
-0.0000000000000001
 20
-83.49999999999999
 30
0.0
 11
-0.0000000000000018
 21
-111.454446411991
 31
0.0
  0
LINE
  5
6EBF
330
690A
100
AcDbEntity
  8
30
  6
Continuous
 62
     0
100
AcDbLine
 10
35.00000000000003
 20
-80.00000000000003
 30
0.0
 11
35.00000000000003
 21
-111.454446411991
 31
0.0
  0
LINE
  5
6EC0
330
690A
100
AcDbEntity
  8
30
  6
Continuous
 62
     0
100
AcDbLine
 10
1.999999999999998
 20
-110.9544464119909
 30
0.0
 11
33.00000000000004
 21
-110.9544464119909
 31
0.0
  0
INSERT
  5
6EC1
330
690A
100
AcDbEntity
  8
30
  6
Continuous
 62
     0
100
AcDbBlockReference
  2
_OPEN
 10
-0.0000000000000017
 20
-110.9544464119909
 30
0.0
 41
2.0
 42
2.0
 43
2.0
 50
180.0
  0
INSERT
  5
6EC2
330
690A
100
AcDbEntity
  8
30
  6
Continuous
 62
     0
100
AcDbBlockReference
  2
_OPEN
 10
35.00000000000003
 20
-110.9544464119909
 30
0.0
 41
2.0
 42
2.0
 43
2.0
  0
MTEXT
  5
6EC3
330
690A
100
AcDbEntity
  8
30
  6
Continuous
 62
     0
100
AcDbMText
 10
17.50000000000001
 20
-107.954446411991
 30
0.0
 40
4.0
 41
0.0
 71
     5
 72
     1
  1
\A1;35
 73
     1
 44
1.0
1001
ACAD
1000
MTEXTBEGIN
1070
    73
1070
     1
1070
    44
1040
1.0
1070
    74
1070
     0
1000
MTEXTEND
  0
POINT
  5
6EC4
330
690A
100
AcDbEntity
  8
DEFPOINTS
  6
Continuous
 62
     0
100
AcDbPoint
 10
0.0
 20
-82.5
 30
0.0
  0
POINT
  5
6EC5
330
690A
100
AcDbEntity
  8
DEFPOINTS
  6
Continuous
 62
     0
100
AcDbPoint
 10
35.00000000000003
 20
-79.00000000000003
 30
0.0
  0
POINT
  5
6EC6
330
690A
100
AcDbEntity
  8
DEFPOINTS
  6
Continuous
 62
     0
100
AcDbPoint
 10
35.00000000000003
 20
-110.9544464119909
 30
0.0
  0
ENDBLK
  5
6915
330
690A
100
AcDbEntity
  8
0
100
AcDbBlockEnd
  0
BLOCK
  5
6921
330
6917
100
AcDbEntity
  8
0
100
AcDbBlockBegin
  2
*D28
 70
     1
 10
0.0
 20
0.0
 30
0.0
  3
*D28
  1

  0
LINE
  5
6EB5
330
6917
100
AcDbEntity
  8
30
  6
Continuous
 62
     0
100
AcDbLine
 10
35.00000000000003
 20
-83.49999999999999
 30
0.0
 11
35.00000000000003
 21
-111.454446411991
 31
0.0
  0
LINE
  5
6EB6
330
6917
100
AcDbEntity
  8
30
  6
Continuous
 62
     0
100
AcDbLine
 10
70.00000000000003
 20
-78.00000000000007
 30
0.0
 11
70.00000000000003
 21
-111.454446411991
 31
0.0
  0
LINE
  5
6EB7
330
6917
100
AcDbEntity
  8
30
  6
Continuous
 62
     0
100
AcDbLine
 10
37.00000000000004
 20
-110.9544464119909
 30
0.0
 11
68.00000000000003
 21
-110.9544464119909
 31
0.0
  0
INSERT
  5
6EB8
330
6917
100
AcDbEntity
  8
30
  6
Continuous
 62
     0
100
AcDbBlockReference
  2
_OPEN
 10
35.00000000000003
 20
-110.9544464119909
 30
0.0
 41
2.0
 42
2.0
 43
2.0
 50
180.0
  0
INSERT
  5
6EB9
330
6917
100
AcDbEntity
  8
30
  6
Continuous
 62
     0
100
AcDbBlockReference
  2
_OPEN
 10
70.00000000000003
 20
-110.9544464119909
 30
0.0
 41
2.0
 42
2.0
 43
2.0
  0
MTEXT
  5
6EBA
330
6917
100
AcDbEntity
  8
30
  6
Continuous
 62
     0
100
AcDbMText
 10
52.50000000000003
 20
-107.954446411991
 30
0.0
 40
4.0
 41
0.0
 71
     5
 72
     1
  1
\A1;35
 73
     1
 44
1.0
1001
ACAD
1000
MTEXTBEGIN
1070
    73
1070
     1
1070
    44
1040
1.0
1070
    74
1070
     0
1000
MTEXTEND
  0
POINT
  5
6EBB
330
6917
100
AcDbEntity
  8
DEFPOINTS
  6
Continuous
 62
     0
100
AcDbPoint
 10
35.00000000000003
 20
-82.5
 30
0.0
  0
POINT
  5
6EBC
330
6917
100
AcDbEntity
  8
DEFPOINTS
  6
Continuous
 62
     0
100
AcDbPoint
 10
70.00000000000003
 20
-77.00000000000007
 30
0.0
  0
POINT
  5
6EBD
330
6917
100
AcDbEntity
  8
DEFPOINTS
  6
Continuous
 62
     0
100
AcDbPoint
 10
70.00000000000003
 20
-110.9544464119909
 30
0.0
  0
ENDBLK
  5
6922
330
6917
100
AcDbEntity
  8
0
100
AcDbBlockEnd
  0
BLOCK
  5
692E
330
6924
100
AcDbEntity
  8
0
100
AcDbBlockBegin
  2
*D29
 70
     1
 10
0.0
 20
0.0
 30
0.0
  3
*D29
  1

  0
LINE
  5
6EAC
330
6924
100
AcDbEntity
  8
30
  6
Continuous
 62
     0
100
AcDbLine
 10
-35.0
 20
278.415875659212
 30
0.0
 11
-35.0
 21
328.0142024541258
 31
0.0
  0
LINE
  5
6EAD
330
6924
100
AcDbEntity
  8
30
  6
Continuous
 62
     0
100
AcDbLine
 10
0.0000000000000001
 20
275.415875659212
 30
0.0
 11
0.0000000000000033
 21
328.0142024541258
 31
0.0
  0
LINE
  5
6EAE
330
6924
100
AcDbEntity
  8
30
  6
Continuous
 62
     0
100
AcDbLine
 10
-32.99999999999999
 20
327.5142024541259
 30
0.0
 11
-1.999999999999995
 21
327.5142024541259
 31
0.0
  0
INSERT
  5
6EAF
330
6924
100
AcDbEntity
  8
30
  6
Continuous
 62
     0
100
AcDbBlockReference
  2
_OPEN
 10
-35.0
 20
327.5142024541259
 30
0.0
 41
2.0
 42
2.0
 43
2.0
 50
180.0
  0
INSERT
  5
6EB0
330
6924
100
AcDbEntity
  8
30
  6
Continuous
 62
     0
100
AcDbBlockReference
  2
_OPEN
 10
0.0000000000000033
 20
327.5142024541259
 30
0.0
 41
2.0
 42
2.0
 43
2.0
  0
MTEXT
  5
6EB1
330
6924
100
AcDbEntity
  8
30
  6
Continuous
 62
     0
100
AcDbMText
 10
-17.49999999999999
 20
330.5142024541258
 30
0.0
 40
4.0
 41
0.0
 71
     5
 72
     1
  1
\A1;35
 73
     1
 44
1.0
1001
ACAD
1000
MTEXTBEGIN
1070
    73
1070
     1
1070
    44
1040
1.0
1070
    74
1070
     0
1000
MTEXTEND
  0
POINT
  5
6EB2
330
6924
100
AcDbEntity
  8
DEFPOINTS
  6
Continuous
 62
     0
100
AcDbPoint
 10
-35.0
 20
277.415875659212
 30
0.0
  0
POINT
  5
6EB3
330
6924
100
AcDbEntity
  8
DEFPOINTS
  6
Continuous
 62
     0
100
AcDbPoint
 10
0.0
 20
274.415875659212
 30
0.0
  0
POINT
  5
6EB4
330
6924
100
AcDbEntity
  8
DEFPOINTS
  6
Continuous
 62
     0
100
AcDbPoint
 10
0.0000000000000033
 20
327.5142024541259
 30
0.0
  0
ENDBLK
  5
692F
330
6924
100
AcDbEntity
  8
0
100
AcDbBlockEnd
  0
BLOCK
  5
693B
330
6931
100
AcDbEntity
  8
0
100
AcDbBlockBegin
  2
*D30
 70
     1
 10
0.0
 20
0.0
 30
0.0
  3
*D30
  1

  0
LINE
  5
7130
330
6931
100
AcDbEntity
  8
30
  6
Continuous
 62
     0
100
AcDbLine
 10
0.0000000000000001
 20
275.415875659212
 30
0.0
 11
0.0000000000000033
 21
328.0142024541258
 31
0.0
  0
LINE
  5
7131
330
6931
100
AcDbEntity
  8
30
  6
Continuous
 62
     0
100
AcDbLine
 10
35.00000000000003
 20
278.415875659212
 30
0.0
 11
35.00000000000003
 21
328.0142024541258
 31
0.0
  0
LINE
  5
7132
330
6931
100
AcDbEntity
  8
30
  6
Continuous
 62
     0
100
AcDbLine
 10
2.000000000000003
 20
327.5142024541259
 30
0.0
 11
33.00000000000004
 21
327.5142024541259
 31
0.0
  0
INSERT
  5
7133
330
6931
100
AcDbEntity
  8
30
  6
Continuous
 62
     0
100
AcDbBlockReference
  2
_OPEN
 10
0.0000000000000033
 20
327.5142024541259
 30
0.0
 41
2.0
 42
2.0
 43
2.0
 50
180.0
  0
INSERT
  5
7134
330
6931
100
AcDbEntity
  8
30
  6
Continuous
 62
     0
100
AcDbBlockReference
  2
_OPEN
 10
35.00000000000003
 20
327.5142024541259
 30
0.0
 41
2.0
 42
2.0
 43
2.0
  0
MTEXT
  5
7135
330
6931
100
AcDbEntity
  8
30
  6
Continuous
 62
     0
100
AcDbMText
 10
17.50000000000001
 20
330.5142024541258
 30
0.0
 40
4.0
 41
0.0
 71
     5
 72
     1
  1
\A1;35
 73
     1
 44
1.0
1001
ACAD
1000
MTEXTBEGIN
1070
    73
1070
     1
1070
    44
1040
1.0
1070
    74
1070
     0
1000
MTEXTEND
  0
POINT
  5
7136
330
6931
100
AcDbEntity
  8
DEFPOINTS
  6
Continuous
 62
     0
100
AcDbPoint
 10
0.0
 20
274.415875659212
 30
0.0
  0
POINT
  5
7137
330
6931
100
AcDbEntity
  8
DEFPOINTS
  6
Continuous
 62
     0
100
AcDbPoint
 10
35.00000000000003
 20
277.415875659212
 30
0.0
  0
POINT
  5
7138
330
6931
100
AcDbEntity
  8
DEFPOINTS
  6
Continuous
 62
     0
100
AcDbPoint
 10
35.00000000000003
 20
327.5142024541259
 30
0.0
  0
ENDBLK
  5
693C
330
6931
100
AcDbEntity
  8
0
100
AcDbBlockEnd
  0
BLOCK
  5
6948
330
693E
100
AcDbEntity
  8
0
100
AcDbBlockBegin
  2
*D31
 70
     1
 10
0.0
 20
0.0
 30
0.0
  3
*D31
  1

  0
LINE
  5
7139
330
693E
100
AcDbEntity
  8
30
  6
Continuous
 62
     0
100
AcDbLine
 10
35.00000000000003
 20
278.415875659212
 30
0.0
 11
35.00000000000003
 21
328.0142024541258
 31
0.0
  0
LINE
  5
713A
330
693E
100
AcDbEntity
  8
30
  6
Continuous
 62
     0
100
AcDbLine
 10
70.00000000000003
 20
278.415875659212
 30
0.0
 11
70.00000000000003
 21
328.0142024541258
 31
0.0
  0
LINE
  5
713B
330
693E
100
AcDbEntity
  8
30
  6
Continuous
 62
     0
100
AcDbLine
 10
37.00000000000004
 20
327.5142024541259
 30
0.0
 11
68.00000000000003
 21
327.5142024541259
 31
0.0
  0
INSERT
  5
713C
330
693E
100
AcDbEntity
  8
30
  6
Continuous
 62
     0
100
AcDbBlockReference
  2
_OPEN
 10
35.00000000000003
 20
327.5142024541259
 30
0.0
 41
2.0
 42
2.0
 43
2.0
 50
180.0
  0
INSERT
  5
713D
330
693E
100
AcDbEntity
  8
30
  6
Continuous
 62
     0
100
AcDbBlockReference
  2
_OPEN
 10
70.00000000000003
 20
327.5142024541259
 30
0.0
 41
2.0
 42
2.0
 43
2.0
  0
MTEXT
  5
713E
330
693E
100
AcDbEntity
  8
30
  6
Continuous
 62
     0
100
AcDbMText
 10
52.50000000000003
 20
330.5142024541258
 30
0.0
 40
4.0
 41
0.0
 71
     5
 72
     1
  1
\A1;35
 73
     1
 44
1.0
1001
ACAD
1000
MTEXTBEGIN
1070
    73
1070
     1
1070
    44
1040
1.0
1070
    74
1070
     0
1000
MTEXTEND
  0
POINT
  5
713F
330
693E
100
AcDbEntity
  8
DEFPOINTS
  6
Continuous
 62
     0
100
AcDbPoint
 10
35.00000000000003
 20
277.415875659212
 30
0.0
  0
POINT
  5
7140
330
693E
100
AcDbEntity
  8
DEFPOINTS
  6
Continuous
 62
     0
100
AcDbPoint
 10
70.00000000000003
 20
277.415875659212
 30
0.0
  0
POINT
  5
7141
330
693E
100
AcDbEntity
  8
DEFPOINTS
  6
Continuous
 62
     0
100
AcDbPoint
 10
70.00000000000003
 20
327.5142024541259
 30
0.0
  0
ENDBLK
  5
6949
330
693E
100
AcDbEntity
  8
0
100
AcDbBlockEnd
  0
BLOCK
  5
6956
330
694C
100
AcDbEntity
  8
0
100
AcDbBlockBegin
  2
*D32
 70
     1
 10
0.0
 20
0.0
 30
0.0
  3
*D32
  1

  0
LINE
  5
6958
330
694C
100
AcDbEntity
  8
30
  6
Continuous
 62
     0
100
AcDbLine
 10
-49.24399999999991
 20
-277.5108058991918
 30
0.0
 11
-49.24399999999991
 21
-375.5053735173343
 31
0.0
  0
LINE
  5
6959
330
694C
100
AcDbEntity
  8
30
  6
Continuous
 62
     0
100
AcDbLine
 10
50.75600000000033
 20
-277.5108058991918
 30
0.0
 11
50.75600000000031
 21
-375.5053735173343
 31
0.0
  0
LINE
  5
695A
330
694C
100
AcDbEntity
  8
30
  6
Continuous
 62
     0
100
AcDbLine
 10
-47.24399999999991
 20
-375.0053735173342
 30
0.0
 11
48.75600000000031
 21
-375.0053735173342
 31
0.0
  0
INSERT
  5
695B
330
694C
100
AcDbEntity
  8
30
  6
Continuous
 62
     0
100
AcDbBlockReference
  2
_OPEN
 10
-49.24399999999991
 20
-375.0053735173342
 30
0.0
 41
2.0
 42
2.0
 43
2.0
 50
180.0
  0
INSERT
  5
695C
330
694C
100
AcDbEntity
  8
30
  6
Continuous
 62
     0
100
AcDbBlockReference
  2
_OPEN
 10
50.75600000000031
 20
-375.0053735173342
 30
0.0
 41
2.0
 42
2.0
 43
2.0
  0
MTEXT
  5
695D
330
694C
100
AcDbEntity
  8
30
  6
Continuous
 62
     0
100
AcDbMText
 10
0.7560000000001994
 20
-372.0053735173343
 30
0.0
 40
4.0
 41
0.0
 71
     5
 72
     1
  1
\A1;100
 73
     1
 44
1.0
1001
ACAD
1000
MTEXTBEGIN
1070
    73
1070
     1
1070
    44
1040
1.0
1070
    74
1070
     0
1000
MTEXTEND
  0
POINT
  5
695E
330
694C
100
AcDbEntity
  8
DEFPOINTS
  6
Continuous
 62
     0
100
AcDbPoint
 10
-49.24399999999991
 20
-276.5108058991919
 30
0.0
  0
POINT
  5
695F
330
694C
100
AcDbEntity
  8
DEFPOINTS
  6
Continuous
 62
     0
100
AcDbPoint
 10
50.75600000000033
 20
-276.5108058991919
 30
0.0
  0
POINT
  5
6960
330
694C
100
AcDbEntity
  8
DEFPOINTS
  6
Continuous
 62
     0
100
AcDbPoint
 10
50.75600000000031
 20
-375.0053735173342
 30
0.0
  0
ENDBLK
  5
6957
330
694C
100
AcDbEntity
  8
0
100
AcDbBlockEnd
  0
BLOCK
  5
6972
330
6968
100
AcDbEntity
  8
0
100
AcDbBlockBegin
  2
*D33
 70
     1
 10
0.0
 20
0.0
 30
0.0
  3
*D33
  1

  0
LINE
  5
77D5
330
6968
100
AcDbEntity
  8
30
  6
Continuous
 62
     0
370
    -2
100
AcDbLine
 10
-52.5
 20
137.5
 30
0.0
 11
-72.92950291237828
 21
137.5
 31
0.0
  0
LINE
  5
77D6
330
6968
100
AcDbEntity
  8
30
  6
Continuous
 62
     0
370
    -2
100
AcDbLine
 10
-20.0
 20
82.50000000000001
 30
0.0
 11
-72.92950291237829
 21
82.50000000000003
 31
0.0
  0
LINE
  5
77D7
330
6968
100
AcDbEntity
  8
30
  6
Continuous
 62
     0
370
    -2
100
AcDbLine
 10
-72.42950291237828
 20
135.5
 30
0.0
 11
-72.42950291237829
 21
84.50000000000001
 31
0.0
  0
INSERT
  5
77D8
330
6968
100
AcDbEntity
  8
30
  6
Continuous
 62
     0
370
    -2
100
AcDbBlockReference
  2
_OPEN
 10
-72.42950291237828
 20
137.5
 30
0.0
 41
2.0
 42
2.0
 43
2.0
 50
90.0
  0
INSERT
  5
77D9
330
6968
100
AcDbEntity
  8
30
  6
Continuous
 62
     0
370
    -2
100
AcDbBlockReference
  2
_OPEN
 10
-72.42950291237829
 20
82.50000000000003
 30
0.0
 41
2.0
 42
2.0
 43
2.0
 50
270.0
  0
MTEXT
  5
77DA
330
6968
100
AcDbEntity
  8
30
  6
Continuous
 62
     0
100
AcDbMText
 10
-75.42950291237831
 20
110.0
 30
0.0
 40
4.0
 41
0.0
 71
     5
 72
     1
  1
\A1;55
 11
0.0000000000000001
 21
1.0
 31
0.0
 73
     1
 44
1.0
1001
ACAD
1000
MTEXTBEGIN
1070
    73
1070
     1
1070
    44
1040
1.0
1070
    74
1070
     0
1000
MTEXTEND
  0
POINT
  5
77DB
330
6968
100
AcDbEntity
  8
DEFPOINTS
  6
Continuous
 62
     0
100
AcDbPoint
 10
-51.5
 20
137.5
 30
0.0
  0
POINT
  5
77DC
330
6968
100
AcDbEntity
  8
DEFPOINTS
  6
Continuous
 62
     0
100
AcDbPoint
 10
-19.0
 20
82.50000000000001
 30
0.0
  0
POINT
  5
77DD
330
6968
100
AcDbEntity
  8
DEFPOINTS
  6
Continuous
 62
     0
100
AcDbPoint
 10
-72.42950291237829
 20
82.50000000000003
 30
0.0
  0
ENDBLK
  5
6973
330
6968
100
AcDbEntity
  8
0
100
AcDbBlockEnd
  0
BLOCK
  5
697F
330
6975
100
AcDbEntity
  8
0
100
AcDbBlockBegin
  2
*D34
 70
     1
 10
0.0
 20
0.0
 30
0.0
  3
*D34
  1

  0
LINE
  5
6E88
330
6975
100
AcDbEntity
  8
30
  6
Continuous
 62
     0
100
AcDbLine
 10
-71.4295029123783
 20
82.50000000000001
 30
0.0
 11
-71.92950291237828
 21
82.50000000000001
 31
0.0
  0
LINE
  5
6E89
330
6975
100
AcDbEntity
  8
30
  6
Continuous
 62
     0
100
AcDbLine
 10
-53.50000000000001
 20
-82.5
 30
0.0
 11
-72.92950291237831
 21
-82.5
 31
0.0
  0
LINE
  5
6E8A
330
6975
100
AcDbEntity
  8
30
  6
Continuous
 62
     0
100
AcDbLine
 10
-72.42950291237828
 20
80.50000000000002
 30
0.0
 11
-72.42950291237831
 21
-80.5
 31
0.0
  0
INSERT
  5
6E8B
330
6975
100
AcDbEntity
  8
30
  6
Continuous
 62
     0
100
AcDbBlockReference
  2
_OPEN
 10
-72.42950291237828
 20
82.50000000000001
 30
0.0
 41
2.0
 42
2.0
 43
2.0
 50
90.0
  0
INSERT
  5
6E8C
330
6975
100
AcDbEntity
  8
30
  6
Continuous
 62
     0
100
AcDbBlockReference
  2
_OPEN
 10
-72.42950291237831
 20
-82.5
 30
0.0
 41
2.0
 42
2.0
 43
2.0
 50
270.0
  0
MTEXT
  5
6E8D
330
6975
100
AcDbEntity
  8
30
  6
Continuous
 62
     0
100
AcDbMText
 10
-75.42950291237829
 20
-0.0000000000000023
 30
0.0
 40
4.0
 41
0.0
 71
     5
 72
     1
  1
\A1;165
 11
0.0000000000000001
 21
1.0
 31
0.0
 73
     1
 44
1.0
1001
ACAD
1000
MTEXTBEGIN
1070
    73
1070
     1
1070
    44
1040
1.0
1070
    74
1070
     0
1000
MTEXTEND
  0
POINT
  5
6E8E
330
6975
100
AcDbEntity
  8
DEFPOINTS
  6
Continuous
 62
     0
100
AcDbPoint
 10
-72.42950291237829
 20
82.50000000000001
 30
0.0
  0
POINT
  5
6E8F
330
6975
100
AcDbEntity
  8
DEFPOINTS
  6
Continuous
 62
     0
100
AcDbPoint
 10
-52.5
 20
-82.5
 30
0.0
  0
POINT
  5
6E90
330
6975
100
AcDbEntity
  8
DEFPOINTS
  6
Continuous
 62
     0
100
AcDbPoint
 10
-72.42950291237831
 20
-82.5
 30
0.0
  0
ENDBLK
  5
6980
330
6975
100
AcDbEntity
  8
0
100
AcDbBlockEnd
  0
BLOCK
  5
6B5B
330
6B51
100
AcDbEntity
  8
0
100
AcDbBlockBegin
  2
*D35
 70
     1
 10
0.0
 20
0.0
 30
0.0
  3
*D35
  1

  0
LINE
  5
6BFF
330
6B51
100
AcDbEntity
  8
30
  6
Continuous
 62
     0
100
AcDbLine
 10
192.5
 20
-190.5000000165
 30
0.0
 11
192.5
 21
-360.9544464119911
 31
0.0
  0
LINE
  5
6C00
330
6B51
100
AcDbEntity
  8
30
  6
Continuous
 62
     0
100
AcDbLine
 10
227.4999999999999
 20
-316.5000000164998
 30
0.0
 11
227.4999999999999
 21
-360.9544464119911
 31
0.0
  0
LINE
  5
6C01
330
6B51
100
AcDbEntity
  8
30
  6
Continuous
 62
     0
100
AcDbLine
 10
194.5
 20
-360.4544464119911
 30
0.0
 11
225.4999999999999
 21
-360.4544464119911
 31
0.0
  0
INSERT
  5
6C02
330
6B51
100
AcDbEntity
  8
30
  6
Continuous
 62
     0
100
AcDbBlockReference
  2
_OPEN
 10
192.5
 20
-360.4544464119911
 30
0.0
 41
2.0
 42
2.0
 43
2.0
 50
180.0
  0
INSERT
  5
6C03
330
6B51
100
AcDbEntity
  8
30
  6
Continuous
 62
     0
100
AcDbBlockReference
  2
_OPEN
 10
227.4999999999999
 20
-360.4544464119911
 30
0.0
 41
2.0
 42
2.0
 43
2.0
  0
MTEXT
  5
6C04
330
6B51
100
AcDbEntity
  8
30
  6
Continuous
 62
     0
100
AcDbMText
 10
210.0
 20
-357.4544464119911
 30
0.0
 40
4.0
 41
0.0
 71
     5
 72
     1
  1
\A1;35
 73
     1
 44
1.0
1001
ACAD
1000
MTEXTBEGIN
1070
    73
1070
     1
1070
    44
1040
1.0
1070
    74
1070
     0
1000
MTEXTEND
  0
POINT
  5
6C05
330
6B51
100
AcDbEntity
  8
DEFPOINTS
  6
Continuous
 62
     0
100
AcDbPoint
 10
192.5
 20
-189.5000000165
 30
0.0
  0
POINT
  5
6C06
330
6B51
100
AcDbEntity
  8
DEFPOINTS
  6
Continuous
 62
     0
100
AcDbPoint
 10
227.4999999999999
 20
-315.5000000164998
 30
0.0
  0
POINT
  5
6C07
330
6B51
100
AcDbEntity
  8
DEFPOINTS
  6
Continuous
 62
     0
100
AcDbPoint
 10
227.4999999999999
 20
-360.4544464119911
 30
0.0
  0
ENDBLK
  5
6B5C
330
6B51
100
AcDbEntity
  8
0
100
AcDbBlockEnd
  0
BLOCK
  5
6B66
330
6B5D
100
AcDbEntity
  8
0
100
AcDbBlockBegin
  2
*D36
 70
     1
 10
0.0
 20
0.0
 30
0.0
  3
*D36
  1

  0
LINE
  5
702A
330
6B5D
100
AcDbEntity
  8
30
  6
Continuous
 62
     0
100
AcDbLine
 10
269.4290315443383
 20
-223.7951530045505
 30
0.0
 11
263.0956982110049
 21
-223.7951530045505
 31
0.0
  0
LINE
  5
702B
330
6B5D
100
AcDbEntity
  8
30
  6
Continuous
 62
     0
100
AcDbLine
 10
263.0956982110049
 20
-223.7951530045505
 30
0.0
 11
261.457418926603
 21
-224.9423413004719
 31
0.0
  0
MTEXT
  5
702C
330
6B5D
100
AcDbEntity
  8
30
  6
Continuous
 62
     0
100
AcDbMText
 10
266.7623648776715
 20
-220.7951530045506
 30
0.0
 40
4.0
 41
0.0
 71
     5
 72
     1
  1
\A1;R1
 73
     1
 44
1.0
1001
ACAD
1000
MTEXTBEGIN
1070
    73
1070
     1
1070
    44
1040
1.0
1070
    74
1070
     0
1000
MTEXTEND
  0
INSERT
  5
702D
330
6B5D
100
AcDbEntity
  8
30
  6
Continuous
 62
     0
100
AcDbBlockReference
  2
_OPEN
 10
259.8191396422011
 20
-226.0895295963939
 30
0.0
 41
2.0
 42
2.0
 43
2.0
 50
215.0012388520259
  0
LINE
  5
702E
330
6B5D
100
AcDbEntity
  8
30
  6
Continuous
 62
     0
100
AcDbLine
 10
258.9100000000001
 20
-226.6631237443545
 30
0.0
 11
259.0899999999999
 21
-226.6631237443545
 31
0.0
  0
LINE
  5
702F
330
6B5D
100
AcDbEntity
  8
30
  6
Continuous
 62
     0
100
AcDbLine
 10
259.0
 20
-226.7531237443547
 30
0.0
 11
259.0
 21
-226.5731237443545
 31
0.0
  0
POINT
  5
7030
330
6B5D
100
AcDbEntity
  8
DEFPOINTS
  6
Continuous
 62
     0
100
AcDbPoint
 10
259.8191396422011
 20
-226.0895295963939
 30
0.0
  0
POINT
  5
7031
330
6B5D
100
AcDbEntity
  8
DEFPOINTS
  6
Continuous
 62
     0
100
AcDbPoint
 10
259.0
 20
-226.6631237443545
 30
0.0
  0
ENDBLK
  5
6B67
330
6B5D
100
AcDbEntity
  8
0
100
AcDbBlockEnd
  0
BLOCK
  5
6B72
330
6B68
100
AcDbEntity
  8
0
100
AcDbBlockBegin
  2
*D37
 70
     1
 10
0.0
 20
0.0
 30
0.0
  3
*D37
  1

  0
LINE
  5
7021
330
6B68
100
AcDbEntity
  8
30
  6
Continuous
 62
     0
100
AcDbLine
 10
260.0
 20
-225.6631237443547
 30
0.0
 11
307.4306349733515
 21
-225.6631237443547
 31
0.0
  0
LINE
  5
7022
330
6B68
100
AcDbEntity
  8
30
  6
Continuous
 62
     0
100
AcDbLine
 10
260.0
 20
-277.6631237443548
 30
0.0
 11
307.4306349733515
 21
-277.6631237443548
 31
0.0
  0
LINE
  5
7023
330
6B68
100
AcDbEntity
  8
30
  6
Continuous
 62
     0
100
AcDbLine
 10
306.9306349733515
 20
-227.6631237443548
 30
0.0
 11
306.9306349733515
 21
-275.6631237443548
 31
0.0
  0
INSERT
  5
7024
330
6B68
100
AcDbEntity
  8
30
  6
Continuous
 62
     0
100
AcDbBlockReference
  2
_OPEN
 10
306.9306349733515
 20
-225.6631237443547
 30
0.0
 41
2.0
 42
2.0
 43
2.0
 50
90.0
  0
INSERT
  5
7025
330
6B68
100
AcDbEntity
  8
30
  6
Continuous
 62
     0
100
AcDbBlockReference
  2
_OPEN
 10
306.9306349733515
 20
-277.6631237443548
 30
0.0
 41
2.0
 42
2.0
 43
2.0
 50
270.0
  0
MTEXT
  5
7026
330
6B68
100
AcDbEntity
  8
30
  6
Continuous
 62
     0
100
AcDbMText
 10
303.9306349733515
 20
-251.6631237443548
 30
0.0
 40
4.0
 41
0.0
 71
     5
 72
     1
  1
\A1;52
 11
0.0000000000000001
 21
1.0
 31
0.0
 73
     1
 44
1.0
1001
ACAD
1000
MTEXTBEGIN
1070
    73
1070
     1
1070
    44
1040
1.0
1070
    74
1070
     0
1000
MTEXTEND
  0
POINT
  5
7027
330
6B68
100
AcDbEntity
  8
DEFPOINTS
  6
Continuous
 62
     0
100
AcDbPoint
 10
259.0
 20
-225.6631237443547
 30
0.0
  0
POINT
  5
7028
330
6B68
100
AcDbEntity
  8
DEFPOINTS
  6
Continuous
 62
     0
100
AcDbPoint
 10
259.0
 20
-277.6631237443548
 30
0.0
  0
POINT
  5
7029
330
6B68
100
AcDbEntity
  8
DEFPOINTS
  6
Continuous
 62
     0
100
AcDbPoint
 10
306.9306349733515
 20
-277.6631237443548
 30
0.0
  0
ENDBLK
  5
6B73
330
6B68
100
AcDbEntity
  8
0
100
AcDbBlockEnd
  0
BLOCK
  5
6B7E
330
6B74
100
AcDbEntity
  8
0
100
AcDbBlockBegin
  2
*D38
 70
     1
 10
0.0
 20
0.0
 30
0.0
  3
*D38
  1

  0
LINE
  5
6BED
330
6B74
100
AcDbEntity
  8
30
  6
Continuous
 62
     0
100
AcDbLine
 10
199.0
 20
-186.9999999999999
 30
0.0
 11
319.0748767933671
 21
-186.9999999999999
 31
0.0
  0
LINE
  5
6BEE
330
6B74
100
AcDbEntity
  8
30
  6
Continuous
 62
     0
100
AcDbLine
 10
234.0
 20
-312.9999999999999
 30
0.0
 11
319.0748767933671
 21
-312.9999999999999
 31
0.0
  0
LINE
  5
6BEF
330
6B74
100
AcDbEntity
  8
30
  6
Continuous
 62
     0
100
AcDbLine
 10
318.5748767933672
 20
-188.9999999999999
 30
0.0
 11
318.5748767933672
 21
-310.9999999999998
 31
0.0
  0
INSERT
  5
6BF0
330
6B74
100
AcDbEntity
  8
30
  6
Continuous
 62
     0
100
AcDbBlockReference
  2
_OPEN
 10
318.5748767933672
 20
-186.9999999999999
 30
0.0
 41
2.0
 42
2.0
 43
2.0
 50
90.0
  0
INSERT
  5
6BF1
330
6B74
100
AcDbEntity
  8
30
  6
Continuous
 62
     0
100
AcDbBlockReference
  2
_OPEN
 10
318.5748767933672
 20
-312.9999999999999
 30
0.0
 41
2.0
 42
2.0
 43
2.0
 50
270.0
  0
MTEXT
  5
6BF2
330
6B74
100
AcDbEntity
  8
30
  6
Continuous
 62
     0
100
AcDbMText
 10
315.5748767933672
 20
-249.9999999999999
 30
0.0
 40
4.0
 41
0.0
 71
     5
 72
     1
  1
\A1;126
 11
0.0000000000000001
 21
1.0
 31
0.0
 73
     1
 44
1.0
1001
ACAD
1000
MTEXTBEGIN
1070
    73
1070
     1
1070
    44
1040
1.0
1070
    74
1070
     0
1000
MTEXTEND
  0
POINT
  5
6BF3
330
6B74
100
AcDbEntity
  8
DEFPOINTS
  6
Continuous
 62
     0
100
AcDbPoint
 10
198.0
 20
-186.9999999999999
 30
0.0
  0
POINT
  5
6BF4
330
6B74
100
AcDbEntity
  8
DEFPOINTS
  6
Continuous
 62
     0
100
AcDbPoint
 10
233.0
 20
-312.9999999999999
 30
0.0
  0
POINT
  5
6BF5
330
6B74
100
AcDbEntity
  8
DEFPOINTS
  6
Continuous
 62
     0
100
AcDbPoint
 10
318.5748767933672
 20
-312.9999999999999
 30
0.0
  0
ENDBLK
  5
6B7F
330
6B74
100
AcDbEntity
  8
0
100
AcDbBlockEnd
  0
BLOCK
  5
6B8A
330
6B80
100
AcDbEntity
  8
0
100
AcDbBlockBegin
  2
*D39
 70
     1
 10
0.0
 20
0.0
 30
0.0
  3
*D39
  1

  0
LINE
  5
7018
330
6B80
100
AcDbEntity
  8
30
  6
Continuous
 62
     0
100
AcDbLine
 10
160.0
 20
-277.6631237443548
 30
0.0
 11
160.0
 21
-365.6576913624973
 31
0.0
  0
LINE
  5
7019
330
6B80
100
AcDbEntity
  8
30
  6
Continuous
 62
     0
100
AcDbLine
 10
260.0
 20
-277.6631237443548
 30
0.0
 11
260.0
 21
-365.6576913624973
 31
0.0
  0
LINE
  5
701A
330
6B80
100
AcDbEntity
  8
30
  6
Continuous
 62
     0
100
AcDbLine
 10
162.0
 20
-365.1576913624972
 30
0.0
 11
258.0
 21
-365.1576913624972
 31
0.0
  0
INSERT
  5
701B
330
6B80
100
AcDbEntity
  8
30
  6
Continuous
 62
     0
100
AcDbBlockReference
  2
_OPEN
 10
160.0
 20
-365.1576913624972
 30
0.0
 41
2.0
 42
2.0
 43
2.0
 50
180.0
  0
INSERT
  5
701C
330
6B80
100
AcDbEntity
  8
30
  6
Continuous
 62
     0
100
AcDbBlockReference
  2
_OPEN
 10
260.0
 20
-365.1576913624972
 30
0.0
 41
2.0
 42
2.0
 43
2.0
  0
MTEXT
  5
701D
330
6B80
100
AcDbEntity
  8
30
  6
Continuous
 62
     0
100
AcDbMText
 10
210.0
 20
-362.1576913624973
 30
0.0
 40
4.0
 41
0.0
 71
     5
 72
     1
  1
\A1;100
 73
     1
 44
1.0
1001
ACAD
1000
MTEXTBEGIN
1070
    73
1070
     1
1070
    44
1040
1.0
1070
    74
1070
     0
1000
MTEXTEND
  0
POINT
  5
701E
330
6B80
100
AcDbEntity
  8
DEFPOINTS
  6
Continuous
 62
     0
100
AcDbPoint
 10
160.0
 20
-276.6631237443549
 30
0.0
  0
POINT
  5
701F
330
6B80
100
AcDbEntity
  8
DEFPOINTS
  6
Continuous
 62
     0
100
AcDbPoint
 10
260.0
 20
-276.6631237443549
 30
0.0
  0
POINT
  5
7020
330
6B80
100
AcDbEntity
  8
DEFPOINTS
  6
Continuous
 62
     0
100
AcDbPoint
 10
260.0
 20
-365.1576913624972
 30
0.0
  0
ENDBLK
  5
6B8B
330
6B80
100
AcDbEntity
  8
0
100
AcDbBlockEnd
  0
BLOCK
  5
7201
330
7200
100
AcDbEntity
  8
0
100
AcDbBlockBegin
  2
_D0
 70
     0
 10
0.0
 20
0.0
 30
0.0
  3
_D0
  1

  0
MTEXT
  5
7202
330
7200
100
AcDbEntity
  8
5
  6
Continuous
 62
     4
100
AcDbMText
 10
75.23415400000001
 20
57.94270799999999
 30
0.0
 40
2.5
 41
0.0
 71
     7
 72
     5
  1
\W01.000;\fsimplex.shx;35
  7
blockfont
 73
     2
 44
0.9036139999999999
1001
ACAD
1000
MTEXTBEGIN
1070
    73
1070
     2
1070
    44
1040
0.9036139999999999
1070
    74
1070
     0
1000
MTEXTEND
  0
LINE
  5
7203
330
7200
100
AcDbEntity
  8
5
 62
     4
100
AcDbLine
 10
69.653425
 20
76.43249399999998
 30
0.0
 11
69.653425
 21
56.5
 31
0.0
  0
LINE
  5
7204
330
7200
100
AcDbEntity
  8
5
 62
     4
100
AcDbLine
 10
83.653425
 20
76.43249399999998
 30
0.0
 11
83.653425
 21
56.5
 31
0.0
  0
LINE
  5
7205
330
7200
100
AcDbEntity
  8
5
 62
     4
100
AcDbLine
 10
69.653425
 20
57.5
 30
0.0
 11
83.653425
 21
57.5
 31
0.0
  0
SOLID
  5
7206
330
7200
100
AcDbEntity
  8
5
 62
     4
100
AcDbTrace
 10
69.653425
 20
57.5
 30
0.0
 11
71.653423
 21
57.84006999999999
 31
0.0
 12
71.65342599999998
 22
57.15993
 32
0.0
 13
69.653425
 23
57.5
 33
0.0
  0
SOLID
  5
7207
330
7200
100
AcDbEntity
  8
5
 62
     4
100
AcDbTrace
 10
83.653425
 20
57.5
 30
0.0
 11
81.653426
 21
57.15993
 31
0.0
 12
81.653423
 22
57.84006999999999
 32
0.0
 13
83.653425
 23
57.5
 33
0.0
  0
ENDBLK
  5
7208
330
7200
100
AcDbEntity
  8
0
100
AcDbBlockEnd
  0
BLOCK
  5
720A
330
7209
100
AcDbEntity
  8
0
100
AcDbBlockBegin
  2
_D1
 70
     0
 10
0.0
 20
0.0
 30
0.0
  3
_D1
  1

  0
MTEXT
  5
720B
330
7209
100
AcDbEntity
  8
1
  6
Continuous
 62
     2
100
AcDbMText
 10
171.859154
 20
35.692708
 30
0.0
 40
2.5
 41
0.0
 71
     7
 72
     5
  1
\W01.000;\fsimplex.shx;4
  7
blockfont
 73
     2
 44
0.9036139999999999
1001
ACAD
1000
MTEXTBEGIN
1070
    73
1070
     2
1070
    44
1040
0.9036139999999999
1070
    74
1070
     0
1000
MTEXTEND
  0
LINE
  5
720C
330
7209
100
AcDbEntity
  8
1
 62
     4
100
AcDbLine
 10
175.153425
 20
96.23249399999998
 30
0.0
 11
175.153425
 21
34.25
 31
0.0
  0
LINE
  5
720D
330
7209
100
AcDbEntity
  8
1
 62
     4
100
AcDbLine
 10
176.753425
 20
95.232494
 30
0.0
 11
176.753425
 21
34.25
 31
0.0
  0
LINE
  5
720E
330
7209
100
AcDbEntity
  8
1
 62
     4
100
AcDbLine
 10
183.003425
 20
35.25
 30
0.0
 11
171.421654
 21
35.25
 31
0.0
  0
SOLID
  5
720F
330
7209
100
AcDbEntity
  8
1
 62
     4
100
AcDbTrace
 10
175.153425
 20
35.25
 30
0.0
 11
173.153426
 21
34.90993
 31
0.0
 12
173.153423
 22
35.59007000000001
 32
0.0
 13
175.153425
 23
35.25
 33
0.0
  0
SOLID
  5
7210
330
7209
100
AcDbEntity
  8
1
 62
     4
100
AcDbTrace
 10
176.753425
 20
35.25
 30
0.0
 11
178.753423
 21
35.59007000000001
 31
0.0
 12
178.753426
 22
34.90993
 32
0.0
 13
176.753425
 23
35.25
 33
0.0
  0
ENDBLK
  5
7211
330
7209
100
AcDbEntity
  8
0
100
AcDbBlockEnd
  0
BLOCK
  5
7213
330
7212
100
AcDbEntity
  8
0
100
AcDbBlockBegin
  2
_D2
 70
     0
 10
0.0
 20
0.0
 30
0.0
  3
_D2
  1

  0
MTEXT
  5
7214
330
7212
100
AcDbEntity
  8
5
  6
Continuous
 62
     4
100
AcDbMText
 10
74.243268
 20
50.442708
 30
0.0
 40
2.5
 41
0.0
 71
     7
 72
     5
  1
\W01.000;\fsimplex.shx;105
  7
blockfont
 73
     2
 44
0.9036139999999999
1001
ACAD
1000
MTEXTBEGIN
1070
    73
1070
     2
1070
    44
1040
0.9036139999999999
1070
    74
1070
     0
1000
MTEXTEND
  0
LINE
  5
7215
330
7212
100
AcDbEntity
  8
5
 62
     4
100
AcDbLine
 10
55.65342499999999
 20
76.43249399999998
 30
0.0
 11
55.65342499999999
 21
49.0
 31
0.0
  0
LINE
  5
7216
330
7212
100
AcDbEntity
  8
5
 62
     4
100
AcDbLine
 10
97.653425
 20
76.43249399999998
 30
0.0
 11
97.653425
 21
49.0
 31
0.0
  0
LINE
  5
7217
330
7212
100
AcDbEntity
  8
5
 62
     4
100
AcDbLine
 10
55.65342499999999
 20
50.0
 30
0.0
 11
97.653425
 21
50.0
 31
0.0
  0
SOLID
  5
7218
330
7212
100
AcDbEntity
  8
5
 62
     4
100
AcDbTrace
 10
55.65342499999999
 20
50.0
 30
0.0
 11
57.653423
 21
50.34007
 31
0.0
 12
57.653426
 22
49.65993
 32
0.0
 13
55.65342499999999
 23
50.0
 33
0.0
  0
SOLID
  5
7219
330
7212
100
AcDbEntity
  8
5
 62
     4
100
AcDbTrace
 10
97.653425
 20
50.0
 30
0.0
 11
95.65342599999999
 21
49.65993
 31
0.0
 12
95.65342300000001
 22
50.34007
 32
0.0
 13
97.653425
 23
50.0
 33
0.0
  0
ENDBLK
  5
721A
330
7212
100
AcDbEntity
  8
0
100
AcDbBlockEnd
  0
BLOCK
  5
721C
330
721B
100
AcDbEntity
  8
0
100
AcDbBlockBegin
  2
_D3
 70
     0
 10
0.0
 20
0.0
 30
0.0
  3
_D3
  1

  0
MTEXT
  5
721D
330
721B
100
AcDbEntity
  8
5
  6
Continuous
 62
     4
100
AcDbMText
 10
74.243268
 20
42.942708
 30
0.0
 40
2.5
 41
0.0
 71
     7
 72
     5
  1
\W01.000;\fsimplex.shx;140
  7
blockfont
 73
     2
 44
0.9036139999999999
1001
ACAD
1000
MTEXTBEGIN
1070
    73
1070
     2
1070
    44
1040
0.9036139999999999
1070
    74
1070
     0
1000
MTEXTEND
  0
LINE
  5
721E
330
721B
100
AcDbEntity
  8
5
 62
     4
100
AcDbLine
 10
48.653425
 20
72.23249399999997
 30
0.0
 11
48.653425
 21
41.5
 31
0.0
  0
LINE
  5
721F
330
721B
100
AcDbEntity
  8
5
 62
     4
100
AcDbLine
 10
104.653425
 20
72.23249399999997
 30
0.0
 11
104.653425
 21
41.5
 31
0.0
  0
LINE
  5
7220
330
721B
100
AcDbEntity
  8
5
 62
     4
100
AcDbLine
 10
48.653425
 20
42.5
 30
0.0
 11
104.653425
 21
42.5
 31
0.0
  0
SOLID
  5
7221
330
721B
100
AcDbEntity
  8
5
 62
     4
100
AcDbTrace
 10
48.653425
 20
42.5
 30
0.0
 11
50.653423
 21
42.84007
 31
0.0
 12
50.65342600000001
 22
42.15993
 32
0.0
 13
48.653425
 23
42.5
 33
0.0
  0
SOLID
  5
7222
330
721B
100
AcDbEntity
  8
5
 62
     4
100
AcDbTrace
 10
104.653425
 20
42.5
 30
0.0
 11
102.653426
 21
42.15993
 31
0.0
 12
102.653423
 22
42.84007
 32
0.0
 13
104.653425
 23
42.5
 33
0.0
  0
ENDBLK
  5
7223
330
721B
100
AcDbEntity
  8
0
100
AcDbBlockEnd
  0
BLOCK
  5
7225
330
7224
100
AcDbEntity
  8
0
100
AcDbBlockBegin
  2
_D4
 70
     0
 10
0.0
 20
0.0
 30
0.0
  3
_D4
  1

  0
MTEXT
  5
7226
330
7224
100
AcDbEntity
  8
5
  6
Continuous
 62
     4
100
AcDbMText
 10
195.134154
 20
57.94270799999999
 30
0.0
 40
2.5
 41
0.0
 71
     7
 72
     5
  1
\W01.000;\fsimplex.shx;45
  7
blockfont
 73
     2
 44
0.9036139999999999
1001
ACAD
1000
MTEXTBEGIN
1070
    73
1070
     2
1070
    44
1040
0.9036139999999999
1070
    74
1070
     0
1000
MTEXTEND
  0
LINE
  5
7227
330
7224
100
AcDbEntity
  8
5
 62
     4
100
AcDbLine
 10
187.553425
 20
78.33249399999998
 30
0.0
 11
187.553425
 21
56.5
 31
0.0
  0
LINE
  5
7228
330
7224
100
AcDbEntity
  8
5
 62
     4
100
AcDbLine
 10
205.553425
 20
72.23249399999997
 30
0.0
 11
205.553425
 21
56.5
 31
0.0
  0
LINE
  5
7229
330
7224
100
AcDbEntity
  8
5
 62
     4
100
AcDbLine
 10
187.553425
 20
57.5
 30
0.0
 11
205.553425
 21
57.5
 31
0.0
  0
SOLID
  5
722A
330
7224
100
AcDbEntity
  8
5
 62
     4
100
AcDbTrace
 10
187.553425
 20
57.5
 30
0.0
 11
189.553423
 21
57.84006999999999
 31
0.0
 12
189.553426
 22
57.15993
 32
0.0
 13
187.553425
 23
57.5
 33
0.0
  0
SOLID
  5
722B
330
7224
100
AcDbEntity
  8
5
 62
     4
100
AcDbTrace
 10
205.553425
 20
57.5
 30
0.0
 11
203.553426
 21
57.15993
 31
0.0
 12
203.553423
 22
57.84006999999999
 32
0.0
 13
205.553425
 23
57.5
 33
0.0
  0
ENDBLK
  5
722C
330
7224
100
AcDbEntity
  8
0
100
AcDbBlockEnd
  0
BLOCK
  5
722E
330
722D
100
AcDbEntity
  8
0
100
AcDbBlockBegin
  2
_D5
 70
     0
 10
0.0
 20
0.0
 30
0.0
  3
_D5
  1

  0
MTEXT
  5
722F
330
722D
100
AcDbEntity
  8
5
  6
Continuous
 62
     4
100
AcDbMText
 10
191.934154
 20
50.442708
 30
0.0
 40
2.5
 41
0.0
 71
     7
 72
     5
  1
\W01.000;\fsimplex.shx;61
  7
blockfont
 73
     2
 44
0.9036139999999999
1001
ACAD
1000
MTEXTBEGIN
1070
    73
1070
     2
1070
    44
1040
0.9036139999999999
1070
    74
1070
     0
1000
MTEXTEND
  0
LINE
  5
7230
330
722D
100
AcDbEntity
  8
5
 62
     4
100
AcDbLine
 10
181.153425
 20
72.23249399999997
 30
0.0
 11
181.153425
 21
49.0
 31
0.0
  0
LINE
  5
7231
330
722D
100
AcDbEntity
  8
5
 62
     4
100
AcDbLine
 10
205.553425
 20
72.23249399999997
 30
0.0
 11
205.553425
 21
49.0
 31
0.0
  0
LINE
  5
7232
330
722D
100
AcDbEntity
  8
5
 62
     4
100
AcDbLine
 10
181.153425
 20
50.0
 30
0.0
 11
205.553425
 21
50.0
 31
0.0
  0
SOLID
  5
7233
330
722D
100
AcDbEntity
  8
5
 62
     4
100
AcDbTrace
 10
181.153425
 20
50.0
 30
0.0
 11
183.153423
 21
50.34007
 31
0.0
 12
183.153426
 22
49.65993
 32
0.0
 13
181.153425
 23
50.0
 33
0.0
  0
SOLID
  5
7234
330
722D
100
AcDbEntity
  8
5
 62
     4
100
AcDbTrace
 10
205.553425
 20
50.0
 30
0.0
 11
203.553426
 21
49.65993
 31
0.0
 12
203.553423
 22
50.34007
 32
0.0
 13
205.553425
 23
50.0
 33
0.0
  0
ENDBLK
  5
7235
330
722D
100
AcDbEntity
  8
0
100
AcDbBlockEnd
  0
BLOCK
  5
7237
330
7236
100
AcDbEntity
  8
0
100
AcDbBlockBegin
  2
_D11
 70
     0
 10
0.0
 20
0.0
 30
0.0
  3
_D11
  1

  0
MTEXT
  5
7238
330
7236
100
AcDbEntity
  8
5
  6
Continuous
 62
     4
100
AcDbMText
 10
190.534154
 20
42.942708
 30
0.0
 40
2.5
 41
0.0
 71
     7
 72
     5
  1
\W01.000;\fsimplex.shx;68
  7
blockfont
 73
     2
 44
0.9036139999999999
1001
ACAD
1000
MTEXTBEGIN
1070
    73
1070
     2
1070
    44
1040
0.9036139999999999
1070
    74
1070
     0
1000
MTEXTEND
  0
LINE
  5
7239
330
7236
100
AcDbEntity
  8
5
 62
     4
100
AcDbLine
 10
178.353425
 20
84.832494
 30
0.0
 11
178.353425
 21
41.5
 31
0.0
  0
LINE
  5
723A
330
7236
100
AcDbEntity
  8
5
 62
     4
100
AcDbLine
 10
205.553425
 20
72.23249399999997
 30
0.0
 11
205.553425
 21
41.5
 31
0.0
  0
LINE
  5
723B
330
7236
100
AcDbEntity
  8
5
 62
     4
100
AcDbLine
 10
178.353425
 20
42.5
 30
0.0
 11
205.553425
 21
42.5
 31
0.0
  0
SOLID
  5
723C
330
7236
100
AcDbEntity
  8
5
 62
     4
100
AcDbTrace
 10
178.353425
 20
42.5
 30
0.0
 11
180.353423
 21
42.84007
 31
0.0
 12
180.353426
 22
42.15993
 32
0.0
 13
178.353425
 23
42.5
 33
0.0
  0
SOLID
  5
723D
330
7236
100
AcDbEntity
  8
5
 62
     4
100
AcDbTrace
 10
205.553425
 20
42.5
 30
0.0
 11
203.553426
 21
42.15993
 31
0.0
 12
203.553423
 22
42.84007
 32
0.0
 13
205.553425
 23
42.5
 33
0.0
  0
ENDBLK
  5
723E
330
7236
100
AcDbEntity
  8
0
100
AcDbBlockEnd
  0
BLOCK
  5
7240
330
723F
100
AcDbEntity
  8
0
100
AcDbBlockBegin
  2
_D12
 70
     0
 10
0.0
 20
0.0
 30
0.0
  3
_D12
  1

  0
MTEXT
  5
7241
330
723F
100
AcDbEntity
  8
5
  6
Continuous
 62
     4
100
AcDbMText
 10
64.223958
 20
120.442708
 30
0.0
 40
2.5
 41
0.0
 71
     7
 72
     5
  1
\W01.000;\fsimplex.shx;98
  7
blockfont
 73
     2
 44
0.9036139999999999
1001
ACAD
1000
MTEXTBEGIN
1070
    73
1070
     2
1070
    44
1040
0.9036139999999999
1070
    74
1070
     0
1000
MTEXTEND
  0
LINE
  5
7242
330
723F
100
AcDbEntity
  8
5
 62
     4
100
AcDbLine
 10
50.053425
 20
117.232494
 30
0.0
 11
50.053425
 21
121.0
 31
0.0
  0
LINE
  5
7243
330
723F
100
AcDbEntity
  8
5
 62
     4
100
AcDbLine
 10
89.25342499999997
 20
117.232494
 30
0.0
 11
89.25342499999997
 21
121.0
 31
0.0
  0
LINE
  5
7244
330
723F
100
AcDbEntity
  8
5
 62
     4
100
AcDbLine
 10
50.053425
 20
120.0
 30
0.0
 11
89.25342499999997
 21
120.0
 31
0.0
  0
SOLID
  5
7245
330
723F
100
AcDbEntity
  8
5
 62
     4
100
AcDbTrace
 10
50.053425
 20
120.0
 30
0.0
 11
52.05342299999998
 21
120.34007
 31
0.0
 12
52.053426
 22
119.65993
 32
0.0
 13
50.053425
 23
120.0
 33
0.0
  0
SOLID
  5
7246
330
723F
100
AcDbEntity
  8
5
 62
     4
100
AcDbTrace
 10
89.25342499999997
 20
120.0
 30
0.0
 11
87.25342600000002
 21
119.65993
 31
0.0
 12
87.25342299999999
 22
120.34007
 32
0.0
 13
89.25342499999997
 23
120.0
 33
0.0
  0
ENDBLK
  5
7247
330
723F
100
AcDbEntity
  8
0
100
AcDbBlockEnd
  0
BLOCK
  5
7249
330
7248
100
AcDbEntity
  8
0
100
AcDbBlockBegin
  2
_D17
 70
     0
 10
0.0
 20
0.0
 30
0.0
  3
_D17
  1

  0
MTEXT
  5
724A
330
7248
100
AcDbEntity
  8
1
  6
Continuous
 62
     4
100
AcDbMText
 10
193.334154
 20
171.692708
 30
0.0
 40
2.5
 41
0.0
 71
     7
 72
     5
  1
\W01.000;\fsimplex.shx;54
  7
blockfont
 73
     2
 44
0.9036139999999999
1001
ACAD
1000
MTEXTBEGIN
1070
    73
1070
     2
1070
    44
1040
0.9036139999999999
1070
    74
1070
     0
1000
MTEXTEND
  0
LINE
  5
724B
330
7248
100
AcDbEntity
  8
1
 62
     4
100
AcDbLine
 10
205.553425
 20
162.232494
 30
0.0
 11
205.553425
 21
172.25
 31
0.0
  0
LINE
  5
724C
330
7248
100
AcDbEntity
  8
1
 62
     4
100
AcDbLine
 10
183.953425
 20
161.832494
 30
0.0
 11
183.953425
 21
172.25
 31
0.0
  0
LINE
  5
724D
330
7248
100
AcDbEntity
  8
1
 62
     4
100
AcDbLine
 10
205.553425
 20
171.25
 30
0.0
 11
183.953425
 21
171.25
 31
0.0
  0
SOLID
  5
724E
330
7248
100
AcDbEntity
  8
1
 62
     4
100
AcDbTrace
 10
205.553425
 20
171.25
 30
0.0
 11
203.553426
 21
170.90993
 31
0.0
 12
203.553423
 22
171.59007
 32
0.0
 13
205.553425
 23
171.25
 33
0.0
  0
SOLID
  5
724F
330
7248
100
AcDbEntity
  8
1
 62
     4
100
AcDbTrace
 10
183.953425
 20
171.25
 30
0.0
 11
185.953423
 21
171.59007
 31
0.0
 12
185.953426
 22
170.90993
 32
0.0
 13
183.953425
 23
171.25
 33
0.0
  0
ENDBLK
  5
7250
330
7248
100
AcDbEntity
  8
0
100
AcDbBlockEnd
  0
BLOCK
  5
7252
330
7251
100
AcDbEntity
  8
0
100
AcDbBlockBegin
  2
_D18
 70
     0
 10
0.0
 20
0.0
 30
0.0
  3
_D18
  1

  0
MTEXT
  5
7253
330
7251
100
AcDbEntity
  8
1
  6
Continuous
 62
     4
100
AcDbMText
 10
190.692383
 20
178.760479
 30
0.0
 40
2.5
 41
0.0
 71
     7
 72
     5
  1
\W01.000;\fsimplex.shx;57.5
  7
blockfont
 73
     2
 44
0.9036139999999999
1001
ACAD
1000
MTEXTBEGIN
1070
    73
1070
     2
1070
    44
1040
0.9036139999999999
1070
    74
1070
     0
1000
MTEXTEND
  0
LINE
  5
7254
330
7251
100
AcDbEntity
  8
1
 62
     4
100
AcDbLine
 10
205.553425
 20
162.232494
 30
0.0
 11
205.553425
 21
179.317771
 31
0.0
  0
LINE
  5
7255
330
7251
100
AcDbEntity
  8
1
 62
     4
100
AcDbLine
 10
182.633425
 20
144.072494
 30
0.0
 11
182.633425
 21
179.317771
 31
0.0
  0
LINE
  5
7256
330
7251
100
AcDbEntity
  8
1
 62
     4
100
AcDbLine
 10
205.553425
 20
178.317771
 30
0.0
 11
182.633425
 21
178.317771
 31
0.0
  0
SOLID
  5
7257
330
7251
100
AcDbEntity
  8
1
 62
     4
100
AcDbTrace
 10
205.553425
 20
178.317771
 30
0.0
 11
203.553426
 21
177.977701
 31
0.0
 12
203.553423
 22
178.657841
 32
0.0
 13
205.553425
 23
178.317771
 33
0.0
  0
SOLID
  5
7258
330
7251
100
AcDbEntity
  8
1
 62
     4
100
AcDbTrace
 10
182.633425
 20
178.317771
 30
0.0
 11
184.633423
 21
178.657841
 31
0.0
 12
184.633426
 22
177.977701
 32
0.0
 13
182.633425
 23
178.317771
 33
0.0
  0
ENDBLK
  5
7259
330
7251
100
AcDbEntity
  8
0
100
AcDbBlockEnd
  0
BLOCK
  5
725B
330
725A
100
AcDbEntity
  8
0
100
AcDbBlockBegin
  2
_D19
 70
     0
 10
0.0
 20
0.0
 30
0.0
  3
_D19
  1

  0
MTEXT
  5
725C
330
725A
100
AcDbEntity
  8
1
  6
Continuous
 62
     4
100
AcDbMText
 10
199.334154
 20
117.942708
 30
0.0
 40
2.5
 41
0.0
 71
     7
 72
     5
  1
\W01.000;\fsimplex.shx;24
  7
blockfont
 73
     2
 44
0.9036139999999999
1001
ACAD
1000
MTEXTBEGIN
1070
    73
1070
     2
1070
    44
1040
0.9036139999999999
1070
    74
1070
     0
1000
MTEXTEND
  0
LINE
  5
725D
330
725A
100
AcDbEntity
  8
1
 62
     4
100
AcDbLine
 10
195.953425
 20
129.832494
 30
0.0
 11
195.953425
 21
116.5
 31
0.0
  0
LINE
  5
725E
330
725A
100
AcDbEntity
  8
1
 62
     4
100
AcDbLine
 10
205.553425
 20
138.232494
 30
0.0
 11
205.553425
 21
116.5
 31
0.0
  0
LINE
  5
725F
330
725A
100
AcDbEntity
  8
1
 62
     4
100
AcDbLine
 10
195.953425
 20
117.5
 30
0.0
 11
205.553425
 21
117.5
 31
0.0
  0
SOLID
  5
7260
330
725A
100
AcDbEntity
  8
1
 62
     4
100
AcDbTrace
 10
195.953425
 20
117.5
 30
0.0
 11
197.953423
 21
117.84007
 31
0.0
 12
197.953426
 22
117.15993
 32
0.0
 13
195.953425
 23
117.5
 33
0.0
  0
SOLID
  5
7261
330
725A
100
AcDbEntity
  8
1
 62
     4
100
AcDbTrace
 10
205.553425
 20
117.5
 30
0.0
 11
203.553426
 21
117.15993
 31
0.0
 12
203.553423
 22
117.84007
 32
0.0
 13
205.553425
 23
117.5
 33
0.0
  0
ENDBLK
  5
7262
330
725A
100
AcDbEntity
  8
0
100
AcDbBlockEnd
  0
BLOCK
  5
7264
330
7263
100
AcDbEntity
  8
0
100
AcDbBlockBegin
  2
_D20
 70
     0
 10
0.0
 20
0.0
 30
0.0
  3
_D20
  1

  0
MTEXT
  5
7265
330
7263
100
AcDbEntity
  8
1
  6
Continuous
 62
     4
100
AcDbMText
 10
66.080729
 20
91.69270799999999
 30
0.0
 40
2.5
 41
0.0
 71
     7
 72
     5
  1
\W01.000;\fsimplex.shx;22
  7
blockfont
 73
     2
 44
0.9036139999999999
1001
ACAD
1000
MTEXTBEGIN
1070
    73
1070
     2
1070
    44
1040
0.9036139999999999
1070
    74
1070
     0
1000
MTEXTEND
  0
LINE
  5
7266
330
7263
100
AcDbEntity
  8
1
 62
     4
100
AcDbLine
 10
65.25342499999999
 20
96.23249399999998
 30
0.0
 11
65.25342499999999
 21
90.25
 31
0.0
  0
LINE
  5
7267
330
7263
100
AcDbEntity
  8
1
 62
     4
100
AcDbLine
 10
74.053425
 20
96.23249399999998
 30
0.0
 11
74.053425
 21
90.25
 31
0.0
  0
LINE
  5
7268
330
7263
100
AcDbEntity
  8
1
 62
     4
100
AcDbLine
 10
65.25342499999999
 20
91.25
 30
0.0
 11
74.053425
 21
91.25
 31
0.0
  0
SOLID
  5
7269
330
7263
100
AcDbEntity
  8
1
 62
     4
100
AcDbTrace
 10
65.25342499999999
 20
91.25
 30
0.0
 11
67.253423
 21
91.59007
 31
0.0
 12
67.25342600000001
 22
90.90993
 32
0.0
 13
65.25342499999999
 23
91.25
 33
0.0
  0
SOLID
  5
726A
330
7263
100
AcDbEntity
  8
1
 62
     4
100
AcDbTrace
 10
74.053425
 20
91.25
 30
0.0
 11
72.053426
 21
90.90993
 31
0.0
 12
72.05342299999998
 22
91.59007
 32
0.0
 13
74.053425
 23
91.25
 33
0.0
  0
ENDBLK
  5
726B
330
7263
100
AcDbEntity
  8
0
100
AcDbBlockEnd
  0
BLOCK
  5
726D
330
726C
100
AcDbEntity
  8
0
100
AcDbBlockBegin
  2
_D27
 70
     0
 10
0.0
 20
0.0
 30
0.0
  3
_D27
  1

  0
MTEXT
  5
726E
330
726C
100
AcDbEntity
  8
1
  6
Continuous
 62
     2
100
AcDbMText
 10
189.734154
 20
35.692708
 30
0.0
 40
2.5
 41
0.0
 71
     7
 72
     5
  1
\W01.000;\fsimplex.shx;72
  7
blockfont
 73
     2
 44
0.9036139999999999
1001
ACAD
1000
MTEXTBEGIN
1070
    73
1070
     2
1070
    44
1040
0.9036139999999999
1070
    74
1070
     0
1000
MTEXTEND
  0
LINE
  5
726F
330
726C
100
AcDbEntity
  8
1
 62
     4
100
AcDbLine
 10
176.753425
 20
95.232494
 30
0.0
 11
176.753425
 21
34.25
 31
0.0
  0
LINE
  5
7270
330
726C
100
AcDbEntity
  8
1
 62
     4
100
AcDbLine
 10
205.553425
 20
72.23249399999997
 30
0.0
 11
205.553425
 21
34.25
 31
0.0
  0
LINE
  5
7271
330
726C
100
AcDbEntity
  8
1
 62
     4
100
AcDbLine
 10
176.753425
 20
35.25
 30
0.0
 11
205.553425
 21
35.25
 31
0.0
  0
SOLID
  5
7272
330
726C
100
AcDbEntity
  8
1
 62
     4
100
AcDbTrace
 10
176.753425
 20
35.25
 30
0.0
 11
178.753423
 21
35.59007000000001
 31
0.0
 12
178.753426
 22
34.90993
 32
0.0
 13
176.753425
 23
35.25
 33
0.0
  0
SOLID
  5
7273
330
726C
100
AcDbEntity
  8
1
 62
     4
100
AcDbTrace
 10
205.553425
 20
35.25
 30
0.0
 11
203.553426
 21
34.90993
 31
0.0
 12
203.553423
 22
35.59007000000001
 32
0.0
 13
205.553425
 23
35.25
 33
0.0
  0
ENDBLK
  5
7274
330
726C
100
AcDbEntity
  8
0
100
AcDbBlockEnd
  0
BLOCK
  5
7276
330
7275
100
AcDbEntity
  8
0
100
AcDbBlockBegin
  2
_D35
 70
     0
 10
0.0
 20
0.0
 30
0.0
  3
_D35
  1

  0
MTEXT
  5
7277
330
7275
100
AcDbEntity
  8
1
  6
Continuous
 62
     4
100
AcDbMText
 10
140.807292
 20
103.822338
 30
0.0
 40
2.5
 41
0.0
 71
     7
 72
     5
  1
\W01.000;\fsimplex.shx;102
  7
blockfont
 11
0.0
 21
1.0
 31
0.0
 73
     2
 44
0.9036139999999999
1001
ACAD
1000
MTEXTBEGIN
1070
    73
1070
     2
1070
    44
1040
0.9036139999999999
1070
    74
1070
     0
1000
MTEXTEND
  0
LINE
  5
7278
330
7275
100
AcDbEntity
  8
1
 62
     4
100
AcDbLine
 10
177.353425
 20
85.83249399999997
 30
0.0
 11
140.25
 21
85.83249399999997
 31
0.0
  0
LINE
  5
7279
330
7275
100
AcDbEntity
  8
1
 62
     4
100
AcDbLine
 10
177.353425
 20
126.632494
 30
0.0
 11
140.25
 21
126.632494
 31
0.0
  0
LINE
  5
727A
330
7275
100
AcDbEntity
  8
1
 62
     4
100
AcDbLine
 10
141.25
 20
85.83249399999997
 30
0.0
 11
141.25
 21
126.632494
 31
0.0
  0
SOLID
  5
727B
330
7275
100
AcDbEntity
  8
1
 62
     4
100
AcDbTrace
 10
141.25
 20
85.83249399999997
 30
0.0
 11
140.90993
 21
87.83249299999999
 31
0.0
 12
141.59007
 22
87.83249599999995
 32
0.0
 13
141.25
 23
85.83249399999997
 33
0.0
  0
SOLID
  5
727C
330
7275
100
AcDbEntity
  8
1
 62
     4
100
AcDbTrace
 10
141.25
 20
126.632494
 30
0.0
 11
141.59007
 21
124.632496
 31
0.0
 12
140.90993
 22
124.632493
 32
0.0
 13
141.25
 23
126.632494
 33
0.0
  0
ENDBLK
  5
727D
330
7275
100
AcDbEntity
  8
0
100
AcDbBlockEnd
  0
BLOCK
  5
727F
330
727E
100
AcDbEntity
  8
0
100
AcDbBlockBegin
  2
_D36
 70
     0
 10
0.0
 20
0.0
 30
0.0
  3
_D36
  1

  0
MTEXT
  5
7280
330
727E
100
AcDbEntity
  8
1
  6
Continuous
 62
     4
100
AcDbMText
 10
120.807292
 20
103.822338
 30
0.0
 40
2.5
 41
0.0
 71
     7
 72
     5
  1
\W01.000;\fsimplex.shx;144
  7
blockfont
 11
0.0
 21
1.0
 31
0.0
 73
     2
 44
0.9036139999999999
1001
ACAD
1000
MTEXTBEGIN
1070
    73
1070
     2
1070
    44
1040
0.9036139999999999
1070
    74
1070
     0
1000
MTEXTEND
  0
LINE
  5
7281
330
727E
100
AcDbEntity
  8
1
 62
     4
100
AcDbLine
 10
98.653425
 20
77.43249399999998
 30
0.0
 11
122.25
 21
77.43249399999998
 31
0.0
  0
LINE
  5
7282
330
727E
100
AcDbEntity
  8
1
 62
     4
100
AcDbLine
 10
98.653425
 20
135.032494
 30
0.0
 11
122.25
 21
135.032494
 31
0.0
  0
LINE
  5
7283
330
727E
100
AcDbEntity
  8
1
 62
     4
100
AcDbLine
 10
121.25
 20
77.43249399999998
 30
0.0
 11
121.25
 21
135.032494
 31
0.0
  0
SOLID
  5
7284
330
727E
100
AcDbEntity
  8
1
 62
     4
100
AcDbTrace
 10
121.25
 20
77.43249399999998
 30
0.0
 11
120.90993
 21
79.43249300000002
 31
0.0
 12
121.59007
 22
79.432496
 32
0.0
 13
121.25
 23
77.43249399999998
 33
0.0
  0
SOLID
  5
7285
330
727E
100
AcDbEntity
  8
1
 62
     4
100
AcDbTrace
 10
121.25
 20
135.032494
 30
0.0
 11
121.59007
 21
133.032496
 31
0.0
 12
120.90993
 22
133.032493
 32
0.0
 13
121.25
 23
135.032494
 33
0.0
  0
ENDBLK
  5
7286
330
727E
100
AcDbEntity
  8
0
100
AcDbBlockEnd
  0
BLOCK
  5
7288
330
7287
100
AcDbEntity
  8
0
100
AcDbBlockBegin
  2
_D37
 70
     0
 10
0.0
 20
0.0
 30
0.0
  3
_D37
  1

  0
MTEXT
  5
7289
330
7287
100
AcDbEntity
  8
1
  6
Continuous
 62
     4
100
AcDbMText
 10
128.307292
 20
103.822338
 30
0.0
 40
2.5
 41
0.0
 71
     7
 72
     5
  1
\W01.000;\fsimplex.shx;165
  7
blockfont
 11
0.0
 21
1.0
 31
0.0
 73
     2
 44
0.9036139999999999
1001
ACAD
1000
MTEXTBEGIN
1070
    73
1070
     2
1070
    44
1040
0.9036139999999999
1070
    74
1070
     0
1000
MTEXTEND
  0
LINE
  5
728A
330
7287
100
AcDbEntity
  8
1
 62
     4
100
AcDbLine
 10
105.653425
 20
73.23249399999998
 30
0.0
 11
129.75
 21
73.23249399999998
 31
0.0
  0
LINE
  5
728B
330
7287
100
AcDbEntity
  8
1
 62
     4
100
AcDbLine
 10
105.653425
 20
139.232494
 30
0.0
 11
129.75
 21
139.232494
 31
0.0
  0
LINE
  5
728C
330
7287
100
AcDbEntity
  8
1
 62
     4
100
AcDbLine
 10
128.75
 20
73.23249399999998
 30
0.0
 11
128.75
 21
139.232494
 31
0.0
  0
SOLID
  5
728D
330
7287
100
AcDbEntity
  8
1
 62
     4
100
AcDbTrace
 10
128.75
 20
73.23249399999998
 30
0.0
 11
128.40993
 21
75.232493
 31
0.0
 12
129.09007
 22
75.23249599999998
 32
0.0
 13
128.75
 23
73.23249399999998
 33
0.0
  0
SOLID
  5
728E
330
7287
100
AcDbEntity
  8
1
 62
     4
100
AcDbTrace
 10
128.75
 20
139.232494
 30
0.0
 11
129.09007
 21
137.232496
 31
0.0
 12
128.40993
 22
137.232493
 32
0.0
 13
128.75
 23
139.232494
 33
0.0
  0
ENDBLK
  5
728F
330
7287
100
AcDbEntity
  8
0
100
AcDbBlockEnd
  0
BLOCK
  5
7291
330
7290
100
AcDbEntity
  8
0
100
AcDbBlockBegin
  2
_D38
 70
     0
 10
0.0
 20
0.0
 30
0.0
  3
_D38
  1

  0
MTEXT
  5
7292
330
7290
100
AcDbEntity
  8
1
  6
Continuous
 62
     4
100
AcDbMText
 10
128.307292
 20
148.813223
 30
0.0
 40
2.5
 41
0.0
 71
     7
 72
     5
  1
\W01.000;\fsimplex.shx;55
  7
blockfont
 11
0.0
 21
1.0
 31
0.0
 73
     2
 44
0.9036139999999999
1001
ACAD
1000
MTEXTBEGIN
1070
    73
1070
     2
1070
    44
1040
0.9036139999999999
1070
    74
1070
     0
1000
MTEXTEND
  0
LINE
  5
7293
330
7290
100
AcDbEntity
  8
1
 62
     4
100
AcDbLine
 10
105.653425
 20
139.232494
 30
0.0
 11
129.75
 21
139.232494
 31
0.0
  0
LINE
  5
7294
330
7290
100
AcDbEntity
  8
1
 62
     4
100
AcDbLine
 10
105.253425
 20
161.232494
 30
0.0
 11
129.75
 21
161.232494
 31
0.0
  0
LINE
  5
7295
330
7290
100
AcDbEntity
  8
1
 62
     4
100
AcDbLine
 10
128.75
 20
139.232494
 30
0.0
 11
128.75
 21
161.232494
 31
0.0
  0
SOLID
  5
7296
330
7290
100
AcDbEntity
  8
1
 62
     4
100
AcDbTrace
 10
128.75
 20
139.232494
 30
0.0
 11
128.40993
 21
141.232493
 31
0.0
 12
129.09007
 22
141.232496
 32
0.0
 13
128.75
 23
139.232494
 33
0.0
  0
SOLID
  5
7297
330
7290
100
AcDbEntity
  8
1
 62
     4
100
AcDbTrace
 10
128.75
 20
161.232494
 30
0.0
 11
129.09007
 21
159.232496
 31
0.0
 12
128.40993
 22
159.232493
 32
0.0
 13
128.75
 23
161.232494
 33
0.0
  0
ENDBLK
  5
7298
330
7290
100
AcDbEntity
  8
0
100
AcDbBlockEnd
  0
BLOCK
  5
729A
330
7299
100
AcDbEntity
  8
0
100
AcDbBlockBegin
  2
_D39
 70
     0
 10
0.0
 20
0.0
 30
0.0
  3
_D39
  1

  0
MTEXT
  5
729B
330
7299
100
AcDbEntity
  8
1
  6
Continuous
 62
     4
100
AcDbMText
 10
165.807292
 20
139.933223
 30
0.0
 40
2.5
 41
0.0
 71
     7
 72
     5
  1
\W01.000;\fsimplex.shx;11
  7
blockfont
 11
0.0
 21
1.0
 31
0.0
 73
     2
 44
0.9036139999999999
1001
ACAD
1000
MTEXTBEGIN
1070
    73
1070
     2
1070
    44
1040
0.9036139999999999
1070
    74
1070
     0
1000
MTEXTEND
  0
LINE
  5
729C
330
7299
100
AcDbEntity
  8
1
 62
     4
100
AcDbLine
 10
180.153425
 20
139.232494
 30
0.0
 11
165.25
 21
139.232494
 31
0.0
  0
LINE
  5
729D
330
7299
100
AcDbEntity
  8
1
 62
     4
100
AcDbLine
 10
182.033425
 20
143.472494
 30
0.0
 11
165.25
 21
143.472494
 31
0.0
  0
LINE
  5
729E
330
7299
100
AcDbEntity
  8
1
 62
     4
100
AcDbLine
 10
166.25
 20
132.982494
 30
0.0
 11
166.25
 21
149.722494
 31
0.0
  0
SOLID
  5
729F
330
7299
100
AcDbEntity
  8
1
 62
     4
100
AcDbTrace
 10
166.25
 20
139.232494
 30
0.0
 11
166.59007
 21
137.232496
 31
0.0
 12
165.90993
 22
137.232493
 32
0.0
 13
166.25
 23
139.232494
 33
0.0
  0
SOLID
  5
72A0
330
7299
100
AcDbEntity
  8
1
 62
     4
100
AcDbTrace
 10
166.25
 20
143.472494
 30
0.0
 11
165.90993
 21
145.472493
 31
0.0
 12
166.59007
 22
145.472496
 32
0.0
 13
166.25
 23
143.472494
 33
0.0
  0
ENDBLK
  5
72A1
330
7299
100
AcDbEntity
  8
0
100
AcDbBlockEnd
  0
BLOCK
  5
72A3
330
72A2
100
AcDbEntity
  8
0
100
AcDbBlockBegin
  2
_D40
 70
     0
 10
0.0
 20
0.0
 30
0.0
  3
_D40
  1

  0
MTEXT
  5
72A4
330
72A2
100
AcDbEntity
  8
1
  6
Continuous
 62
     4
100
AcDbMText
 10
33.307292
 20
114.822338
 30
0.0
 40
2.5
 41
0.0
 71
     7
 72
     5
  1
\W01.000;\fsimplex.shx;220
  7
blockfont
 11
0.0
 21
1.0
 31
0.0
 73
     2
 44
0.9036139999999999
1001
ACAD
1000
MTEXTBEGIN
1070
    73
1070
     2
1070
    44
1040
0.9036139999999999
1070
    74
1070
     0
1000
MTEXTEND
  0
LINE
  5
72A5
330
72A2
100
AcDbEntity
  8
1
 62
     4
100
AcDbLine
 10
47.653425
 20
73.23249399999998
 30
0.0
 11
32.75
 21
73.23249399999998
 31
0.0
  0
LINE
  5
72A6
330
72A2
100
AcDbEntity
  8
1
 62
     4
100
AcDbLine
 10
48.053425
 20
161.232494
 30
0.0
 11
32.75
 21
161.232494
 31
0.0
  0
LINE
  5
72A7
330
72A2
100
AcDbEntity
  8
1
 62
     4
100
AcDbLine
 10
33.75
 20
73.23249399999998
 30
0.0
 11
33.75
 21
161.232494
 31
0.0
  0
SOLID
  5
72A8
330
72A2
100
AcDbEntity
  8
1
 62
     4
100
AcDbTrace
 10
33.75
 20
73.23249399999998
 30
0.0
 11
33.40993
 21
75.232493
 31
0.0
 12
34.09007000000001
 22
75.23249599999998
 32
0.0
 13
33.75
 23
73.23249399999998
 33
0.0
  0
SOLID
  5
72A9
330
72A2
100
AcDbEntity
  8
1
 62
     4
100
AcDbTrace
 10
33.75
 20
161.232494
 30
0.0
 11
34.09007000000001
 21
159.232496
 31
0.0
 12
33.40993
 22
159.232493
 32
0.0
 13
33.75
 23
161.232494
 33
0.0
  0
ENDBLK
  5
72AA
330
72A2
100
AcDbEntity
  8
0
100
AcDbBlockEnd
  0
BLOCK
  5
72AC
330
72AB
100
AcDbEntity
  8
0
100
AcDbBlockBegin
  2
_D41
 70
     0
 10
0.0
 20
0.0
 30
0.0
  3
_D41
  1

  0
MTEXT
  5
72AD
330
72AB
100
AcDbEntity
  8
1
  6
Continuous
 62
     4
100
AcDbMText
 10
148.307292
 20
104.813223
 30
0.0
 40
2.5
 41
0.0
 71
     7
 72
     5
  1
\W01.000;\fsimplex.shx;50
  7
blockfont
 11
0.0
 21
1.0
 31
0.0
 73
     2
 44
0.9036139999999999
1001
ACAD
1000
MTEXTBEGIN
1070
    73
1070
     2
1070
    44
1040
0.9036139999999999
1070
    74
1070
     0
1000
MTEXTEND
  0
LINE
  5
72AE
330
72AB
100
AcDbEntity
  8
1
 62
     4
100
AcDbLine
 10
176.553425
 20
116.232494
 30
0.0
 11
147.75
 21
116.232494
 31
0.0
  0
LINE
  5
72AF
330
72AB
100
AcDbEntity
  8
1
 62
     4
100
AcDbLine
 10
176.553425
 20
96.23249399999998
 30
0.0
 11
147.75
 21
96.23249399999998
 31
0.0
  0
LINE
  5
72B0
330
72AB
100
AcDbEntity
  8
1
 62
     4
100
AcDbLine
 10
148.75
 20
116.232494
 30
0.0
 11
148.75
 21
96.23249399999998
 31
0.0
  0
SOLID
  5
72B1
330
72AB
100
AcDbEntity
  8
1
 62
     4
100
AcDbTrace
 10
148.75
 20
116.232494
 30
0.0
 11
149.09007
 21
114.232496
 31
0.0
 12
148.40993
 22
114.232493
 32
0.0
 13
148.75
 23
116.232494
 33
0.0
  0
SOLID
  5
72B2
330
72AB
100
AcDbEntity
  8
1
 62
     4
100
AcDbTrace
 10
148.75
 20
96.23249399999998
 30
0.0
 11
148.40993
 21
98.232493
 31
0.0
 12
149.09007
 22
98.232496
 32
0.0
 13
148.75
 23
96.23249399999998
 33
0.0
  0
ENDBLK
  5
72B3
330
72AB
100
AcDbEntity
  8
0
100
AcDbBlockEnd
  0
BLOCK
  5
72B5
330
72B4
100
AcDbEntity
  8
0
100
AcDbBlockBegin
  2
_D43
 70
     0
 10
0.0
 20
0.0
 30
0.0
  3
_D43
  1

  0
MTEXT
  5
72B6
330
72B4
100
AcDbEntity
  8
1
  6
Continuous
 62
     2
100
AcDbMText
 10
155.807292
 20
104.813223
 30
0.0
 40
2.5
 41
0.0
 71
     7
 72
     5
  1
\W01.000;\fsimplex.shx;45
  7
blockfont
 11
0.0
 21
1.0
 31
0.0
 73
     2
 44
0.9036139999999999
1001
ACAD
1000
MTEXTBEGIN
1070
    73
1070
     2
1070
    44
1040
0.9036139999999999
1070
    74
1070
     0
1000
MTEXTEND
  0
LINE
  5
72B7
330
72B4
100
AcDbEntity
  8
1
 62
     4
100
AcDbLine
 10
174.153425
 20
115.232494
 30
0.0
 11
155.25
 21
115.232494
 31
0.0
  0
LINE
  5
72B8
330
72B4
100
AcDbEntity
  8
1
 62
     4
100
AcDbLine
 10
174.153425
 20
97.232494
 30
0.0
 11
155.25
 21
97.232494
 31
0.0
  0
LINE
  5
72B9
330
72B4
100
AcDbEntity
  8
1
 62
     4
100
AcDbLine
 10
156.25
 20
115.232494
 30
0.0
 11
156.25
 21
97.232494
 31
0.0
  0
SOLID
  5
72BA
330
72B4
100
AcDbEntity
  8
1
 62
     4
100
AcDbTrace
 10
156.25
 20
115.232494
 30
0.0
 11
156.59007
 21
113.232496
 31
0.0
 12
155.90993
 22
113.232493
 32
0.0
 13
156.25
 23
115.232494
 33
0.0
  0
SOLID
  5
72BB
330
72B4
100
AcDbEntity
  8
1
 62
     4
100
AcDbTrace
 10
156.25
 20
97.232494
 30
0.0
 11
155.90993
 21
99.23249300000001
 31
0.0
 12
156.59007
 22
99.232496
 32
0.0
 13
156.25
 23
97.232494
 33
0.0
  0
ENDBLK
  5
72BC
330
72B4
100
AcDbEntity
  8
0
100
AcDbBlockEnd
  0
BLOCK
  5
72BE
330
72BD
100
AcDbEntity
  8
0
100
AcDbBlockBegin
  2
_D44
 70
     0
 10
0.0
 20
0.0
 30
0.0
  3
_D44
  1

  0
MTEXT
  5
72BF
330
72BD
100
AcDbEntity
  8
5
  6
Continuous
 62
     4
100
AcDbMText
 10
119.239728
 20
171.760479
 30
0.0
 40
2.5
 41
0.0
 71
     7
 72
     5
  1
\W01.000;\fsimplex.shx; 
  7
blockfont
 73
     2
 44
0.9036139999999999
1001
ACAD
1000
MTEXTBEGIN
1070
    73
1070
     2
1070
    44
1040
0.9036139999999999
1070
    74
1070
     0
1000
MTEXTEND
  0
LINE
  5
72C0
330
72BD
100
AcDbEntity
  8
5
 62
     4
100
AcDbLine
 10
93.802228
 20
173.817771
 30
0.0
 11
118.802228
 21
173.817771
 31
0.0
  0
LINE
  5
72C1
330
72BD
100
AcDbEntity
  8
5
 62
     4
100
AcDbLine
 10
77.253518
 20
132.915696
 30
0.0
 11
93.802228
 21
173.817771
 31
0.0
  0
SOLID
  5
72C2
330
72BD
100
AcDbEntity
  8
5
 62
     4
100
AcDbTrace
 10
77.253518
 20
132.915696
 30
0.0
 11
77.688389
 21
134.897243
 31
0.0
 12
78.318881
 22
134.642153
 32
0.0
 13
77.253518
 23
132.915696
 33
0.0
  0
ENDBLK
  5
72C3
330
72BD
100
AcDbEntity
  8
0
100
AcDbBlockEnd
  0
BLOCK
  5
7467
330
7466
100
AcDbEntity
  8
0
100
AcDbBlockBegin
  2
*D62
 70
     1
 10
0.0
 20
0.0
 30
0.0
  3
*D62
  1

  0
LINE
  5
770E
330
7466
100
AcDbEntity
  8
5
  6
Continuous
 62
     4
370
    -2
100
AcDbLine
 10
783.4999999999999
 20
-27.99999999999996
 30
0.0
 11
783.4999999999999
 21
-69.08123499999994
 31
0.0
  0
LINE
  5
770F
330
7466
100
AcDbEntity
  8
5
  6
Continuous
 62
     4
370
    -2
100
AcDbLine
 10
818.5
 20
-27.99999999999996
 30
0.0
 11
818.5
 21
-69.08123499999994
 31
0.0
  0
LINE
  5
7710
330
7466
100
AcDbEntity
  8
5
  6
Continuous
 62
     4
370
    -2
100
AcDbLine
 10
785.5
 20
-68.08123499999993
 30
0.0
 11
816.5
 21
-68.08123499999993
 31
0.0
  0
INSERT
  5
7711
330
7466
100
AcDbEntity
  8
5
  6
Continuous
 62
     4
370
    -2
100
AcDbBlockReference
  2
_OPEN
 10
783.4999999999999
 20
-68.08123499999993
 30
0.0
 41
2.0
 42
2.0
 43
2.0
 50
180.0
  0
INSERT
  5
7712
330
7466
100
AcDbEntity
  8
5
  6
Continuous
 62
     4
370
    -2
100
AcDbBlockReference
  2
_OPEN
 10
818.5
 20
-68.08123499999993
 30
0.0
 41
2.0
 42
2.0
 43
2.0
  0
MTEXT
  5
7713
330
7466
100
AcDbEntity
  8
5
  6
Continuous
 62
     4
100
AcDbMText
 10
801.0
 20
-66.83123499999993
 30
0.0
 40
2.5
 41
0.0
 71
     5
 72
     1
  1
\A1; 35 
 73
     1
 44
1.0
1001
ACAD
1000
MTEXTBEGIN
1070
    73
1070
     1
1070
    44
1040
1.0
1070
    74
1070
     0
1000
MTEXTEND
  0
POINT
  5
7714
330
7466
100
AcDbEntity
  8
DEFPOINTS
  6
Continuous
 62
     0
100
AcDbPoint
 10
783.4999999999999
 20
-26.99999999999996
 30
0.0
  0
POINT
  5
7715
330
7466
100
AcDbEntity
  8
DEFPOINTS
  6
Continuous
 62
     0
100
AcDbPoint
 10
818.5
 20
-26.99999999999996
 30
0.0
  0
POINT
  5
7716
330
7466
100
AcDbEntity
  8
DEFPOINTS
  6
Continuous
 62
     0
100
AcDbPoint
 10
818.5
 20
-68.08123499999993
 30
0.0
  0
ENDBLK
  5
7468
330
7466
100
AcDbEntity
  8
0
100
AcDbBlockEnd
  0
BLOCK
  5
7473
330
7472
100
AcDbEntity
  8
0
100
AcDbBlockBegin
  2
*D63
 70
     1
 10
0.0
 20
0.0
 30
0.0
  3
*D63
  1

  0
LINE
  5
7717
330
7472
100
AcDbEntity
  8
1
  6
Continuous
 62
     4
370
    -2
100
AcDbLine
 10
1047.25
 20
21.5
 30
0.0
 11
1047.25
 21
-127.8312349999999
 31
0.0
  0
LINE
  5
7718
330
7472
100
AcDbEntity
  8
1
  6
Continuous
 62
     4
370
    -2
100
AcDbLine
 10
1051.25
 20
19.0
 30
0.0
 11
1051.25
 21
-127.8312349999999
 31
0.0
  0
LINE
  5
7719
330
7472
100
AcDbEntity
  8
1
  6
Continuous
 62
     4
370
    -2
100
AcDbLine
 10
1045.25
 20
-126.8312349999999
 30
0.0
 11
1043.25
 21
-126.8312349999999
 31
0.0
  0
LINE
  5
771A
330
7472
100
AcDbEntity
  8
1
  6
Continuous
 62
     4
370
    -2
100
AcDbLine
 10
1053.25
 20
-126.8312349999999
 30
0.0
 11
1055.25
 21
-126.8312349999999
 31
0.0
  0
INSERT
  5
771B
330
7472
100
AcDbEntity
  8
1
  6
Continuous
 62
     4
370
    -2
100
AcDbBlockReference
  2
_OPEN
 10
1047.25
 20
-126.8312349999999
 30
0.0
 41
2.0
 42
2.0
 43
2.0
  0
INSERT
  5
771C
330
7472
100
AcDbEntity
  8
1
  6
Continuous
 62
     4
370
    -2
100
AcDbBlockReference
  2
_OPEN
 10
1051.25
 20
-126.8312349999999
 30
0.0
 41
2.0
 42
2.0
 43
2.0
 50
180.0
  0
MTEXT
  5
771D
330
7472
100
AcDbEntity
  8
1
  6
Continuous
 62
     2
100
AcDbMText
 10
1049.25
 20
-125.5812349999999
 30
0.0
 40
2.5
 41
0.0
 71
     5
 72
     1
  1
\A1; 4 
 73
     1
 44
1.0
1001
ACAD
1000
MTEXTBEGIN
1070
    73
1070
     1
1070
    44
1040
1.0
1070
    74
1070
     0
1000
MTEXTEND
  0
POINT
  5
771E
330
7472
100
AcDbEntity
  8
DEFPOINTS
  6
Continuous
 62
     0
100
AcDbPoint
 10
1047.25
 20
22.5
 30
0.0
  0
POINT
  5
771F
330
7472
100
AcDbEntity
  8
DEFPOINTS
  6
Continuous
 62
     0
100
AcDbPoint
 10
1051.25
 20
20.0
 30
0.0
  0
POINT
  5
7720
330
7472
100
AcDbEntity
  8
DEFPOINTS
  6
Continuous
 62
     0
100
AcDbPoint
 10
1051.25
 20
-126.8312349999999
 30
0.0
  0
ENDBLK
  5
7474
330
7472
100
AcDbEntity
  8
0
100
AcDbBlockEnd
  0
BLOCK
  5
7480
330
747F
100
AcDbEntity
  8
0
100
AcDbBlockBegin
  2
*D64
 70
     1
 10
0.0
 20
0.0
 30
0.0
  3
*D64
  1

  0
LINE
  5
7721
330
747F
100
AcDbEntity
  8
5
  6
Continuous
 62
     4
370
    -2
100
AcDbLine
 10
748.5
 20
-27.99999999999996
 30
0.0
 11
748.5
 21
-87.83123499999994
 31
0.0
  0
LINE
  5
7722
330
747F
100
AcDbEntity
  8
5
  6
Continuous
 62
     4
370
    -2
100
AcDbLine
 10
853.5
 20
-27.99999999999996
 30
0.0
 11
853.5
 21
-87.83123499999994
 31
0.0
  0
LINE
  5
7723
330
747F
100
AcDbEntity
  8
5
  6
Continuous
 62
     4
370
    -2
100
AcDbLine
 10
750.4999999999999
 20
-86.83123499999997
 30
0.0
 11
851.5
 21
-86.83123499999997
 31
0.0
  0
INSERT
  5
7724
330
747F
100
AcDbEntity
  8
5
  6
Continuous
 62
     4
370
    -2
100
AcDbBlockReference
  2
_OPEN
 10
748.5
 20
-86.83123499999997
 30
0.0
 41
2.0
 42
2.0
 43
2.0
 50
180.0
  0
INSERT
  5
7725
330
747F
100
AcDbEntity
  8
5
  6
Continuous
 62
     4
370
    -2
100
AcDbBlockReference
  2
_OPEN
 10
853.5
 20
-86.83123499999997
 30
0.0
 41
2.0
 42
2.0
 43
2.0
  0
MTEXT
  5
7726
330
747F
100
AcDbEntity
  8
5
  6
Continuous
 62
     4
100
AcDbMText
 10
801.0
 20
-85.58123499999993
 30
0.0
 40
2.5
 41
0.0
 71
     5
 72
     1
  1
\A1; 105 
 73
     1
 44
1.0
1001
ACAD
1000
MTEXTBEGIN
1070
    73
1070
     1
1070
    44
1040
1.0
1070
    74
1070
     0
1000
MTEXTEND
  0
POINT
  5
7727
330
747F
100
AcDbEntity
  8
DEFPOINTS
  6
Continuous
 62
     0
100
AcDbPoint
 10
748.5
 20
-26.99999999999996
 30
0.0
  0
POINT
  5
7728
330
747F
100
AcDbEntity
  8
DEFPOINTS
  6
Continuous
 62
     0
100
AcDbPoint
 10
853.5
 20
-26.99999999999996
 30
0.0
  0
POINT
  5
7729
330
747F
100
AcDbEntity
  8
DEFPOINTS
  6
Continuous
 62
     0
100
AcDbPoint
 10
853.5
 20
-86.83123499999997
 30
0.0
  0
ENDBLK
  5
7481
330
747F
100
AcDbEntity
  8
0
100
AcDbBlockEnd
  0
BLOCK
  5
748C
330
748B
100
AcDbEntity
  8
0
100
AcDbBlockBegin
  2
*D65
 70
     1
 10
0.0
 20
0.0
 30
0.0
  3
*D65
  1

  0
LINE
  5
772A
330
748B
100
AcDbEntity
  8
5
  6
Continuous
 62
     4
370
    -2
100
AcDbLine
 10
731.0
 20
-38.5
 30
0.0
 11
731.0
 21
-106.5812349999999
 31
0.0
  0
LINE
  5
772B
330
748B
100
AcDbEntity
  8
5
  6
Continuous
 62
     4
370
    -2
100
AcDbLine
 10
871.0
 20
-38.5
 30
0.0
 11
871.0
 21
-106.5812349999999
 31
0.0
  0
LINE
  5
772C
330
748B
100
AcDbEntity
  8
5
  6
Continuous
 62
     4
370
    -2
100
AcDbLine
 10
733.0
 20
-105.5812349999999
 30
0.0
 11
869.0
 21
-105.5812349999999
 31
0.0
  0
INSERT
  5
772D
330
748B
100
AcDbEntity
  8
5
  6
Continuous
 62
     4
370
    -2
100
AcDbBlockReference
  2
_OPEN
 10
731.0
 20
-105.5812349999999
 30
0.0
 41
2.0
 42
2.0
 43
2.0
 50
180.0
  0
INSERT
  5
772E
330
748B
100
AcDbEntity
  8
5
  6
Continuous
 62
     4
370
    -2
100
AcDbBlockReference
  2
_OPEN
 10
871.0
 20
-105.5812349999999
 30
0.0
 41
2.0
 42
2.0
 43
2.0
  0
MTEXT
  5
772F
330
748B
100
AcDbEntity
  8
5
  6
Continuous
 62
     4
100
AcDbMText
 10
801.0
 20
-104.3312349999999
 30
0.0
 40
2.5
 41
0.0
 71
     5
 72
     1
  1
\A1; 140 
 73
     1
 44
1.0
1001
ACAD
1000
MTEXTBEGIN
1070
    73
1070
     1
1070
    44
1040
1.0
1070
    74
1070
     0
1000
MTEXTEND
  0
POINT
  5
7730
330
748B
100
AcDbEntity
  8
DEFPOINTS
  6
Continuous
 62
     0
100
AcDbPoint
 10
731.0
 20
-37.5
 30
0.0
  0
POINT
  5
7731
330
748B
100
AcDbEntity
  8
DEFPOINTS
  6
Continuous
 62
     0
100
AcDbPoint
 10
871.0
 20
-37.5
 30
0.0
  0
POINT
  5
7732
330
748B
100
AcDbEntity
  8
DEFPOINTS
  6
Continuous
 62
     0
100
AcDbPoint
 10
871.0
 20
-105.5812349999999
 30
0.0
  0
ENDBLK
  5
748D
330
748B
100
AcDbEntity
  8
0
100
AcDbBlockEnd
  0
BLOCK
  5
7498
330
7497
100
AcDbEntity
  8
0
100
AcDbBlockBegin
  2
*D66
 70
     1
 10
0.0
 20
0.0
 30
0.0
  3
*D66
  1

  0
LINE
  5
7733
330
7497
100
AcDbEntity
  8
5
  6
Continuous
 62
     4
370
    -2
100
AcDbLine
 10
1078.25
 20
-23.24999999999994
 30
0.0
 11
1078.25
 21
-69.08123499999994
 31
0.0
  0
LINE
  5
7734
330
7497
100
AcDbEntity
  8
5
  6
Continuous
 62
     4
370
    -2
100
AcDbLine
 10
1123.25
 20
-38.5
 30
0.0
 11
1123.25
 21
-69.08123499999994
 31
0.0
  0
LINE
  5
7735
330
7497
100
AcDbEntity
  8
5
  6
Continuous
 62
     4
370
    -2
100
AcDbLine
 10
1080.25
 20
-68.08123499999993
 30
0.0
 11
1121.25
 21
-68.08123499999993
 31
0.0
  0
INSERT
  5
7736
330
7497
100
AcDbEntity
  8
5
  6
Continuous
 62
     4
370
    -2
100
AcDbBlockReference
  2
_OPEN
 10
1078.25
 20
-68.08123499999993
 30
0.0
 41
2.0
 42
2.0
 43
2.0
 50
180.0
  0
INSERT
  5
7737
330
7497
100
AcDbEntity
  8
5
  6
Continuous
 62
     4
370
    -2
100
AcDbBlockReference
  2
_OPEN
 10
1123.25
 20
-68.08123499999993
 30
0.0
 41
2.0
 42
2.0
 43
2.0
  0
MTEXT
  5
7738
330
7497
100
AcDbEntity
  8
5
  6
Continuous
 62
     4
100
AcDbMText
 10
1100.75
 20
-66.83123499999993
 30
0.0
 40
2.5
 41
0.0
 71
     5
 72
     1
  1
\A1; 45 
 73
     1
 44
1.0
1001
ACAD
1000
MTEXTBEGIN
1070
    73
1070
     1
1070
    44
1040
1.0
1070
    74
1070
     0
1000
MTEXTEND
  0
POINT
  5
7739
330
7497
100
AcDbEntity
  8
DEFPOINTS
  6
Continuous
 62
     0
100
AcDbPoint
 10
1078.25
 20
-22.24999999999994
 30
0.0
  0
POINT
  5
773A
330
7497
100
AcDbEntity
  8
DEFPOINTS
  6
Continuous
 62
     0
100
AcDbPoint
 10
1123.25
 20
-37.5
 30
0.0
  0
POINT
  5
773B
330
7497
100
AcDbEntity
  8
DEFPOINTS
  6
Continuous
 62
     0
100
AcDbPoint
 10
1123.25
 20
-68.08123499999993
 30
0.0
  0
ENDBLK
  5
7499
330
7497
100
AcDbEntity
  8
0
100
AcDbBlockEnd
  0
BLOCK
  5
74A4
330
74A3
100
AcDbEntity
  8
0
100
AcDbBlockBegin
  2
*D67
 70
     1
 10
0.0
 20
0.0
 30
0.0
  3
*D67
  1

  0
LINE
  5
773C
330
74A3
100
AcDbEntity
  8
5
  6
Continuous
 62
     4
370
    -2
100
AcDbLine
 10
1062.25
 20
-38.5
 30
0.0
 11
1062.25
 21
-87.83123499999994
 31
0.0
  0
LINE
  5
773D
330
74A3
100
AcDbEntity
  8
5
  6
Continuous
 62
     4
370
    -2
100
AcDbLine
 10
1123.25
 20
-38.5
 30
0.0
 11
1123.25
 21
-87.83123499999994
 31
0.0
  0
LINE
  5
773E
330
74A3
100
AcDbEntity
  8
5
  6
Continuous
 62
     4
370
    -2
100
AcDbLine
 10
1064.25
 20
-86.83123499999997
 30
0.0
 11
1121.25
 21
-86.83123499999997
 31
0.0
  0
INSERT
  5
773F
330
74A3
100
AcDbEntity
  8
5
  6
Continuous
 62
     4
370
    -2
100
AcDbBlockReference
  2
_OPEN
 10
1062.25
 20
-86.83123499999997
 30
0.0
 41
2.0
 42
2.0
 43
2.0
 50
180.0
  0
INSERT
  5
7740
330
74A3
100
AcDbEntity
  8
5
  6
Continuous
 62
     4
370
    -2
100
AcDbBlockReference
  2
_OPEN
 10
1123.25
 20
-86.83123499999997
 30
0.0
 41
2.0
 42
2.0
 43
2.0
  0
MTEXT
  5
7741
330
74A3
100
AcDbEntity
  8
5
  6
Continuous
 62
     4
100
AcDbMText
 10
1092.75
 20
-85.58123499999993
 30
0.0
 40
2.5
 41
0.0
 71
     5
 72
     1
  1
\A1; 61 
 73
     1
 44
1.0
1001
ACAD
1000
MTEXTBEGIN
1070
    73
1070
     1
1070
    44
1040
1.0
1070
    74
1070
     0
1000
MTEXTEND
  0
POINT
  5
7742
330
74A3
100
AcDbEntity
  8
DEFPOINTS
  6
Continuous
 62
     0
100
AcDbPoint
 10
1062.25
 20
-37.5
 30
0.0
  0
POINT
  5
7743
330
74A3
100
AcDbEntity
  8
DEFPOINTS
  6
Continuous
 62
     0
100
AcDbPoint
 10
1123.25
 20
-37.5
 30
0.0
  0
POINT
  5
7744
330
74A3
100
AcDbEntity
  8
DEFPOINTS
  6
Continuous
 62
     0
100
AcDbPoint
 10
1123.25
 20
-86.83123499999997
 30
0.0
  0
ENDBLK
  5
74A5
330
74A3
100
AcDbEntity
  8
0
100
AcDbBlockEnd
  0
BLOCK
  5
74B0
330
74AF
100
AcDbEntity
  8
0
100
AcDbBlockBegin
  2
*D68
 70
     1
 10
0.0
 20
0.0
 30
0.0
  3
*D68
  1

  0
LINE
  5
7745
330
74AF
100
AcDbEntity
  8
5
  6
Continuous
 62
     4
370
    -2
100
AcDbLine
 10
1055.25
 20
-6.999999999999943
 30
0.0
 11
1055.25
 21
-106.5812349999999
 31
0.0
  0
LINE
  5
7746
330
74AF
100
AcDbEntity
  8
5
  6
Continuous
 62
     4
370
    -2
100
AcDbLine
 10
1123.25
 20
-38.5
 30
0.0
 11
1123.25
 21
-106.5812349999999
 31
0.0
  0
LINE
  5
7747
330
74AF
100
AcDbEntity
  8
5
  6
Continuous
 62
     4
370
    -2
100
AcDbLine
 10
1057.25
 20
-105.5812349999999
 30
0.0
 11
1121.25
 21
-105.5812349999999
 31
0.0
  0
INSERT
  5
7748
330
74AF
100
AcDbEntity
  8
5
  6
Continuous
 62
     4
370
    -2
100
AcDbBlockReference
  2
_OPEN
 10
1055.25
 20
-105.5812349999999
 30
0.0
 41
2.0
 42
2.0
 43
2.0
 50
180.0
  0
INSERT
  5
7749
330
74AF
100
AcDbEntity
  8
5
  6
Continuous
 62
     4
370
    -2
100
AcDbBlockReference
  2
_OPEN
 10
1123.25
 20
-105.5812349999999
 30
0.0
 41
2.0
 42
2.0
 43
2.0
  0
MTEXT
  5
774A
330
74AF
100
AcDbEntity
  8
5
  6
Continuous
 62
     4
100
AcDbMText
 10
1089.25
 20
-104.3312349999999
 30
0.0
 40
2.5
 41
0.0
 71
     5
 72
     1
  1
\A1; 68 
 73
     1
 44
1.0
1001
ACAD
1000
MTEXTBEGIN
1070
    73
1070
     1
1070
    44
1040
1.0
1070
    74
1070
     0
1000
MTEXTEND
  0
POINT
  5
774B
330
74AF
100
AcDbEntity
  8
DEFPOINTS
  6
Continuous
 62
     0
100
AcDbPoint
 10
1055.25
 20
-5.999999999999943
 30
0.0
  0
POINT
  5
774C
330
74AF
100
AcDbEntity
  8
DEFPOINTS
  6
Continuous
 62
     0
100
AcDbPoint
 10
1123.25
 20
-37.5
 30
0.0
  0
POINT
  5
774D
330
74AF
100
AcDbEntity
  8
DEFPOINTS
  6
Continuous
 62
     0
100
AcDbPoint
 10
1123.25
 20
-105.5812349999999
 30
0.0
  0
ENDBLK
  5
74B1
330
74AF
100
AcDbEntity
  8
0
100
AcDbBlockEnd
  0
BLOCK
  5
74BC
330
74BB
100
AcDbEntity
  8
0
100
AcDbBlockBegin
  2
*D69
 70
     1
 10
0.0
 20
0.0
 30
0.0
  3
*D69
  1

  0
LINE
  5
774E
330
74BB
100
AcDbEntity
  8
5
  6
Continuous
 62
     4
370
    -2
100
AcDbLine
 10
734.4999999999997
 20
76.0
 30
0.0
 11
734.4999999999997
 21
89.16876500000006
 31
0.0
  0
LINE
  5
774F
330
74BB
100
AcDbEntity
  8
5
  6
Continuous
 62
     4
370
    -2
100
AcDbLine
 10
832.4999999999999
 20
76.0
 30
0.0
 11
832.4999999999999
 21
89.16876500000006
 31
0.0
  0
LINE
  5
7750
330
74BB
100
AcDbEntity
  8
5
  6
Continuous
 62
     4
370
    -2
100
AcDbLine
 10
736.5
 20
88.16876500000004
 30
0.0
 11
830.4999999999999
 21
88.16876500000004
 31
0.0
  0
INSERT
  5
7751
330
74BB
100
AcDbEntity
  8
5
  6
Continuous
 62
     4
370
    -2
100
AcDbBlockReference
  2
_OPEN
 10
734.4999999999997
 20
88.16876500000004
 30
0.0
 41
2.0
 42
2.0
 43
2.0
 50
180.0
  0
INSERT
  5
7752
330
74BB
100
AcDbEntity
  8
5
  6
Continuous
 62
     4
370
    -2
100
AcDbBlockReference
  2
_OPEN
 10
832.4999999999999
 20
88.16876500000004
 30
0.0
 41
2.0
 42
2.0
 43
2.0
  0
MTEXT
  5
7753
330
74BB
100
AcDbEntity
  8
5
  6
Continuous
 62
     4
100
AcDbMText
 10
783.4999999999999
 20
89.41876500000004
 30
0.0
 40
2.5
 41
0.0
 71
     5
 72
     1
  1
\A1; 98 
 73
     1
 44
1.0
1001
ACAD
1000
MTEXTBEGIN
1070
    73
1070
     1
1070
    44
1040
1.0
1070
    74
1070
     0
1000
MTEXTEND
  0
POINT
  5
7754
330
74BB
100
AcDbEntity
  8
DEFPOINTS
  6
Continuous
 62
     0
100
AcDbPoint
 10
734.4999999999997
 20
75.0
 30
0.0
  0
POINT
  5
7755
330
74BB
100
AcDbEntity
  8
DEFPOINTS
  6
Continuous
 62
     0
100
AcDbPoint
 10
832.4999999999999
 20
75.0
 30
0.0
  0
POINT
  5
7756
330
74BB
100
AcDbEntity
  8
DEFPOINTS
  6
Continuous
 62
     0
100
AcDbPoint
 10
832.4999999999999
 20
88.16876500000004
 30
0.0
  0
ENDBLK
  5
74BD
330
74BB
100
AcDbEntity
  8
0
100
AcDbBlockEnd
  0
BLOCK
  5
74C8
330
74C7
100
AcDbEntity
  8
0
100
AcDbBlockBegin
  2
*D70
 70
     1
 10
0.0
 20
0.0
 30
0.0
  3
*D70
  1

  0
LINE
  5
7814
330
74C7
100
AcDbEntity
  8
1
  6
Continuous
 62
     4
370
    -2
100
AcDbLine
 10
259.2602819584348
 20
141.0
 30
0.0
 11
259.2602819584348
 21
166.668765
 31
0.0
  0
LINE
  5
7815
330
74C7
100
AcDbEntity
  8
1
  6
Continuous
 62
     4
370
    -2
100
AcDbLine
 10
205.2602819584348
 20
140.0
 30
0.0
 11
205.2602819584348
 21
166.668765
 31
0.0
  0
LINE
  5
7816
330
74C7
100
AcDbEntity
  8
1
  6
Continuous
 62
     4
370
    -2
100
AcDbLine
 10
257.2602819584348
 20
165.668765
 30
0.0
 11
207.2602819584348
 21
165.668765
 31
0.0
  0
INSERT
  5
7817
330
74C7
100
AcDbEntity
  8
1
  6
Continuous
 62
     4
370
    -2
100
AcDbBlockReference
  2
_OPEN
 10
259.2602819584348
 20
165.668765
 30
0.0
 41
2.0
 42
2.0
 43
2.0
  0
INSERT
  5
7818
330
74C7
100
AcDbEntity
  8
1
  6
Continuous
 62
     4
370
    -2
100
AcDbBlockReference
  2
_OPEN
 10
205.2602819584348
 20
165.668765
 30
0.0
 41
2.0
 42
2.0
 43
2.0
 50
180.0
  0
MTEXT
  5
7819
330
74C7
100
AcDbEntity
  8
1
  6
Continuous
 62
     4
100
AcDbMText
 10
232.2602819584348
 20
166.918765
 30
0.0
 40
2.5
 41
0.0
 71
     5
 72
     1
  1
\A1; 54 
 73
     1
 44
1.0
1001
ACAD
1000
MTEXTBEGIN
1070
    73
1070
     1
1070
    44
1040
1.0
1070
    74
1070
     0
1000
MTEXTEND
  0
POINT
  5
781A
330
74C7
100
AcDbEntity
  8
DEFPOINTS
  6
Continuous
 62
     0
100
AcDbPoint
 10
259.2602819584348
 20
140.0
 30
0.0
  0
POINT
  5
781B
330
74C7
100
AcDbEntity
  8
DEFPOINTS
  6
Continuous
 62
     0
100
AcDbPoint
 10
205.2602819584348
 20
139.0
 30
0.0
  0
POINT
  5
781C
330
74C7
100
AcDbEntity
  8
DEFPOINTS
  6
Continuous
 62
     0
100
AcDbPoint
 10
205.2602819584348
 20
165.668765
 30
0.0
  0
ENDBLK
  5
74C9
330
74C7
100
AcDbEntity
  8
0
100
AcDbBlockEnd
  0
BLOCK
  5
74D4
330
74D3
100
AcDbEntity
  8
0
100
AcDbBlockBegin
  2
*D71
 70
     1
 10
0.0
 20
0.0
 30
0.0
  3
*D71
  1

  0
LINE
  5
781D
330
74D3
100
AcDbEntity
  8
1
  6
Continuous
 62
     4
370
    -2
100
AcDbLine
 10
259.2602819584348
 20
141.0
 30
0.0
 11
259.2602819584348
 21
184.3381925
 31
0.0
  0
LINE
  5
781E
330
74D3
100
AcDbEntity
  8
1
  6
Continuous
 62
     4
370
    -2
100
AcDbLine
 10
201.9602819584346
 20
95.60000000000004
 30
0.0
 11
201.9602819584346
 21
184.3381925
 31
0.0
  0
LINE
  5
781F
330
74D3
100
AcDbEntity
  8
1
  6
Continuous
 62
     4
370
    -2
100
AcDbLine
 10
257.2602819584348
 20
183.3381925
 30
0.0
 11
203.9602819584346
 21
183.3381925
 31
0.0
  0
INSERT
  5
7820
330
74D3
100
AcDbEntity
  8
1
  6
Continuous
 62
     4
370
    -2
100
AcDbBlockReference
  2
_OPEN
 10
259.2602819584348
 20
183.3381925
 30
0.0
 41
2.0
 42
2.0
 43
2.0
  0
INSERT
  5
7821
330
74D3
100
AcDbEntity
  8
1
  6
Continuous
 62
     4
370
    -2
100
AcDbBlockReference
  2
_OPEN
 10
201.9602819584346
 20
183.3381925
 30
0.0
 41
2.0
 42
2.0
 43
2.0
 50
180.0
  0
MTEXT
  5
7822
330
74D3
100
AcDbEntity
  8
1
  6
Continuous
 62
     4
100
AcDbMText
 10
230.6102819584347
 20
184.5881925
 30
0.0
 40
2.5
 41
0.0
 71
     5
 72
     1
  1
\A1; 57.3 
 73
     1
 44
1.0
1001
ACAD
1000
MTEXTBEGIN
1070
    73
1070
     1
1070
    44
1040
1.0
1070
    74
1070
     0
1000
MTEXTEND
  0
POINT
  5
7823
330
74D3
100
AcDbEntity
  8
DEFPOINTS
  6
Continuous
 62
     0
100
AcDbPoint
 10
259.2602819584348
 20
140.0
 30
0.0
  0
POINT
  5
7824
330
74D3
100
AcDbEntity
  8
DEFPOINTS
  6
Continuous
 62
     0
100
AcDbPoint
 10
201.9602819584346
 20
94.60000000000004
 30
0.0
  0
POINT
  5
7825
330
74D3
100
AcDbEntity
  8
DEFPOINTS
  6
Continuous
 62
     0
100
AcDbPoint
 10
201.9602819584346
 20
183.3381925
 30
0.0
  0
ENDBLK
  5
74D5
330
74D3
100
AcDbEntity
  8
0
100
AcDbBlockEnd
  0
BLOCK
  5
74E0
330
74DF
100
AcDbEntity
  8
0
100
AcDbBlockBegin
  2
*D72
 70
     1
 10
0.0
 20
0.0
 30
0.0
  3
*D72
  1

  0
LINE
  5
7769
330
74DF
100
AcDbEntity
  8
1
  6
Continuous
 62
     4
370
    -2
100
AcDbLine
 10
1099.25
 20
105.5
 30
0.0
 11
1099.25
 21
80.91876500000006
 31
0.0
  0
LINE
  5
776A
330
74DF
100
AcDbEntity
  8
1
  6
Continuous
 62
     4
370
    -2
100
AcDbLine
 10
1123.25
 20
126.5000000000001
 30
0.0
 11
1123.25
 21
80.91876500000006
 31
0.0
  0
LINE
  5
776B
330
74DF
100
AcDbEntity
  8
1
  6
Continuous
 62
     4
370
    -2
100
AcDbLine
 10
1101.25
 20
81.91876500000006
 30
0.0
 11
1121.25
 21
81.91876500000006
 31
0.0
  0
INSERT
  5
776C
330
74DF
100
AcDbEntity
  8
1
  6
Continuous
 62
     4
370
    -2
100
AcDbBlockReference
  2
_OPEN
 10
1099.25
 20
81.91876500000006
 30
0.0
 41
2.0
 42
2.0
 43
2.0
 50
180.0
  0
INSERT
  5
776D
330
74DF
100
AcDbEntity
  8
1
  6
Continuous
 62
     4
370
    -2
100
AcDbBlockReference
  2
_OPEN
 10
1123.25
 20
81.91876500000006
 30
0.0
 41
2.0
 42
2.0
 43
2.0
  0
MTEXT
  5
776E
330
74DF
100
AcDbEntity
  8
1
  6
Continuous
 62
     4
100
AcDbMText
 10
1111.25
 20
83.16876500000006
 30
0.0
 40
2.5
 41
0.0
 71
     5
 72
     1
  1
\A1; 24 
 73
     1
 44
1.0
1001
ACAD
1000
MTEXTBEGIN
1070
    73
1070
     1
1070
    44
1040
1.0
1070
    74
1070
     0
1000
MTEXTEND
  0
POINT
  5
776F
330
74DF
100
AcDbEntity
  8
DEFPOINTS
  6
Continuous
 62
     0
100
AcDbPoint
 10
1099.25
 20
106.5
 30
0.0
  0
POINT
  5
7770
330
74DF
100
AcDbEntity
  8
DEFPOINTS
  6
Continuous
 62
     0
100
AcDbPoint
 10
1123.25
 20
127.5000000000001
 30
0.0
  0
POINT
  5
7771
330
74DF
100
AcDbEntity
  8
DEFPOINTS
  6
Continuous
 62
     0
100
AcDbPoint
 10
1123.25
 20
81.91876500000006
 30
0.0
  0
ENDBLK
  5
74E1
330
74DF
100
AcDbEntity
  8
0
100
AcDbBlockEnd
  0
BLOCK
  5
74EC
330
74EB
100
AcDbEntity
  8
0
100
AcDbBlockBegin
  2
*D73
 70
     1
 10
0.0
 20
0.0
 30
0.0
  3
*D73
  1

  0
LINE
  5
7772
330
74EB
100
AcDbEntity
  8
1
  6
Continuous
 62
     4
370
    -2
100
AcDbLine
 10
772.5
 20
21.5
 30
0.0
 11
772.5
 21
12.16876500000006
 31
0.0
  0
LINE
  5
7773
330
74EB
100
AcDbEntity
  8
1
  6
Continuous
 62
     4
370
    -2
100
AcDbLine
 10
794.5000000000003
 20
21.5
 30
0.0
 11
794.5000000000003
 21
12.16876500000006
 31
0.0
  0
LINE
  5
7774
330
74EB
100
AcDbEntity
  8
1
  6
Continuous
 62
     4
370
    -2
100
AcDbLine
 10
774.5
 20
13.16876500000006
 30
0.0
 11
792.5000000000003
 21
13.16876500000006
 31
0.0
  0
INSERT
  5
7775
330
74EB
100
AcDbEntity
  8
1
  6
Continuous
 62
     4
370
    -2
100
AcDbBlockReference
  2
_OPEN
 10
772.5
 20
13.16876500000006
 30
0.0
 41
2.0
 42
2.0
 43
2.0
 50
180.0
  0
INSERT
  5
7776
330
74EB
100
AcDbEntity
  8
1
  6
Continuous
 62
     4
370
    -2
100
AcDbBlockReference
  2
_OPEN
 10
794.5000000000003
 20
13.16876500000006
 30
0.0
 41
2.0
 42
2.0
 43
2.0
  0
MTEXT
  5
7777
330
74EB
100
AcDbEntity
  8
1
  6
Continuous
 62
     4
100
AcDbMText
 10
783.5000000000001
 20
14.41876500000006
 30
0.0
 40
2.5
 41
0.0
 71
     5
 72
     1
  1
\A1; 22 
 73
     1
 44
1.0
1001
ACAD
1000
MTEXTBEGIN
1070
    73
1070
     1
1070
    44
1040
1.0
1070
    74
1070
     0
1000
MTEXTEND
  0
POINT
  5
7778
330
74EB
100
AcDbEntity
  8
DEFPOINTS
  6
Continuous
 62
     0
100
AcDbPoint
 10
772.5
 20
22.5
 30
0.0
  0
POINT
  5
7779
330
74EB
100
AcDbEntity
  8
DEFPOINTS
  6
Continuous
 62
     0
100
AcDbPoint
 10
794.5000000000003
 20
22.5
 30
0.0
  0
POINT
  5
777A
330
74EB
100
AcDbEntity
  8
DEFPOINTS
  6
Continuous
 62
     0
100
AcDbPoint
 10
794.5000000000003
 20
13.16876500000006
 30
0.0
  0
ENDBLK
  5
74ED
330
74EB
100
AcDbEntity
  8
0
100
AcDbBlockEnd
  0
BLOCK
  5
74F8
330
74F7
100
AcDbEntity
  8
0
100
AcDbBlockBegin
  2
*D74
 70
     1
 10
0.0
 20
0.0
 30
0.0
  3
*D74
  1

  0
LINE
  5
777B
330
74F7
100
AcDbEntity
  8
1
  6
Continuous
 62
     4
370
    -2
100
AcDbLine
 10
1051.25
 20
19.0
 30
0.0
 11
1051.25
 21
-127.8312349999999
 31
0.0
  0
LINE
  5
777C
330
74F7
100
AcDbEntity
  8
1
  6
Continuous
 62
     4
370
    -2
100
AcDbLine
 10
1123.25
 20
-38.5
 30
0.0
 11
1123.25
 21
-127.8312349999999
 31
0.0
  0
LINE
  5
777D
330
74F7
100
AcDbEntity
  8
1
  6
Continuous
 62
     4
370
    -2
100
AcDbLine
 10
1053.25
 20
-126.8312349999999
 30
0.0
 11
1121.25
 21
-126.8312349999999
 31
0.0
  0
INSERT
  5
777E
330
74F7
100
AcDbEntity
  8
1
  6
Continuous
 62
     4
370
    -2
100
AcDbBlockReference
  2
_OPEN
 10
1051.25
 20
-126.8312349999999
 30
0.0
 41
2.0
 42
2.0
 43
2.0
 50
180.0
  0
INSERT
  5
777F
330
74F7
100
AcDbEntity
  8
1
  6
Continuous
 62
     4
370
    -2
100
AcDbBlockReference
  2
_OPEN
 10
1123.25
 20
-126.8312349999999
 30
0.0
 41
2.0
 42
2.0
 43
2.0
  0
MTEXT
  5
7780
330
74F7
100
AcDbEntity
  8
1
  6
Continuous
 62
     2
100
AcDbMText
 10
1087.25
 20
-125.5812349999999
 30
0.0
 40
2.5
 41
0.0
 71
     5
 72
     1
  1
\A1; 72 
 73
     1
 44
1.0
1001
ACAD
1000
MTEXTBEGIN
1070
    73
1070
     1
1070
    44
1040
1.0
1070
    74
1070
     0
1000
MTEXTEND
  0
POINT
  5
7781
330
74F7
100
AcDbEntity
  8
DEFPOINTS
  6
Continuous
 62
     0
100
AcDbPoint
 10
1051.25
 20
20.0
 30
0.0
  0
POINT
  5
7782
330
74F7
100
AcDbEntity
  8
DEFPOINTS
  6
Continuous
 62
     0
100
AcDbPoint
 10
1123.25
 20
-37.5
 30
0.0
  0
POINT
  5
7783
330
74F7
100
AcDbEntity
  8
DEFPOINTS
  6
Continuous
 62
     0
100
AcDbPoint
 10
1123.25
 20
-126.8312349999999
 30
0.0
  0
ENDBLK
  5
74F9
330
74F7
100
AcDbEntity
  8
0
100
AcDbBlockEnd
  0
BLOCK
  5
7504
330
7503
100
AcDbEntity
  8
0
100
AcDbBlockBegin
  2
*D75
 70
     1
 10
0.0
 20
0.0
 30
0.0
  3
*D75
  1

  0
LINE
  5
7784
330
7503
100
AcDbEntity
  8
1
  6
Continuous
 62
     4
370
    -2
100
AcDbLine
 10
1051.75
 20
-3.499999999999943
 30
0.0
 11
958.3664374999997
 21
-3.499999999999916
 31
0.0
  0
LINE
  5
7785
330
7503
100
AcDbEntity
  8
1
  6
Continuous
 62
     4
370
    -2
100
AcDbLine
 10
1051.75
 20
98.50000000000008
 30
0.0
 11
958.3664374999997
 21
98.5000000000001
 31
0.0
  0
LINE
  5
7786
330
7503
100
AcDbEntity
  8
1
  6
Continuous
 62
     4
370
    -2
100
AcDbLine
 10
959.3664374999999
 20
-1.499999999999916
 30
0.0
 11
959.3664374999999
 21
44.04166666666674
 31
0.0
  0
LINE
  5
7787
330
7503
100
AcDbEntity
  8
1
  6
Continuous
 62
     4
370
    -2
100
AcDbLine
 10
959.3664374999999
 20
96.50000000000012
 30
0.0
 11
959.3664374999999
 21
50.95833333333342
 31
0.0
  0
INSERT
  5
7788
330
7503
100
AcDbEntity
  8
1
  6
Continuous
 62
     4
370
    -2
100
AcDbBlockReference
  2
_OPEN
 10
959.3664374999999
 20
-3.499999999999916
 30
0.0
 41
2.0
 42
2.0
 43
2.0
 50
270.0
  0
INSERT
  5
7789
330
7503
100
AcDbEntity
  8
1
  6
Continuous
 62
     4
370
    -2
100
AcDbBlockReference
  2
_OPEN
 10
959.3664374999999
 20
98.5000000000001
 30
0.0
 41
2.0
 42
2.0
 43
2.0
 50
90.0
  0
MTEXT
  5
778A
330
7503
100
AcDbEntity
  8
1
  6
Continuous
 62
     4
100
AcDbMText
 10
959.3664374999999
 20
47.50000000000023
 30
0.0
 40
2.5
 41
0.0
 71
     5
 72
     1
  1
\A1; 102 
 11
0.0000000000000001
 21
1.0
 31
0.0
 73
     1
 44
1.0
1001
ACAD
1000
MTEXTBEGIN
1070
    73
1070
     1
1070
    44
1040
1.0
1070
    74
1070
     0
1000
MTEXTEND
  0
POINT
  5
778B
330
7503
100
AcDbEntity
  8
DEFPOINTS
  6
Continuous
 62
     0
100
AcDbPoint
 10
1052.75
 20
-3.499999999999943
 30
0.0
  0
POINT
  5
778C
330
7503
100
AcDbEntity
  8
DEFPOINTS
  6
Continuous
 62
     0
100
AcDbPoint
 10
1052.75
 20
98.50000000000008
 30
0.0
  0
POINT
  5
778D
330
7503
100
AcDbEntity
  8
DEFPOINTS
  6
Continuous
 62
     0
100
AcDbPoint
 10
959.3664374999999
 20
98.5000000000001
 30
0.0
  0
ENDBLK
  5
7505
330
7503
100
AcDbEntity
  8
0
100
AcDbBlockEnd
  0
BLOCK
  5
7511
330
7510
100
AcDbEntity
  8
0
100
AcDbBlockBegin
  2
*D76
 70
     1
 10
0.0
 20
0.0
 30
0.0
  3
*D76
  1

  0
LINE
  5
778E
330
7510
100
AcDbEntity
  8
1
  6
Continuous
 62
     4
370
    -2
100
AcDbLine
 10
857.0
 20
-24.49999999999996
 30
0.0
 11
910.3664374999999
 21
-24.49999999999997
 31
0.0
  0
LINE
  5
778F
330
7510
100
AcDbEntity
  8
1
  6
Continuous
 62
     4
370
    -2
100
AcDbLine
 10
857.0
 20
119.5
 30
0.0
 11
910.3664374999999
 21
119.5
 31
0.0
  0
LINE
  5
7790
330
7510
100
AcDbEntity
  8
1
  6
Continuous
 62
     4
370
    -2
100
AcDbLine
 10
909.3664374999999
 20
-22.49999999999997
 30
0.0
 11
909.3664374999999
 21
43.83333333333335
 31
0.0
  0
LINE
  5
7791
330
7510
100
AcDbEntity
  8
1
  6
Continuous
 62
     4
370
    -2
100
AcDbLine
 10
909.3664374999999
 20
117.5
 30
0.0
 11
909.3664374999999
 21
51.16666666666668
 31
0.0
  0
INSERT
  5
7792
330
7510
100
AcDbEntity
  8
1
  6
Continuous
 62
     4
370
    -2
100
AcDbBlockReference
  2
_OPEN
 10
909.3664374999999
 20
-24.49999999999997
 30
0.0
 41
2.0
 42
2.0
 43
2.0
 50
270.0
  0
INSERT
  5
7793
330
7510
100
AcDbEntity
  8
1
  6
Continuous
 62
     4
370
    -2
100
AcDbBlockReference
  2
_OPEN
 10
909.3664374999999
 20
119.5
 30
0.0
 41
2.0
 42
2.0
 43
2.0
 50
90.0
  0
MTEXT
  5
7794
330
7510
100
AcDbEntity
  8
1
  6
Continuous
 62
     4
100
AcDbMText
 10
909.3664374999999
 20
47.50000000000015
 30
0.0
 40
2.5
 41
0.0
 71
     5
 72
     1
  1
\A1; 144 
 11
0.0000000000000001
 21
1.0
 31
0.0
 73
     1
 44
1.0
1001
ACAD
1000
MTEXTBEGIN
1070
    73
1070
     1
1070
    44
1040
1.0
1070
    74
1070
     0
1000
MTEXTEND
  0
POINT
  5
7795
330
7510
100
AcDbEntity
  8
DEFPOINTS
  6
Continuous
 62
     0
100
AcDbPoint
 10
856.0
 20
-24.49999999999996
 30
0.0
  0
POINT
  5
7796
330
7510
100
AcDbEntity
  8
DEFPOINTS
  6
Continuous
 62
     0
100
AcDbPoint
 10
856.0
 20
119.5
 30
0.0
  0
POINT
  5
7797
330
7510
100
AcDbEntity
  8
DEFPOINTS
  6
Continuous
 62
     0
100
AcDbPoint
 10
909.3664374999999
 20
119.5
 30
0.0
  0
ENDBLK
  5
7512
330
7510
100
AcDbEntity
  8
0
100
AcDbBlockEnd
  0
BLOCK
  5
751E
330
751D
100
AcDbEntity
  8
0
100
AcDbBlockBegin
  2
*D77
 70
     1
 10
0.0
 20
0.0
 30
0.0
  3
*D77
  1

  0
LINE
  5
7798
330
751D
100
AcDbEntity
  8
1
  6
Continuous
 62
     4
370
    -2
100
AcDbLine
 10
874.5
 20
-35.0
 30
0.0
 11
929.1164374999999
 21
-35.00000000000002
 31
0.0
  0
LINE
  5
7799
330
751D
100
AcDbEntity
  8
1
  6
Continuous
 62
     4
370
    -2
100
AcDbLine
 10
874.5
 20
130.0
 30
0.0
 11
929.1164374999999
 21
130.0
 31
0.0
  0
LINE
  5
779A
330
751D
100
AcDbEntity
  8
1
  6
Continuous
 62
     4
370
    -2
100
AcDbLine
 10
928.1164374999999
 20
-33.00000000000002
 30
0.0
 11
928.1164374999999
 21
43.83333333333335
 31
0.0
  0
LINE
  5
779B
330
751D
100
AcDbEntity
  8
1
  6
Continuous
 62
     4
370
    -2
100
AcDbLine
 10
928.1164374999999
 20
128.0
 30
0.0
 11
928.1164374999999
 21
51.16666666666668
 31
0.0
  0
INSERT
  5
779C
330
751D
100
AcDbEntity
  8
1
  6
Continuous
 62
     4
370
    -2
100
AcDbBlockReference
  2
_OPEN
 10
928.1164374999999
 20
-35.00000000000002
 30
0.0
 41
2.0
 42
2.0
 43
2.0
 50
270.0
  0
INSERT
  5
779D
330
751D
100
AcDbEntity
  8
1
  6
Continuous
 62
     4
370
    -2
100
AcDbBlockReference
  2
_OPEN
 10
928.1164374999999
 20
130.0
 30
0.0
 41
2.0
 42
2.0
 43
2.0
 50
90.0
  0
MTEXT
  5
779E
330
751D
100
AcDbEntity
  8
1
  6
Continuous
 62
     4
100
AcDbMText
 10
928.1164374999999
 20
47.50000000000015
 30
0.0
 40
2.5
 41
0.0
 71
     5
 72
     1
  1
\A1; 165 
 11
0.0000000000000001
 21
1.0
 31
0.0
 73
     1
 44
1.0
1001
ACAD
1000
MTEXTBEGIN
1070
    73
1070
     1
1070
    44
1040
1.0
1070
    74
1070
     0
1000
MTEXTEND
  0
POINT
  5
779F
330
751D
100
AcDbEntity
  8
DEFPOINTS
  6
Continuous
 62
     0
100
AcDbPoint
 10
873.4999999999999
 20
-35.0
 30
0.0
  0
POINT
  5
77A0
330
751D
100
AcDbEntity
  8
DEFPOINTS
  6
Continuous
 62
     0
100
AcDbPoint
 10
873.4999999999999
 20
130.0
 30
0.0
  0
POINT
  5
77A1
330
751D
100
AcDbEntity
  8
DEFPOINTS
  6
Continuous
 62
     0
100
AcDbPoint
 10
928.1164374999999
 20
130.0
 30
0.0
  0
ENDBLK
  5
751F
330
751D
100
AcDbEntity
  8
0
100
AcDbBlockEnd
  0
BLOCK
  5
752B
330
752A
100
AcDbEntity
  8
0
100
AcDbBlockBegin
  2
*D78
 70
     1
 10
0.0
 20
0.0
 30
0.0
  3
*D78
  1

  0
LINE
  5
77A2
330
752A
100
AcDbEntity
  8
1
  6
Continuous
 62
     4
370
    -2
100
AcDbLine
 10
874.5
 20
130.0
 30
0.0
 11
929.1164374999999
 21
130.0
 31
0.0
  0
LINE
  5
77A3
330
752A
100
AcDbEntity
  8
1
  6
Continuous
 62
     4
370
    -2
100
AcDbLine
 10
873.4999999999999
 20
185.0
 30
0.0
 11
929.1164374999999
 21
185.0
 31
0.0
  0
LINE
  5
77A4
330
752A
100
AcDbEntity
  8
1
  6
Continuous
 62
     4
370
    -2
100
AcDbLine
 10
928.1164374999999
 20
132.0
 30
0.0
 11
928.1164374999999
 21
154.6666666666667
 31
0.0
  0
LINE
  5
77A5
330
752A
100
AcDbEntity
  8
1
  6
Continuous
 62
     4
370
    -2
100
AcDbLine
 10
928.1164374999999
 20
183.0
 30
0.0
 11
928.1164374999999
 21
160.3333333333334
 31
0.0
  0
INSERT
  5
77A6
330
752A
100
AcDbEntity
  8
1
  6
Continuous
 62
     4
370
    -2
100
AcDbBlockReference
  2
_OPEN
 10
928.1164374999999
 20
130.0
 30
0.0
 41
2.0
 42
2.0
 43
2.0
 50
270.0
  0
INSERT
  5
77A7
330
752A
100
AcDbEntity
  8
1
  6
Continuous
 62
     4
370
    -2
100
AcDbBlockReference
  2
_OPEN
 10
928.1164374999999
 20
185.0
 30
0.0
 41
2.0
 42
2.0
 43
2.0
 50
90.0
  0
MTEXT
  5
77A8
330
752A
100
AcDbEntity
  8
1
  6
Continuous
 62
     4
100
AcDbMText
 10
928.1164374999999
 20
157.5000000000002
 30
0.0
 40
2.5
 41
0.0
 71
     5
 72
     1
  1
\A1; 55 
 11
0.0000000000000001
 21
1.0
 31
0.0
 73
     1
 44
1.0
1001
ACAD
1000
MTEXTBEGIN
1070
    73
1070
     1
1070
    44
1040
1.0
1070
    74
1070
     0
1000
MTEXTEND
  0
POINT
  5
77A9
330
752A
100
AcDbEntity
  8
DEFPOINTS
  6
Continuous
 62
     0
100
AcDbPoint
 10
873.4999999999999
 20
130.0
 30
0.0
  0
POINT
  5
77AA
330
752A
100
AcDbEntity
  8
DEFPOINTS
  6
Continuous
 62
     0
100
AcDbPoint
 10
872.4999999999999
 20
185.0
 30
0.0
  0
POINT
  5
77AB
330
752A
100
AcDbEntity
  8
DEFPOINTS
  6
Continuous
 62
     0
100
AcDbPoint
 10
928.1164374999999
 20
185.0
 30
0.0
  0
ENDBLK
  5
752C
330
752A
100
AcDbEntity
  8
0
100
AcDbBlockEnd
  0
BLOCK
  5
7538
330
7537
100
AcDbEntity
  8
0
100
AcDbBlockBegin
  2
*D79
 70
     1
 10
0.0
 20
0.0
 30
0.0
  3
*D79
  1

  0
LINE
  5
77AC
330
7537
100
AcDbEntity
  8
1
  6
Continuous
 62
     4
370
    -2
100
AcDbLine
 10
1058.75
 20
130.0
 30
0.0
 11
1020.8664375
 21
130.0
 31
0.0
  0
LINE
  5
77AD
330
7537
100
AcDbEntity
  8
1
  6
Continuous
 62
     4
370
    -2
100
AcDbLine
 10
1063.45
 20
140.6
 30
0.0
 11
1020.8664375
 21
140.6
 31
0.0
  0
LINE
  5
77AE
330
7537
100
AcDbEntity
  8
1
  6
Continuous
 62
     4
370
    -2
100
AcDbLine
 10
1021.8664375
 20
132.0
 30
0.0
 11
1021.8664375
 21
133.3
 31
0.0
  0
LINE
  5
77AF
330
7537
100
AcDbEntity
  8
1
  6
Continuous
 62
     4
370
    -2
100
AcDbLine
 10
1021.8664375
 20
138.6
 30
0.0
 11
1021.8664375
 21
137.3
 31
0.0
  0
INSERT
  5
77B0
330
7537
100
AcDbEntity
  8
1
  6
Continuous
 62
     4
370
    -2
100
AcDbBlockReference
  2
_OPEN
 10
1021.8664375
 20
130.0
 30
0.0
 41
2.0
 42
2.0
 43
2.0
 50
270.0
  0
INSERT
  5
77B1
330
7537
100
AcDbEntity
  8
1
  6
Continuous
 62
     4
370
    -2
100
AcDbBlockReference
  2
_OPEN
 10
1021.8664375
 20
140.6
 30
0.0
 41
2.0
 42
2.0
 43
2.0
 50
90.0
  0
MTEXT
  5
77B2
330
7537
100
AcDbEntity
  8
1
  6
Continuous
 62
     4
100
AcDbMText
 10
1021.8664375
 20
135.3000000000002
 30
0.0
 40
2.5
 41
0.0
 71
     5
 72
     1
  1
\A1; 11 
 11
0.0000000000000001
 21
1.0
 31
0.0
 73
     1
 44
1.0
1001
ACAD
1000
MTEXTBEGIN
1070
    73
1070
     1
1070
    44
1040
1.0
1070
    74
1070
     0
1000
MTEXTEND
  0
POINT
  5
77B3
330
7537
100
AcDbEntity
  8
DEFPOINTS
  6
Continuous
 62
     0
100
AcDbPoint
 10
1059.75
 20
130.0
 30
0.0
  0
POINT
  5
77B4
330
7537
100
AcDbEntity
  8
DEFPOINTS
  6
Continuous
 62
     0
100
AcDbPoint
 10
1064.45
 20
140.6
 30
0.0
  0
POINT
  5
77B5
330
7537
100
AcDbEntity
  8
DEFPOINTS
  6
Continuous
 62
     0
100
AcDbPoint
 10
1021.8664375
 20
140.6
 30
0.0
  0
ENDBLK
  5
7539
330
7537
100
AcDbEntity
  8
0
100
AcDbBlockEnd
  0
BLOCK
  5
7546
330
7545
100
AcDbEntity
  8
0
100
AcDbBlockBegin
  2
*D80
 70
     1
 10
0.0
 20
0.0
 30
0.0
  3
*D80
  1

  0
LINE
  5
77B6
330
7545
100
AcDbEntity
  8
1
  6
Continuous
 62
     4
370
    -2
100
AcDbLine
 10
727.5
 20
-35.0
 30
0.0
 11
689.6164374999997
 21
-35.0
 31
0.0
  0
LINE
  5
77B7
330
7545
100
AcDbEntity
  8
1
  6
Continuous
 62
     4
370
    -2
100
AcDbLine
 10
728.5
 20
185.0
 30
0.0
 11
689.6164374999997
 21
185.0000000000001
 31
0.0
  0
LINE
  5
77B8
330
7545
100
AcDbEntity
  8
1
  6
Continuous
 62
     4
370
    -2
100
AcDbLine
 10
690.6164375000003
 20
-32.99999999999999
 30
0.0
 11
690.6164375000003
 21
71.12500000000004
 31
0.0
  0
LINE
  5
77B9
330
7545
100
AcDbEntity
  8
1
  6
Continuous
 62
     4
370
    -2
100
AcDbLine
 10
690.6164375000003
 20
183.0000000000001
 30
0.0
 11
690.6164375000003
 21
78.87500000000004
 31
0.0
  0
INSERT
  5
77BA
330
7545
100
AcDbEntity
  8
1
  6
Continuous
 62
     4
370
    -2
100
AcDbBlockReference
  2
_OPEN
 10
690.6164375000003
 20
-35.0
 30
0.0
 41
2.0
 42
2.0
 43
2.0
 50
270.0
  0
INSERT
  5
77BB
330
7545
100
AcDbEntity
  8
1
  6
Continuous
 62
     4
370
    -2
100
AcDbBlockReference
  2
_OPEN
 10
690.6164375000003
 20
185.0000000000001
 30
0.0
 41
2.0
 42
2.0
 43
2.0
 50
90.0
  0
MTEXT
  5
77BC
330
7545
100
AcDbEntity
  8
1
  6
Continuous
 62
     4
100
AcDbMText
 10
690.6164375000003
 20
75.00000000000015
 30
0.0
 40
2.5
 41
0.0
 71
     5
 72
     1
  1
\A1; 220 
 11
0.0000000000000001
 21
1.0
 31
0.0
 73
     1
 44
1.0
1001
ACAD
1000
MTEXTBEGIN
1070
    73
1070
     1
1070
    44
1040
1.0
1070
    74
1070
     0
1000
MTEXTEND
  0
POINT
  5
77BD
330
7545
100
AcDbEntity
  8
DEFPOINTS
  6
Continuous
 62
     0
100
AcDbPoint
 10
728.5
 20
-35.0
 30
0.0
  0
POINT
  5
77BE
330
7545
100
AcDbEntity
  8
DEFPOINTS
  6
Continuous
 62
     0
100
AcDbPoint
 10
729.4999999999999
 20
185.0
 30
0.0
  0
POINT
  5
77BF
330
7545
100
AcDbEntity
  8
DEFPOINTS
  6
Continuous
 62
     0
100
AcDbPoint
 10
690.6164375000003
 20
185.0000000000001
 30
0.0
  0
ENDBLK
  5
7547
330
7545
100
AcDbEntity
  8
0
100
AcDbBlockEnd
  0
BLOCK
  5
7553
330
7552
100
AcDbEntity
  8
0
100
AcDbBlockBegin
  2
*D81
 70
     1
 10
0.0
 20
0.0
 30
0.0
  3
*D81
  1

  0
LINE
  5
77C0
330
7552
100
AcDbEntity
  8
1
  6
Continuous
 62
     4
370
    -2
100
AcDbLine
 10
1049.75
 20
72.5
 30
0.0
 11
977.1164374999997
 21
72.50000000000001
 31
0.0
  0
LINE
  5
77C1
330
7552
100
AcDbEntity
  8
1
  6
Continuous
 62
     4
370
    -2
100
AcDbLine
 10
1049.75
 20
22.5
 30
0.0
 11
977.1164374999997
 21
22.50000000000002
 31
0.0
  0
LINE
  5
77C2
330
7552
100
AcDbEntity
  8
1
  6
Continuous
 62
     4
370
    -2
100
AcDbLine
 10
978.1164374999999
 20
70.50000000000001
 30
0.0
 11
978.1164374999999
 21
50.12500000000001
 31
0.0
  0
LINE
  5
77C3
330
7552
100
AcDbEntity
  8
1
  6
Continuous
 62
     4
370
    -2
100
AcDbLine
 10
978.1164374999999
 20
24.50000000000002
 30
0.0
 11
978.1164374999999
 21
44.87499999999999
 31
0.0
  0
INSERT
  5
77C4
330
7552
100
AcDbEntity
  8
1
  6
Continuous
 62
     4
370
    -2
100
AcDbBlockReference
  2
_OPEN
 10
978.1164374999999
 20
72.50000000000001
 30
0.0
 41
2.0
 42
2.0
 43
2.0
 50
90.0
  0
INSERT
  5
77C5
330
7552
100
AcDbEntity
  8
1
  6
Continuous
 62
     4
370
    -2
100
AcDbBlockReference
  2
_OPEN
 10
978.1164374999999
 20
22.50000000000002
 30
0.0
 41
2.0
 42
2.0
 43
2.0
 50
270.0
  0
MTEXT
  5
77C6
330
7552
100
AcDbEntity
  8
1
  6
Continuous
 62
     4
100
AcDbMText
 10
978.1164374999999
 20
47.50000000000015
 30
0.0
 40
2.5
 41
0.0
 71
     5
 72
     1
  1
\A1; 50 
 11
0.0000000000000001
 21
1.0
 31
0.0
 73
     1
 44
1.0
1001
ACAD
1000
MTEXTBEGIN
1070
    73
1070
     1
1070
    44
1040
1.0
1070
    74
1070
     0
1000
MTEXTEND
  0
POINT
  5
77C7
330
7552
100
AcDbEntity
  8
DEFPOINTS
  6
Continuous
 62
     0
100
AcDbPoint
 10
1050.75
 20
72.5
 30
0.0
  0
POINT
  5
77C8
330
7552
100
AcDbEntity
  8
DEFPOINTS
  6
Continuous
 62
     0
100
AcDbPoint
 10
1050.75
 20
22.5
 30
0.0
  0
POINT
  5
77C9
330
7552
100
AcDbEntity
  8
DEFPOINTS
  6
Continuous
 62
     0
100
AcDbPoint
 10
978.1164374999999
 20
22.50000000000002
 30
0.0
  0
ENDBLK
  5
7554
330
7552
100
AcDbEntity
  8
0
100
AcDbBlockEnd
  0
BLOCK
  5
7560
330
755F
100
AcDbEntity
  8
0
100
AcDbBlockBegin
  2
*D82
 70
     1
 10
0.0
 20
0.0
 30
0.0
  3
*D82
  1

  0
LINE
  5
77CA
330
755F
100
AcDbEntity
  8
1
  6
Continuous
 62
     4
370
    -2
100
AcDbLine
 10
1043.75
 20
70.0
 30
0.0
 11
995.8664374999997
 21
70.0
 31
0.0
  0
LINE
  5
77CB
330
755F
100
AcDbEntity
  8
1
  6
Continuous
 62
     4
370
    -2
100
AcDbLine
 10
1043.75
 20
25.0
 30
0.0
 11
995.8664374999997
 21
25.00000000000002
 31
0.0
  0
LINE
  5
77CC
330
755F
100
AcDbEntity
  8
1
  6
Continuous
 62
     4
370
    -2
100
AcDbLine
 10
996.8664374999999
 20
68.0
 30
0.0
 11
996.8664374999999
 21
50.33333333333334
 31
0.0
  0
LINE
  5
77CD
330
755F
100
AcDbEntity
  8
1
  6
Continuous
 62
     4
370
    -2
100
AcDbLine
 10
996.8664374999999
 20
27.00000000000001
 30
0.0
 11
996.8664374999999
 21
44.66666666666667
 31
0.0
  0
INSERT
  5
77CE
330
755F
100
AcDbEntity
  8
1
  6
Continuous
 62
     4
370
    -2
100
AcDbBlockReference
  2
_OPEN
 10
996.8664374999999
 20
70.0
 30
0.0
 41
2.0
 42
2.0
 43
2.0
 50
90.0
  0
INSERT
  5
77CF
330
755F
100
AcDbEntity
  8
1
  6
Continuous
 62
     4
370
    -2
100
AcDbBlockReference
  2
_OPEN
 10
996.8664374999999
 20
25.00000000000002
 30
0.0
 41
2.0
 42
2.0
 43
2.0
 50
270.0
  0
MTEXT
  5
77D0
330
755F
100
AcDbEntity
  8
1
  6
Continuous
 62
     2
100
AcDbMText
 10
996.8664374999999
 20
47.50000000000015
 30
0.0
 40
2.5
 41
0.0
 71
     5
 72
     1
  1
\A1; 45 
 11
0.0000000000000001
 21
1.0
 31
0.0
 73
     1
 44
1.0
1001
ACAD
1000
MTEXTBEGIN
1070
    73
1070
     1
1070
    44
1040
1.0
1070
    74
1070
     0
1000
MTEXTEND
  0
POINT
  5
77D1
330
755F
100
AcDbEntity
  8
DEFPOINTS
  6
Continuous
 62
     0
100
AcDbPoint
 10
1044.75
 20
70.0
 30
0.0
  0
POINT
  5
77D2
330
755F
100
AcDbEntity
  8
DEFPOINTS
  6
Continuous
 62
     0
100
AcDbPoint
 10
1044.75
 20
25.0
 30
0.0
  0
POINT
  5
77D3
330
755F
100
AcDbEntity
  8
DEFPOINTS
  6
Continuous
 62
     0
100
AcDbPoint
 10
996.8664374999999
 20
25.00000000000002
 30
0.0
  0
ENDBLK
  5
7561
330
755F
100
AcDbEntity
  8
0
100
AcDbBlockEnd
  0
BLOCK
  5
756D
330
756C
100
AcDbEntity
  8
0
100
AcDbBlockBegin
  2
*D83
 70
     1
 10
0.0
 20
0.0
 30
0.0
  3
*D83
  1

  0
LINE
  5
763E
330
756C
100
AcDbEntity
  8
5
  6
Continuous
 62
     4
370
    -2
100
AcDbLine
 10
807.5646167127782
 20
-318.5306680038732
 30
0.0
 11
820.0646167127782
 21
-318.5306680038731
 31
0.0
  0
LINE
  5
763F
330
756C
100
AcDbEntity
  8
5
  6
Continuous
 62
     4
370
    -2
100
AcDbLine
 10
820.0646167127782
 20
-318.5306680038731
 30
0.0
 11
820.0748320798169
 21
-314.0306795987463
 31
0.0
  0
MTEXT
  5
7640
102
{ACAD_XDICTIONARY
360
7B32
102
}
330
756C
100
AcDbEntity
  8
5
  6
Continuous
 62
     4
100
AcDbMText
 10
813.8146167127782
 20
-317.2806680038732
 30
0.0
 40
2.5
 41
0.0
 71
     5
 72
     1
  1
\A1;\U+2205528.7
 73
     1
 44
1.0
1001
ACAD
1000
MTEXTBEGIN
1070
    73
1070
     1
1070
    44
1040
1.0
1070
    74
1070
     0
1000
MTEXTEND
  0
INSERT
  5
7641
330
756C
100
AcDbEntity
  8
5
  6
Continuous
 62
     4
370
    -2
100
AcDbBlockReference
  2
_OPEN
 10
820.0793722429452
 20
-312.0306847520232
 30
0.0
 41
2.0
 42
2.0
 43
2.0
 50
89.86993379551135
  0
LINE
  5
7642
330
756C
100
AcDbEntity
  8
5
  6
Continuous
 62
     4
370
    -2
100
AcDbLine
 10
820.5894657429452
 20
-47.68249425202314
 30
0.0
 11
820.7694657429453
 21
-47.68249425202314
 31
0.0
  0
LINE
  5
7643
330
756C
100
AcDbEntity
  8
5
  6
Continuous
 62
     4
370
    -2
100
AcDbLine
 10
820.6794657429455
 20
-47.77249425202314
 30
0.0
 11
820.6794657429455
 21
-47.59249425202314
 31
0.0
  0
POINT
  5
7644
330
756C
100
AcDbEntity
  8
DEFPOINTS
  6
Continuous
 62
     0
100
AcDbPoint
 10
820.0793722429452
 20
-312.0306847520232
 30
0.0
  0
POINT
  5
7645
330
756C
100
AcDbEntity
  8
DEFPOINTS
  6
Continuous
 62
     0
100
AcDbPoint
 10
821.2795592429452
 20
216.6656962479769
 30
0.0
  0
ENDBLK
  5
756E
330
756C
100
AcDbEntity
  8
0
100
AcDbBlockEnd
  0
BLOCK
  5
77E0
330
77DF
100
AcDbEntity
  8
0
100
AcDbBlockBegin
  2
*D84
 70
     1
 10
0.0
 20
0.0
 30
0.0
  3
*D84
  1

  0
LINE
  5
77E1
330
77DF
100
AcDbEntity
  8
30
  6
Continuous
 62
     0
370
    -2
100
AcDbLine
 10
166.7923778520063
 20
88.51029255310352
 30
0.0
 11
146.4923778520063
 21
88.51029255310352
 31
0.0
  0
LINE
  5
77E2
330
77DF
100
AcDbEntity
  8
30
  6
Continuous
 62
     0
370
    -2
100
AcDbLine
 10
155.9923778520063
 20
77.51029255310347
 30
0.0
 11
146.4923778520063
 21
77.51029255310347
 31
0.0
  0
LINE
  5
77E3
330
77DF
100
AcDbEntity
  8
30
  6
Continuous
 62
     0
370
    -2
100
AcDbLine
 10
146.9923778520063
 20
86.51029255310353
 30
0.0
 11
146.9923778520063
 21
79.51029255310347
 31
0.0
  0
INSERT
  5
77E4
330
77DF
100
AcDbEntity
  8
30
  6
Continuous
 62
     0
370
    -2
100
AcDbBlockReference
  2
_OPEN
 10
146.9923778520063
 20
88.51029255310352
 30
0.0
 41
2.0
 42
2.0
 43
2.0
 50
90.0
  0
INSERT
  5
77E5
330
77DF
100
AcDbEntity
  8
30
  6
Continuous
 62
     0
370
    -2
100
AcDbBlockReference
  2
_OPEN
 10
146.9923778520063
 20
77.51029255310347
 30
0.0
 41
2.0
 42
2.0
 43
2.0
 50
270.0
  0
MTEXT
  5
77E6
330
77DF
100
AcDbEntity
  8
30
  6
Continuous
 62
     0
100
AcDbMText
 10
143.9923778520063
 20
82.94777099068262
 30
0.0
 40
4.0
 41
0.0
 71
     5
 72
     1
  1
\A1;11
 11
0.0000000000000001
 21
1.0
 31
0.0
 73
     1
 44
1.0
1001
ACAD
1000
MTEXTBEGIN
1070
    73
1070
     1
1070
    44
1040
1.0
1070
    74
1070
     0
1000
MTEXTEND
  0
POINT
  5
77E7
330
77DF
100
AcDbEntity
  8
DEFPOINTS
  6
Continuous
 62
     0
100
AcDbPoint
 10
167.7923778520063
 20
88.51029255310352
 30
0.0
  0
POINT
  5
77E8
330
77DF
100
AcDbEntity
  8
DEFPOINTS
  6
Continuous
 62
     0
100
AcDbPoint
 10
156.9923778520063
 20
77.51029255310347
 30
0.0
  0
POINT
  5
77E9
330
77DF
100
AcDbEntity
  8
DEFPOINTS
  6
Continuous
 62
     0
100
AcDbPoint
 10
146.9923778520063
 20
77.51029255310347
 30
0.0
  0
ENDBLK
  5
77EA
330
77DF
100
AcDbEntity
  8
0
100
AcDbBlockEnd
  0
BLOCK
  5
77F7
330
77F6
100
AcDbEntity
  8
0
100
AcDbBlockBegin
  2
*D85
 70
     1
 10
0.0
 20
0.0
 30
0.0
  3
*D85
  1

  0
LINE
  5
7826
330
77F6
100
AcDbEntity
  8
30
  6
Continuous
 62
     0
370
    -2
100
AcDbLine
 10
202.060281958435
 20
93.49999999999999
 30
0.0
 11
181.7602819584349
 21
93.49999999999999
 31
0.0
  0
LINE
  5
7827
330
77F6
100
AcDbEntity
  8
30
  6
Continuous
 62
     0
370
    -2
100
AcDbLine
 10
197.2602819584348
 20
82.50000000000001
 30
0.0
 11
181.7602819584349
 21
82.50000000000001
 31
0.0
  0
LINE
  5
7828
330
77F6
100
AcDbEntity
  8
30
  6
Continuous
 62
     0
370
    -2
100
AcDbLine
 10
182.260281958435
 20
91.50000000000002
 30
0.0
 11
182.260281958435
 21
84.50000000000001
 31
0.0
  0
INSERT
  5
7829
330
77F6
100
AcDbEntity
  8
30
  6
Continuous
 62
     0
370
    -2
100
AcDbBlockReference
  2
_OPEN
 10
182.260281958435
 20
93.49999999999999
 30
0.0
 41
2.0
 42
2.0
 43
2.0
 50
90.0
  0
INSERT
  5
782A
330
77F6
100
AcDbEntity
  8
30
  6
Continuous
 62
     0
370
    -2
100
AcDbBlockReference
  2
_OPEN
 10
182.260281958435
 20
82.50000000000001
 30
0.0
 41
2.0
 42
2.0
 43
2.0
 50
270.0
  0
MTEXT
  5
782B
330
77F6
100
AcDbEntity
  8
30
  6
Continuous
 62
     0
100
AcDbMText
 10
179.260281958435
 20
87.93747843757911
 30
0.0
 40
4.0
 41
0.0
 71
     5
 72
     1
  1
\A1;11
 11
0.0000000000000001
 21
1.0
 31
0.0
 73
     1
 44
1.0
1001
ACAD
1000
MTEXTBEGIN
1070
    73
1070
     1
1070
    44
1040
1.0
1070
    74
1070
     0
1000
MTEXTEND
  0
POINT
  5
782C
330
77F6
100
AcDbEntity
  8
DEFPOINTS
  6
Continuous
 62
     0
100
AcDbPoint
 10
203.060281958435
 20
93.49999999999999
 30
0.0
  0
POINT
  5
782D
330
77F6
100
AcDbEntity
  8
DEFPOINTS
  6
Continuous
 62
     0
100
AcDbPoint
 10
198.2602819584348
 20
82.50000000000001
 30
0.0
  0
POINT
  5
782E
330
77F6
100
AcDbEntity
  8
DEFPOINTS
  6
Continuous
 62
     0
100
AcDbPoint
 10
182.260281958435
 20
82.50000000000001
 30
0.0
  0
ENDBLK
  5
77F8
330
77F6
100
AcDbEntity
  8
0
100
AcDbBlockEnd
  0
BLOCK
  5
78C9
330
78C8
100
AcDbEntity
  8
0
100
AcDbBlockBegin
  2
*D86
 70
     1
 10
0.0
 20
0.0
 30
0.0
  3
*D86
  1

  0
LINE
  5
78CA
330
78C8
100
AcDbEntity
  8
30
  6
Continuous
 62
     0
370
    -2
100
AcDbLine
 10
193.9923778520064
 20
55.51029255310334
 30
0.0
 11
193.9923778520064
 21
32.76087440915148
 31
0.0
  0
LINE
  5
78CB
330
78C8
100
AcDbEntity
  8
30
  6
Continuous
 62
     0
370
    -2
100
AcDbLine
 10
217.9923778520064
 20
76.51029255310354
 30
0.0
 11
217.9923778520064
 21
32.76087440915148
 31
0.0
  0
LINE
  5
78CC
330
78C8
100
AcDbEntity
  8
30
  6
Continuous
 62
     0
370
    -2
100
AcDbLine
 10
195.9923778520064
 20
33.26087440915149
 30
0.0
 11
215.9923778520064
 21
33.26087440915149
 31
0.0
  0
INSERT
  5
78CD
330
78C8
100
AcDbEntity
  8
30
  6
Continuous
 62
     0
370
    -2
100
AcDbBlockReference
  2
_OPEN
 10
193.9923778520064
 20
33.26087440915149
 30
0.0
 41
2.0
 42
2.0
 43
2.0
 50
180.0
  0
INSERT
  5
78CE
330
78C8
100
AcDbEntity
  8
30
  6
Continuous
 62
     0
370
    -2
100
AcDbBlockReference
  2
_OPEN
 10
217.9923778520064
 20
33.26087440915149
 30
0.0
 41
2.0
 42
2.0
 43
2.0
  0
MTEXT
  5
78CF
330
78C8
100
AcDbEntity
  8
30
  6
Continuous
 62
     0
100
AcDbMText
 10
205.9923778520064
 20
36.26087440915148
 30
0.0
 40
4.0
 41
0.0
 71
     5
 72
     1
  1
\A1;24
 73
     1
 44
1.0
1001
ACAD
1000
MTEXTBEGIN
1070
    73
1070
     1
1070
    44
1040
1.0
1070
    74
1070
     0
1000
MTEXTEND
  0
POINT
  5
78D0
330
78C8
100
AcDbEntity
  8
DEFPOINTS
  6
Continuous
 62
     0
100
AcDbPoint
 10
193.9923778520064
 20
56.51029255310334
 30
0.0
  0
POINT
  5
78D1
330
78C8
100
AcDbEntity
  8
DEFPOINTS
  6
Continuous
 62
     0
100
AcDbPoint
 10
217.9923778520064
 20
77.51029255310354
 30
0.0
  0
POINT
  5
78D2
330
78C8
100
AcDbEntity
  8
DEFPOINTS
  6
Continuous
 62
     0
100
AcDbPoint
 10
217.9923778520064
 20
33.26087440915149
 30
0.0
  0
ENDBLK
  5
78D3
330
78C8
100
AcDbEntity
  8
0
100
AcDbBlockEnd
  0
BLOCK
  5
78D5
330
78D4
100
AcDbEntity
  8
0
100
AcDbBlockBegin
  2
*D87
 70
     1
 10
0.0
 20
0.0
 30
0.0
  3
*D87
  1

  0
LINE
  5
78D6
330
78D4
100
AcDbEntity
  8
30
  6
Continuous
 62
     0
370
    -2
100
AcDbLine
 10
217.9923778520064
 20
118.5102925531036
 30
0.0
 11
217.9923778520064
 21
128.0102925531036
 31
0.0
  0
LINE
  5
78D7
330
78D4
100
AcDbEntity
  8
30
  6
Continuous
 62
     0
370
    -2
100
AcDbLine
 10
169.9923778520061
 20
117.5102925531035
 30
0.0
 11
169.9923778520061
 21
128.0102925531036
 31
0.0
  0
LINE
  5
78D8
330
78D4
100
AcDbEntity
  8
30
  6
Continuous
 62
     0
370
    -2
100
AcDbLine
 10
215.9923778520064
 20
127.5102925531036
 30
0.0
 11
171.9923778520061
 21
127.5102925531036
 31
0.0
  0
INSERT
  5
78D9
330
78D4
100
AcDbEntity
  8
30
  6
Continuous
 62
     0
370
    -2
100
AcDbBlockReference
  2
_OPEN
 10
217.9923778520064
 20
127.5102925531036
 30
0.0
 41
2.0
 42
2.0
 43
2.0
  0
INSERT
  5
78DA
330
78D4
100
AcDbEntity
  8
30
  6
Continuous
 62
     0
370
    -2
100
AcDbBlockReference
  2
_OPEN
 10
169.9923778520061
 20
127.5102925531036
 30
0.0
 41
2.0
 42
2.0
 43
2.0
 50
180.0
  0
MTEXT
  5
78DB
330
78D4
100
AcDbEntity
  8
30
  6
Continuous
 62
     0
100
AcDbMText
 10
193.9923778520062
 20
130.5102925531036
 30
0.0
 40
4.0
 41
0.0
 71
     5
 72
     1
  1
\A1; 48 
 73
     1
 44
1.0
1001
ACAD
1000
MTEXTBEGIN
1070
    73
1070
     1
1070
    44
1040
1.0
1070
    74
1070
     0
1000
MTEXTEND
  0
POINT
  5
78DC
330
78D4
100
AcDbEntity
  8
DEFPOINTS
  6
Continuous
 62
     0
100
AcDbPoint
 10
217.9923778520064
 20
117.5102925531036
 30
0.0
  0
POINT
  5
78DD
330
78D4
100
AcDbEntity
  8
DEFPOINTS
  6
Continuous
 62
     0
100
AcDbPoint
 10
169.9923778520061
 20
116.5102925531035
 30
0.0
  0
POINT
  5
78DE
330
78D4
100
AcDbEntity
  8
DEFPOINTS
  6
Continuous
 62
     0
100
AcDbPoint
 10
169.9923778520061
 20
127.5102925531036
 30
0.0
  0
ENDBLK
  5
78DF
330
78D4
100
AcDbEntity
  8
0
100
AcDbBlockEnd
  0
BLOCK
  5
78E1
330
78E0
100
AcDbEntity
  8
0
100
AcDbBlockBegin
  2
*D88
 70
     1
 10
0.0
 20
0.0
 30
0.0
  3
*D88
  1

  0
LINE
  5
78E2
330
78E0
100
AcDbEntity
  8
30
  6
Continuous
 62
     0
370
    -2
100
AcDbLine
 10
217.9923778520064
 20
118.5102925531036
 30
0.0
 11
217.9923778520064
 21
138.0102925531036
 31
0.0
  0
LINE
  5
78E3
330
78E0
100
AcDbEntity
  8
30
  6
Continuous
 62
     0
370
    -2
100
AcDbLine
 10
166.4923778520063
 20
88.21029255310353
 30
0.0
 11
166.4923778520063
 21
138.0102925531036
 31
0.0
  0
LINE
  5
78E4
330
78E0
100
AcDbEntity
  8
30
  6
Continuous
 62
     0
370
    -2
100
AcDbLine
 10
215.9923778520064
 20
137.5102925531036
 30
0.0
 11
168.4923778520063
 21
137.5102925531036
 31
0.0
  0
INSERT
  5
78E5
330
78E0
100
AcDbEntity
  8
30
  6
Continuous
 62
     0
370
    -2
100
AcDbBlockReference
  2
_OPEN
 10
217.9923778520064
 20
137.5102925531036
 30
0.0
 41
2.0
 42
2.0
 43
2.0
  0
INSERT
  5
78E6
330
78E0
100
AcDbEntity
  8
30
  6
Continuous
 62
     0
370
    -2
100
AcDbBlockReference
  2
_OPEN
 10
166.4923778520063
 20
137.5102925531036
 30
0.0
 41
2.0
 42
2.0
 43
2.0
 50
180.0
  0
MTEXT
  5
78E7
330
78E0
100
AcDbEntity
  8
30
  6
Continuous
 62
     0
100
AcDbMText
 10
192.2423778520063
 20
140.5102925531036
 30
0.0
 40
4.0
 41
0.0
 71
     5
 72
     1
  1
\A1; 51.5 
 73
     1
 44
1.0
1001
ACAD
1000
MTEXTBEGIN
1070
    73
1070
     1
1070
    44
1040
1.0
1070
    74
1070
     0
1000
MTEXTEND
  0
POINT
  5
78E8
330
78E0
100
AcDbEntity
  8
DEFPOINTS
  6
Continuous
 62
     0
100
AcDbPoint
 10
217.9923778520064
 20
117.5102925531036
 30
0.0
  0
POINT
  5
78E9
330
78E0
100
AcDbEntity
  8
DEFPOINTS
  6
Continuous
 62
     0
100
AcDbPoint
 10
166.4923778520063
 20
87.21029255310353
 30
0.0
  0
POINT
  5
78EA
330
78E0
100
AcDbEntity
  8
DEFPOINTS
  6
Continuous
 62
     0
100
AcDbPoint
 10
166.4923778520063
 20
137.5102925531036
 30
0.0
  0
ENDBLK
  5
78EB
330
78E0
100
AcDbEntity
  8
0
100
AcDbBlockEnd
  0
BLOCK
  5
78ED
330
78EC
100
AcDbEntity
  8
0
100
AcDbBlockBegin
  2
*D89
 70
     1
 10
0.0
 20
0.0
 30
0.0
  3
*D89
  1

  0
LINE
  5
78EE
330
78EC
100
AcDbEntity
  8
30
  6
Continuous
 62
     0
370
    -2
100
AcDbLine
 10
166.7923778520063
 20
88.51029255310352
 30
0.0
 11
146.4923778520063
 21
88.51029255310352
 31
0.0
  0
LINE
  5
78EF
330
78EC
100
AcDbEntity
  8
30
  6
Continuous
 62
     0
370
    -2
100
AcDbLine
 10
155.9923778520063
 20
77.51029255310347
 30
0.0
 11
146.4923778520063
 21
77.51029255310347
 31
0.0
  0
LINE
  5
78F0
330
78EC
100
AcDbEntity
  8
30
  6
Continuous
 62
     0
370
    -2
100
AcDbLine
 10
146.9923778520063
 20
86.51029255310353
 30
0.0
 11
146.9923778520063
 21
79.51029255310347
 31
0.0
  0
INSERT
  5
78F1
330
78EC
100
AcDbEntity
  8
30
  6
Continuous
 62
     0
370
    -2
100
AcDbBlockReference
  2
_OPEN
 10
146.9923778520063
 20
88.51029255310352
 30
0.0
 41
2.0
 42
2.0
 43
2.0
 50
90.0
  0
INSERT
  5
78F2
330
78EC
100
AcDbEntity
  8
30
  6
Continuous
 62
     0
370
    -2
100
AcDbBlockReference
  2
_OPEN
 10
146.9923778520063
 20
77.51029255310347
 30
0.0
 41
2.0
 42
2.0
 43
2.0
 50
270.0
  0
MTEXT
  5
78F3
330
78EC
100
AcDbEntity
  8
30
  6
Continuous
 62
     0
100
AcDbMText
 10
143.9923778520063
 20
82.94777099068262
 30
0.0
 40
4.0
 41
0.0
 71
     5
 72
     1
  1
\A1;11
 11
0.0000000000000001
 21
1.0
 31
0.0
 73
     1
 44
1.0
1001
ACAD
1000
MTEXTBEGIN
1070
    73
1070
     1
1070
    44
1040
1.0
1070
    74
1070
     0
1000
MTEXTEND
  0
POINT
  5
78F4
330
78EC
100
AcDbEntity
  8
DEFPOINTS
  6
Continuous
 62
     0
100
AcDbPoint
 10
167.7923778520063
 20
88.51029255310352
 30
0.0
  0
POINT
  5
78F5
330
78EC
100
AcDbEntity
  8
DEFPOINTS
  6
Continuous
 62
     0
100
AcDbPoint
 10
156.9923778520063
 20
77.51029255310347
 30
0.0
  0
POINT
  5
78F6
330
78EC
100
AcDbEntity
  8
DEFPOINTS
  6
Continuous
 62
     0
100
AcDbPoint
 10
146.9923778520063
 20
77.51029255310347
 30
0.0
  0
ENDBLK
  5
78F7
330
78EC
100
AcDbEntity
  8
0
100
AcDbBlockEnd
  0
BLOCK
  5
790E
330
790D
100
AcDbEntity
  8
0
100
AcDbBlockBegin
  2
*D90
 70
     1
 10
0.0
 20
0.0
 30
0.0
  3
*D90
  1

  0
LINE
  5
793D
330
790D
100
AcDbEntity
  8
30
  6
Continuous
 62
     0
370
    -2
100
AcDbLine
 10
338.7839133336993
 20
150.5019797516682
 30
0.0
 11
338.7839133336993
 21
127.7525616077163
 31
0.0
  0
LINE
  5
793E
330
790D
100
AcDbEntity
  8
30
  6
Continuous
 62
     0
370
    -2
100
AcDbLine
 10
362.7839133336993
 20
171.5019797516684
 30
0.0
 11
362.7839133336993
 21
127.7525616077163
 31
0.0
  0
LINE
  5
793F
330
790D
100
AcDbEntity
  8
30
  6
Continuous
 62
     0
370
    -2
100
AcDbLine
 10
340.7839133336993
 20
128.2525616077163
 30
0.0
 11
360.7839133336993
 21
128.2525616077163
 31
0.0
  0
INSERT
  5
7940
330
790D
100
AcDbEntity
  8
30
  6
Continuous
 62
     0
370
    -2
100
AcDbBlockReference
  2
_OPEN
 10
338.7839133336993
 20
128.2525616077163
 30
0.0
 41
2.0
 42
2.0
 43
2.0
 50
180.0
  0
INSERT
  5
7941
330
790D
100
AcDbEntity
  8
30
  6
Continuous
 62
     0
370
    -2
100
AcDbBlockReference
  2
_OPEN
 10
362.7839133336993
 20
128.2525616077163
 30
0.0
 41
2.0
 42
2.0
 43
2.0
  0
MTEXT
  5
7942
330
790D
100
AcDbEntity
  8
30
  6
Continuous
 62
     0
100
AcDbMText
 10
350.7839133336994
 20
131.2525616077163
 30
0.0
 40
4.0
 41
0.0
 71
     5
 72
     1
  1
\A1;24
 73
     1
 44
1.0
1001
ACAD
1000
MTEXTBEGIN
1070
    73
1070
     1
1070
    44
1040
1.0
1070
    74
1070
     0
1000
MTEXTEND
  0
POINT
  5
7943
330
790D
100
AcDbEntity
  8
DEFPOINTS
  6
Continuous
 62
     0
100
AcDbPoint
 10
338.7839133336993
 20
151.5019797516682
 30
0.0
  0
POINT
  5
7944
330
790D
100
AcDbEntity
  8
DEFPOINTS
  6
Continuous
 62
     0
100
AcDbPoint
 10
362.7839133336993
 20
172.5019797516684
 30
0.0
  0
POINT
  5
7945
330
790D
100
AcDbEntity
  8
DEFPOINTS
  6
Continuous
 62
     0
100
AcDbPoint
 10
362.7839133336993
 20
128.2525616077163
 30
0.0
  0
ENDBLK
  5
790F
330
790D
100
AcDbEntity
  8
0
100
AcDbBlockEnd
  0
BLOCK
  5
791A
330
7919
100
AcDbEntity
  8
0
100
AcDbBlockBegin
  2
*D91
 70
     1
 10
0.0
 20
0.0
 30
0.0
  3
*D91
  1

  0
LINE
  5
7946
330
7919
100
AcDbEntity
  8
30
  6
Continuous
 62
     0
370
    -2
100
AcDbLine
 10
362.7839133336993
 20
213.5019797516684
 30
0.0
 11
362.7839133336993
 21
223.0019797516685
 31
0.0
  0
LINE
  5
7947
330
7919
100
AcDbEntity
  8
30
  6
Continuous
 62
     0
370
    -2
100
AcDbLine
 10
314.7839133336989
 20
212.5019797516684
 30
0.0
 11
314.7839133336989
 21
223.0019797516685
 31
0.0
  0
LINE
  5
7948
330
7919
100
AcDbEntity
  8
30
  6
Continuous
 62
     0
370
    -2
100
AcDbLine
 10
360.7839133336993
 20
222.5019797516684
 30
0.0
 11
316.7839133336989
 21
222.5019797516684
 31
0.0
  0
INSERT
  5
7949
330
7919
100
AcDbEntity
  8
30
  6
Continuous
 62
     0
370
    -2
100
AcDbBlockReference
  2
_OPEN
 10
362.7839133336993
 20
222.5019797516684
 30
0.0
 41
2.0
 42
2.0
 43
2.0
  0
INSERT
  5
794A
330
7919
100
AcDbEntity
  8
30
  6
Continuous
 62
     0
370
    -2
100
AcDbBlockReference
  2
_OPEN
 10
314.7839133336989
 20
222.5019797516684
 30
0.0
 41
2.0
 42
2.0
 43
2.0
 50
180.0
  0
MTEXT
  5
794B
330
7919
100
AcDbEntity
  8
30
  6
Continuous
 62
     0
100
AcDbMText
 10
338.7839133336991
 20
225.5019797516685
 30
0.0
 40
4.0
 41
0.0
 71
     5
 72
     1
  1
\A1; 48 
 73
     1
 44
1.0
1001
ACAD
1000
MTEXTBEGIN
1070
    73
1070
     1
1070
    44
1040
1.0
1070
    74
1070
     0
1000
MTEXTEND
  0
POINT
  5
794C
330
7919
100
AcDbEntity
  8
DEFPOINTS
  6
Continuous
 62
     0
100
AcDbPoint
 10
362.7839133336993
 20
212.5019797516685
 30
0.0
  0
POINT
  5
794D
330
7919
100
AcDbEntity
  8
DEFPOINTS
  6
Continuous
 62
     0
100
AcDbPoint
 10
314.7839133336989
 20
211.5019797516684
 30
0.0
  0
POINT
  5
794E
330
7919
100
AcDbEntity
  8
DEFPOINTS
  6
Continuous
 62
     0
100
AcDbPoint
 10
314.7839133336989
 20
222.5019797516684
 30
0.0
  0
ENDBLK
  5
791B
330
7919
100
AcDbEntity
  8
0
100
AcDbBlockEnd
  0
BLOCK
  5
7926
330
7925
100
AcDbEntity
  8
0
100
AcDbBlockBegin
  2
*D92
 70
     1
 10
0.0
 20
0.0
 30
0.0
  3
*D92
  1

  0
LINE
  5
794F
330
7925
100
AcDbEntity
  8
30
  6
Continuous
 62
     0
370
    -2
100
AcDbLine
 10
362.7839133336993
 20
213.5019797516684
 30
0.0
 11
362.7839133336993
 21
233.0019797516684
 31
0.0
  0
LINE
  5
7950
330
7925
100
AcDbEntity
  8
30
  6
Continuous
 62
     0
370
    -2
100
AcDbLine
 10
311.2839133336992
 20
183.2019797516684
 30
0.0
 11
311.2839133336992
 21
233.0019797516684
 31
0.0
  0
LINE
  5
7951
330
7925
100
AcDbEntity
  8
30
  6
Continuous
 62
     0
370
    -2
100
AcDbLine
 10
360.7839133336993
 20
232.5019797516684
 30
0.0
 11
313.2839133336992
 21
232.5019797516684
 31
0.0
  0
INSERT
  5
7952
330
7925
100
AcDbEntity
  8
30
  6
Continuous
 62
     0
370
    -2
100
AcDbBlockReference
  2
_OPEN
 10
362.7839133336993
 20
232.5019797516684
 30
0.0
 41
2.0
 42
2.0
 43
2.0
  0
INSERT
  5
7953
330
7925
100
AcDbEntity
  8
30
  6
Continuous
 62
     0
370
    -2
100
AcDbBlockReference
  2
_OPEN
 10
311.2839133336992
 20
232.5019797516684
 30
0.0
 41
2.0
 42
2.0
 43
2.0
 50
180.0
  0
MTEXT
  5
7954
330
7925
100
AcDbEntity
  8
30
  6
Continuous
 62
     0
100
AcDbMText
 10
337.0339133336992
 20
235.5019797516685
 30
0.0
 40
4.0
 41
0.0
 71
     5
 72
     1
  1
\A1; 51.5 
 73
     1
 44
1.0
1001
ACAD
1000
MTEXTBEGIN
1070
    73
1070
     1
1070
    44
1040
1.0
1070
    74
1070
     0
1000
MTEXTEND
  0
POINT
  5
7955
330
7925
100
AcDbEntity
  8
DEFPOINTS
  6
Continuous
 62
     0
100
AcDbPoint
 10
362.7839133336993
 20
212.5019797516685
 30
0.0
  0
POINT
  5
7956
330
7925
100
AcDbEntity
  8
DEFPOINTS
  6
Continuous
 62
     0
100
AcDbPoint
 10
311.2839133336992
 20
182.2019797516684
 30
0.0
  0
POINT
  5
7957
330
7925
100
AcDbEntity
  8
DEFPOINTS
  6
Continuous
 62
     0
100
AcDbPoint
 10
311.2839133336992
 20
232.5019797516684
 30
0.0
  0
ENDBLK
  5
7927
330
7925
100
AcDbEntity
  8
0
100
AcDbBlockEnd
  0
BLOCK
  5
7932
330
7931
100
AcDbEntity
  8
0
100
AcDbBlockBegin
  2
*D93
 70
     1
 10
0.0
 20
0.0
 30
0.0
  3
*D93
  1

  0
LINE
  5
7958
330
7931
100
AcDbEntity
  8
30
  6
Continuous
 62
     0
370
    -2
100
AcDbLine
 10
311.5839133336992
 20
183.5019797516684
 30
0.0
 11
291.2839133336992
 21
183.5019797516684
 31
0.0
  0
LINE
  5
7959
330
7931
100
AcDbEntity
  8
30
  6
Continuous
 62
     0
370
    -2
100
AcDbLine
 10
300.7839133336992
 20
172.5019797516683
 30
0.0
 11
291.2839133336992
 21
172.5019797516683
 31
0.0
  0
LINE
  5
795A
330
7931
100
AcDbEntity
  8
30
  6
Continuous
 62
     0
370
    -2
100
AcDbLine
 10
291.7839133336991
 20
181.5019797516684
 30
0.0
 11
291.7839133336991
 21
174.5019797516683
 31
0.0
  0
INSERT
  5
795B
330
7931
100
AcDbEntity
  8
30
  6
Continuous
 62
     0
370
    -2
100
AcDbBlockReference
  2
_OPEN
 10
291.7839133336991
 20
183.5019797516684
 30
0.0
 41
2.0
 42
2.0
 43
2.0
 50
90.0
  0
INSERT
  5
795C
330
7931
100
AcDbEntity
  8
30
  6
Continuous
 62
     0
370
    -2
100
AcDbBlockReference
  2
_OPEN
 10
291.7839133336991
 20
172.5019797516683
 30
0.0
 41
2.0
 42
2.0
 43
2.0
 50
270.0
  0
MTEXT
  5
795D
330
7931
100
AcDbEntity
  8
30
  6
Continuous
 62
     0
100
AcDbMText
 10
288.7839133336992
 20
177.9394581892475
 30
0.0
 40
4.0
 41
0.0
 71
     5
 72
     1
  1
\A1;11
 11
0.0000000000000001
 21
1.0
 31
0.0
 73
     1
 44
1.0
1001
ACAD
1000
MTEXTBEGIN
1070
    73
1070
     1
1070
    44
1040
1.0
1070
    74
1070
     0
1000
MTEXTEND
  0
POINT
  5
795E
330
7931
100
AcDbEntity
  8
DEFPOINTS
  6
Continuous
 62
     0
100
AcDbPoint
 10
312.5839133336992
 20
183.5019797516684
 30
0.0
  0
POINT
  5
795F
330
7931
100
AcDbEntity
  8
DEFPOINTS
  6
Continuous
 62
     0
100
AcDbPoint
 10
301.7839133336992
 20
172.5019797516683
 30
0.0
  0
POINT
  5
7960
330
7931
100
AcDbEntity
  8
DEFPOINTS
  6
Continuous
 62
     0
100
AcDbPoint
 10
291.7839133336991
 20
172.5019797516683
 30
0.0
  0
ENDBLK
  5
7933
330
7931
100
AcDbEntity
  8
0
100
AcDbBlockEnd
  0
BLOCK
  5
7962
330
7961
100
AcDbEntity
  8
0
100
AcDbBlockBegin
  2
*D94
 70
     1
 10
0.0
 20
0.0
 30
0.0
  3
*D94
  1

  0
LINE
  5
7963
330
7961
100
AcDbEntity
  8
30
  6
Continuous
 62
     0
370
    -2
100
AcDbLine
 10
193.9923778520064
 20
55.51029255310334
 30
0.0
 11
193.9923778520064
 21
32.76087440915148
 31
0.0
  0
LINE
  5
7964
330
7961
100
AcDbEntity
  8
30
  6
Continuous
 62
     0
370
    -2
100
AcDbLine
 10
217.9923778520064
 20
76.51029255310354
 30
0.0
 11
217.9923778520064
 21
32.76087440915148
 31
0.0
  0
LINE
  5
7965
330
7961
100
AcDbEntity
  8
30
  6
Continuous
 62
     0
370
    -2
100
AcDbLine
 10
195.9923778520064
 20
33.26087440915149
 30
0.0
 11
215.9923778520064
 21
33.26087440915149
 31
0.0
  0
INSERT
  5
7966
330
7961
100
AcDbEntity
  8
30
  6
Continuous
 62
     0
370
    -2
100
AcDbBlockReference
  2
_OPEN
 10
193.9923778520064
 20
33.26087440915149
 30
0.0
 41
2.0
 42
2.0
 43
2.0
 50
180.0
  0
INSERT
  5
7967
330
7961
100
AcDbEntity
  8
30
  6
Continuous
 62
     0
370
    -2
100
AcDbBlockReference
  2
_OPEN
 10
217.9923778520064
 20
33.26087440915149
 30
0.0
 41
2.0
 42
2.0
 43
2.0
  0
MTEXT
  5
7968
330
7961
100
AcDbEntity
  8
30
  6
Continuous
 62
     0
100
AcDbMText
 10
205.9923778520064
 20
36.26087440915148
 30
0.0
 40
4.0
 41
0.0
 71
     5
 72
     1
  1
\A1;24
 73
     1
 44
1.0
1001
ACAD
1000
MTEXTBEGIN
1070
    73
1070
     1
1070
    44
1040
1.0
1070
    74
1070
     0
1000
MTEXTEND
  0
POINT
  5
7969
330
7961
100
AcDbEntity
  8
DEFPOINTS
  6
Continuous
 62
     0
100
AcDbPoint
 10
193.9923778520064
 20
56.51029255310334
 30
0.0
  0
POINT
  5
796A
330
7961
100
AcDbEntity
  8
DEFPOINTS
  6
Continuous
 62
     0
100
AcDbPoint
 10
217.9923778520064
 20
77.51029255310354
 30
0.0
  0
POINT
  5
796B
330
7961
100
AcDbEntity
  8
DEFPOINTS
  6
Continuous
 62
     0
100
AcDbPoint
 10
217.9923778520064
 20
33.26087440915149
 30
0.0
  0
ENDBLK
  5
796C
330
7961
100
AcDbEntity
  8
0
100
AcDbBlockEnd
  0
BLOCK
  5
796E
330
796D
100
AcDbEntity
  8
0
100
AcDbBlockBegin
  2
*D95
 70
     1
 10
0.0
 20
0.0
 30
0.0
  3
*D95
  1

  0
LINE
  5
796F
330
796D
100
AcDbEntity
  8
30
  6
Continuous
 62
     0
370
    -2
100
AcDbLine
 10
217.9923778520064
 20
118.5102925531036
 30
0.0
 11
217.9923778520064
 21
128.0102925531036
 31
0.0
  0
LINE
  5
7970
330
796D
100
AcDbEntity
  8
30
  6
Continuous
 62
     0
370
    -2
100
AcDbLine
 10
169.9923778520061
 20
117.5102925531035
 30
0.0
 11
169.9923778520061
 21
128.0102925531036
 31
0.0
  0
LINE
  5
7971
330
796D
100
AcDbEntity
  8
30
  6
Continuous
 62
     0
370
    -2
100
AcDbLine
 10
215.9923778520064
 20
127.5102925531036
 30
0.0
 11
171.9923778520061
 21
127.5102925531036
 31
0.0
  0
INSERT
  5
7972
330
796D
100
AcDbEntity
  8
30
  6
Continuous
 62
     0
370
    -2
100
AcDbBlockReference
  2
_OPEN
 10
217.9923778520064
 20
127.5102925531036
 30
0.0
 41
2.0
 42
2.0
 43
2.0
  0
INSERT
  5
7973
330
796D
100
AcDbEntity
  8
30
  6
Continuous
 62
     0
370
    -2
100
AcDbBlockReference
  2
_OPEN
 10
169.9923778520061
 20
127.5102925531036
 30
0.0
 41
2.0
 42
2.0
 43
2.0
 50
180.0
  0
MTEXT
  5
7974
330
796D
100
AcDbEntity
  8
30
  6
Continuous
 62
     0
100
AcDbMText
 10
193.9923778520062
 20
130.5102925531036
 30
0.0
 40
4.0
 41
0.0
 71
     5
 72
     1
  1
\A1; 48 
 73
     1
 44
1.0
1001
ACAD
1000
MTEXTBEGIN
1070
    73
1070
     1
1070
    44
1040
1.0
1070
    74
1070
     0
1000
MTEXTEND
  0
POINT
  5
7975
330
796D
100
AcDbEntity
  8
DEFPOINTS
  6
Continuous
 62
     0
100
AcDbPoint
 10
217.9923778520064
 20
117.5102925531036
 30
0.0
  0
POINT
  5
7976
330
796D
100
AcDbEntity
  8
DEFPOINTS
  6
Continuous
 62
     0
100
AcDbPoint
 10
169.9923778520061
 20
116.5102925531035
 30
0.0
  0
POINT
  5
7977
330
796D
100
AcDbEntity
  8
DEFPOINTS
  6
Continuous
 62
     0
100
AcDbPoint
 10
169.9923778520061
 20
127.5102925531036
 30
0.0
  0
ENDBLK
  5
7978
330
796D
100
AcDbEntity
  8
0
100
AcDbBlockEnd
  0
BLOCK
  5
797A
330
7979
100
AcDbEntity
  8
0
100
AcDbBlockBegin
  2
*D96
 70
     1
 10
0.0
 20
0.0
 30
0.0
  3
*D96
  1

  0
LINE
  5
797B
330
7979
100
AcDbEntity
  8
30
  6
Continuous
 62
     0
370
    -2
100
AcDbLine
 10
217.9923778520064
 20
118.5102925531036
 30
0.0
 11
217.9923778520064
 21
138.0102925531036
 31
0.0
  0
LINE
  5
797C
330
7979
100
AcDbEntity
  8
30
  6
Continuous
 62
     0
370
    -2
100
AcDbLine
 10
166.4923778520063
 20
88.21029255310353
 30
0.0
 11
166.4923778520063
 21
138.0102925531036
 31
0.0
  0
LINE
  5
797D
330
7979
100
AcDbEntity
  8
30
  6
Continuous
 62
     0
370
    -2
100
AcDbLine
 10
215.9923778520064
 20
137.5102925531036
 30
0.0
 11
168.4923778520063
 21
137.5102925531036
 31
0.0
  0
INSERT
  5
797E
330
7979
100
AcDbEntity
  8
30
  6
Continuous
 62
     0
370
    -2
100
AcDbBlockReference
  2
_OPEN
 10
217.9923778520064
 20
137.5102925531036
 30
0.0
 41
2.0
 42
2.0
 43
2.0
  0
INSERT
  5
797F
330
7979
100
AcDbEntity
  8
30
  6
Continuous
 62
     0
370
    -2
100
AcDbBlockReference
  2
_OPEN
 10
166.4923778520063
 20
137.5102925531036
 30
0.0
 41
2.0
 42
2.0
 43
2.0
 50
180.0
  0
MTEXT
  5
7980
330
7979
100
AcDbEntity
  8
30
  6
Continuous
 62
     0
100
AcDbMText
 10
192.2423778520063
 20
140.5102925531036
 30
0.0
 40
4.0
 41
0.0
 71
     5
 72
     1
  1
\A1; 51.5 
 73
     1
 44
1.0
1001
ACAD
1000
MTEXTBEGIN
1070
    73
1070
     1
1070
    44
1040
1.0
1070
    74
1070
     0
1000
MTEXTEND
  0
POINT
  5
7981
330
7979
100
AcDbEntity
  8
DEFPOINTS
  6
Continuous
 62
     0
100
AcDbPoint
 10
217.9923778520064
 20
117.5102925531036
 30
0.0
  0
POINT
  5
7982
330
7979
100
AcDbEntity
  8
DEFPOINTS
  6
Continuous
 62
     0
100
AcDbPoint
 10
166.4923778520063
 20
87.21029255310353
 30
0.0
  0
POINT
  5
7983
330
7979
100
AcDbEntity
  8
DEFPOINTS
  6
Continuous
 62
     0
100
AcDbPoint
 10
166.4923778520063
 20
137.5102925531036
 30
0.0
  0
ENDBLK
  5
7984
330
7979
100
AcDbEntity
  8
0
100
AcDbBlockEnd
  0
BLOCK
  5
7986
330
7985
100
AcDbEntity
  8
0
100
AcDbBlockBegin
  2
*D97
 70
     1
 10
0.0
 20
0.0
 30
0.0
  3
*D97
  1

  0
LINE
  5
7987
330
7985
100
AcDbEntity
  8
30
  6
Continuous
 62
     0
370
    -2
100
AcDbLine
 10
166.7923778520063
 20
88.51029255310352
 30
0.0
 11
146.4923778520063
 21
88.51029255310352
 31
0.0
  0
LINE
  5
7988
330
7985
100
AcDbEntity
  8
30
  6
Continuous
 62
     0
370
    -2
100
AcDbLine
 10
155.9923778520063
 20
77.51029255310347
 30
0.0
 11
146.4923778520063
 21
77.51029255310347
 31
0.0
  0
LINE
  5
7989
330
7985
100
AcDbEntity
  8
30
  6
Continuous
 62
     0
370
    -2
100
AcDbLine
 10
146.9923778520063
 20
86.51029255310353
 30
0.0
 11
146.9923778520063
 21
79.51029255310347
 31
0.0
  0
INSERT
  5
798A
330
7985
100
AcDbEntity
  8
30
  6
Continuous
 62
     0
370
    -2
100
AcDbBlockReference
  2
_OPEN
 10
146.9923778520063
 20
88.51029255310352
 30
0.0
 41
2.0
 42
2.0
 43
2.0
 50
90.0
  0
INSERT
  5
798B
330
7985
100
AcDbEntity
  8
30
  6
Continuous
 62
     0
370
    -2
100
AcDbBlockReference
  2
_OPEN
 10
146.9923778520063
 20
77.51029255310347
 30
0.0
 41
2.0
 42
2.0
 43
2.0
 50
270.0
  0
MTEXT
  5
798C
330
7985
100
AcDbEntity
  8
30
  6
Continuous
 62
     0
100
AcDbMText
 10
143.9923778520063
 20
82.94777099068262
 30
0.0
 40
4.0
 41
0.0
 71
     5
 72
     1
  1
\A1;11
 11
0.0000000000000001
 21
1.0
 31
0.0
 73
     1
 44
1.0
1001
ACAD
1000
MTEXTBEGIN
1070
    73
1070
     1
1070
    44
1040
1.0
1070
    74
1070
     0
1000
MTEXTEND
  0
POINT
  5
798D
330
7985
100
AcDbEntity
  8
DEFPOINTS
  6
Continuous
 62
     0
100
AcDbPoint
 10
167.7923778520063
 20
88.51029255310352
 30
0.0
  0
POINT
  5
798E
330
7985
100
AcDbEntity
  8
DEFPOINTS
  6
Continuous
 62
     0
100
AcDbPoint
 10
156.9923778520063
 20
77.51029255310347
 30
0.0
  0
POINT
  5
798F
330
7985
100
AcDbEntity
  8
DEFPOINTS
  6
Continuous
 62
     0
100
AcDbPoint
 10
146.9923778520063
 20
77.51029255310347
 30
0.0
  0
ENDBLK
  5
7990
330
7985
100
AcDbEntity
  8
0
100
AcDbBlockEnd
  0
BLOCK
  5
79A7
330
79A6
100
AcDbEntity
  8
0
100
AcDbBlockBegin
  2
*D98
 70
     1
 10
0.0
 20
0.0
 30
0.0
  3
*D98
  1

  0
LINE
  5
79FA
330
79A6
100
AcDbEntity
  8
30
  6
Continuous
 62
     0
370
    -2
100
AcDbLine
 10
235.2602819584348
 20
60.49999999999982
 30
0.0
 11
235.2602819584348
 21
37.75058185604797
 31
0.0
  0
LINE
  5
79FB
330
79A6
100
AcDbEntity
  8
30
  6
Continuous
 62
     0
370
    -2
100
AcDbLine
 10
259.2602819584348
 20
81.50000000000002
 30
0.0
 11
259.2602819584348
 21
37.75058185604797
 31
0.0
  0
LINE
  5
79FC
330
79A6
100
AcDbEntity
  8
30
  6
Continuous
 62
     0
370
    -2
100
AcDbLine
 10
237.2602819584348
 20
38.25058185604797
 30
0.0
 11
257.2602819584348
 21
38.25058185604797
 31
0.0
  0
INSERT
  5
79FD
330
79A6
100
AcDbEntity
  8
30
  6
Continuous
 62
     0
370
    -2
100
AcDbBlockReference
  2
_OPEN
 10
235.2602819584348
 20
38.25058185604797
 30
0.0
 41
2.0
 42
2.0
 43
2.0
 50
180.0
  0
INSERT
  5
79FE
330
79A6
100
AcDbEntity
  8
30
  6
Continuous
 62
     0
370
    -2
100
AcDbBlockReference
  2
_OPEN
 10
259.2602819584348
 20
38.25058185604797
 30
0.0
 41
2.0
 42
2.0
 43
2.0
  0
MTEXT
  5
79FF
330
79A6
100
AcDbEntity
  8
30
  6
Continuous
 62
     0
100
AcDbMText
 10
247.2602819584349
 20
41.25058185604795
 30
0.0
 40
4.0
 41
0.0
 71
     5
 72
     1
  1
\A1;24
 73
     1
 44
1.0
1001
ACAD
1000
MTEXTBEGIN
1070
    73
1070
     1
1070
    44
1040
1.0
1070
    74
1070
     0
1000
MTEXTEND
  0
POINT
  5
7A00
330
79A6
100
AcDbEntity
  8
DEFPOINTS
  6
Continuous
 62
     0
100
AcDbPoint
 10
235.2602819584348
 20
61.4999999999998
 30
0.0
  0
POINT
  5
7A01
330
79A6
100
AcDbEntity
  8
DEFPOINTS
  6
Continuous
 62
     0
100
AcDbPoint
 10
259.2602819584348
 20
82.50000000000001
 30
0.0
  0
POINT
  5
7A02
330
79A6
100
AcDbEntity
  8
DEFPOINTS
  6
Continuous
 62
     0
100
AcDbPoint
 10
259.2602819584348
 20
38.25058185604797
 30
0.0
  0
ENDBLK
  5
79A8
330
79A6
100
AcDbEntity
  8
0
100
AcDbBlockEnd
  0
BLOCK
  5
79B3
330
79B2
100
AcDbEntity
  8
0
100
AcDbBlockBegin
  2
*D99
 70
     1
 10
0.0
 20
0.0
 30
0.0
  3
*D99
  1

  0
LINE
  5
7A29
330
79B2
100
AcDbEntity
  8
30
  6
Continuous
 62
     0
370
    -2
100
AcDbLine
 10
259.2602819584348
 20
138.5
 30
0.0
 11
259.2602819584348
 21
148.0
 31
0.0
  0
LINE
  5
7A2A
330
79B2
100
AcDbEntity
  8
30
  6
Continuous
 62
     0
370
    -2
100
AcDbLine
 10
205.2602819584348
 20
137.5
 30
0.0
 11
205.2602819584348
 21
148.0
 31
0.0
  0
LINE
  5
7A2B
330
79B2
100
AcDbEntity
  8
30
  6
Continuous
 62
     0
370
    -2
100
AcDbLine
 10
257.2602819584348
 20
147.5
 30
0.0
 11
207.2602819584348
 21
147.5
 31
0.0
  0
INSERT
  5
7A2C
330
79B2
100
AcDbEntity
  8
30
  6
Continuous
 62
     0
370
    -2
100
AcDbBlockReference
  2
_OPEN
 10
259.2602819584348
 20
147.5
 30
0.0
 41
2.0
 42
2.0
 43
2.0
  0
INSERT
  5
7A2D
330
79B2
100
AcDbEntity
  8
30
  6
Continuous
 62
     0
370
    -2
100
AcDbBlockReference
  2
_OPEN
 10
205.2602819584348
 20
147.5
 30
0.0
 41
2.0
 42
2.0
 43
2.0
 50
180.0
  0
MTEXT
  5
7A2E
330
79B2
100
AcDbEntity
  8
30
  6
Continuous
 62
     0
100
AcDbMText
 10
232.2602819584348
 20
150.5
 30
0.0
 40
4.0
 41
0.0
 71
     5
 72
     1
  1
\A1; 54 
 73
     1
 44
1.0
1001
ACAD
1000
MTEXTBEGIN
1070
    73
1070
     1
1070
    44
1040
1.0
1070
    74
1070
     0
1000
MTEXTEND
  0
POINT
  5
7A2F
330
79B2
100
AcDbEntity
  8
DEFPOINTS
  6
Continuous
 62
     0
100
AcDbPoint
 10
259.2602819584348
 20
137.5
 30
0.0
  0
POINT
  5
7A30
330
79B2
100
AcDbEntity
  8
DEFPOINTS
  6
Continuous
 62
     0
100
AcDbPoint
 10
205.2602819584348
 20
136.5
 30
0.0
  0
POINT
  5
7A31
330
79B2
100
AcDbEntity
  8
DEFPOINTS
  6
Continuous
 62
     0
100
AcDbPoint
 10
205.2602819584348
 20
147.5
 30
0.0
  0
ENDBLK
  5
79B4
330
79B2
100
AcDbEntity
  8
0
100
AcDbBlockEnd
  0
BLOCK
  5
79BF
330
79BE
100
AcDbEntity
  8
0
100
AcDbBlockBegin
  2
*D100
 70
     1
 10
0.0
 20
0.0
 30
0.0
  3
*D100
  1

  0
LINE
  5
7A17
330
79BE
100
AcDbEntity
  8
30
  6
Continuous
 62
     0
370
    -2
100
AcDbLine
 10
259.2602819584348
 20
138.5
 30
0.0
 11
259.2602819584348
 21
158.0
 31
0.0
  0
LINE
  5
7A18
330
79BE
100
AcDbEntity
  8
30
  6
Continuous
 62
     0
370
    -2
100
AcDbLine
 10
201.760281958435
 20
93.20000000000003
 30
0.0
 11
201.760281958435
 21
158.0
 31
0.0
  0
LINE
  5
7A19
330
79BE
100
AcDbEntity
  8
30
  6
Continuous
 62
     0
370
    -2
100
AcDbLine
 10
257.2602819584348
 20
157.5
 30
0.0
 11
203.760281958435
 21
157.5
 31
0.0
  0
INSERT
  5
7A1A
330
79BE
100
AcDbEntity
  8
30
  6
Continuous
 62
     0
370
    -2
100
AcDbBlockReference
  2
_OPEN
 10
259.2602819584348
 20
157.5
 30
0.0
 41
2.0
 42
2.0
 43
2.0
  0
INSERT
  5
7A1B
330
79BE
100
AcDbEntity
  8
30
  6
Continuous
 62
     0
370
    -2
100
AcDbBlockReference
  2
_OPEN
 10
201.760281958435
 20
157.5
 30
0.0
 41
2.0
 42
2.0
 43
2.0
 50
180.0
  0
MTEXT
  5
7A1C
330
79BE
100
AcDbEntity
  8
30
  6
Continuous
 62
     0
100
AcDbMText
 10
230.5102819584349
 20
160.5
 30
0.0
 40
4.0
 41
0.0
 71
     5
 72
     1
  1
\A1; 57.5 
 73
     1
 44
1.0
1001
ACAD
1000
MTEXTBEGIN
1070
    73
1070
     1
1070
    44
1040
1.0
1070
    74
1070
     0
1000
MTEXTEND
  0
POINT
  5
7A1D
330
79BE
100
AcDbEntity
  8
DEFPOINTS
  6
Continuous
 62
     0
100
AcDbPoint
 10
259.2602819584348
 20
137.5
 30
0.0
  0
POINT
  5
7A1E
330
79BE
100
AcDbEntity
  8
DEFPOINTS
  6
Continuous
 62
     0
100
AcDbPoint
 10
201.760281958435
 20
92.20000000000004
 30
0.0
  0
POINT
  5
7A1F
330
79BE
100
AcDbEntity
  8
DEFPOINTS
  6
Continuous
 62
     0
100
AcDbPoint
 10
201.760281958435
 20
157.5
 30
0.0
  0
ENDBLK
  5
79C0
330
79BE
100
AcDbEntity
  8
0
100
AcDbBlockEnd
  0
BLOCK
  5
79CB
330
79CA
100
AcDbEntity
  8
0
100
AcDbBlockBegin
  2
*D101
 70
     1
 10
0.0
 20
0.0
 30
0.0
  3
*D101
  1

  0
LINE
  5
7A32
330
79CA
100
AcDbEntity
  8
30
  6
Continuous
 62
     0
370
    -2
100
AcDbLine
 10
202.060281958435
 20
93.50000000000004
 30
0.0
 11
181.7602819584349
 21
93.50000000000004
 31
0.0
  0
LINE
  5
7A33
330
79CA
100
AcDbEntity
  8
30
  6
Continuous
 62
     0
370
    -2
100
AcDbLine
 10
197.2602819584347
 20
82.49999999999998
 30
0.0
 11
181.7602819584349
 21
82.49999999999998
 31
0.0
  0
LINE
  5
7A34
330
79CA
100
AcDbEntity
  8
30
  6
Continuous
 62
     0
370
    -2
100
AcDbLine
 10
182.260281958435
 20
91.50000000000003
 30
0.0
 11
182.260281958435
 21
84.49999999999997
 31
0.0
  0
INSERT
  5
7A35
330
79CA
100
AcDbEntity
  8
30
  6
Continuous
 62
     0
370
    -2
100
AcDbBlockReference
  2
_OPEN
 10
182.260281958435
 20
93.50000000000004
 30
0.0
 41
2.0
 42
2.0
 43
2.0
 50
90.0
  0
INSERT
  5
7A36
330
79CA
100
AcDbEntity
  8
30
  6
Continuous
 62
     0
370
    -2
100
AcDbBlockReference
  2
_OPEN
 10
182.260281958435
 20
82.49999999999998
 30
0.0
 41
2.0
 42
2.0
 43
2.0
 50
270.0
  0
MTEXT
  5
7A37
330
79CA
100
AcDbEntity
  8
30
  6
Continuous
 62
     0
100
AcDbMText
 10
179.260281958435
 20
87.93747843757911
 30
0.0
 40
4.0
 41
0.0
 71
     5
 72
     1
  1
\A1;11
 11
0.0000000000000001
 21
1.0
 31
0.0
 73
     1
 44
1.0
1001
ACAD
1000
MTEXTBEGIN
1070
    73
1070
     1
1070
    44
1040
1.0
1070
    74
1070
     0
1000
MTEXTEND
  0
POINT
  5
7A38
330
79CA
100
AcDbEntity
  8
DEFPOINTS
  6
Continuous
 62
     0
100
AcDbPoint
 10
203.0602819584351
 20
93.50000000000004
 30
0.0
  0
POINT
  5
7A39
330
79CA
100
AcDbEntity
  8
DEFPOINTS
  6
Continuous
 62
     0
100
AcDbPoint
 10
198.2602819584347
 20
82.49999999999998
 30
0.0
  0
POINT
  5
7A3A
330
79CA
100
AcDbEntity
  8
DEFPOINTS
  6
Continuous
 62
     0
100
AcDbPoint
 10
182.260281958435
 20
82.49999999999998
 30
0.0
  0
ENDBLK
  5
79CC
330
79CA
100
AcDbEntity
  8
0
100
AcDbBlockEnd
  0
ENDSEC
  0
SECTION
  2
ENTITIES
  0
LINE
  5
B4
330
1E
100
AcDbEntity
  8
16
100
AcDbLine
 10
0.0
 20
-101.8246001220914
 30
0.0
 11
0.0000000000000071
 21
147.5
 31
0.0
  0
MTEXT
  5
BF3
330
1E
100
AcDbEntity
  8
24
  6
Continuous
100
AcDbMText
 10
142.118191
 20
177.5
 30
0.0
 40
3.0
 41
0.0
 71
     1
 72
     1
  1
\A1;
 73
     1
 44
1.0
1001
ACAD
1000
MTEXTBEGIN
1070
    73
1070
     1
1070
    44
1040
1.0
1070
    74
1070
     0
1000
MTEXTEND
  0
LINE
  5
1C9A
330
1E
100
AcDbEntity
  8
16
100
AcDbLine
 10
0.0
 20
173.6953512083053
 30
0.0
 11
0.0
 21
316.1953512083052
 31
0.0
  0
LINE
  5
1C9B
330
1E
100
AcDbEntity
  8
16
100
AcDbLine
 10
249.3429057645195
 20
-0.0000000000000027
 30
0.0
 11
117.1776581523497
 21
-0.0000000000000027
 31
0.0
  0
LINE
  5
2260
330
1E
100
AcDbEntity
  8
16
100
AcDbLine
 10
68.52380301423583
 20
-250.8473940210348
 30
0.0
 11
-80.93000773675209
 21
-250.8473940210348
 31
0.0
  0
LINE
  5
2261
330
1E
100
AcDbEntity
  8
16
100
AcDbLine
 10
-0.3800945351711884
 20
-348.5993337838804
 30
0.0
 11
-0.3800945351711884
 21
-149.4639948115488
 31
0.0
  0
LINE
  5
4C5A
330
1E
100
AcDbEntity
  8
16
100
AcDbLine
 10
88.49441808474184
 20
-0.0000000000000027
 30
0.0
 11
-83.90588178115756
 21
-0.0000000000000027
 31
0.0
  0
TEXT
  5
5C39
330
1E
100
AcDbEntity
  8
30
  6
Continuous
100
AcDbText
 10
290.2984645830388
 20
83.54154432434098
 30
0.0
 40
5.0
  1
%%c9
  7
STANDARD1
100
AcDbText
  0
MTEXT
  5
5C78
330
1E
100
AcDbEntity
  8
30
  6
Continuous
100
AcDbMText
 10
163.4658593933072
 20
90.15025714526428
 30
0.0
 40
4.0
 41
0.0
 71
     9
 72
     1
  1

 73
     1
 44
1.0
1001
ACAD
1000
MTEXTBEGIN
1070
    73
1070
     1
1070
    44
1040
1.0
1070
    74
1070
     0
1000
MTEXTEND
  0
LEADER
  5
5C79
330
1E
100
AcDbEntity
  8
30
  6
Continuous
100
AcDbLeader
  3
STANDARD
 76
     3
 10
311.5981526098346
 20
62.54225584523794
 30
0.0
 10
302.2621549812772
 20
81.64926198103842
 30
0.0
 10
288.9250114560097
 20
82.09361040007944
 30
0.0
213
0.0
223
2.0
233
0.0
1001
ACAD
1000
DSTYLE
1002
{
1070
     5
1000
OPEN
1070
    77
1070
     0
1070
    79
1070
     3
1070
   147
1040
1.0
1070
   342
1005
3B2
1002
}
  0
LINE
  5
5C86
330
1E
100
AcDbEntity
  8
10
  6
CONTINOUS
100
AcDbLine
 10
-52.49999999999989
 20
228.4158756592118
 30
0.0
 11
-52.5
 21
296.4158756592119
 31
0.0
  0
LINE
  5
5C8A
330
1E
100
AcDbEntity
  8
10
  6
CONTINOUS
100
AcDbLine
 10
87.50000000000005
 20
228.4158756592118
 30
0.0
 11
87.50000000000005
 21
296.4158756592119
 31
0.0
  0
LINE
  5
5C8B
330
1E
100
AcDbEntity
  8
10
  6
CONTINOUS
100
AcDbLine
 10
-52.49999999999989
 20
228.4158756592118
 30
0.0
 11
87.50000000000005
 21
228.4158756592118
 31
0.0
  0
LINE
  5
5C8C
330
1E
100
AcDbEntity
  8
10
  6
CONTINOUS
100
AcDbLine
 10
-52.49999999999989
 20
235.415875659212
 30
0.0
 11
87.50000000000005
 21
235.415875659212
 31
0.0
  0
LINE
  5
5C8D
330
1E
100
AcDbEntity
  8
10
  6
CONTINOUS
100
AcDbLine
 10
49.00000000000003
 20
224.4158756592119
 30
0.0
 11
49.00000000000002
 21
228.4158756592116
 31
0.0
  0
LINE
  5
5C8E
330
1E
100
AcDbEntity
  8
10
  6
CONTINOUS
100
AcDbLine
 10
-11.52685530275693
 20
220.4158756592119
 30
0.0
 11
10.49104823241427
 21
220.4158756592119
 31
0.0
  0
LINE
  5
5C8F
330
1E
100
AcDbEntity
  8
10
  6
CONTINOUS
100
AcDbLine
 10
-48.99999999999997
 20
224.4158756592119
 30
0.0
 11
49.00000000000003
 21
224.4158756592119
 31
0.0
  0
LINE
  5
5C91
330
1E
100
AcDbEntity
  8
10
  6
CONTINOUS
100
AcDbLine
 10
10.49104823241427
 20
220.4158756592119
 30
0.0
 11
10.49104823241427
 21
224.4158756592119
 31
0.0
  0
LINE
  5
5C96
330
1E
100
AcDbEntity
  8
10
  6
CONTINOUS
100
AcDbLine
 10
-11.52685530275693
 20
220.4158756592119
 30
0.0
 11
-11.52685530275693
 21
224.4158756592119
 31
0.0
  0
LINE
  5
5C97
330
1E
100
AcDbEntity
  8
10
  6
CONTINOUS
100
AcDbLine
 10
-48.99999999999997
 20
224.4158756592119
 30
0.0
 11
-48.99999999999997
 21
228.4158756592118
 31
0.0
  0
LINE
  5
5C98
330
1E
100
AcDbEntity
  8
10
  6
CONTINOUS
100
AcDbLine
 10
-52.5
 20
296.4158756592119
 30
0.0
 11
87.50000000000005
 21
296.4158756592119
 31
0.0
  0
LINE
  5
5CA2
330
1E
100
AcDbEntity
  8
24
  6
CONTINOUS
100
AcDbLine
 10
35.00000000000003
 20
260.2158756592118
 30
0.0
 11
35.00000000000003
 21
277.415875659212
 31
0.0
  0
LINE
  5
5CA3
330
1E
100
AcDbEntity
  8
24
  6
CONTINOUS
100
AcDbLine
 10
24.50000000000001
 20
272.415875659212
 30
0.0
 11
45.50000000000014
 21
272.415875659212
 31
0.0
  0
LINE
  5
5CA4
330
1E
100
AcDbEntity
  8
24
  6
CONTINOUS
100
AcDbLine
 10
27.30000000000009
 20
270.415875659212
 30
0.0
 11
42.70000000000007
 21
270.415875659212
 31
0.0
  0
LINE
  5
5CA5
330
1E
100
AcDbEntity
  8
24
  6
CONTINOUS
100
AcDbLine
 10
30.00000000000003
 20
265.2158756592118
 30
0.0
 11
40.0
 21
265.2158756592118
 31
0.0
  0
LINE
  5
5CA6
330
1E
100
AcDbEntity
  8
24
  6
CONTINOUS
100
AcDbLine
 10
24.50000000000001
 20
274.415875659212
 30
0.0
 11
45.50000000000014
 21
274.415875659212
 31
0.0
  0
LINE
  5
5CA7
330
1E
100
AcDbEntity
  8
24
  6
CONTINOUS
100
AcDbLine
 10
42.70000000000007
 20
270.415875659212
 30
0.0
 11
42.70000000000007
 21
272.415875659212
 31
0.0
  0
ARC
  5
5CA8
330
1E
100
AcDbEntity
  8
24
  6
CONTINOUS
100
AcDbCircle
 10
40.0
 20
267.2158756592115
 30
0.0
 40
2.0
100
AcDbArc
 50
270.0
 51
0.0
  0
LINE
  5
5CA9
330
1E
100
AcDbEntity
  8
24
  6
CONTINOUS
100
AcDbLine
 10
42.00000000000001
 20
267.2158756592115
 30
0.0
 11
42.00000000000001
 21
270.415875659212
 31
0.0
  0
LINE
  5
5CAB
330
1E
100
AcDbEntity
  8
24
  6
CONTINOUS
100
AcDbLine
 10
27.30000000000009
 20
270.415875659212
 30
0.0
 11
27.30000000000009
 21
272.415875659212
 31
0.0
  0
ARC
  5
5CAC
330
1E
100
AcDbEntity
  8
24
  6
CONTINOUS
100
AcDbCircle
 10
30.00000000000003
 20
267.2158756592115
 30
0.0
 40
2.0
100
AcDbArc
 50
180.0
 51
270.0
  0
LINE
  5
5CAD
330
1E
100
AcDbEntity
  8
24
  6
CONTINOUS
100
AcDbLine
 10
28.00000000000002
 20
267.2158756592115
 30
0.0
 11
28.00000000000002
 21
270.415875659212
 31
0.0
  0
LWPOLYLINE
  5
5CCD
330
1E
100
AcDbEntity
  8
10
  6
CONTINOUS
100
AcDbPolyline
 90
        4
 70
     1
 43
0.0
 10
-7.508951767585668
 20
220.4158756592119
 10
6.491048232414271
 20
220.4158756592119
 10
6.491048232414271
 20
212.3438542435155
 10
-7.508951767585668
 20
212.3438542435155
  0
LINE
  5
5F54
330
1E
100
AcDbEntity
  8
24
  6
CONTINOUS
100
AcDbLine
 10
-10.49999999999999
 20
274.415875659212
 30
0.0
 11
10.5000000000001
 21
274.415875659212
 31
0.0
  0
LINE
  5
5F55
330
1E
100
AcDbEntity
  8
24
  6
CONTINOUS
100
AcDbLine
 10
-7.699999999999931
 20
270.415875659212
 30
0.0
 11
7.700000000000045
 21
270.415875659212
 31
0.0
  0
LINE
  5
5F56
330
1E
100
AcDbEntity
  8
24
  6
CONTINOUS
100
AcDbLine
 10
-10.49999999999999
 20
272.415875659212
 30
0.0
 11
10.5000000000001
 21
272.415875659212
 31
0.0
  0
ARC
  5
5F57
330
1E
100
AcDbEntity
  8
24
  6
CONTINOUS
100
AcDbCircle
 10
5.0
 20
267.2158756592115
 30
0.0
 40
2.0
100
AcDbArc
 50
270.0
 51
0.0
  0
LINE
  5
5F58
330
1E
100
AcDbEntity
  8
24
  6
CONTINOUS
100
AcDbLine
 10
-6.999999999999997
 20
267.2158756592115
 30
0.0
 11
-6.999999999999997
 21
270.415875659212
 31
0.0
  0
LINE
  5
5F59
330
1E
100
AcDbEntity
  8
24
  6
CONTINOUS
100
AcDbLine
 10
-0.0000000000000009
 20
260.2158756592118
 30
0.0
 11
-0.0000000000000009
 21
277.415875659212
 31
0.0
  0
LINE
  5
5F5A
330
1E
100
AcDbEntity
  8
24
  6
CONTINOUS
100
AcDbLine
 10
-4.999999999999999
 20
265.2158756592118
 30
0.0
 11
5.0
 21
265.2158756592118
 31
0.0
  0
ARC
  5
5F5B
330
1E
100
AcDbEntity
  8
24
  6
CONTINOUS
100
AcDbCircle
 10
-4.999999999999999
 20
267.2158756592115
 30
0.0
 40
2.0
100
AcDbArc
 50
180.0
 51
270.0
  0
LINE
  5
5F5C
330
1E
100
AcDbEntity
  8
24
  6
CONTINOUS
100
AcDbLine
 10
-7.699999999999931
 20
270.415875659212
 30
0.0
 11
-7.699999999999931
 21
272.415875659212
 31
0.0
  0
LINE
  5
5F5D
330
1E
100
AcDbEntity
  8
24
  6
CONTINOUS
100
AcDbLine
 10
7.0
 20
267.2158756592115
 30
0.0
 11
7.0
 21
270.415875659212
 31
0.0
  0
LINE
  5
5F5E
330
1E
100
AcDbEntity
  8
24
  6
CONTINOUS
100
AcDbLine
 10
7.700000000000045
 20
270.415875659212
 30
0.0
 11
7.700000000000045
 21
272.415875659212
 31
0.0
  0
LINE
  5
5F60
330
1E
100
AcDbEntity
  8
24
  6
CONTINOUS
100
AcDbLine
 10
-40.0
 20
265.2158756592118
 30
0.0
 11
-29.99999999999999
 21
265.2158756592118
 31
0.0
  0
LINE
  5
5F61
330
1E
100
AcDbEntity
  8
24
  6
CONTINOUS
100
AcDbLine
 10
-45.49999999999999
 20
272.415875659212
 30
0.0
 11
-24.49999999999988
 21
272.415875659212
 31
0.0
  0
LINE
  5
5F62
330
1E
100
AcDbEntity
  8
24
  6
CONTINOUS
100
AcDbLine
 10
-42.69999999999993
 20
270.415875659212
 30
0.0
 11
-27.29999999999995
 21
270.415875659212
 31
0.0
  0
LINE
  5
5F63
330
1E
100
AcDbEntity
  8
24
  6
CONTINOUS
100
AcDbLine
 10
-45.49999999999999
 20
274.415875659212
 30
0.0
 11
-24.49999999999988
 21
274.415875659212
 31
0.0
  0
LINE
  5
5F64
330
1E
100
AcDbEntity
  8
24
  6
CONTINOUS
100
AcDbLine
 10
-35.0
 20
260.2158756592118
 30
0.0
 11
-35.0
 21
277.415875659212
 31
0.0
  0
LINE
  5
5F65
330
1E
100
AcDbEntity
  8
24
  6
CONTINOUS
100
AcDbLine
 10
-42.0
 20
267.2158756592115
 30
0.0
 11
-42.0
 21
270.415875659212
 31
0.0
  0
ARC
  5
5F66
330
1E
100
AcDbEntity
  8
24
  6
CONTINOUS
100
AcDbCircle
 10
-39.99999999999987
 20
267.2158756592115
 30
0.0
 40
2.0
100
AcDbArc
 50
180.0
 51
270.0
  0
LINE
  5
5F67
330
1E
100
AcDbEntity
  8
24
  6
CONTINOUS
100
AcDbLine
 10
-42.69999999999993
 20
270.415875659212
 30
0.0
 11
-42.69999999999993
 21
272.415875659212
 31
0.0
  0
LINE
  5
5F68
330
1E
100
AcDbEntity
  8
24
  6
CONTINOUS
100
AcDbLine
 10
-28.0
 20
267.2158756592115
 30
0.0
 11
-28.0
 21
270.415875659212
 31
0.0
  0
ARC
  5
5F69
330
1E
100
AcDbEntity
  8
24
  6
CONTINOUS
100
AcDbCircle
 10
-29.99999999999987
 20
267.2158756592115
 30
0.0
 40
2.0
100
AcDbArc
 50
270.0
 51
0.0
  0
LINE
  5
5F6A
330
1E
100
AcDbEntity
  8
24
  6
CONTINOUS
100
AcDbLine
 10
-27.29999999999995
 20
270.415875659212
 30
0.0
 11
-27.29999999999995
 21
272.415875659212
 31
0.0
  0
MTEXT
  5
6068
330
1E
100
AcDbEntity
  8
30
  6
Continuous
100
AcDbMText
 10
-32.98718375015141
 20
-163.7563795703974
 30
0.0
 40
4.0
 41
0.0
 71
     9
 72
     1
  1

 73
     1
 44
1.0
1001
ACAD
1000
MTEXTBEGIN
1070
    73
1070
     1
1070
    44
1040
1.0
1070
    74
1070
     0
1000
MTEXTEND
  0
DIMENSION
  5
62D2
330
1E
100
AcDbEntity
  8
30
  6
Continuous
100
AcDbDimension
  2
*D1
 10
49.00000000000003
 20
35.21319198619853
 30
0.0
 11
0.0000000000000251
 21
38.21319198619852
 31
0.0
 70
    32
 71
     5
 42
-1.0
  3
STANDARD
100
AcDbAlignedDimension
 13
-48.99999999999998
 23
25.0
 33
0.0
 14
49.00000000000003
 24
25.0
 34
0.0
100
AcDbRotatedDimension
1001
ACAD
1000
DSTYLE
1002
{
1070
    79
1070
     3
1002
}
  0
DIMENSION
  5
62D3
330
1E
100
AcDbEntity
  8
30
  6
Continuous
100
AcDbDimension
  2
*D2
 10
87.50000000000005
 20
-130.4544464119911
 30
0.0
 11
17.50000000000001
 21
-127.4544464119911
 31
0.0
 70
    32
 71
     5
 42
-1.0
  3
STANDARD
100
AcDbAlignedDimension
 13
-52.5
 23
-82.5
 33
0.0
 14
87.50000000000005
 24
-82.5
 34
0.0
 50
180.0
100
AcDbRotatedDimension
1001
ACAD
1000
DSTYLE
1002
{
1070
    79
1070
     3
1002
}
  0
DIMENSION
  5
62D4
330
1E
100
AcDbEntity
  8
30
  6
Continuous
100
AcDbDimension
  2
*D3
 10
-0.000000000000002
 20
-110.454446411991
 30
0.0
 11
-17.49999999999999
 21
-107.454446411991
 31
0.0
 70
    32
 71
     5
 42
-1.0
  3
STANDARD
100
AcDbAlignedDimension
 13
-35.0
 23
-74.50000001650001
 33
0.0
 14
0.0
 24
-77.00000000000007
 34
0.0
 50
180.0
100
AcDbRotatedDimension
1001
ACAD
1000
DSTYLE
1002
{
1070
    79
1070
     3
1002
}
  0
LINE
  5
62D5
330
1E
100
AcDbEntity
  8
12
  6
DASHED
100
AcDbLine
 10
12.00000000000001
 20
-63.0
 30
0.0
 11
23.0
 21
-63.0
 31
0.0
  0
LINE
  5
62D6
330
1E
100
AcDbEntity
  8
10
  6
CONTINOUS
100
AcDbLine
 10
-48.99999999999998
 20
-25.0
 30
0.0
 11
49.00000000000003
 21
-25.0
 31
0.0
  0
LINE
  5
62D7
330
1E
100
AcDbEntity
  8
10
  6
CONTINOUS
100
AcDbLine
 10
-52.5
 20
-51.00000000000002
 30
0.0
 11
87.50000000000005
 21
-51.00000000000002
 31
0.0
  0
LINE
  5
62D8
330
1E
100
AcDbEntity
  8
10
  6
CONTINOUS
100
AcDbLine
 10
-52.5
 20
50.99999999999999
 30
0.0
 11
87.50000000000005
 21
50.99999999999999
 31
0.0
  0
LINE
  5
62DA
330
1E
100
AcDbEntity
  8
10
  6
CONTINOUS
100
AcDbLine
 10
87.50000000000005
 20
82.50000000000001
 30
0.0
 11
-52.5
 21
82.50000000000001
 31
0.0
  0
LINE
  5
62DB
330
1E
100
AcDbEntity
  8
10
  6
CONTINOUS
100
AcDbLine
 10
-52.5
 20
-82.5
 30
0.0
 11
87.50000000000005
 21
-82.5
 31
0.0
  0
LINE
  5
62DC
330
1E
100
AcDbEntity
  8
10
  6
CONTINOUS
100
AcDbLine
 10
-48.99999999999998
 20
25.0
 30
0.0
 11
49.00000000000003
 21
25.0
 31
0.0
  0
LINE
  5
62E2
330
1E
100
AcDbEntity
  8
10
  6
CONTINOUS
100
AcDbLine
 10
-48.99999999999998
 20
25.0
 30
0.0
 11
-48.99999999999998
 21
-25.0
 31
0.0
  0
LINE
  5
62E4
330
1E
100
AcDbEntity
  8
10
  6
CONTINOUS
100
AcDbLine
 10
10.99999999999999
 20
25.0
 30
0.0
 11
10.99999999999999
 21
-25.0
 31
0.0
  0
LINE
  5
62E5
330
1E
100
AcDbEntity
  8
10
  6
CONTINOUS
100
AcDbLine
 10
-10.99999999999999
 20
25.0
 30
0.0
 11
-10.99999999999999
 21
-25.0
 31
0.0
  0
LINE
  5
62E6
330
1E
100
AcDbEntity
  8
10
  6
CONTINOUS
100
AcDbLine
 10
-52.5
 20
82.50000000000001
 30
0.0
 11
-52.5
 21
-82.5
 31
0.0
  0
LINE
  5
62E7
330
1E
100
AcDbEntity
  8
10
  6
CONTINOUS
100
AcDbLine
 10
-27.99999999999998
 20
-60.0
 30
0.0
 11
-42.00000000000001
 21
-60.0
 31
0.0
  0
LINE
  5
62E8
330
1E
100
AcDbEntity
  8
24
  6
CONTINOUS
100
AcDbLine
 10
-42.00000000000001
 20
-72.00000000000007
 30
0.0
 11
-27.99999999999998
 21
-72.00000000000007
 31
0.0
  0
LINE
  5
62E9
330
1E
100
AcDbEntity
  8
10
  6
CONTINOUS
100
AcDbLine
 10
-47.00000000000001
 20
-82.5
 30
0.0
 11
-47.00000000000001
 21
-65.0
 31
0.0
  0
ARC
  5
62EA
330
1E
100
AcDbEntity
  8
10
  6
CONTINOUS
100
AcDbCircle
 10
42.00000000000001
 20
-65.0
 30
0.0
 40
5.0
210
0.0
220
0.0
230
-1.0
100
AcDbArc
 50
0.0
 51
90.0
  0
CIRCLE
  5
62EB
330
1E
100
AcDbEntity
  8
24
  6
CONTINOUS
100
AcDbCircle
 10
-35.0
 20
-72.00000000000007
 30
0.0
 40
5.0
  0
LINE
  5
62EC
330
1E
100
AcDbEntity
  8
10
  6
CONTINOUS
100
AcDbLine
 10
-22.99999999999998
 20
-82.5
 30
0.0
 11
-22.99999999999998
 21
-65.0
 31
0.0
  0
LINE
  5
62ED
330
1E
100
AcDbEntity
  8
24
  6
CONTINOUS
100
AcDbLine
 10
-35.0
 20
-65.0
 30
0.0
 11
-35.0
 21
-79.00000000000003
 31
0.0
  0
ARC
  5
62EE
330
1E
100
AcDbEntity
  8
10
  6
CONTINOUS
100
AcDbCircle
 10
27.99999999999998
 20
-65.0
 30
0.0
 40
5.0
210
0.0
220
0.0
230
-1.0
100
AcDbArc
 50
90.0
 51
180.0
  0
CIRCLE
  5
62EF
330
1E
100
AcDbEntity
  8
24
  6
CONTINOUS
100
AcDbCircle
 10
0.0
 20
-72.00000000000007
 30
0.0
 40
5.0
  0
LINE
  5
62F0
330
1E
100
AcDbEntity
  8
10
  6
CONTINOUS
100
AcDbLine
 10
7.000000000000013
 20
-60.0
 30
0.0
 11
-6.999999999999997
 21
-60.0
 31
0.0
  0
LINE
  5
62F1
330
1E
100
AcDbEntity
  8
24
  6
CONTINOUS
100
AcDbLine
 10
-6.999999999999997
 20
-72.00000000000007
 30
0.0
 11
7.000000000000013
 21
-72.00000000000007
 31
0.0
  0
LINE
  5
62F2
330
1E
100
AcDbEntity
  8
10
  6
CONTINOUS
100
AcDbLine
 10
-11.99999999999999
 20
-82.5
 30
0.0
 11
-11.99999999999999
 21
-65.0
 31
0.0
  0
ARC
  5
62F3
330
1E
100
AcDbEntity
  8
10
  6
CONTINOUS
100
AcDbCircle
 10
6.999999999999997
 20
-65.0
 30
0.0
 40
5.0
210
0.0
220
0.0
230
-1.0
100
AcDbArc
 50
0.0
 51
90.0
  0
LINE
  5
62F4
330
1E
100
AcDbEntity
  8
10
  6
CONTINOUS
100
AcDbLine
 10
12.00000000000001
 20
-82.5
 30
0.0
 11
12.00000000000001
 21
-65.0
 31
0.0
  0
ARC
  5
62F5
330
1E
100
AcDbEntity
  8
10
  6
CONTINOUS
100
AcDbCircle
 10
-7.000000000000013
 20
-65.0
 30
0.0
 40
5.0
210
0.0
220
0.0
230
-1.0
100
AcDbArc
 50
90.0
 51
180.0
  0
CIRCLE
  5
62F6
330
1E
100
AcDbEntity
  8
12
  6
DASHED
100
AcDbCircle
 10
17.5
 20
-63.0
 30
0.0
 40
4.0
  0
LINE
  5
62F7
330
1E
100
AcDbEntity
  8
12
  6
DASHED
100
AcDbLine
 10
17.5
 20
-57.5
 30
0.0
 11
17.5
 21
-68.50000000000003
 31
0.0
  0
DIMENSION
  5
62F8
330
1E
100
AcDbEntity
  8
30
  6
Continuous
100
AcDbDimension
  2
*D4
 10
10.99999999999998
 20
-40.45444641199117
 30
0.0
 11
-0.0000000000000016
 21
-37.45444641199117
 31
0.0
 70
    32
 71
     5
 42
-1.0
  3
STANDARD
100
AcDbAlignedDimension
 13
-10.99999999999999
 23
-25.0
 33
0.0
 14
10.99999999999999
 24
-25.0
 34
0.0
 50
180.0
100
AcDbRotatedDimension
1001
ACAD
1000
DSTYLE
1002
{
1070
    79
1070
     3
1002
}
  0
LINE
  5
62FA
330
1E
100
AcDbEntity
  8
10
  6
CONTINOUS
100
AcDbLine
 10
-6.999999999999997
 20
-18.49999999999998
 30
0.0
 11
-6.999999999999912
 21
20.1548687058103
 31
0.0
  0
LINE
  5
62FB
330
1E
100
AcDbEntity
  8
10
  6
CONTINOUS
100
AcDbLine
 10
7.000000000000013
 20
-18.49999999999998
 30
0.0
 11
7.000000000000082
 21
20.1548687058103
 31
0.0
  0
LINE
  5
62FC
330
1E
100
AcDbEntity
  8
10
  6
CONTINOUS
100
AcDbLine
 10
-6.999999999999997
 20
-18.49999999999998
 30
0.0
 11
7.000000000000013
 21
-18.49999999999998
 31
0.0
  0
LINE
  5
62FD
330
1E
100
AcDbEntity
  8
10
  6
CONTINOUS
100
AcDbLine
 10
7.000000000000013
 20
6.840789306861548
 30
0.0
 11
-6.999999999999087
 21
6.840789306861548
 31
0.0
  0
LINE
  5
62FE
330
1E
100
AcDbEntity
  8
10
  6
CONTINOUS
100
AcDbLine
 10
7.000000000000013
 20
20.1548687058103
 30
0.0
 11
-7.000000000000892
 21
20.1548687058103
 31
0.0
  0
LINE
  5
62FF
330
1E
100
AcDbEntity
  8
10
  6
CONTINOUS
100
AcDbLine
 10
7.000000000000013
 20
15.23995644007664
 30
0.0
 11
-6.999999999999997
 21
15.23995644007664
 31
0.0
  0
CIRCLE
  5
6300
330
1E
100
AcDbEntity
  8
12
  6
DASHED
100
AcDbCircle
 10
-17.49999999999999
 20
63.0
 30
0.0
 40
4.0
  0
LINE
  5
6301
330
1E
100
AcDbEntity
  8
12
  6
DASHED
100
AcDbLine
 10
-22.99999999999998
 20
63.0
 30
0.0
 11
-11.99999999999999
 21
63.0
 31
0.0
  0
CIRCLE
  5
6302
330
1E
100
AcDbEntity
  8
24
  6
CONTINOUS
100
AcDbCircle
 10
-35.0
 20
72.0
 30
0.0
 40
5.0
  0
LINE
  5
6303
330
1E
100
AcDbEntity
  8
10
  6
CONTINOUS
100
AcDbLine
 10
-22.99999999999998
 20
82.50000000000001
 30
0.0
 11
-22.99999999999998
 21
65.0
 31
0.0
  0
LINE
  5
6304
330
1E
100
AcDbEntity
  8
10
  6
CONTINOUS
100
AcDbLine
 10
-47.00000000000001
 20
82.50000000000001
 30
0.0
 11
-47.00000000000001
 21
65.0
 31
0.0
  0
LINE
  5
6305
330
1E
100
AcDbEntity
  8
24
  6
CONTINOUS
100
AcDbLine
 10
-35.0
 20
78.99999999999997
 30
0.0
 11
-35.0
 21
65.0
 31
0.0
  0
LINE
  5
6306
330
1E
100
AcDbEntity
  8
10
  6
CONTINOUS
100
AcDbLine
 10
-27.99999999999998
 20
60.0
 30
0.0
 11
-42.00000000000001
 21
60.0
 31
0.0
  0
ARC
  5
6307
330
1E
100
AcDbEntity
  8
10
  6
CONTINOUS
100
AcDbCircle
 10
-42.00000000000001
 20
65.0
 30
0.0
 40
5.0
100
AcDbArc
 50
180.0
 51
270.0
  0
ARC
  5
6308
330
1E
100
AcDbEntity
  8
10
  6
CONTINOUS
100
AcDbCircle
 10
-27.99999999999998
 20
65.0
 30
0.0
 40
5.0
100
AcDbArc
 50
270.0
 51
0.0
  0
LINE
  5
6309
330
1E
100
AcDbEntity
  8
24
  6
CONTINOUS
100
AcDbLine
 10
-42.00000000000001
 20
72.0
 30
0.0
 11
-27.99999999999998
 21
72.0
 31
0.0
  0
CIRCLE
  5
630A
330
1E
100
AcDbEntity
  8
24
  6
CONTINOUS
100
AcDbCircle
 10
0.0
 20
72.0
 30
0.0
 40
5.0
  0
LINE
  5
630B
330
1E
100
AcDbEntity
  8
10
  6
CONTINOUS
100
AcDbLine
 10
12.00000000000001
 20
82.50000000000001
 30
0.0
 11
12.00000000000001
 21
65.0
 31
0.0
  0
LINE
  5
630C
330
1E
100
AcDbEntity
  8
10
  6
CONTINOUS
100
AcDbLine
 10
-11.99999999999999
 20
82.50000000000001
 30
0.0
 11
-11.99999999999999
 21
65.0
 31
0.0
  0
LINE
  5
630D
330
1E
100
AcDbEntity
  8
10
  6
CONTINOUS
100
AcDbLine
 10
7.000000000000013
 20
60.0
 30
0.0
 11
-6.999999999999997
 21
60.0
 31
0.0
  0
ARC
  5
630E
330
1E
100
AcDbEntity
  8
10
  6
CONTINOUS
100
AcDbCircle
 10
-6.999999999999997
 20
65.0
 30
0.0
 40
5.0
100
AcDbArc
 50
180.0
 51
270.0
  0
LINE
  5
630F
330
1E
100
AcDbEntity
  8
12
  6
DASHED
100
AcDbLine
 10
-17.49999999999999
 20
68.5
 30
0.0
 11
-17.49999999999999
 21
57.5
 31
0.0
  0
ARC
  5
6310
330
1E
100
AcDbEntity
  8
10
  6
CONTINOUS
100
AcDbCircle
 10
7.000000000000013
 20
65.0
 30
0.0
 40
5.0
100
AcDbArc
 50
270.0
 51
0.0
  0
LINE
  5
6311
330
1E
100
AcDbEntity
  8
24
  6
CONTINOUS
100
AcDbLine
 10
-6.999999999999997
 20
72.0
 30
0.0
 11
7.000000000000013
 21
72.0
 31
0.0
  0
LINE
  5
6316
330
1E
100
AcDbEntity
  8
10
  6
CONTINOUS
100
AcDbLine
 10
49.00000000000003
 20
25.0
 30
0.0
 11
49.00000000000003
 21
-25.0
 31
0.0
  0
LINE
  5
6317
330
1E
100
AcDbEntity
  8
10
  6
CONTINOUS
100
AcDbLine
 10
87.50000000000005
 20
-82.5
 30
0.0
 11
87.50000000000005
 21
82.50000000000001
 31
0.0
  0
ARC
  5
6318
330
1E
100
AcDbEntity
  8
10
  6
CONTINOUS
100
AcDbCircle
 10
-42.00000000000001
 20
-65.0
 30
0.0
 40
5.0
210
0.0
220
0.0
230
-1.0
100
AcDbArc
 50
90.0
 51
180.0
  0
CIRCLE
  5
6319
330
1E
100
AcDbEntity
  8
24
  6
CONTINOUS
100
AcDbCircle
 10
35.00000000000003
 20
-72.00000000000007
 30
0.0
 40
5.0
  0
LINE
  5
631A
330
1E
100
AcDbEntity
  8
10
  6
CONTINOUS
100
AcDbLine
 10
23.0
 20
-82.5
 30
0.0
 11
23.0
 21
-65.0
 31
0.0
  0
LINE
  5
631B
330
1E
100
AcDbEntity
  8
24
  6
CONTINOUS
100
AcDbLine
 10
35.00000000000003
 20
-65.0
 30
0.0
 11
35.00000000000003
 21
-79.00000000000003
 31
0.0
  0
LINE
  5
631C
330
1E
100
AcDbEntity
  8
24
  6
CONTINOUS
100
AcDbLine
 10
27.99999999999997
 20
-72.00000000000007
 30
0.0
 11
42.00000000000001
 21
-72.00000000000007
 31
0.0
  0
LINE
  5
631D
330
1E
100
AcDbEntity
  8
10
  6
CONTINOUS
100
AcDbLine
 10
42.00000000000001
 20
-60.0
 30
0.0
 11
27.99999999999997
 21
-60.0
 31
0.0
  0
ARC
  5
631E
330
1E
100
AcDbEntity
  8
10
  6
CONTINOUS
100
AcDbCircle
 10
-27.99999999999997
 20
-65.0
 30
0.0
 40
5.0
210
0.0
220
0.0
230
-1.0
100
AcDbArc
 50
0.0
 51
90.0
  0
LINE
  5
631F
330
1E
100
AcDbEntity
  8
10
  6
CONTINOUS
100
AcDbLine
 10
47.0
 20
-82.5
 30
0.0
 11
47.0
 21
-65.0
 31
0.0
  0
CIRCLE
  5
6320
330
1E
100
AcDbEntity
  8
24
  6
CONTINOUS
100
AcDbCircle
 10
35.00000000000003
 20
72.0
 30
0.0
 40
5.0
  0
LINE
  5
6321
330
1E
100
AcDbEntity
  8
10
  6
CONTINOUS
100
AcDbLine
 10
23.0
 20
82.50000000000001
 30
0.0
 11
23.0
 21
65.0
 31
0.0
  0
LINE
  5
6322
330
1E
100
AcDbEntity
  8
10
  6
CONTINOUS
100
AcDbLine
 10
47.0
 20
82.50000000000001
 30
0.0
 11
47.0
 21
65.0
 31
0.0
  0
LINE
  5
6323
330
1E
100
AcDbEntity
  8
24
  6
CONTINOUS
100
AcDbLine
 10
35.00000000000003
 20
78.99999999999997
 30
0.0
 11
35.00000000000003
 21
65.0
 31
0.0
  0
ARC
  5
6324
330
1E
100
AcDbEntity
  8
10
  6
CONTINOUS
100
AcDbCircle
 10
42.00000000000001
 20
65.0
 30
0.0
 40
5.0
100
AcDbArc
 50
270.0
 51
0.0
  0
LINE
  5
6325
330
1E
100
AcDbEntity
  8
10
  6
CONTINOUS
100
AcDbLine
 10
42.00000000000001
 20
60.0
 30
0.0
 11
27.99999999999997
 21
60.0
 31
0.0
  0
ARC
  5
6326
330
1E
100
AcDbEntity
  8
10
  6
CONTINOUS
100
AcDbCircle
 10
27.99999999999997
 20
65.0
 30
0.0
 40
5.0
100
AcDbArc
 50
180.0
 51
270.0
  0
LINE
  5
6327
330
1E
100
AcDbEntity
  8
24
  6
CONTINOUS
100
AcDbLine
 10
27.99999999999997
 20
72.0
 30
0.0
 11
42.00000000000001
 21
72.0
 31
0.0
  0
DIMENSION
  5
63B5
330
1E
100
AcDbEntity
  8
30
  6
Continuous
100
AcDbDimension
  2
*D5
 10
17.11990546482879
 20
-361.3018404330259
 30
0.0
 11
-0.3800945351711922
 21
-358.3018404330259
 31
0.0
 70
    32
 71
     5
 42
-1.0
  3
STANDARD
100
AcDbAlignedDimension
 13
-17.88009453517117
 23
-319.3473940210346
 33
0.0
 14
17.1199054648288
 24
-316.3473940375348
 34
0.0
 50
180.0
100
AcDbRotatedDimension
1001
ACAD
1000
DSTYLE
1002
{
1070
    79
1070
     3
1002
}
  0
LINE
  5
63B7
330
1E
100
AcDbEntity
  8
18
  6
DIVIDE
100
AcDbLine
 10
-52.88009453517117
 20
-168.3473940210349
 30
0.0
 11
-52.88009453517117
 21
-333.3473940210347
 31
0.0
  0
LINE
  5
63B8
330
1E
100
AcDbEntity
  8
18
  6
DIVIDE
100
AcDbLine
 10
87.11990546482878
 20
-333.3473940210347
 30
0.0
 11
87.11990546482878
 21
-168.3473940210349
 31
0.0
  0
LINE
  5
63BA
330
1E
100
AcDbEntity
  8
18
  6
DIVIDE
100
AcDbLine
 10
-52.88009453517117
 20
-333.3473940210347
 30
0.0
 11
87.11990546482878
 21
-333.3473940210347
 31
0.0
  0
CIRCLE
  5
63BC
330
1E
100
AcDbEntity
  8
12
  6
Continuous
 62
     3
100
AcDbCircle
 10
17.1199054648288
 20
-313.8473940210346
 30
0.0
 40
2.0
  0
LINE
  5
63BD
330
1E
100
AcDbEntity
  8
12
  6
Continuous
 62
     3
100
AcDbLine
 10
11.61990546482891
 20
-313.8473940210346
 30
0.0
 11
22.6199054648288
 21
-313.8473940210346
 31
0.0
  0
LINE
  5
63BE
330
1E
100
AcDbEntity
  8
12
  6
Continuous
 62
     3
100
AcDbLine
 10
17.1199054648288
 20
-308.3473940210347
 30
0.0
 11
17.1199054648288
 21
-319.3473940210346
 31
0.0
  0
LINE
  5
63C3
330
1E
100
AcDbEntity
  8
18
  6
DIVIDE
100
AcDbLine
 10
87.11990546482878
 20
-168.3473940210349
 30
0.0
 11
-52.88009453517117
 21
-168.3473940210349
 31
0.0
  0
LINE
  5
63C9
330
1E
100
AcDbEntity
  8
12
  6
Continuous
 62
     3
100
AcDbLine
 10
-23.38009453517107
 20
-187.8473940210345
 30
0.0
 11
-12.38009453517117
 21
-187.8473940210345
 31
0.0
  0
CIRCLE
  5
63CA
330
1E
100
AcDbEntity
  8
12
  6
Continuous
 62
     3
100
AcDbCircle
 10
-17.88009453517117
 20
-187.8473940210345
 30
0.0
 40
2.0
  0
LINE
  5
63CB
330
1E
100
AcDbEntity
  8
12
  6
Continuous
 62
     3
100
AcDbLine
 10
-17.88009453517117
 20
-182.3473940210345
 30
0.0
 11
-17.88009453517117
 21
-193.3473940210348
 31
0.0
  0
DIMENSION
  5
6570
330
1E
100
AcDbEntity
  8
30
  6
Continuous
100
AcDbDimension
  2
*D13
 10
259.2602819584348
 20
-115.454446411991
 30
0.0
 11
225.2602819584347
 21
-112.454446411991
 31
0.0
 70
    32
 71
     5
 42
-1.0
  3
STANDARD
100
AcDbAlignedDimension
 13
191.2602819584348
 23
-51.00000000000002
 33
0.0
 14
259.2602819584348
 24
-82.5
 34
0.0
 50
180.0
100
AcDbRotatedDimension
1001
ACAD
1000
DSTYLE
1002
{
1070
    79
1070
     3
1002
}
  0
DIMENSION
  5
6571
330
1E
100
AcDbEntity
  8
30
  6
Continuous
100
AcDbDimension
  2
*D14
 10
259.2602819584348
 20
-138.4544464119911
 30
0.0
 11
213.2602819584346
 21
-135.4544464119911
 31
0.0
 70
    32
 71
     5
 42
-1.0
  3
STANDARD
100
AcDbAlignedDimension
 13
167.2602819584346
 23
-0.0000000000000027
 33
0.0
 14
259.2602819584348
 24
-82.5
 34
0.0
 50
180.0
100
AcDbRotatedDimension
1001
ACAD
1000
DSTYLE
1002
{
1070
    79
1070
     3
1002
}
  0
DIMENSION
  5
6573
330
1E
100
AcDbEntity
  8
30
  6
Continuous
100
AcDbDimension
  2
*D15
 10
259.2602819584348
 20
-126.4544464119911
 30
0.0
 11
223.2602819584347
 21
-123.4544464119911
 31
0.0
 70
    32
 71
     5
 42
-1.0
  3
STANDARD
100
AcDbAlignedDimension
 13
187.2602819584348
 23
-25.0
 33
0.0
 14
259.2602819584348
 24
-82.5
 34
0.0
 50
180.0
100
AcDbRotatedDimension
1001
ACAD
1000
DSTYLE
1002
{
1070
    79
1070
     3
1002
}
  0
DIMENSION
  5
6575
330
1E
100
AcDbEntity
  8
30
  6
Continuous
100
AcDbDimension
  2
*D16
 10
259.2602819584348
 20
-103.4544464119911
 30
0.0
 11
228.7602819584346
 21
-100.4544464119911
 31
0.0
 70
    32
 71
     5
 42
-1.0
  3
STANDARD
100
AcDbAlignedDimension
 13
198.2602819584347
 23
-82.5
 33
0.0
 14
259.2602819584348
 24
-82.5
 34
0.0
 50
180.0
100
AcDbRotatedDimension
1001
ACAD
1000
DSTYLE
1002
{
1070
    79
1070
     3
1002
}
  0
LINE
  5
6576
330
1E
100
AcDbEntity
  8
12
  6
DASHED
100
AcDbLine
 10
198.2602819584339
 20
-58.75
 30
0.0
 11
214.2602819584348
 21
-58.75
 31
0.0
  0
LINE
  5
6577
330
1E
100
AcDbEntity
  8
12
  6
DASHED
100
AcDbLine
 10
193.2602819584346
 20
-63.0
 30
0.0
 11
277.2602819584347
 21
-63.0
 31
0.0
  0
LINE
  5
6579
330
1E
100
AcDbEntity
  8
10
  6
CONTINOUS
100
AcDbLine
 10
259.2602819584348
 20
82.50000000000001
 30
0.0
 11
198.2602819584347
 21
82.50000000000001
 31
0.0
  0
LINE
  5
657A
330
1E
100
AcDbEntity
  8
10
  6
CONTINOUS
100
AcDbLine
 10
198.2602819584347
 20
-82.5
 30
0.0
 11
259.2602819584348
 21
-82.5
 31
0.0
  0
LINE
  5
657B
330
1E
100
AcDbEntity
  8
12
  6
DASHED
100
AcDbLine
 10
198.2602819584339
 20
-67.25000000000003
 30
0.0
 11
214.2602819584348
 21
-67.25000000000003
 31
0.0
  0
DIMENSION
  5
657C
330
1E
100
AcDbEntity
  8
30
  6
Continuous
100
AcDbDimension
  2
*D17
 10
124.2572915325625
 20
-51.0
 30
0.0
 11
121.2572915325626
 21
0.0000000000000318
 31
0.0
 70
    32
 71
     5
 42
-1.0
  3
STANDARD
100
AcDbAlignedDimension
 13
191.2602819584348
 23
51.0
 33
0.0
 14
191.2602819584348
 24
-51.00000000000002
 34
0.0
 50
90.0
100
AcDbRotatedDimension
1001
ACAD
1000
DSTYLE
1002
{
1070
    79
1070
     3
1002
}
  0
DIMENSION
  5
657D
330
1E
100
AcDbEntity
  8
30
  6
Continuous
100
AcDbDimension
  2
*D18
 10
143.0072915325627
 20
-24.99999999999999
 30
0.0
 11
140.0072915325627
 21
0.0000000000000289
 31
0.0
 70
    32
 71
     5
 42
-1.0
  3
STANDARD
100
AcDbAlignedDimension
 13
183.2602819584344
 23
24.99999999999999
 33
0.0
 14
183.2602819584344
 24
-25.0
 34
0.0
 50
90.0
100
AcDbRotatedDimension
1001
ACAD
1000
DSTYLE
1002
{
1070
    79
1070
     3
1002
}
  0
LINE
  5
657E
330
1E
100
AcDbEntity
  8
10
  6
CONTINOUS
100
AcDbLine
 10
191.2602819584348
 20
51.0
 30
0.0
 11
191.2602819584348
 21
-51.00000000000002
 31
0.0
  0
LINE
  5
657F
330
1E
100
AcDbEntity
  8
10
  6
CONTINOUS
100
AcDbLine
 10
183.2602819584344
 20
24.99999999999999
 30
0.0
 11
183.2602819584344
 21
-25.0
 31
0.0
  0
LINE
  5
6580
330
1E
100
AcDbEntity
  8
10
  6
CONTINOUS
100
AcDbLine
 10
187.2602819584348
 20
24.99999999999999
 30
0.0
 11
187.2602819584348
 21
-25.0
 31
0.0
  0
LINE
  5
6581
330
1E
100
AcDbEntity
  8
10
  6
CONTINOUS
100
AcDbLine
 10
198.2602819584347
 20
-51.00000000000002
 30
0.0
 11
198.2602819584347
 21
-82.5
 31
0.0
  0
LINE
  5
6582
330
1E
100
AcDbEntity
  8
10
  6
CONTINOUS
100
AcDbLine
 10
183.2602819584344
 20
-25.0
 30
0.0
 11
191.2602819584348
 21
-25.0
 31
0.0
  0
LINE
  5
6583
330
1E
100
AcDbEntity
  8
10
  6
CONTINOUS
100
AcDbLine
 10
191.2602819584348
 20
-51.00000000000002
 30
0.0
 11
198.2602819584347
 21
-51.00000000000002
 31
0.0
  0
ARC
  5
6586
330
1E
100
AcDbEntity
  8
30
  6
Continuous
100
AcDbCircle
 10
198.2602819584347
 20
-0.0000000000000027
 30
0.0
 40
31.0
100
AcDbArc
 50
150.5534441956585
 51
180.0
  0
LINE
  5
6587
330
1E
100
AcDbEntity
  8
10
  6
CONTINOUS
100
AcDbLine
 10
183.2602819584344
 20
6.840789306861262
 30
0.0
 11
171.2650281588393
 21
15.23995644007663
 31
0.0
  0
LINE
  5
6588
330
1E
100
AcDbEntity
  8
10
  6
CONTINOUS
100
AcDbLine
 10
183.2602819584344
 20
24.99999999999999
 30
0.0
 11
191.2602819584348
 21
24.99999999999999
 31
0.0
  0
LINE
  5
6589
330
1E
100
AcDbEntity
  8
10
  6
CONTINOUS
100
AcDbLine
 10
171.2650281588393
 20
15.23995644007663
 30
0.0
 11
174.7064867769456
 21
20.15486870581053
 31
0.0
  0
LINE
  5
658A
330
1E
100
AcDbEntity
  8
10
  6
CONTINOUS
100
AcDbLine
 10
183.2602819584344
 20
14.16543683942997
 30
0.0
 11
174.7064867769456
 21
20.15486870581053
 31
0.0
  0
LINE
  5
658B
330
1E
100
AcDbEntity
  8
10
  6
CONTINOUS
100
AcDbLine
 10
198.2602819584347
 20
82.50000000000001
 30
0.0
 11
198.2602819584347
 21
51.0
 31
0.0
  0
LINE
  5
658C
330
1E
100
AcDbEntity
  8
10
  6
CONTINOUS
100
AcDbLine
 10
191.2602819584348
 20
51.0
 30
0.0
 11
198.2602819584347
 21
51.0
 31
0.0
  0
LINE
  5
6590
330
1E
100
AcDbEntity
  8
10
  6
CONTINOUS
100
AcDbLine
 10
259.2602819584348
 20
82.50000000000001
 30
0.0
 11
259.2602819584348
 21
-82.5
 31
0.0
  0
DIMENSION
  5
6592
330
1E
100
AcDbEntity
  8
30
  6
Continuous
100
AcDbDimension
  2
*D20
 10
267.2602819584344
 20
-93.45444641199112
 30
0.0
 11
263.2602819584344
 21
-90.45444641199111
 31
0.0
 70
    32
 71
     5
 42
-1.0
  3
STANDARD
100
AcDbAlignedDimension
 13
259.2602819584348
 23
-82.5
 33
0.0
 14
267.2602819584344
 24
-65.25000000000003
 34
0.0
 50
180.0
100
AcDbRotatedDimension
1001
ACAD
1000
DSTYLE
1002
{
1070
    79
1070
     3
1002
}
  0
DIMENSION
  5
6593
330
1E
100
AcDbEntity
  8
30
  6
Continuous
100
AcDbDimension
  2
*D21
 10
259.2602819584348
 20
-93.45444641199112
 30
0.0
 11
236.7602819584348
 21
-90.45444641199111
 31
0.0
 70
    32
 71
     5
 42
-1.0
  3
STANDARD
100
AcDbAlignedDimension
 13
214.2602819584348
 23
-67.25000000000003
 33
0.0
 14
259.2602819584348
 24
-82.5
 34
0.0
 50
180.0
100
AcDbRotatedDimension
1001
ACAD
1000
DSTYLE
1002
{
1070
    79
1070
     3
1002
}
  0
LINE
  5
6595
330
1E
100
AcDbEntity
  8
12
  6
DASHED
100
AcDbLine
 10
214.2602819584348
 20
-65.25000000000003
 30
0.0
 11
259.2602819584348
 21
-65.25000000000003
 31
0.0
  0
LINE
  5
6596
330
1E
100
AcDbEntity
  8
12
  6
DASHED
100
AcDbLine
 10
214.2602819584348
 20
-60.75000000000006
 30
0.0
 11
259.2602819584348
 21
-60.75000000000006
 31
0.0
  0
LINE
  5
6597
330
1E
100
AcDbEntity
  8
12
  6
DASHED
100
AcDbLine
 10
214.2602819584348
 20
-58.75
 30
0.0
 11
214.2602819584348
 21
-67.25000000000003
 31
0.0
  0
LINE
  5
6598
330
1E
100
AcDbEntity
  8
12
  6
DASHED
100
AcDbLine
 10
208.2602819584346
 20
-58.75
 30
0.0
 11
208.2602819584346
 21
-67.25000000000003
 31
0.0
  0
LINE
  5
6599
330
1E
100
AcDbEntity
  8
12
  6
DASHED
100
AcDbLine
 10
214.2602819584348
 20
-65.25000000000003
 30
0.0
 11
214.2602819584348
 21
-67.25000000000003
 31
0.0
  0
LINE
  5
659A
330
1E
100
AcDbEntity
  8
12
  6
DASHED
100
AcDbLine
 10
214.2602819584348
 20
-58.75
 30
0.0
 11
214.2602819584348
 21
-60.75000000000006
 31
0.0
  0
LINE
  5
659B
330
1E
100
AcDbEntity
  8
12
  6
DASHED
100
AcDbLine
 10
259.2602819584348
 20
-60.75000000000006
 30
0.0
 11
267.2602819584344
 21
-60.75000000000006
 31
0.0
  0
LINE
  5
659C
330
1E
100
AcDbEntity
  8
12
  6
DASHED
100
AcDbLine
 10
259.2602819584348
 20
-65.25000000000003
 30
0.0
 11
267.2602819584344
 21
-65.25000000000003
 31
0.0
  0
LINE
  5
659D
330
1E
100
AcDbEntity
  8
12
  6
DASHED
100
AcDbLine
 10
267.2602819584344
 20
-60.75000000000006
 30
0.0
 11
267.2602819584344
 21
-65.25000000000003
 31
0.0
  0
TEXT
  5
659E
330
1E
100
AcDbEntity
  8
30
  6
Continuous
100
AcDbText
 10
290.3265346917919
 20
-87.43262376806113
 30
0.0
 40
5.0
  1
M4x0.7
 41
0.8216911764705923
100
AcDbText
  0
LINE
  5
65A2
330
1E
100
AcDbEntity
  8
24
  6
CONTINOUS
100
AcDbLine
 10
225.2602819584347
 20
78.5
 30
0.0
 11
225.2602819584347
 21
65.5
 31
0.0
  0
LINE
  5
65A3
330
1E
100
AcDbEntity
  8
24
  6
CONTINOUS
100
AcDbLine
 10
239.2602819584348
 20
82.50000000000001
 30
0.0
 11
239.2602819584348
 21
61.5
 31
0.0
  0
LINE
  5
65A4
330
1E
100
AcDbEntity
  8
24
  6
CONTINOUS
100
AcDbLine
 10
233.2602819584346
 20
79.69999999999997
 30
0.0
 11
233.2602819584346
 21
64.29999999999994
 31
0.0
  0
LINE
  5
65A5
330
1E
100
AcDbEntity
  8
24
  6
CONTINOUS
100
AcDbLine
 10
235.2602819584347
 20
82.50000000000001
 30
0.0
 11
235.2602819584347
 21
61.5
 31
0.0
  0
LINE
  5
65A6
330
1E
100
AcDbEntity
  8
24
  6
CONTINOUS
100
AcDbLine
 10
225.2602819584347
 20
65.5
 30
0.0
 11
233.2602819584346
 21
65.5
 31
0.0
  0
LINE
  5
65A7
330
1E
100
AcDbEntity
  8
24
  6
CONTINOUS
100
AcDbLine
 10
235.2602819584347
 20
61.5
 30
0.0
 11
239.2602819584349
 21
61.5
 31
0.0
  0
LINE
  5
65A8
330
1E
100
AcDbEntity
  8
24
  6
CONTINOUS
100
AcDbLine
 10
233.2602819584346
 20
64.29999999999994
 30
0.0
 11
235.2602819584347
 21
64.29999999999994
 31
0.0
  0
LINE
  5
65A9
330
1E
100
AcDbEntity
  8
24
  6
CONTINOUS
100
AcDbLine
 10
220.2602819584345
 20
72.0
 30
0.0
 11
244.2602819584348
 21
72.0
 31
0.0
  0
LINE
  5
65AA
330
1E
100
AcDbEntity
  8
24
  6
CONTINOUS
100
AcDbLine
 10
225.2602819584347
 20
78.5
 30
0.0
 11
233.2602819584346
 21
78.5
 31
0.0
  0
LINE
  5
65AB
330
1E
100
AcDbEntity
  8
24
  6
CONTINOUS
100
AcDbLine
 10
233.2602819584346
 20
79.69999999999997
 30
0.0
 11
235.2602819584347
 21
79.69999999999997
 31
0.0
  0
DIMENSION
  5
65AC
330
1E
100
AcDbEntity
  8
30
  6
Continuous
100
AcDbDimension
  2
*D22
 10
328.2602819584328
 20
25.21319198619851
 30
0.0
 11
315.7602819584328
 21
28.21319198619851
 31
0.0
 70
    32
 71
     5
 42
-1.0
  3
STANDARD
100
AcDbAlignedDimension
 13
303.2602819584328
 23
48.92504825041531
 33
0.0
 14
328.2602819584328
 24
48.92504825041531
 34
0.0
 50
180.0
100
AcDbRotatedDimension
1001
ACAD
1000
DSTYLE
1002
{
1070
    79
1070
     3
1002
}
  0
INSERT
  5
65AD
330
1E
100
AcDbEntity
  8
30
  6
Continuous
100
AcDbBlockReference
  2
*U11
 10
-303.8677084721872
 20
-246.6618080090514
 30
0.0
 41
2.5
 42
2.5
 43
2.5
  0
INSERT
  5
65AE
330
1E
100
AcDbEntity
  8
30
  6
Continuous
100
AcDbBlockReference
  2
*U8
 10
-303.8677084721872
 20
-246.6618080090514
 30
0.0
 41
2.5
 42
2.5
 43
2.5
  0
INSERT
  5
65AF
330
1E
100
AcDbEntity
  8
30
  6
Continuous
100
AcDbBlockReference
  2
*U7
 10
-303.8677084721872
 20
-246.6618080090514
 30
0.0
 41
2.5
 42
2.5
 43
2.5
  0
DIMENSION
  5
65B0
330
1E
100
AcDbEntity
  8
30
  6
Continuous
100
AcDbDimension
  2
*D23
 10
338.5828896186868
 20
58.92504825041531
 30
0.0
 11
335.5828896186868
 21
53.92504825041537
 31
0.0
 70
    32
 71
     5
 42
-1.0
  3
STANDARD
100
AcDbAlignedDimension
 13
328.2602819584328
 23
48.92504825041531
 33
0.0
 14
318.2602819749328
 24
58.92504825041531
 34
0.0
 50
270.0
100
AcDbRotatedDimension
1001
ACAD
1000
DSTYLE
1002
{
1070
    79
1070
     3
1002
}
  0
LINE
  5
65B1
330
1E
100
AcDbEntity
  8
24
  6
Continuous
100
AcDbLine
 10
303.2602819584328
 20
80.92504825041528
 30
0.0
 11
303.2602819584328
 21
48.92504825041531
 31
0.0
  0
LINE
  5
65B2
330
1E
100
AcDbEntity
  8
24
  6
Continuous
100
AcDbLine
 10
328.2602819584328
 20
81.07495174958456
 30
0.0
 11
328.2602819584328
 21
48.92504825041531
 31
0.0
  0
CIRCLE
  5
65B3
330
1E
100
AcDbEntity
  8
24
  6
Continuous
100
AcDbCircle
 10
315.7602819584328
 20
58.92504825041531
 30
0.0
 40
4.5
  0
LINE
  5
65B4
330
1E
100
AcDbEntity
  8
24
  6
Continuous
100
AcDbLine
 10
309.5102819584328
 20
58.92504825041531
 30
0.0
 11
322.0102819584328
 21
58.92504825041531
 31
0.0
  0
LINE
  5
65B5
330
1E
100
AcDbEntity
  8
24
  6
Continuous
100
AcDbLine
 10
303.2602819584328
 20
48.92504825041531
 30
0.0
 11
328.2602819584328
 21
48.92504825041531
 31
0.0
  0
LINE
  5
65B6
330
1E
100
AcDbEntity
  8
24
  6
Continuous
100
AcDbLine
 10
315.7602819584328
 20
65.17504825041533
 30
0.0
 11
315.7602819584328
 21
52.67504825041531
 31
0.0
  0
LINE
  5
65B7
330
1E
100
AcDbEntity
  8
24
  6
Continuous
100
AcDbLine
 10
311.5181596414458
 20
80.92030134443616
 30
0.0
 11
315.3732909515546
 21
79.49930875165524
 31
0.0
  0
ARC
  5
65B8
330
1E
100
AcDbEntity
  8
24
  6
Continuous
100
AcDbCircle
 10
307.3852819584327
 20
74.07053331498777
 30
0.0
 40
8.0
100
AcDbArc
 50
58.9607599896022
 51
121.0392400103977
  0
LINE
  5
65B9
330
1E
100
AcDbEntity
  8
24
  6
Continuous
100
AcDbLine
 10
322.3227637432488
 20
79.08027989468191
 30
0.0
 11
328.2602819584328
 21
81.07495174958456
 31
0.0
  0
ARC
  5
65BA
330
1E
100
AcDbEntity
  8
24
  6
Continuous
100
AcDbCircle
 10
319.2478637793793
 20
85.92096627926309
 30
0.0
 40
7.5
100
AcDbArc
 50
238.8948889125936
 51
294.2039969225378
  0
INSERT
  5
65BB
330
1E
100
AcDbEntity
  8
30
  6
Continuous
100
AcDbBlockReference
  2
*U10
 10
-303.8677084721872
 20
-246.6618080090514
 30
0.0
 41
2.5
 42
2.5
 43
2.5
  0
INSERT
  5
65BC
330
1E
100
AcDbEntity
  8
30
  6
Continuous
100
AcDbBlockReference
  2
*U9
 10
-303.8677084721872
 20
-246.6618080090514
 30
0.0
 41
2.5
 42
2.5
 43
2.5
  0
TEXT
  5
67AA
330
1E
100
AcDbEntity
  8
TOP
  6
ByBlock
 62
     0
100
AcDbText
 10
371.3280318172496
 20
-98.62309151624522
 30
0.0
 40
7.500000049499999
  1
 
 41
1.189062499999995
  7
UGMTXT
100
AcDbText
  0
LEADER
  5
67AD
330
1E
100
AcDbEntity
  8
30
  6
Continuous
100
AcDbLeader
  3
STANDARD
 73
     0
 40
4.0
 41
2.399999999999999
 76
     3
 10
267.2602819584344
 20
-65.25000000000003
 30
0.0
 10
284.5302748502888
 20
-89.50927681457356
 30
0.0
 10
312.1216727604241
 20
-89.57893637381493
 30
0.0
340
67AE
213
-13.0
223
17.0
233
0.0
1001
ACAD
1000
DSTYLE
1002
{
1070
     5
1000
OPEN
1070
    77
1070
     0
1070
    79
1070
     3
1070
   147
1040
1.0
1070
   342
1005
3B2
1002
}
  0
MTEXT
  5
67AE
102
{ACAD_REACTORS
330
67AD
102
}
330
1E
100
AcDbEntity
  8
30
  6
Continuous
100
AcDbMText
 10
326.1216727604241
 20
-106.5789363738149
 30
0.0
 40
4.0
 41
0.0
 71
     1
 72
     1
  1
 
 73
     1
 44
1.0
1001
ACAD
1000
MTEXTBEGIN
1070
    73
1070
     1
1070
    44
1040
1.0
1070
    74
1070
     0
1000
MTEXTEND
  0
DIMENSION
  5
67C1
330
1E
100
AcDbEntity
  8
30
  6
Continuous
100
AcDbDimension
  2
*D24
 10
187.2602819584348
 20
-126.4544464119911
 30
0.0
 11
193.5936152917681
 21
-123.4544464119911
 31
0.0
 70
    32
 71
     5
 42
-1.0
  3
STANDARD
100
AcDbAlignedDimension
 13
183.2602819584344
 23
-25.0
 33
0.0
 14
187.2602819584348
 24
-25.0
 34
0.0
100
AcDbRotatedDimension
1001
ACAD
1000
DSTYLE
1002
{
1070
    79
1070
     3
1002
}
  0
LINE
  5
68B7
330
1E
100
AcDbEntity
  8
24
  6
CONTINOUS
100
AcDbLine
 10
65.00000000000003
 20
265.2158756592118
 30
0.0
 11
75.00000000000003
 21
265.2158756592118
 31
0.0
  0
LINE
  5
68B8
330
1E
100
AcDbEntity
  8
24
  6
CONTINOUS
100
AcDbLine
 10
59.50000000000001
 20
272.415875659212
 30
0.0
 11
80.50000000000016
 21
272.415875659212
 31
0.0
  0
LINE
  5
68B9
330
1E
100
AcDbEntity
  8
24
  6
CONTINOUS
100
AcDbLine
 10
59.50000000000001
 20
274.415875659212
 30
0.0
 11
80.50000000000016
 21
274.415875659212
 31
0.0
  0
LINE
  5
68BA
330
1E
100
AcDbEntity
  8
24
  6
CONTINOUS
100
AcDbLine
 10
62.30000000000011
 20
270.415875659212
 30
0.0
 11
77.70000000000006
 21
270.415875659212
 31
0.0
  0
LINE
  5
68BB
330
1E
100
AcDbEntity
  8
24
  6
CONTINOUS
100
AcDbLine
 10
70.00000000000003
 20
260.2158756592118
 30
0.0
 11
70.00000000000003
 21
277.415875659212
 31
0.0
  0
ARC
  5
68BC
330
1E
100
AcDbEntity
  8
24
  6
CONTINOUS
100
AcDbCircle
 10
65.00000000000003
 20
267.2158756592115
 30
0.0
 40
2.0
100
AcDbArc
 50
180.0
 51
270.0
  0
LINE
  5
68BD
330
1E
100
AcDbEntity
  8
24
  6
CONTINOUS
100
AcDbLine
 10
62.30000000000011
 20
270.415875659212
 30
0.0
 11
62.30000000000011
 21
272.415875659212
 31
0.0
  0
LINE
  5
68BE
330
1E
100
AcDbEntity
  8
24
  6
CONTINOUS
100
AcDbLine
 10
63.00000000000003
 20
267.2158756592115
 30
0.0
 11
63.00000000000003
 21
270.415875659212
 31
0.0
  0
LINE
  5
68BF
330
1E
100
AcDbEntity
  8
24
  6
CONTINOUS
100
AcDbLine
 10
77.70000000000006
 20
270.415875659212
 30
0.0
 11
77.70000000000006
 21
272.415875659212
 31
0.0
  0
LINE
  5
68C0
330
1E
100
AcDbEntity
  8
24
  6
CONTINOUS
100
AcDbLine
 10
77.00000000000001
 20
267.2158756592115
 30
0.0
 11
77.00000000000001
 21
270.415875659212
 31
0.0
  0
ARC
  5
68C1
330
1E
100
AcDbEntity
  8
24
  6
CONTINOUS
100
AcDbCircle
 10
75.00000000000003
 20
267.2158756592115
 30
0.0
 40
2.0
100
AcDbArc
 50
270.0
 51
0.0
  0
ARC
  5
68C5
330
1E
100
AcDbEntity
  8
10
  6
CONTINOUS
100
AcDbCircle
 10
62.99999999999997
 20
65.0
 30
0.0
 40
5.0
100
AcDbArc
 50
180.0
 51
270.0
  0
ARC
  5
68C6
330
1E
100
AcDbEntity
  8
10
  6
CONTINOUS
100
AcDbCircle
 10
77.00000000000001
 20
65.0
 30
0.0
 40
5.0
100
AcDbArc
 50
270.0
 51
0.0
  0
LINE
  5
68C7
330
1E
100
AcDbEntity
  8
24
  6
CONTINOUS
100
AcDbLine
 10
62.99999999999997
 20
72.0
 30
0.0
 11
77.00000000000001
 21
72.0
 31
0.0
  0
CIRCLE
  5
68C8
330
1E
100
AcDbEntity
  8
24
  6
CONTINOUS
100
AcDbCircle
 10
70.00000000000003
 20
72.0
 30
0.0
 40
5.0
  0
LINE
  5
68C9
330
1E
100
AcDbEntity
  8
10
  6
CONTINOUS
100
AcDbLine
 10
77.00000000000001
 20
60.0
 30
0.0
 11
62.99999999999997
 21
60.0
 31
0.0
  0
LINE
  5
68CA
330
1E
100
AcDbEntity
  8
24
  6
CONTINOUS
100
AcDbLine
 10
70.00000000000003
 20
78.99999999999997
 30
0.0
 11
70.00000000000003
 21
65.0
 31
0.0
  0
LINE
  5
68CB
330
1E
100
AcDbEntity
  8
10
  6
CONTINOUS
100
AcDbLine
 10
58.0
 20
82.50000000000001
 30
0.0
 11
58.0
 21
65.0
 31
0.0
  0
LINE
  5
68CC
330
1E
100
AcDbEntity
  8
10
  6
CONTINOUS
100
AcDbLine
 10
82.00000000000001
 20
82.50000000000001
 30
0.0
 11
82.00000000000001
 21
65.0
 31
0.0
  0
LINE
  5
68CD
330
1E
100
AcDbEntity
  8
24
  6
CONTINOUS
100
AcDbLine
 10
70.00000000000003
 20
-65.0
 30
0.0
 11
70.00000000000003
 21
-79.00000000000003
 31
0.0
  0
CIRCLE
  5
68CE
330
1E
100
AcDbEntity
  8
24
  6
CONTINOUS
100
AcDbCircle
 10
70.00000000000003
 20
-72.00000000000007
 30
0.0
 40
5.0
  0
LINE
  5
68CF
330
1E
100
AcDbEntity
  8
10
  6
CONTINOUS
100
AcDbLine
 10
82.00000000000001
 20
-82.5
 30
0.0
 11
82.00000000000001
 21
-65.0
 31
0.0
  0
LINE
  5
68D0
330
1E
100
AcDbEntity
  8
10
  6
CONTINOUS
100
AcDbLine
 10
58.0
 20
-82.5
 30
0.0
 11
58.0
 21
-65.0
 31
0.0
  0
LINE
  5
68D1
330
1E
100
AcDbEntity
  8
24
  6
CONTINOUS
100
AcDbLine
 10
62.99999999999997
 20
-72.00000000000007
 30
0.0
 11
77.00000000000001
 21
-72.00000000000007
 31
0.0
  0
LINE
  5
68D2
330
1E
100
AcDbEntity
  8
10
  6
CONTINOUS
100
AcDbLine
 10
77.00000000000001
 20
-60.0
 30
0.0
 11
62.99999999999997
 21
-60.0
 31
0.0
  0
ARC
  5
68D3
330
1E
100
AcDbEntity
  8
10
  6
CONTINOUS
100
AcDbCircle
 10
-62.99999999999997
 20
-65.0
 30
0.0
 40
5.0
210
0.0
220
0.0
230
-1.0
100
AcDbArc
 50
0.0
 51
90.0
  0
ARC
  5
68D4
330
1E
100
AcDbEntity
  8
10
  6
CONTINOUS
100
AcDbCircle
 10
-77.00000000000001
 20
-65.0
 30
0.0
 40
5.0
210
0.0
220
0.0
230
-1.0
100
AcDbArc
 50
90.0
 51
180.0
  0
DIMENSION
  5
68F3
330
1E
100
AcDbEntity
  8
30
  6
Continuous
100
AcDbDimension
  2
*D26
 10
108.1947822581959
 20
-313.8473940210346
 30
0.0
 11
105.1947822581959
 21
-250.8473940210345
 31
0.0
 70
    32
 71
     5
 42
-1.0
  3
STANDARD
100
AcDbAlignedDimension
 13
22.61990546482869
 23
-187.8473940210345
 33
0.0
 14
22.6199054648288
 24
-313.8473940210346
 34
0.0
 50
90.0
100
AcDbRotatedDimension
1001
ACAD
1000
DSTYLE
1002
{
1070
    79
1070
     3
1002
}
  0
DIMENSION
  5
6909
330
1E
100
AcDbEntity
  8
30
  6
Continuous
100
AcDbDimension
  2
*D27
 10
35.00000000000003
 20
-110.9544464119909
 30
0.0
 11
17.50000000000001
 21
-107.954446411991
 31
0.0
 70
    32
 71
     5
 42
-1.0
  3
STANDARD
100
AcDbAlignedDimension
 13
0.0
 23
-82.5
 33
0.0
 14
35.00000000000003
 24
-79.00000000000003
 34
0.0
100
AcDbRotatedDimension
1001
ACAD
1000
DSTYLE
1002
{
1070
    79
1070
     3
1002
}
  0
DIMENSION
  5
6916
330
1E
100
AcDbEntity
  8
30
  6
Continuous
100
AcDbDimension
  2
*D28
 10
70.00000000000003
 20
-110.9544464119909
 30
0.0
 11
52.50000000000003
 21
-107.954446411991
 31
0.0
 70
    32
 71
     5
 42
-1.0
  3
STANDARD
100
AcDbAlignedDimension
 13
35.00000000000003
 23
-82.5
 33
0.0
 14
70.00000000000003
 24
-77.00000000000007
 34
0.0
100
AcDbRotatedDimension
1001
ACAD
1000
DSTYLE
1002
{
1070
    79
1070
     3
1002
}
  0
DIMENSION
  5
6923
330
1E
100
AcDbEntity
  8
30
  6
Continuous
100
AcDbDimension
  2
*D29
 10
0.0000000000000033
 20
327.5142024541259
 30
0.0
 11
-17.49999999999999
 21
330.5142024541258
 31
0.0
 70
    32
 71
     5
 42
-1.0
  3
STANDARD
100
AcDbAlignedDimension
 13
-35.0
 23
277.415875659212
 33
0.0
 14
0.0
 24
274.415875659212
 34
0.0
100
AcDbRotatedDimension
1001
ACAD
1000
DSTYLE
1002
{
1070
    79
1070
     3
1002
}
  0
DIMENSION
  5
6930
330
1E
100
AcDbEntity
  8
30
  6
Continuous
100
AcDbDimension
  2
*D30
 10
35.00000000000003
 20
327.5142024541259
 30
0.0
 11
17.50000000000001
 21
330.5142024541258
 31
0.0
 70
    32
 71
     5
 42
-1.0
  3
STANDARD
100
AcDbAlignedDimension
 13
0.0
 23
274.415875659212
 33
0.0
 14
35.00000000000003
 24
277.415875659212
 34
0.0
100
AcDbRotatedDimension
1001
ACAD
1000
DSTYLE
1002
{
1070
   287
1070
     4
1070
   287
1070
     4
1070
   287
1070
     4
1070
   287
1070
     4
1070
   287
1070
     4
1070
   287
1070
     4
1070
   279
1070
     1
1070
    79
1070
     3
1002
}
  0
DIMENSION
  5
693D
330
1E
100
AcDbEntity
  8
30
  6
Continuous
100
AcDbDimension
  2
*D31
 10
70.00000000000003
 20
327.5142024541259
 30
0.0
 11
52.50000000000003
 21
330.5142024541258
 31
0.0
 70
    32
 71
     5
 42
-1.0
  3
STANDARD
100
AcDbAlignedDimension
 13
35.00000000000003
 23
277.415875659212
 33
0.0
 14
70.00000000000003
 24
277.415875659212
 34
0.0
100
AcDbRotatedDimension
1001
ACAD
1000
DSTYLE
1002
{
1070
   287
1070
     4
1070
   287
1070
     4
1070
   287
1070
     4
1070
   287
1070
     4
1070
   287
1070
     4
1070
   287
1070
     4
1070
   279
1070
     1
1070
    79
1070
     3
1002
}
  0
DIMENSION
  5
6967
330
1E
100
AcDbEntity
  8
30
  6
Continuous
100
AcDbDimension
  2
*D33
 10
-72.42950291237829
 20
82.50000000000003
 30
0.0
 11
-75.42950291237831
 21
110.0
 31
0.0
 70
    32
 71
     5
 42
55.0
  3
STANDARD
100
AcDbAlignedDimension
 13
-51.5
 23
137.5
 33
0.0
 14
-19.0
 24
82.50000000000001
 34
0.0
 50
90.0
100
AcDbRotatedDimension
1001
ACAD
1000
DSTYLE
1002
{
1070
    79
1070
     3
1002
}
  0
DIMENSION
  5
6974
330
1E
100
AcDbEntity
  8
30
  6
Continuous
100
AcDbDimension
  2
*D34
 10
-72.42950291237831
 20
-82.5
 30
0.0
 11
-75.42950291237829
 21
-0.0000000000000023
 31
0.0
 70
    32
 71
     5
 42
-1.0
  3
STANDARD
100
AcDbAlignedDimension
 13
-72.42950291237829
 23
82.50000000000001
 33
0.0
 14
-52.5
 24
-82.5
 34
0.0
 50
90.0
100
AcDbRotatedDimension
1001
ACAD
1000
DSTYLE
1002
{
1070
    79
1070
     3
1002
}
  0
DIMENSION
  5
6B39
330
1E
100
AcDbEntity
  8
30
  6
Continuous
100
AcDbDimension
  2
*D37
 10
306.9306349733515
 20
-277.6631237443548
 30
0.0
 11
303.9306349733515
 21
-251.6631237443548
 31
0.0
 70
    32
 71
     5
 42
-1.0
  3
STANDARD
100
AcDbAlignedDimension
 13
259.0
 23
-225.6631237443547
 33
0.0
 14
259.0
 24
-277.6631237443548
 34
0.0
 50
90.0
100
AcDbRotatedDimension
1001
ACAD
1000
DSTYLE
1002
{
1070
    79
1070
     3
1002
}
  0
LINE
  5
6B3A
330
1E
100
AcDbEntity
  8
18
  6
DIVIDE
100
AcDbLine
 10
297.5
 20
-334.1631237443547
 30
0.0
 11
297.5
 21
-169.1631237443548
 31
0.0
  0
LINE
  5
6B3B
330
1E
100
AcDbEntity
  8
18
  6
DIVIDE
100
AcDbLine
 10
157.5
 20
-169.1631237443548
 30
0.0
 11
157.5
 21
-334.1631237443547
 31
0.0
  0
LINE
  5
6B3D
330
1E
100
AcDbEntity
  8
11
 48
2.0
100
AcDbLine
 10
160.0
 20
-226.6631237443549
 30
0.0
 11
160.0
 21
-276.6631237443549
 31
0.0
  0
LINE
  5
6B3E
330
1E
100
AcDbEntity
  8
11
 48
2.0
100
AcDbLine
 10
260.0
 20
-226.6631237443549
 30
0.0
 11
260.0
 21
-276.6631237443549
 31
0.0
  0
LINE
  5
6B3F
330
1E
100
AcDbEntity
  8
16
100
AcDbLine
 10
210.0
 20
-349.4150635072003
 30
0.0
 11
210.0
 21
-150.2797245348688
 31
0.0
  0
DIMENSION
  5
6B40
330
1E
100
AcDbEntity
  8
30
  6
Continuous
100
AcDbDimension
  2
*D39
 10
260.0
 20
-365.1576913624972
 30
0.0
 11
210.0
 21
-362.1576913624973
 31
0.0
 70
    32
 71
     5
 42
-1.0
  3
STANDARD
100
AcDbAlignedDimension
 13
160.0
 23
-276.6631237443549
 33
0.0
 14
260.0
 24
-276.6631237443549
 34
0.0
100
AcDbRotatedDimension
1001
ACAD
1000
DSTYLE
1002
{
1070
    79
1070
     3
1002
}
  0
LINE
  5
6B43
330
1E
100
AcDbEntity
  8
18
  6
DIVIDE
100
AcDbLine
 10
157.5
 20
-334.1631237443547
 30
0.0
 11
297.5
 21
-334.1631237443547
 31
0.0
  0
LINE
  5
6B44
330
1E
100
AcDbEntity
  8
11
 48
2.0
100
AcDbLine
 10
161.0000000000001
 20
-277.6631237443547
 30
0.0
 11
259.0
 21
-277.6631237443547
 31
0.0
  0
ARC
  5
6B46
330
1E
100
AcDbEntity
  8
11
 48
2.0
100
AcDbCircle
 10
161.0000000000001
 20
-276.6631237443549
 30
0.0
 40
1.0
100
AcDbArc
 50
180.0
 51
270.0
  0
ARC
  5
6B47
330
1E
100
AcDbEntity
  8
11
 48
2.0
100
AcDbCircle
 10
259.0
 20
-276.6631237443549
 30
0.0
 40
1.0
100
AcDbArc
 50
270.0
 51
0.0
  0
LINE
  5
6B48
330
1E
100
AcDbEntity
  8
18
  6
DIVIDE
100
AcDbLine
 10
297.5
 20
-169.1631237443548
 30
0.0
 11
157.5
 21
-169.1631237443548
 31
0.0
  0
LINE
  5
6B49
330
1E
100
AcDbEntity
  8
11
 48
2.0
100
AcDbLine
 10
161.0000000000001
 20
-225.6631237443547
 30
0.0
 11
259.0
 21
-225.6631237443547
 31
0.0
  0
ARC
  5
6B4D
330
1E
100
AcDbEntity
  8
11
 48
2.0
100
AcDbCircle
 10
161.0000000000001
 20
-226.6631237443549
 30
0.0
 40
1.0
100
AcDbArc
 50
90.0
 51
180.0
  0
DIMENSION
  5
6B4E
330
1E
100
AcDbEntity
  8
30
  6
Continuous
100
AcDbDimension
  2
*D36
 10
259.0
 20
-226.6631237443545
 30
0.0
 11
266.7623648776715
 21
-220.7951530045506
 31
0.0
 70
    36
 71
     5
 42
-1.0
  3
STANDARD
100
AcDbRadialDimension
 15
259.8191396422011
 25
-226.0895295963939
 35
0.0
 40
0.0
1001
ACAD
1000
DSTYLE
1002
{
1070
    79
1070
     3
1002
}
  0
ARC
  5
6B4F
330
1E
100
AcDbEntity
  8
11
 48
2.0
100
AcDbCircle
 10
259.0
 20
-226.6631237443549
 30
0.0
 40
1.0
100
AcDbArc
 50
0.0
 51
90.0
  0
LINE
  5
6B50
330
1E
100
AcDbEntity
  8
16
100
AcDbLine
 10
278.903897549407
 20
-249.0
 30
0.0
 11
129.4500867984191
 21
-249.0
 31
0.0
  0
LEADER
  5
6CFB
330
1E
100
AcDbEntity
  8
30
  6
Continuous
100
AcDbLeader
  3
STANDARD
 76
     3
 10
-19.37842113598296
 20
-187.4475362948153
 30
0.0
 10
-31.36225079993437
 20
-163.4860183718135
 30
0.0
 10
-72.00306366862469
 20
-163.4860183718135
 30
0.0
1001
ACAD
1000
DSTYLE
1002
{
1070
     5
1000
OPEN
1070
    77
1070
     0
1070
    79
1070
     3
1070
   147
1040
1.0
1070
   342
1005
3B2
1002
}
  0
TEXT
  5
6CFC
330
1E
100
AcDbEntity
  8
30
  6
Continuous
100
AcDbText
 10
-61.82036446943204
 20
-161.5698688127565
 30
0.0
 40
5.0
  1
M4x0.7
 41
0.8216911764705923
100
AcDbText
  0
LINE
  5
7073
330
1E
100
AcDbEntity
  8
12
  6
Continuous
 62
     3
100
AcDbLine
 10
17.11990546482879
 20
-182.3473940210345
 30
0.0
 11
17.11990546482879
 21
-193.3473940210348
 31
0.0
  0
CIRCLE
  5
7074
330
1E
100
AcDbEntity
  8
12
  6
Continuous
 62
     3
100
AcDbCircle
 10
17.11990546482879
 20
-187.8473940210345
 30
0.0
 40
2.0
  0
LINE
  5
7075
330
1E
100
AcDbEntity
  8
12
  6
Continuous
 62
     3
100
AcDbLine
 10
22.61990546482869
 20
-187.8473940210345
 30
0.0
 11
11.61990546482879
 21
-187.8473940210345
 31
0.0
  0
LINE
  5
7076
330
1E
100
AcDbEntity
  8
12
  6
Continuous
 62
     3
100
AcDbLine
 10
-12.38009453517127
 20
-313.8473940210346
 30
0.0
 11
-23.38009453517118
 21
-313.8473940210346
 31
0.0
  0
LINE
  5
7077
330
1E
100
AcDbEntity
  8
12
  6
Continuous
 62
     3
100
AcDbLine
 10
-17.88009453517117
 20
-308.3473940210347
 30
0.0
 11
-17.88009453517117
 21
-319.3473940210346
 31
0.0
  0
CIRCLE
  5
7078
330
1E
100
AcDbEntity
  8
12
  6
Continuous
 62
     3
100
AcDbCircle
 10
-17.88009453517117
 20
-313.8473940210346
 30
0.0
 40
2.0
  0
MTEXT
  5
714C
330
1E
100
AcDbEntity
  8
30
  6
Continuous
100
AcDbMText
 10
162.404123513902
 20
300.7247073954579
 30
0.0
 40
5.0
 41
202.0
 71
     1
 72
     5
  1
S225-ND 4P FC
  7
STANDARD1
 73
     1
 44
1.0
1001
ACAD
1000
MTEXTBEGIN
1070
    73
1070
     1
1070
    44
1040
1.0
1070
    74
1070
     0
1000
MTEXTEND
  0
LWPOLYLINE
  5
77D4
330
1E
100
AcDbEntity
  8
10
  6
CONTINOUS
100
AcDbPolyline
 90
        6
 70
     0
 43
0.0
 10
-52.5
 20
82.50000000000001
 10
-52.5
 20
136.5
 42
-0.4142135623730951
 10
-51.5
 20
137.5
 10
86.5
 20
137.5
 42
-0.4142135623730951
 10
87.5
 20
136.5
 10
87.5
 20
82.50000000000001
  0
LWPOLYLINE
  5
77DE
330
1E
100
AcDbEntity
  8
10
  6
CONTINOUS
100
AcDbPolyline
 90
        5
 70
     0
 43
0.0
 10
259.2602819584348
 20
82.50000000000001
 10
259.2602819584348
 20
137.5
 10
206.2602819584348
 20
137.5
 42
0.4142135623730951
 10
205.2602819584348
 20
136.5
 10
205.2602819584348
 20
82.50000000000001
  0
LWPOLYLINE
  5
77F3
330
1E
100
AcDbEntity
  8
10
  6
CONTINOUS
100
AcDbPolyline
 90
        4
 70
     1
 43
0.0
 10
203.060281958435
 20
92.0
 10
205.2602819584348
 20
92.0
 10
205.2602819584348
 20
84.00000000000012
 10
203.060281958435
 20
84.00000000000012
  0
LWPOLYLINE
  5
77F4
330
1E
100
AcDbEntity
  8
10
  6
CONTINOUS
100
AcDbPolyline
 90
        6
 70
     0
 43
0.0
 10
205.2602819584348
 20
82.50000000000001
 10
203.060281958435
 20
82.50000000000001
 42
-0.4142135623730951
 10
201.760281958435
 20
83.80000000000002
 10
201.760281958435
 20
92.2
 42
-0.4142135623730951
 10
203.060281958435
 20
93.49999999999999
 10
205.2602819584348
 20
93.49999999999999
  0
LEADER
  5
799E
330
1E
100
AcDbEntity
  8
30
  6
Continuous
100
AcDbLeader
  3
STANDARD
 76
     3
 10
222.3563573122561
 20
78.04720618797984
 30
0.0
 10
194.445804399132
 20
95.99999999999994
 30
0.0
 10
166.445804399132
 20
95.99999999999994
 30
0.0
1001
ACAD
1000
DSTYLE
1002
{
1070
     5
1000
OPEN
1070
    77
1070
     0
1070
    79
1070
     3
1070
   147
1040
1.0
1070
   342
1005
3B2
1002
}
  0
TEXT
  5
799F
330
1E
100
AcDbEntity
  8
30
  6
Continuous
100
AcDbText
 10
180.8743491294719
 20
99.03981767684497
 30
0.0
 40
5.0
  1
M8
  7
STANDARD1
100
AcDbText
  0
DIMENSION
  5
79A0
330
1E
100
AcDbEntity
  8
30
  6
Continuous
100
AcDbDimension
  2
*D98
 10
259.2602819584348
 20
38.25058185604797
 30
0.0
 11
247.2602819584349
 21
41.25058185604795
 31
0.0
 70
    32
 71
     5
 42
24.0
  3
STANDARD
100
AcDbAlignedDimension
 13
235.2602819584348
 23
61.4999999999998
 33
0.0
 14
259.2602819584348
 24
82.50000000000001
 34
0.0
100
AcDbRotatedDimension
1001
ACAD
1000
DSTYLE
1002
{
1070
    79
1070
     3
1002
}
  0
LWPOLYLINE
  5
79A1
330
1E
100
AcDbEntity
  8
10
  6
CONTINOUS
100
AcDbPolyline
 90
        4
 70
     1
 43
0.0
 10
203.0602819584351
 20
92.0
 10
205.2602819584348
 20
92.0
 10
205.2602819584348
 20
84.00000000000012
 10
203.0602819584351
 20
84.00000000000012
  0
LWPOLYLINE
  5
79A2
330
1E
100
AcDbEntity
  8
10
  6
CONTINOUS
100
AcDbPolyline
 90
        6
 70
     0
 43
0.0
 10
205.2602819584348
 20
82.50000000000001
 10
203.0602819584351
 20
82.50000000000001
 42
-0.4142135623730951
 10
201.760281958435
 20
83.8
 10
201.760281958435
 20
92.2
 42
-0.4142135623730951
 10
203.0602819584351
 20
93.50000000000004
 10
205.2602819584348
 20
93.50000000000004
  0
DIMENSION
  5
79A3
330
1E
100
AcDbEntity
  8
30
  6
Continuous
100
AcDbDimension
  2
*D99
 10
205.2602819584348
 20
147.5
 30
0.0
 11
232.2602819584348
 21
150.5
 31
0.0
 70
    32
  1
 <> 
 71
     5
 42
54.0
  3
STANDARD
100
AcDbAlignedDimension
 13
259.2602819584348
 23
137.5
 33
0.0
 14
205.2602819584348
 24
136.5
 34
0.0
100
AcDbRotatedDimension
1001
ACAD
1000
DSTYLE
1002
{
1070
    79
1070
     3
1002
}
  0
DIMENSION
  5
79A4
330
1E
100
AcDbEntity
  8
30
  6
Continuous
100
AcDbDimension
  2
*D100
 10
201.760281958435
 20
157.5
 30
0.0
 11
230.5102819584349
 21
160.5
 31
0.0
 70
    32
  1
 <> 
 71
     5
 42
57.49999999999977
  3
STANDARD
100
AcDbAlignedDimension
 13
259.2602819584348
 23
137.5
 33
0.0
 14
201.760281958435
 24
92.20000000000004
 34
0.0
100
AcDbRotatedDimension
1001
ACAD
1000
DSTYLE
1002
{
1070
    79
1070
     3
1002
}
  0
DIMENSION
  5
79A5
330
1E
100
AcDbEntity
  8
30
  6
Continuous
100
AcDbDimension
  2
*D101
 10
182.260281958435
 20
82.49999999999998
 30
0.0
 11
182.260281958435
 21
87.93747843757911
 31
0.0
 70
   160
 71
     5
 42
11.00000000000005
  3
STANDARD
100
AcDbAlignedDimension
 13
203.0602819584351
 23
93.50000000000004
 33
0.0
 14
198.2602819584347
 24
82.49999999999998
 34
0.0
 50
90.0
100
AcDbRotatedDimension
1001
ACAD
1000
DSTYLE
1002
{
1070
    79
1070
     3
1002
}
  0
VIEWPORT
  5
9AC
102
{ACAD_XDICTIONARY
360
7B05
102
}
330
1A
100
AcDbEntity
 67
     1
  8
0
  6
Continuous
100
AcDbViewport
 10
171.999535
 20
144.1384739999999
 30
0.0
 40
488.867686
 41
292.351491
 68
    -1
 69
     1
 12
171.999535
 22
144.1384739999999
 13
0.0
 23
0.0
 14
10.0
 24
10.0
 15
10.0
 25
10.0
 16
0.0
 26
0.0
 36
1.0
 17
0.0
 27
0.0
 37
0.0
 42
50.0
 43
0.0
 44
0.0
 45
292.351491
 50
0.0
 51
0.0
 72
   100
 90
    32800
  1

281
     0
 71
     1
 74
     0
110
0.0
120
0.0
130
0.0
111
1.0
121
0.0
131
0.0
112
0.0
122
1.0
132
0.0
 79
     0
146
0.0
  0
ENDSEC
  0
SECTION
  2
OBJECTS
  0
DICTIONARY
  5
C
330
0
100
AcDbDictionary
281
     1
  3
ACAD_COLOR
350
7184
  3
ACAD_GROUP
350
D
  3
ACAD_LAYOUT
350
19
  3
ACAD_MATERIAL
350
7157
  3
ACAD_MLEADERSTYLE
350
71A9
  3
ACAD_MLINESTYLE
350
16
  3
ACAD_PLOTSETTINGS
350
18
  3
ACAD_PLOTSTYLENAME
350
E
  3
ACAD_SCALELIST
350
7187
  3
ACAD_TABLESTYLE
350
7185
  3
ACAD_VISUALSTYLE
350
7170
  3
ACADDIM
350
67AC
  3
ACDB_RECOMPOSE_DATA
350
7B03
  3
ACDBVARIABLEDICTIONARY
350
5697
  3
ASE_INDEX_DICTIONARY
350
71C2
  3
DWGPROPS
350
7B04
  0
DICTIONARY
  5
71AB
330
10
100
AcDbDictionary
280
     1
281
     1
  3
ADSK_XREC_LAYER_RECONCILED
360
71AC
  0
DICTIONARY
  5
71AD
330
2F
100
AcDbDictionary
280
     1
281
     1
  3
ADSK_XREC_LAYER_RECONCILED
360
71AE
  0
DICTIONARY
  5
71AF
330
31
100
AcDbDictionary
280
     1
281
     1
  3
ADSK_XREC_LAYER_RECONCILED
360
71B0
  0
DICTIONARY
  5
71B1
330
35
100
AcDbDictionary
280
     1
281
     1
  3
ADSK_XREC_LAYER_RECONCILED
360
71B2
  0
DICTIONARY
  5
71B3
330
38
100
AcDbDictionary
280
     1
281
     1
  3
ADSK_XREC_LAYER_RECONCILED
360
71B4
  0
DICTIONARY
  5
71B5
330
3C
100
AcDbDictionary
280
     1
281
     1
  3
ADSK_XREC_LAYER_RECONCILED
360
71B6
  0
DICTIONARY
  5
71B7
330
3D
100
AcDbDictionary
280
     1
281
     1
  3
ADSK_XREC_LAYER_RECONCILED
360
71B8
  0
DICTIONARY
  5
71B9
330
3A2
100
AcDbDictionary
280
     1
281
     1
  3
ADSK_XREC_LAYER_RECONCILED
360
71BA
  0
DICTIONARY
  5
71BB
330
3BBA
100
AcDbDictionary
280
     1
281
     1
  3
ADSK_XREC_LAYER_RECONCILED
360
71BC
  0
DICTIONARY
  5
71BD
330
5117
100
AcDbDictionary
280
     1
281
     1
  3
ADSK_XREC_LAYER_RECONCILED
360
71BE
  0
DICTIONARY
  5
71BF
330
64C0
100
AcDbDictionary
280
     1
281
     1
  3
ADSK_XREC_LAYER_RECONCILED
360
71C0
  0
DICTIONARY
  5
178
330
1E
100
AcDbDictionary
280
     1
281
     1
  3
ACAD_LAYOUTSELFREF
360
712F
  0
DICTIONARY
  5
17A
330
1A
100
AcDbDictionary
280
     1
281
     1
  3
ACAD_LAYOUTSELFREF
360
712E
  0
DICTIONARY
  5
7B32
330
7640
100
AcDbDictionary
280
     1
281
     1
  3
ACAD_MTEXT_RT
360
7B33
  0
DICTIONARY
  5
7B05
330
9AC
100
AcDbDictionary
280
     1
281
     1
  3
ACAD_XREC_ROUNDTRIP
360
7B06
  0
DICTIONARY
  5
7184
102
{ACAD_REACTORS
330
C
102
}
330
C
100
AcDbDictionary
281
     1
  0
DICTIONARY
  5
D
102
{ACAD_REACTORS
330
C
102
}
330
C
100
AcDbDictionary
281
     1
  0
DICTIONARY
  5
19
102
{ACAD_REACTORS
330
C
102
}
330
C
100
AcDbDictionary
281
     1
  3
Model
350
714A
  3
ﾚｲｱｳﾄ1
350
714B
  0
DICTIONARY
  5
7157
102
{ACAD_REACTORS
330
C
102
}
330
C
100
AcDbDictionary
281
     1
  3
ByBlock
350
7160
  3
ByLayer
350
7158
  3
Global
350
7168
  0
DICTIONARY
  5
71A9
102
{ACAD_REACTORS
330
C
102
}
330
C
100
AcDbDictionary
281
     1
  3
Standard
350
71AA
  0
DICTIONARY
  5
16
102
{ACAD_REACTORS
330
C
102
}
330
C
100
AcDbDictionary
281
     1
  3
STANDARD
350
17
  0
DICTIONARY
  5
18
102
{ACAD_REACTORS
330
C
102
}
330
C
100
AcDbDictionary
281
     1
  0
ACDBDICTIONARYWDFLT
  5
E
102
{ACAD_REACTORS
330
C
102
}
330
C
100
AcDbDictionary
281
     1
  3
Normal
350
F
100
AcDbDictionaryWithDefault
340
F
  0
DICTIONARY
  5
7187
102
{ACAD_REACTORS
330
C
102
}
330
C
100
AcDbDictionary
281
     1
  3
A0
350
7188
  3
A1
350
7189
  3
A2
350
718A
  3
A3
350
718B
  3
A4
350
718C
  3
A5
350
718D
  3
A6
350
718E
  3
A7
350
718F
  3
A8
350
7190
  3
A9
350
7191
  3
B0
350
7192
  3
B1
350
7193
  3
B2
350
7194
  3
B3
350
7195
  3
B4
350
7196
  3
B5
350
7197
  3
B6
350
7198
  3
B7
350
7199
  3
B8
350
719A
  3
B9
350
719B
  3
C0
350
719C
  3
C1
350
719D
  3
C2
350
719E
  3
C3
350
719F
  3
C4
350
71A0
  3
C5
350
71A1
  3
C6
350
71A2
  3
C7
350
71A3
  3
C8
350
71A4
  3
C9
350
71A5
  3
D0
350
71A6
  3
D1
350
71A7
  3
D2
350
71A8
  0
DICTIONARY
  5
7185
102
{ACAD_REACTORS
330
C
102
}
330
C
100
AcDbDictionary
281
     1
  3
Standard
350
7186
  0
DICTIONARY
  5
7170
102
{ACAD_REACTORS
330
C
102
}
330
C
100
AcDbDictionary
281
     1
  3
2dWireframe
350
7176
  3
3D Hidden
350
7178
  3
3dWireframe
350
7177
  3
Basic
350
7175
  3
Brighten
350
717C
  3
ColorChange
350
7180
  3
Conceptual
350
7179
  3
Dim
350
717B
  3
EdgeColorOff
350
7183
  3
Facepattern
350
717F
  3
Flat
350
7171
  3
FlatWithEdges
350
7172
  3
Gouraud
350
7173
  3
GouraudWithEdges
350
7174
  3
JitterOff
350
7181
  3
Linepattern
350
717E
  3
OverhangOff
350
7182
  3
Realistic
350
717A
  3
Thicken
350
717D
  0
XRECORD
  5
67AC
102
{ACAD_REACTORS
330
C
102
}
330
C
100
AcDbXrecord
280
     1
 90
   990106
  3

 60
     0
 61
     0
 62
     1
 63
     3
 64
     0
 65
     0
 66
     0
 67
     3
 68
     1
 69
     0
 70
     0
 71
     0
 72
     0
 40
0.0
170
     0
340
67AE
  0
XRECORD
  5
7B03
102
{ACAD_REACTORS
330
C
102
}
330
C
100
AcDbXrecord
280
     1
 90
        1
330
7186
  0
DICTIONARY
  5
5697
102
{ACAD_REACTORS
330
C
102
}
330
C
100
AcDbDictionary
281
     1
  3
CANNOSCALE
350
71C7
  3
CMLEADERSTYLE
350
71C6
  3
CTABLESTYLE
350
71C5
  3
DIMASSOC
350
5698
  3
INDEXCTL
350
71C9
  3
SORTENTS
350
71C8
  3
XCLIPFRAME
350
7B01
  0
DICTIONARY
  5
71C2
102
{ACAD_REACTORS
330
C
102
}
330
C
100
AcDbDictionary
281
     1
  3
ASEBlockHierarchyIndexRecord
350
71C4
1001
DCO15
1040
1734070569.328
  0
XRECORD
  5
7B04
102
{ACAD_REACTORS
330
C
102
}
330
C
100
AcDbXrecord
280
     1
  1
DWGPROPS COOKIE
  2

  3

  4

  6

  7

  8
cadm
  9

300
=
301
=
302
=
303
=
304
=
305
=
306
=
307
=
308
=
309
=
 40
1.238570104166666
 41
2452286.555658658
 42
2455873.473070926
  1

 90
        0
  0
XRECORD
  5
71AC
102
{ACAD_REACTORS
330
71AB
102
}
330
71AB
100
AcDbXrecord
280
     1
290
     1
  0
XRECORD
  5
71AE
102
{ACAD_REACTORS
330
71AD
102
}
330
71AD
100
AcDbXrecord
280
     1
290
     1
  0
XRECORD
  5
71B0
102
{ACAD_REACTORS
330
71AF
102
}
330
71AF
100
AcDbXrecord
280
     1
290
     1
  0
XRECORD
  5
71B2
102
{ACAD_REACTORS
330
71B1
102
}
330
71B1
100
AcDbXrecord
280
     1
290
     1
  0
XRECORD
  5
71B4
102
{ACAD_REACTORS
330
71B3
102
}
330
71B3
100
AcDbXrecord
280
     1
290
     1
  0
XRECORD
  5
71B6
102
{ACAD_REACTORS
330
71B5
102
}
330
71B5
100
AcDbXrecord
280
     1
290
     1
  0
XRECORD
  5
71B8
102
{ACAD_REACTORS
330
71B7
102
}
330
71B7
100
AcDbXrecord
280
     1
290
     1
  0
XRECORD
  5
71BA
102
{ACAD_REACTORS
330
71B9
102
}
330
71B9
100
AcDbXrecord
280
     1
290
     1
  0
XRECORD
  5
71BC
102
{ACAD_REACTORS
330
71BB
102
}
330
71BB
100
AcDbXrecord
280
     1
290
     1
  0
XRECORD
  5
71BE
102
{ACAD_REACTORS
330
71BD
102
}
330
71BD
100
AcDbXrecord
280
     1
290
     1
  0
XRECORD
  5
71C0
102
{ACAD_REACTORS
330
71BF
102
}
330
71BF
100
AcDbXrecord
280
     1
290
     1
  0
XRECORD
  5
712F
102
{ACAD_REACTORS
330
178
102
}
330
178
100
AcDbXrecord
280
     1
340
1E
  0
XRECORD
  5
712E
102
{ACAD_REACTORS
330
17A
102
}
330
17A
100
AcDbXrecord
280
     1
340
1A
  0
XRECORD
  5
7B33
102
{ACAD_REACTORS
330
7B32
102
}
330
7B32
100
AcDbXrecord
280
     1
 40
7429.0
  1
\A1;\U+2205528.7
  0
XRECORD
  5
7B06
102
{ACAD_REACTORS
330
7B05
102
}
330
7B05
100
AcDbXrecord
280
     1
102
SHADEPLOT
 70
     0
  0
LAYOUT
  5
714A
102
{ACAD_XDICTIONARY
360
7B07
102
}
102
{ACAD_REACTORS
330
19
102
}
330
19
100
AcDbPlotSettings
  1

  2
Canon LBP3800 LIPSLX
  4
A4
  6

 40
5.873749732971191
 41
5.873747825622558
 42
5.873748779296875
 43
5.873748779296875
 44
209.9733276367187
 45
296.9259948730469
 46
11.42421095467497
 47
2.943650385261349
 48
0.0
 49
0.0
140
0.0
141
0.0
142
1.0
143
2.5
 70
 11940
 72
     1
 73
     0
 74
     1
  7
monochrome.ctb
 75
     0
147
0.4170214727687704
148
83.96411608460175
149
365.6815949742949
100
AcDbLayout
  1
Model
 70
     1
 71
     0
 10
0.0
 20
0.0
 11
12.0
 21
9.0
 12
0.0
 22
0.0
 32
0.0
 14
0.0
 24
0.0
 34
0.0
 15
0.0
 25
0.0
 35
0.0
146
0.0
 13
0.0
 23
0.0
 33
0.0
 16
1.0
 26
0.0
 36
0.0
 17
0.0
 27
1.0
 37
0.0
 76
     0
330
1E
331
714E
1001
ACAD_PSEXT
1000
Canon LBP3800 LIPSLX
1000
Canon LBP3800 LIPSLX
1000
IP_192.168.54.50
1000

1070
     0
  0
LAYOUT
  5
714B
102
{ACAD_XDICTIONARY
360
7B09
102
}
102
{ACAD_REACTORS
330
19
102
}
330
19
100
AcDbPlotSettings
  1

  2
Canon LBP3800 LIPSLX
  4

  6

 40
0.0
 41
0.0
 42
0.0
 43
0.0
 44
0.0
 45
0.0
 46
0.0
 47
0.0
 48
0.0
 49
0.0
140
0.0
141
0.0
142
1.0
143
1.0
 70
   688
 72
     0
 73
     0
 74
     5
  7
monochrome.ctb
 75
    16
147
1.0
148
0.0
149
0.0
100
AcDbLayout
  1
ﾚｲｱｳﾄ1
 70
     1
 71
     1
 10
-5.873749
 20
-5.87375
 11
204.099579
 21
291.1369009999999
 12
0.0
 22
0.0
 32
0.0
 14
4.273573
 24
5.205245999999998
 34
0.0
 15
194.610095
 25
283.0697009999996
 35
0.0
146
0.0
 13
0.0
 23
0.0
 33
0.0
 16
1.0
 26
0.0
 36
0.0
 17
0.0
 27
1.0
 37
0.0
 76
     0
330
1A
  0
MATERIAL
  5
7160
102
{ACAD_XDICTIONARY
360
7161
102
}
102
{ACAD_REACTORS
330
7157
102
}
330
7157
100
AcDbMaterial
  1
ByBlock
 72
     0
 43
0.0208333333333333
 43
0.0
 43
0.0
 43
0.0
 43
0.0
 43
0.0208333333333333
 43
0.0
 43
0.0
 43
0.0
 43
0.0
 43
1.0
 43
0.0
 43
0.0
 43
0.0
 43
0.0
 43
1.0
 77
     0
 47
0.0208333333333333
 47
0.0
 47
0.0
 47
0.0
 47
0.0
 47
0.0208333333333333
 47
0.0
 47
0.0
 47
0.0
 47
0.0
 47
1.0
 47
0.0
 47
0.0
 47
0.0
 47
0.0
 47
1.0
171
     0
 49
0.0208333333333333
 49
0.0
 49
0.0
 49
0.0
 49
0.0
 49
0.0208333333333333
 49
0.0
 49
0.0
 49
0.0
 49
0.0
 49
1.0
 49
0.0
 49
0.0
 49
0.0
 49
0.0
 49
1.0
175
     0
142
0.0208333333333333
142
0.0
142
0.0
142
0.0
142
0.0
142
0.0208333333333333
142
0.0
142
0.0
142
0.0
142
0.0
142
1.0
142
0.0
142
0.0
142
0.0
142
0.0
142
1.0
179
     0
144
0.0208333333333333
144
0.0
144
0.0
144
0.0
144
0.0
144
0.0208333333333333
144
0.0
144
0.0
144
0.0
144
0.0
144
1.0
144
0.0
144
0.0
144
0.0
144
0.0
144
1.0
147
0.0208333333333333
147
0.0
147
0.0
147
0.0
147
0.0
147
0.0208333333333333
147
0.0
147
0.0
147
0.0
147
0.0
147
1.0
147
0.0
147
0.0
147
0.0
147
0.0
147
1.0
  0
MATERIAL
  5
7158
102
{ACAD_XDICTIONARY
360
7159
102
}
102
{ACAD_REACTORS
330
7157
102
}
330
7157
100
AcDbMaterial
  1
ByLayer
 72
     0
 43
0.0208333333333333
 43
0.0
 43
0.0
 43
0.0
 43
0.0
 43
0.0208333333333333
 43
0.0
 43
0.0
 43
0.0
 43
0.0
 43
1.0
 43
0.0
 43
0.0
 43
0.0
 43
0.0
 43
1.0
 77
     0
 47
0.0208333333333333
 47
0.0
 47
0.0
 47
0.0
 47
0.0
 47
0.0208333333333333
 47
0.0
 47
0.0
 47
0.0
 47
0.0
 47
1.0
 47
0.0
 47
0.0
 47
0.0
 47
0.0
 47
1.0
171
     0
 49
0.0208333333333333
 49
0.0
 49
0.0
 49
0.0
 49
0.0
 49
0.0208333333333333
 49
0.0
 49
0.0
 49
0.0
 49
0.0
 49
1.0
 49
0.0
 49
0.0
 49
0.0
 49
0.0
 49
1.0
175
     0
142
0.0208333333333333
142
0.0
142
0.0
142
0.0
142
0.0
142
0.0208333333333333
142
0.0
142
0.0
142
0.0
142
0.0
142
1.0
142
0.0
142
0.0
142
0.0
142
0.0
142
1.0
179
     0
144
0.0208333333333333
144
0.0
144
0.0
144
0.0
144
0.0
144
0.0208333333333333
144
0.0
144
0.0
144
0.0
144
0.0
144
1.0
144
0.0
144
0.0
144
0.0
144
0.0
144
1.0
147
0.0208333333333333
147
0.0
147
0.0
147
0.0
147
0.0
147
0.0208333333333333
147
0.0
147
0.0
147
0.0
147
0.0
147
1.0
147
0.0
147
0.0
147
0.0
147
0.0
147
1.0
  0
MATERIAL
  5
7168
102
{ACAD_XDICTIONARY
360
7169
102
}
102
{ACAD_REACTORS
330
7157
102
}
330
7157
100
AcDbMaterial
  1
Global
 72
     0
 43
0.0208333333333333
 43
0.0
 43
0.0
 43
0.0
 43
0.0
 43
0.0208333333333333
 43
0.0
 43
0.0
 43
0.0
 43
0.0
 43
1.0
 43
0.0
 43
0.0
 43
0.0
 43
0.0
 43
1.0
 77
     0
 47
0.0208333333333333
 47
0.0
 47
0.0
 47
0.0
 47
0.0
 47
0.0208333333333333
 47
0.0
 47
0.0
 47
0.0
 47
0.0
 47
1.0
 47
0.0
 47
0.0
 47
0.0
 47
0.0
 47
1.0
171
     0
 49
0.0208333333333333
 49
0.0
 49
0.0
 49
0.0
 49
0.0
 49
0.0208333333333333
 49
0.0
 49
0.0
 49
0.0
 49
0.0
 49
1.0
 49
0.0
 49
0.0
 49
0.0
 49
0.0
 49
1.0
175
     0
142
0.0208333333333333
142
0.0
142
0.0
142
0.0
142
0.0
142
0.0208333333333333
142
0.0
142
0.0
142
0.0
142
0.0
142
1.0
142
0.0
142
0.0
142
0.0
142
0.0
142
1.0
179
     0
144
0.0208333333333333
144
0.0
144
0.0
144
0.0
144
0.0
144
0.0208333333333333
144
0.0
144
0.0
144
0.0
144
0.0
144
1.0
144
0.0
144
0.0
144
0.0
144
0.0
144
1.0
147
0.0208333333333333
147
0.0
147
0.0
147
0.0
147
0.0
147
0.0208333333333333
147
0.0
147
0.0
147
0.0
147
0.0
147
1.0
147
0.0
147
0.0
147
0.0
147
0.0
147
1.0
  0
MLEADERSTYLE
  5
71AA
102
{ACAD_REACTORS
330
71A9
102
}
330
71A9
100
AcDbMLeaderStyle
170
     2
171
     1
172
     0
 90
        2
 40
0.0
 41
0.0
173
     1
 91
-1056964608
340
13
 92
       -2
290
     1
 42
0.09
291
     1
 43
0.36
  3
Standard
 44
0.18
300

342
11
174
     1
178
     6
175
     1
176
     0
 93
-1056964608
 45
0.18
292
     0
297
     0
 46
0.18
 94
-1056964608
 47
1.0
 49
1.0
140
1.0
293
     1
141
0.0
294
     1
177
     0
142
1.0
295
     0
296
     0
143
0.125
1001
ACAD_MLEADERVER
1070
     2
  0
MLINESTYLE
  5
17
102
{ACAD_REACTORS
330
16
102
}
330
16
100
AcDbMlineStyle
  2
STANDARD
 70
     0
  3

 62
   256
 51
90.0
 52
90.0
 71
     2
 49
0.5
 62
   256
  6
BYLAYER
 49
-0.5
 62
   256
  6
BYLAYER
  0
ACDBPLACEHOLDER
  5
F
102
{ACAD_REACTORS
330
E
102
}
330
E
  0
SCALE
  5
7188
102
{ACAD_REACTORS
330
7187
102
}
330
7187
100
AcDbScale
 70
     0
300
1:1
140
1.0
141
1.0
290
     1
  0
SCALE
  5
7189
102
{ACAD_REACTORS
330
7187
102
}
330
7187
100
AcDbScale
 70
     0
300
1:2
140
1.0
141
2.0
290
     0
  0
SCALE
  5
718A
102
{ACAD_REACTORS
330
7187
102
}
330
7187
100
AcDbScale
 70
     0
300
1:4
140
1.0
141
4.0
290
     0
  0
SCALE
  5
718B
102
{ACAD_REACTORS
330
7187
102
}
330
7187
100
AcDbScale
 70
     0
300
1:5
140
1.0
141
5.0
290
     0
  0
SCALE
  5
718C
102
{ACAD_REACTORS
330
7187
102
}
330
7187
100
AcDbScale
 70
     0
300
1:8
140
1.0
141
8.0
290
     0
  0
SCALE
  5
718D
102
{ACAD_REACTORS
330
7187
102
}
330
7187
100
AcDbScale
 70
     0
300
1:10
140
1.0
141
10.0
290
     0
  0
SCALE
  5
718E
102
{ACAD_REACTORS
330
7187
102
}
330
7187
100
AcDbScale
 70
     0
300
1:16
140
1.0
141
16.0
290
     0
  0
SCALE
  5
718F
102
{ACAD_REACTORS
330
7187
102
}
330
7187
100
AcDbScale
 70
     0
300
1:20
140
1.0
141
20.0
290
     0
  0
SCALE
  5
7190
102
{ACAD_REACTORS
330
7187
102
}
330
7187
100
AcDbScale
 70
     0
300
1:30
140
1.0
141
30.0
290
     0
  0
SCALE
  5
7191
102
{ACAD_REACTORS
330
7187
102
}
330
7187
100
AcDbScale
 70
     0
300
1:40
140
1.0
141
40.0
290
     0
  0
SCALE
  5
7192
102
{ACAD_REACTORS
330
7187
102
}
330
7187
100
AcDbScale
 70
     0
300
1:50
140
1.0
141
50.0
290
     0
  0
SCALE
  5
7193
102
{ACAD_REACTORS
330
7187
102
}
330
7187
100
AcDbScale
 70
     0
300
1:100
140
1.0
141
100.0
290
     0
  0
SCALE
  5
7194
102
{ACAD_REACTORS
330
7187
102
}
330
7187
100
AcDbScale
 70
     0
300
2:1
140
2.0
141
1.0
290
     0
  0
SCALE
  5
7195
102
{ACAD_REACTORS
330
7187
102
}
330
7187
100
AcDbScale
 70
     0
300
4:1
140
4.0
141
1.0
290
     0
  0
SCALE
  5
7196
102
{ACAD_REACTORS
330
7187
102
}
330
7187
100
AcDbScale
 70
     0
300
8:1
140
8.0
141
1.0
290
     0
  0
SCALE
  5
7197
102
{ACAD_REACTORS
330
7187
102
}
330
7187
100
AcDbScale
 70
     0
300
10:1
140
10.0
141
1.0
290
     0
  0
SCALE
  5
7198
102
{ACAD_REACTORS
330
7187
102
}
330
7187
100
AcDbScale
 70
     0
300
100:1
140
100.0
141
1.0
290
     0
  0
SCALE
  5
7199
102
{ACAD_REACTORS
330
7187
102
}
330
7187
100
AcDbScale
 70
     0
300
1/128" = 1'-0"
140
0.0078125
141
12.0
290
     0
  0
SCALE
  5
719A
102
{ACAD_REACTORS
330
7187
102
}
330
7187
100
AcDbScale
 70
     0
300
1/64" = 1'-0"
140
0.015625
141
12.0
290
     0
  0
SCALE
  5
719B
102
{ACAD_REACTORS
330
7187
102
}
330
7187
100
AcDbScale
 70
     0
300
1/32" = 1'-0"
140
0.03125
141
12.0
290
     0
  0
SCALE
  5
719C
102
{ACAD_REACTORS
330
7187
102
}
330
7187
100
AcDbScale
 70
     0
300
1/16" = 1'-0"
140
0.0625
141
12.0
290
     0
  0
SCALE
  5
719D
102
{ACAD_REACTORS
330
7187
102
}
330
7187
100
AcDbScale
 70
     0
300
3/32" = 1'-0"
140
0.09375
141
12.0
290
     0
  0
SCALE
  5
719E
102
{ACAD_REACTORS
330
7187
102
}
330
7187
100
AcDbScale
 70
     0
300
1/8" = 1'-0"
140
0.125
141
12.0
290
     0
  0
SCALE
  5
719F
102
{ACAD_REACTORS
330
7187
102
}
330
7187
100
AcDbScale
 70
     0
300
3/16" = 1'-0"
140
0.1875
141
12.0
290
     0
  0
SCALE
  5
71A0
102
{ACAD_REACTORS
330
7187
102
}
330
7187
100
AcDbScale
 70
     0
300
1/4" = 1'-0"
140
0.25
141
12.0
290
     0
  0
SCALE
  5
71A1
102
{ACAD_REACTORS
330
7187
102
}
330
7187
100
AcDbScale
 70
     0
300
3/8" = 1'-0"
140
0.375
141
12.0
290
     0
  0
SCALE
  5
71A2
102
{ACAD_REACTORS
330
7187
102
}
330
7187
100
AcDbScale
 70
     0
300
1/2" = 1'-0"
140
0.5
141
12.0
290
     0
  0
SCALE
  5
71A3
102
{ACAD_REACTORS
330
7187
102
}
330
7187
100
AcDbScale
 70
     0
300
3/4" = 1'-0"
140
0.75
141
12.0
290
     0
  0
SCALE
  5
71A4
102
{ACAD_REACTORS
330
7187
102
}
330
7187
100
AcDbScale
 70
     0
300
1" = 1'-0"
140
1.0
141
12.0
290
     0
  0
SCALE
  5
71A5
102
{ACAD_REACTORS
330
7187
102
}
330
7187
100
AcDbScale
 70
     0
300
1-1/2" = 1'-0"
140
1.5
141
12.0
290
     0
  0
SCALE
  5
71A6
102
{ACAD_REACTORS
330
7187
102
}
330
7187
100
AcDbScale
 70
     0
300
3" = 1'-0"
140
3.0
141
12.0
290
     0
  0
SCALE
  5
71A7
102
{ACAD_REACTORS
330
7187
102
}
330
7187
100
AcDbScale
 70
     0
300
6" = 1'-0"
140
6.0
141
12.0
290
     0
  0
SCALE
  5
71A8
102
{ACAD_REACTORS
330
7187
102
}
330
7187
100
AcDbScale
 70
     0
300
1'-0" = 1'-0"
140
12.0
141
12.0
290
     0
  0
TABLESTYLE
  5
7186
102
{ACAD_XDICTIONARY
360
7A3B
102
}
102
{ACAD_REACTORS
330
7185
102
}
330
7185
100
AcDbTableStyle
  3
Standard
 70
     0
 71
     0
 40
0.06
 41
0.06
280
     0
281
     0
  7
STANDARD
140
0.18
170
     2
 62
     0
 63
     7
283
     0
274
    -2
284
     1
 64
     0
275
    -2
285
     1
 65
     0
276
    -2
286
     1
 66
     0
277
    -2
287
     1
 67
     0
278
    -2
288
     1
 68
     0
279
    -2
289
     1
 69
     0
  7
STANDARD
140
0.25
170
     5
 62
     0
 63
     7
283
     0
274
    -2
284
     1
 64
     0
275
    -2
285
     1
 65
     0
276
    -2
286
     1
 66
     0
277
    -2
287
     1
 67
     0
278
    -2
288
     1
 68
     0
279
    -2
289
     1
 69
     0
  7
STANDARD
140
0.18
170
     5
 62
     0
 63
     7
283
     0
274
    -2
284
     1
 64
     0
275
    -2
285
     1
 65
     0
276
    -2
286
     1
 66
     0
277
    -2
287
     1
 67
     0
278
    -2
288
     1
 68
     0
279
    -2
289
     1
 69
     0
  0
VISUALSTYLE
  5
7176
102
{ACAD_XDICTIONARY
360
7B15
102
}
102
{ACAD_REACTORS
330
7170
102
}
330
7170
100
AcDbVisualStyle
  2

 70
     4
 71
     0
 72
     2
 73
     0
 90
        0
 40
-0.6
 41
-30.0
 62
     5
 63
     7
 74
     1
 91
        4
 64
     7
 65
   257
 75
     1
175
     1
 42
1.0
 92
        0
 66
   257
 43
1.0
 76
     1
 77
     6
 78
     2
 67
     7
 79
     5
170
     0
171
     0
290
     0
174
     0
 93
        1
 44
0.0
173
     0
291
     0
 45
0.0
1001
ACAD
1000
AcDbSavedByObjectVersion
1070
     0
  0
VISUALSTYLE
  5
7178
102
{ACAD_XDICTIONARY
360
7B19
102
}
102
{ACAD_REACTORS
330
7170
102
}
330
7170
100
AcDbVisualStyle
  2

 70
     6
 71
     1
 72
     2
 73
     2
 90
        0
 40
-0.6
 41
-30.0
 62
     5
 63
     7
 74
     2
 91
        2
 64
     7
 65
   257
 75
     2
175
     1
 42
179.0
 92
        0
 66
   257
 43
1.0
 76
     1
 77
     6
 78
     2
 67
     7
 79
     3
170
     0
171
     0
290
     0
174
     0
 93
        1
 44
0.0
173
     0
291
     0
 45
0.0
1001
ACAD
1000
AcDbSavedByObjectVersion
1070
     0
  0
VISUALSTYLE
  5
7177
102
{ACAD_XDICTIONARY
360
7B17
102
}
102
{ACAD_REACTORS
330
7170
102
}
330
7170
100
AcDbVisualStyle
  2

 70
     5
 71
     0
 72
     2
 73
     0
 90
        0
 40
-0.6
 41
-30.0
 62
     5
 63
     7
 74
     1
 91
        4
 64
     7
 65
   257
 75
     1
175
     1
 42
1.0
 92
        0
 66
   257
 43
1.0
 76
     1
 77
     6
 78
     2
 67
     7
 79
     5
170
     0
171
     0
290
     0
174
     0
 93
        1
 44
0.0
173
     0
291
     0
 45
0.0
1001
ACAD
1000
AcDbSavedByObjectVersion
1070
     0
  0
VISUALSTYLE
  5
7175
102
{ACAD_XDICTIONARY
360
7B13
102
}
102
{ACAD_REACTORS
330
7170
102
}
330
7170
100
AcDbVisualStyle
  2

 70
     7
 71
     1
 72
     0
 73
     1
 90
        0
 40
-0.6
 41
-30.0
 62
     5
 63
     7
 74
     0
 91
        4
 64
     7
 65
   257
 75
     1
175
     1
 42
1.0
 92
        8
 66
     7
 43
1.0
 76
     1
 77
     6
 78
     2
 67
     7
 79
     5
170
     0
171
     0
290
     0
174
     0
 93
        1
 44
0.0
173
     0
291
     1
 45
0.0
1001
ACAD
1000
AcDbSavedByObjectVersion
1070
     0
  0
VISUALSTYLE
  5
717C
102
{ACAD_XDICTIONARY
360
7B21
102
}
102
{ACAD_REACTORS
330
7170
102
}
330
7170
100
AcDbVisualStyle
  2

 70
    12
 71
     2
 72
     2
 73
     0
 90
        0
 40
-0.6
 41
-30.0
 62
     5
 63
     7
 74
     1
 91
        4
 64
     7
 65
   257
 75
     1
175
     1
 42
1.0
 92
        8
 66
     7
 43
1.0
 76
     1
 77
     6
 78
     2
 67
     7
 79
     5
170
     0
171
     0
290
     0
174
     0
 93
        1
 44
50.0
173
     0
291
     1
 45
0.0
1001
ACAD
1000
AcDbSavedByObjectVersion
1070
     0
  0
VISUALSTYLE
  5
7180
102
{ACAD_XDICTIONARY
360
7B29
102
}
102
{ACAD_REACTORS
330
7170
102
}
330
7170
100
AcDbVisualStyle
  2

 70
    16
 71
     2
 72
     2
 73
     3
 90
        0
 40
-0.6
 41
-30.0
 62
     5
 63
     8
 74
     1
 91
        4
 64
     7
 65
   257
 75
     1
175
     1
 42
1.0
 92
        8
 66
     8
 43
1.0
 76
     1
 77
     6
 78
     2
 67
     7
 79
     5
170
     0
171
     0
290
     0
174
     0
 93
        1
 44
0.0
173
     0
291
     1
 45
0.0
1001
ACAD
1000
AcDbSavedByObjectVersion
1070
     0
  0
VISUALSTYLE
  5
7179
102
{ACAD_XDICTIONARY
360
7B1B
102
}
102
{ACAD_REACTORS
330
7170
102
}
330
7170
100
AcDbVisualStyle
  2

 70
     9
 71
     3
 72
     2
 73
     0
 90
        0
 40
-0.6
 41
-30.0
 62
     5
 63
     7
 74
     2
 91
        2
 64
     7
 65
   257
 75
     1
175
     1
 42
179.0
 92
        8
 66
     7
 43
1.0
 76
     1
 77
     6
 78
     2
 67
     7
 79
     3
170
     0
171
     0
290
     0
174
     0
 93
        1
 44
0.0
173
     0
291
     0
 45
0.0
1001
ACAD
1000
AcDbSavedByObjectVersion
1070
     0
  0
VISUALSTYLE
  5
717B
102
{ACAD_XDICTIONARY
360
7B1F
102
}
102
{ACAD_REACTORS
330
7170
102
}
330
7170
100
AcDbVisualStyle
  2

 70
    11
 71
     2
 72
     2
 73
     0
 90
        0
 40
-0.6
 41
-30.0
 62
     5
 63
     7
 74
     1
 91
        4
 64
     7
 65
   257
 75
     1
175
     1
 42
1.0
 92
        8
 66
     7
 43
1.0
 76
     1
 77
     6
 78
     2
 67
     7
 79
     5
170
     0
171
     0
290
     0
174
     0
 93
        1
 44
-50.0
173
     0
291
     1
 45
0.0
1001
ACAD
1000
AcDbSavedByObjectVersion
1070
     0
  0
VISUALSTYLE
  5
7183
102
{ACAD_XDICTIONARY
360
7B2F
102
}
102
{ACAD_REACTORS
330
7170
102
}
330
7170
100
AcDbVisualStyle
  2

 70
    22
 71
     2
 72
     2
 73
     0
 90
        0
 40
-0.6
 41
-30.0
 62
     5
 63
     7
 74
     1
 91
        4
 64
     7
 65
   257
 75
     1
175
     1
 42
1.0
 92
        8
 66
     7
 43
1.0
 76
     1
 77
     6
 78
     2
 67
     7
 79
     5
170
     0
171
     0
290
     0
174
     0
 93
        1
 44
0.0
173
     0
291
     1
 45
0.0
1001
ACAD
1000
AcDbSavedByObjectVersion
1070
     0
  0
VISUALSTYLE
  5
717F
102
{ACAD_XDICTIONARY
360
7B27
102
}
102
{ACAD_REACTORS
330
7170
102
}
330
7170
100
AcDbVisualStyle
  2

 70
    15
 71
     2
 72
     2
 73
     0
 90
        0
 40
-0.6
 41
-30.0
 62
     5
 63
     7
 74
     1
 91
        4
 64
     7
 65
   257
 75
     1
175
     1
 42
1.0
 92
        8
 66
     7
 43
1.0
 76
     1
 77
     6
 78
     2
 67
     7
 79
     5
170
     0
171
     0
290
     0
174
     0
 93
        1
 44
0.0
173
     0
291
     1
 45
0.0
1001
ACAD
1000
AcDbSavedByObjectVersion
1070
     0
  0
VISUALSTYLE
  5
7171
102
{ACAD_XDICTIONARY
360
7B0B
102
}
102
{ACAD_REACTORS
330
7170
102
}
330
7170
100
AcDbVisualStyle
  2

 70
     0
 71
     2
 72
     1
 73
     1
 90
        2
 40
-0.6
 41
30.0
 62
     5
 63
     7
 74
     0
 91
        4
 64
     7
 65
   257
 75
     1
175
     1
 42
1.0
 92
        8
 66
     7
 43
1.0
 76
     1
 77
     6
 78
     2
 67
     7
 79
     5
170
     0
171
     0
290
     0
174
     0
 93
       13
 44
0.0
173
     0
291
     1
 45
0.0
1001
ACAD
1000
AcDbSavedByObjectVersion
1070
     0
  0
VISUALSTYLE
  5
7172
102
{ACAD_XDICTIONARY
360
7B0D
102
}
102
{ACAD_REACTORS
330
7170
102
}
330
7170
100
AcDbVisualStyle
  2

 70
     1
 71
     2
 72
     1
 73
     1
 90
        2
 40
-0.6
 41
30.0
 62
     5
 63
     7
 74
     1
 91
        4
 64
     7
 65
   257
 75
     1
175
     1
 42
1.0
 92
        0
 66
   257
 43
1.0
 76
     1
 77
     6
 78
     2
 67
     7
 79
     5
170
     0
171
     0
290
     0
174
     0
 93
       13
 44
0.0
173
     0
291
     1
 45
0.0
1001
ACAD
1000
AcDbSavedByObjectVersion
1070
     0
  0
VISUALSTYLE
  5
7173
102
{ACAD_XDICTIONARY
360
7B0F
102
}
102
{ACAD_REACTORS
330
7170
102
}
330
7170
100
AcDbVisualStyle
  2

 70
     2
 71
     2
 72
     2
 73
     1
 90
        2
 40
-0.6
 41
30.0
 62
     5
 63
     7
 74
     0
 91
        4
 64
     7
 65
   257
 75
     1
175
     1
 42
1.0
 92
        0
 66
     7
 43
1.0
 76
     1
 77
     6
 78
     2
 67
     7
 79
     5
170
     0
171
     0
290
     0
174
     0
 93
       13
 44
0.0
173
     0
291
     1
 45
0.0
1001
ACAD
1000
AcDbSavedByObjectVersion
1070
     0
  0
VISUALSTYLE
  5
7174
102
{ACAD_XDICTIONARY
360
7B11
102
}
102
{ACAD_REACTORS
330
7170
102
}
330
7170
100
AcDbVisualStyle
  2

 70
     3
 71
     2
 72
     2
 73
     1
 90
        2
 40
-0.6
 41
30.0
 62
     5
 63
     7
 74
     1
 91
        4
 64
     7
 65
   257
 75
     1
175
     1
 42
1.0
 92
        0
 66
   257
 43
1.0
 76
     1
 77
     6
 78
     2
 67
     7
 79
     5
170
     0
171
     0
290
     0
174
     0
 93
       13
 44
0.0
173
     0
291
     1
 45
0.0
1001
ACAD
1000
AcDbSavedByObjectVersion
1070
     0
  0
VISUALSTYLE
  5
7181
102
{ACAD_XDICTIONARY
360
7B2B
102
}
102
{ACAD_REACTORS
330
7170
102
}
330
7170
100
AcDbVisualStyle
  2

 70
    20
 71
     2
 72
     2
 73
     0
 90
        0
 40
-0.6
 41
-30.0
 62
     5
 63
     7
 74
     1
 91
        4
 64
     7
 65
   257
 75
     1
175
     1
 42
1.0
 92
       10
 66
     7
 43
1.0
 76
     1
 77
     6
 78
     2
 67
     7
 79
     5
170
     0
171
     0
290
     0
174
     0
 93
        1
 44
0.0
173
     0
291
     1
 45
0.0
1001
ACAD
1000
AcDbSavedByObjectVersion
1070
     0
  0
VISUALSTYLE
  5
717E
102
{ACAD_XDICTIONARY
360
7B25
102
}
102
{ACAD_REACTORS
330
7170
102
}
330
7170
100
AcDbVisualStyle
  2

 70
    14
 71
     2
 72
     2
 73
     0
 90
        0
 40
-0.6
 41
-30.0
 62
     5
 63
     7
 74
     1
 91
        4
 64
     7
 65
   257
 75
     7
175
     7
 42
1.0
 92
        8
 66
     7
 43
1.0
 76
     1
 77
     6
 78
     2
 67
     7
 79
     5
170
     0
171
     0
290
     0
174
     0
 93
        1
 44
0.0
173
     0
291
     1
 45
0.0
1001
ACAD
1000
AcDbSavedByObjectVersion
1070
     0
  0
VISUALSTYLE
  5
7182
102
{ACAD_XDICTIONARY
360
7B2D
102
}
102
{ACAD_REACTORS
330
7170
102
}
330
7170
100
AcDbVisualStyle
  2

 70
    21
 71
     2
 72
     2
 73
     0
 90
        0
 40
-0.6
 41
-30.0
 62
     5
 63
     7
 74
     1
 91
        4
 64
     7
 65
   257
 75
     1
175
     1
 42
1.0
 92
        9
 66
     7
 43
1.0
 76
     1
 77
     6
 78
     2
 67
     7
 79
     5
170
     0
171
     0
290
     0
174
     0
 93
        1
 44
0.0
173
     0
291
     1
 45
0.0
1001
ACAD
1000
AcDbSavedByObjectVersion
1070
     0
  0
VISUALSTYLE
  5
717A
102
{ACAD_XDICTIONARY
360
7B1D
102
}
102
{ACAD_REACTORS
330
7170
102
}
330
7170
100
AcDbVisualStyle
  2

 70
     8
 71
     2
 72
     2
 73
     0
 90
        0
 40
-0.6
 41
-30.0
 62
     5
 63
     7
 74
     1
 91
        0
 64
     7
 65
   257
 75
     1
175
     1
 42
1.0
 92
        8
 66
     8
 43
1.0
 76
     1
 77
     6
 78
     2
 67
     7
 79
     5
170
     0
171
     0
290
     0
174
     0
 93
       13
 44
0.0
173
     0
291
     0
 45
0.0
1001
ACAD
1000
AcDbSavedByObjectVersion
1070
     0
  0
VISUALSTYLE
  5
717D
102
{ACAD_XDICTIONARY
360
7B23
102
}
102
{ACAD_REACTORS
330
7170
102
}
330
7170
100
AcDbVisualStyle
  2

 70
    13
 71
     2
 72
     2
 73
     0
 90
        0
 40
-0.6
 41
-30.0
 62
     5
 63
     7
 74
     1
 91
        4
 64
     7
 65
   257
 75
     1
175
     1
 42
1.0
 92
       12
 66
     7
 43
1.0
 76
     1
 77
     6
 78
     2
 67
     7
 79
     5
170
     0
171
     0
290
     0
174
     0
 93
        1
 44
0.0
173
     0
291
     1
 45
0.0
1001
ACAD
1000
AcDbSavedByObjectVersion
1070
     0
  0
DICTIONARYVAR
  5
71C7
102
{ACAD_REACTORS
330
5697
102
}
330
5697
100
DictionaryVariables
280
     0
  1
1:1
  0
DICTIONARYVAR
  5
71C6
102
{ACAD_REACTORS
330
5697
102
}
330
5697
100
DictionaryVariables
280
     0
  1
STANDARD
  0
DICTIONARYVAR
  5
71C5
102
{ACAD_REACTORS
330
5697
102
}
330
5697
100
DictionaryVariables
280
     0
  1
STANDARD
  0
DICTIONARYVAR
  5
5698
102
{ACAD_REACTORS
330
5697
102
}
330
5697
100
DictionaryVariables
280
     0
  1
1
  0
DICTIONARYVAR
  5
71C9
102
{ACAD_REACTORS
330
5697
102
}
330
5697
100
DictionaryVariables
280
     0
  1
0
  0
DICTIONARYVAR
  5
71C8
102
{ACAD_REACTORS
330
5697
102
}
330
5697
100
DictionaryVariables
280
     0
  1
127
  0
DICTIONARYVAR
  5
7B01
102
{ACAD_REACTORS
330
5697
102
}
330
5697
100
DictionaryVariables
280
     0
  1
2
  0
XRECORD
  5
71C4
102
{ACAD_REACTORS
330
71C2
102
}
330
71C2
100
AcDbXrecord
280
     1
330
65BB
330
65BC
330
65AD
330
65AE
330
65AF
330
6F64
330
6F65
330
6F5B
330
6F5C
330
6F52
330
6F53
330
6F49
330
6F4A
330
7085
330
7086
330
68D8
330
6F37
330
6F38
330
6F2E
330
6F2F
330
6F25
330
6F26
330
6F1C
330
6F1D
330
6F13
330
6F14
330
6F0A
330
6F0B
330
6F01
330
6F02
330
6EF8
330
6EF9
330
6EEF
330
6EF0
330
6EE6
330
6EE7
330
6EDD
330
6EDE
330
6ED4
330
6ED5
330
68E0
330
68E1
330
707C
330
707D
330
6EC1
330
6EC2
330
6EB8
330
6EB9
330
6EAF
330
6EB0
330
7133
330
7134
330
713C
330
713D
330
695B
330
695C
330
77D8
330
77D9
330
6E8B
330
6E8C
330
6C02
330
6C03
330
702D
330
7024
330
7025
330
6BF0
330
6BF1
330
701B
330
701C
330
7711
330
7712
330
771B
330
771C
330
7724
330
7725
330
772D
330
772E
330
7736
330
7737
330
7740
330
773F
330
7748
330
7749
330
7751
330
7752
330
7817
330
7818
330
7820
330
7821
330
776C
330
776D
330
7775
330
7776
330
777E
330
777F
330
7788
330
7789
330
7792
330
7793
330
779C
330
779D
330
77A6
330
77A7
330
77B0
330
77B1
330
77BA
330
77BB
330
77C4
330
77C5
330
77CE
330
77CF
330
7641
330
7829
330
782A
330
7940
330
7941
330
7949
330
794A
330
7952
330
7953
330
795B
330
795C
330
79FD
330
79FE
330
7A2C
330
7A2D
330
7A1A
330
7A1B
330
7A35
330
7A36
  0
DICTIONARY
  5
7B07
330
714A
100
AcDbDictionary
280
     1
281
     1
  3
ACAD_XREC_ROUNDTRIP
360
7B08
  0
DICTIONARY
  5
7B09
330
714B
100
AcDbDictionary
280
     1
281
     1
  3
ACAD_XREC_ROUNDTRIP
360
7B0A
  0
DICTIONARY
  5
7161
330
7160
100
AcDbDictionary
280
     1
281
     1
  3
ACAD_XREC_ROUNDTRIP
360
7A46
  3
BUMPTILE
360
7163
  3
DIFFUSETILE
360
7162
  3
OPACITYTILE
360
7166
  3
REFLECTIONTILE
360
7165
  3
REFRACTIONTILE
360
7167
  3
SPECULARTILE
360
7164
  0
DICTIONARY
  5
7159
330
7158
100
AcDbDictionary
280
     1
281
     1
  3
ACAD_XREC_ROUNDTRIP
360
7A45
  3
BUMPTILE
360
715B
  3
DIFFUSETILE
360
715A
  3
OPACITYTILE
360
715E
  3
REFLECTIONTILE
360
715D
  3
REFRACTIONTILE
360
715F
  3
SPECULARTILE
360
715C
  0
DICTIONARY
  5
7169
330
7168
100
AcDbDictionary
280
     1
281
     1
  3
ACAD_XREC_ROUNDTRIP
360
7A47
  3
BUMPTILE
360
716B
  3
DIFFUSETILE
360
716A
  3
OPACITYTILE
360
716E
  3
REFLECTIONTILE
360
716D
  3
REFRACTIONTILE
360
716F
  3
SPECULARTILE
360
716C
  0
DICTIONARY
  5
7A3B
330
7186
100
AcDbDictionary
280
     1
281
     1
  3
ACAD_ROUNDTRIP_2008_TABLESTYLE_CELLSTYLEMAP
360
7B02
  3
ACAD_XREC_ROUNDTRIP
360
7B31
  0
DICTIONARY
  5
7B15
330
7176
100
AcDbDictionary
280
     1
281
     1
  3
ACAD_XREC_ROUNDTRIP
360
7B16
  0
DICTIONARY
  5
7B19
330
7178
100
AcDbDictionary
280
     1
281
     1
  3
ACAD_XREC_ROUNDTRIP
360
7B1A
  0
DICTIONARY
  5
7B17
330
7177
100
AcDbDictionary
280
     1
281
     1
  3
ACAD_XREC_ROUNDTRIP
360
7B18
  0
DICTIONARY
  5
7B13
330
7175
100
AcDbDictionary
280
     1
281
     1
  3
ACAD_XREC_ROUNDTRIP
360
7B14
  0
DICTIONARY
  5
7B21
330
717C
100
AcDbDictionary
280
     1
281
     1
  3
ACAD_XREC_ROUNDTRIP
360
7B22
  0
DICTIONARY
  5
7B29
330
7180
100
AcDbDictionary
280
     1
281
     1
  3
ACAD_XREC_ROUNDTRIP
360
7B2A
  0
DICTIONARY
  5
7B1B
330
7179
100
AcDbDictionary
280
     1
281
     1
  3
ACAD_XREC_ROUNDTRIP
360
7B1C
  0
DICTIONARY
  5
7B1F
330
717B
100
AcDbDictionary
280
     1
281
     1
  3
ACAD_XREC_ROUNDTRIP
360
7B20
  0
DICTIONARY
  5
7B2F
330
7183
100
AcDbDictionary
280
     1
281
     1
  3
ACAD_XREC_ROUNDTRIP
360
7B30
  0
DICTIONARY
  5
7B27
330
717F
100
AcDbDictionary
280
     1
281
     1
  3
ACAD_XREC_ROUNDTRIP
360
7B28
  0
DICTIONARY
  5
7B0B
330
7171
100
AcDbDictionary
280
     1
281
     1
  3
ACAD_XREC_ROUNDTRIP
360
7B0C
  0
DICTIONARY
  5
7B0D
330
7172
100
AcDbDictionary
280
     1
281
     1
  3
ACAD_XREC_ROUNDTRIP
360
7B0E
  0
DICTIONARY
  5
7B0F
330
7173
100
AcDbDictionary
280
     1
281
     1
  3
ACAD_XREC_ROUNDTRIP
360
7B10
  0
DICTIONARY
  5
7B11
330
7174
100
AcDbDictionary
280
     1
281
     1
  3
ACAD_XREC_ROUNDTRIP
360
7B12
  0
DICTIONARY
  5
7B2B
330
7181
100
AcDbDictionary
280
     1
281
     1
  3
ACAD_XREC_ROUNDTRIP
360
7B2C
  0
DICTIONARY
  5
7B25
330
717E
100
AcDbDictionary
280
     1
281
     1
  3
ACAD_XREC_ROUNDTRIP
360
7B26
  0
DICTIONARY
  5
7B2D
330
7182
100
AcDbDictionary
280
     1
281
     1
  3
ACAD_XREC_ROUNDTRIP
360
7B2E
  0
DICTIONARY
  5
7B1D
330
717A
100
AcDbDictionary
280
     1
281
     1
  3
ACAD_XREC_ROUNDTRIP
360
7B1E
  0
DICTIONARY
  5
7B23
330
717D
100
AcDbDictionary
280
     1
281
     1
  3
ACAD_XREC_ROUNDTRIP
360
7B24
  0
XRECORD
  5
7B08
102
{ACAD_REACTORS
330
7B07
102
}
330
7B07
100
AcDbXrecord
280
     1
102
SHADEPLOT
 70
     0
102
SHADEPLOTRESLEVEL
 70
     2
102
SHADEPLOTCUSTOMDPI
 70
   300
  0
XRECORD
  5
7B0A
102
{ACAD_REACTORS
330
7B09
102
}
330
7B09
100
AcDbXrecord
280
     1
102
SHADEPLOT
 70
     0
102
SHADEPLOTRESLEVEL
 70
     2
102
SHADEPLOTCUSTOMDPI
 70
   300
  0
XRECORD
  5
7A46
102
{ACAD_REACTORS
330
7161
102
}
330
7161
100
AcDbXrecord
280
     1
102
MATERIAL
148
0.0
149
0.0
149
0.0
 93
        0
 94
      127
282
     0
 72
     0
 77
     0
171
     0
175
     0
179
     0
273
     0
  0
XRECORD
  5
7163
102
{ACAD_REACTORS
330
7161
102
}
330
7161
100
AcDbXrecord
280
     1
270
     1
271
     1
  0
XRECORD
  5
7162
102
{ACAD_REACTORS
330
7161
102
}
330
7161
100
AcDbXrecord
280
     1
270
     1
271
     1
  0
XRECORD
  5
7166
102
{ACAD_REACTORS
330
7161
102
}
330
7161
100
AcDbXrecord
280
     1
270
     1
271
     1
  0
XRECORD
  5
7165
102
{ACAD_REACTORS
330
7161
102
}
330
7161
100
AcDbXrecord
280
     1
270
     1
271
     1
  0
XRECORD
  5
7167
102
{ACAD_REACTORS
330
7161
102
}
330
7161
100
AcDbXrecord
280
     1
270
     1
271
     1
  0
XRECORD
  5
7164
102
{ACAD_REACTORS
330
7161
102
}
330
7161
100
AcDbXrecord
280
     1
270
     1
271
     1
  0
XRECORD
  5
7A45
102
{ACAD_REACTORS
330
7159
102
}
330
7159
100
AcDbXrecord
280
     1
102
MATERIAL
148
0.0
149
0.0
149
0.0
 93
        0
 94
      127
282
     0
 72
     0
 77
     0
171
     0
175
     0
179
     0
273
     0
  0
XRECORD
  5
715B
102
{ACAD_REACTORS
330
7159
102
}
330
7159
100
AcDbXrecord
280
     1
270
     1
271
     1
  0
XRECORD
  5
715A
102
{ACAD_REACTORS
330
7159
102
}
330
7159
100
AcDbXrecord
280
     1
270
     1
271
     1
  0
XRECORD
  5
715E
102
{ACAD_REACTORS
330
7159
102
}
330
7159
100
AcDbXrecord
280
     1
270
     1
271
     1
  0
XRECORD
  5
715D
102
{ACAD_REACTORS
330
7159
102
}
330
7159
100
AcDbXrecord
280
     1
270
     1
271
     1
  0
XRECORD
  5
715F
102
{ACAD_REACTORS
330
7159
102
}
330
7159
100
AcDbXrecord
280
     1
270
     1
271
     1
  0
XRECORD
  5
715C
102
{ACAD_REACTORS
330
7159
102
}
330
7159
100
AcDbXrecord
280
     1
270
     1
271
     1
  0
XRECORD
  5
7A47
102
{ACAD_REACTORS
330
7169
102
}
330
7169
100
AcDbXrecord
280
     1
102
MATERIAL
148
0.0
149
0.0
149
0.0
 93
        0
 94
      127
282
     0
 72
     0
 77
     0
171
     0
175
     0
179
     0
273
     0
  0
XRECORD
  5
716B
102
{ACAD_REACTORS
330
7169
102
}
330
7169
100
AcDbXrecord
280
     1
270
     1
271
     1
  0
XRECORD
  5
716A
102
{ACAD_REACTORS
330
7169
102
}
330
7169
100
AcDbXrecord
280
     1
270
     1
271
     1
  0
XRECORD
  5
716E
102
{ACAD_REACTORS
330
7169
102
}
330
7169
100
AcDbXrecord
280
     1
270
     1
271
     1
  0
XRECORD
  5
716D
102
{ACAD_REACTORS
330
7169
102
}
330
7169
100
AcDbXrecord
280
     1
270
     1
271
     1
  0
XRECORD
  5
716F
102
{ACAD_REACTORS
330
7169
102
}
330
7169
100
AcDbXrecord
280
     1
270
     1
271
     1
  0
XRECORD
  5
716C
102
{ACAD_REACTORS
330
7169
102
}
330
7169
100
AcDbXrecord
280
     1
270
     1
271
     1
  0
CELLSTYLEMAP
  5
7B02
102
{ACAD_REACTORS
330
7A3B
102
}
330
7A3B
100
AcDbCellStyleMap
 90
        3
300
CELLSTYLE
  1
TABLEFORMAT_BEGIN
 90
        5
170
     1
 91
        0
 92
    32768
 62
   257
 93
        1
300
CONTENTFORMAT
  1
CONTENTFORMAT_BEGIN
 90
        0
 91
        0
 92
      512
 93
        0
300

 40
0.0
140
1.0
 94
        5
 62
     0
340
11
144
0.25
309
CONTENTFORMAT_END
171
     1
301
MARGIN
  1
CELLMARGIN_BEGIN
 40
0.06
 40
0.06
 40
0.06
 40
0.06
 40
0.18
 40
0.18
309
CELLMARGIN_END
 94
        6
 95
        1
302
GRIDFORMAT
  1
GRIDFORMAT_BEGIN
 90
        0
 91
        1
 62
     0
 92
       -2
340
0
 93
        0
 40
0.045
309
GRIDFORMAT_END
 95
        2
302
GRIDFORMAT
  1
GRIDFORMAT_BEGIN
 90
        0
 91
        1
 62
     0
 92
       -2
340
0
 93
        0
 40
0.045
309
GRIDFORMAT_END
 95
        4
302
GRIDFORMAT
  1
GRIDFORMAT_BEGIN
 90
        0
 91
        1
 62
     0
 92
       -2
340
0
 93
        0
 40
0.045
309
GRIDFORMAT_END
 95
        8
302
GRIDFORMAT
  1
GRIDFORMAT_BEGIN
 90
        0
 91
        1
 62
     0
 92
       -2
340
0
 93
        0
 40
0.045
309
GRIDFORMAT_END
 95
       16
302
GRIDFORMAT
  1
GRIDFORMAT_BEGIN
 90
        0
 91
        1
 62
     0
 92
       -2
340
0
 93
        0
 40
0.045
309
GRIDFORMAT_END
 95
       32
302
GRIDFORMAT
  1
GRIDFORMAT_BEGIN
 90
        0
 91
        1
 62
     0
 92
       -2
340
0
 93
        0
 40
0.045
309
GRIDFORMAT_END
309
TABLEFORMAT_END
  1
CELLSTYLE_BEGIN
 90
        1
 91
        1
300
_TITLE
309
CELLSTYLE_END
300
CELLSTYLE
  1
TABLEFORMAT_BEGIN
 90
        5
170
     1
 91
        0
 92
        0
 62
   257
 93
        1
300
CONTENTFORMAT
  1
CONTENTFORMAT_BEGIN
 90
        0
 91
        0
 92
      512
 93
        0
300

 40
0.0
140
1.0
 94
        5
 62
     0
340
11
144
0.18
309
CONTENTFORMAT_END
171
     1
301
MARGIN
  1
CELLMARGIN_BEGIN
 40
0.06
 40
0.06
 40
0.06
 40
0.06
 40
0.18
 40
0.18
309
CELLMARGIN_END
 94
        6
 95
        1
302
GRIDFORMAT
  1
GRIDFORMAT_BEGIN
 90
        0
 91
        1
 62
     0
 92
       -2
340
0
 93
        0
 40
0.045
309
GRIDFORMAT_END
 95
        2
302
GRIDFORMAT
  1
GRIDFORMAT_BEGIN
 90
        0
 91
        1
 62
     0
 92
       -2
340
0
 93
        0
 40
0.045
309
GRIDFORMAT_END
 95
        4
302
GRIDFORMAT
  1
GRIDFORMAT_BEGIN
 90
        0
 91
        1
 62
     0
 92
       -2
340
0
 93
        0
 40
0.045
309
GRIDFORMAT_END
 95
        8
302
GRIDFORMAT
  1
GRIDFORMAT_BEGIN
 90
        0
 91
        1
 62
     0
 92
       -2
340
0
 93
        0
 40
0.045
309
GRIDFORMAT_END
 95
       16
302
GRIDFORMAT
  1
GRIDFORMAT_BEGIN
 90
        0
 91
        1
 62
     0
 92
       -2
340
0
 93
        0
 40
0.045
309
GRIDFORMAT_END
 95
       32
302
GRIDFORMAT
  1
GRIDFORMAT_BEGIN
 90
        0
 91
        1
 62
     0
 92
       -2
340
0
 93
        0
 40
0.045
309
GRIDFORMAT_END
309
TABLEFORMAT_END
  1
CELLSTYLE_BEGIN
 90
        2
 91
        1
300
_HEADER
309
CELLSTYLE_END
300
CELLSTYLE
  1
TABLEFORMAT_BEGIN
 90
        5
170
     1
 91
        0
 92
        0
 62
   257
 93
        1
300
CONTENTFORMAT
  1
CONTENTFORMAT_BEGIN
 90
        0
 91
        0
 92
      512
 93
        0
300

 40
0.0
140
1.0
 94
        2
 62
     0
340
11
144
0.18
309
CONTENTFORMAT_END
171
     1
301
MARGIN
  1
CELLMARGIN_BEGIN
 40
0.06
 40
0.06
 40
0.06
 40
0.06
 40
0.18
 40
0.18
309
CELLMARGIN_END
 94
        6
 95
        1
302
GRIDFORMAT
  1
GRIDFORMAT_BEGIN
 90
        0
 91
        1
 62
     0
 92
       -2
340
0
 93
        0
 40
0.045
309
GRIDFORMAT_END
 95
        2
302
GRIDFORMAT
  1
GRIDFORMAT_BEGIN
 90
        0
 91
        1
 62
     0
 92
       -2
340
0
 93
        0
 40
0.045
309
GRIDFORMAT_END
 95
        4
302
GRIDFORMAT
  1
GRIDFORMAT_BEGIN
 90
        0
 91
        1
 62
     0
 92
       -2
340
0
 93
        0
 40
0.045
309
GRIDFORMAT_END
 95
        8
302
GRIDFORMAT
  1
GRIDFORMAT_BEGIN
 90
        0
 91
        1
 62
     0
 92
       -2
340
0
 93
        0
 40
0.045
309
GRIDFORMAT_END
 95
       16
302
GRIDFORMAT
  1
GRIDFORMAT_BEGIN
 90
        0
 91
        1
 62
     0
 92
       -2
340
0
 93
        0
 40
0.045
309
GRIDFORMAT_END
 95
       32
302
GRIDFORMAT
  1
GRIDFORMAT_BEGIN
 90
        0
 91
        1
 62
     0
 92
       -2
340
0
 93
        0
 40
0.045
309
GRIDFORMAT_END
309
TABLEFORMAT_END
  1
CELLSTYLE_BEGIN
 90
        3
 91
        2
300
_DATA
309
CELLSTYLE_END
  0
XRECORD
  5
7B31
102
{ACAD_REACTORS
330
7A3B
102
}
330
7A3B
100
AcDbXrecord
280
     1
102
ACAD_ROUNDTRIP_PRE2007_TABLESTYLE
 90
      512
 91
        0
  1

 92
      512
 93
        0
  2

 94
      512
 95
        0
  3

  0
XRECORD
  5
7B16
102
{ACAD_REACTORS
330
7B15
102
}
330
7B15
100
AcDbXrecord
280
     1
102
RTVSPropertyOp0
 70
     1
102
RTVSPropertyOp1
 70
     1
102
RTVSPropertyOp2
 70
     1
102
RTVSPropertyOp3
 70
     1
102
RTVSPropertyOp4
 70
     1
102
RTVSPropertyOp5
 70
     1
102
RTVSPropertyOp6
 70
     1
102
RTVSPropertyOp7
 70
     1
102
RTVSPropertyOp8
 70
     1
102
RTVSPropertyOp9
 70
     1
102
RTVSPropertyOp10
 70
     1
102
RTVSPropertyOp11
 70
     1
102
RTVSPropertyOp12
 70
     1
102
RTVSPropertyOp13
 70
     1
102
RTVSPropertyOp14
 70
     1
102
RTVSPropertyOp15
 70
     1
102
RTVSPropertyOp16
 70
     1
102
RTVSPropertyOp17
 70
     1
102
RTVSPropertyOp18
 70
     1
102
RTVSPropertyOp19
 70
     1
102
RTVSPropertyOp20
 70
     1
102
RTVSPropertyOp21
 70
     1
102
RTVSPropertyOp22
 70
     1
102
RTVSPropertyOp23
 70
     1
102
RTVSPropertyOp24
 70
     1
102
RTVSPropertyOp25
 70
     1
102
RTVSPropertyOp26
 70
     1
102
RTVSPropertyOp27
 70
     1
  0
XRECORD
  5
7B1A
102
{ACAD_REACTORS
330
7B19
102
}
330
7B19
100
AcDbXrecord
280
     1
102
RTVSPropertyOp0
 70
     1
102
RTVSPropertyOp1
 70
     1
102
RTVSPropertyOp2
 70
     1
102
RTVSPropertyOp3
 70
     1
102
RTVSPropertyOp4
 70
     1
102
RTVSPropertyOp5
 70
     1
102
RTVSPropertyOp6
 70
     1
102
RTVSPropertyOp7
 70
     1
102
RTVSPropertyOp8
 70
     1
102
RTVSPropertyOp9
 70
     1
102
RTVSPropertyOp10
 70
     1
102
RTVSPropertyOp11
 70
     1
102
RTVSPropertyOp12
 70
     1
102
RTVSPropertyOp13
 70
     1
102
RTVSPropertyOp14
 70
     1
102
RTVSPropertyOp15
 70
     1
102
RTVSPropertyOp16
 70
     1
102
RTVSPropertyOp17
 70
     1
102
RTVSPropertyOp18
 70
     1
102
RTVSPropertyOp19
 70
     1
102
RTVSPropertyOp20
 70
     1
102
RTVSPropertyOp21
 70
     1
102
RTVSPropertyOp22
 70
     1
102
RTVSPropertyOp23
 70
     1
102
RTVSPropertyOp24
 70
     1
102
RTVSPropertyOp25
 70
     1
102
RTVSPropertyOp26
 70
     1
102
RTVSPropertyOp27
 70
     1
  0
XRECORD
  5
7B18
102
{ACAD_REACTORS
330
7B17
102
}
330
7B17
100
AcDbXrecord
280
     1
102
RTVSPropertyOp0
 70
     1
102
RTVSPropertyOp1
 70
     1
102
RTVSPropertyOp2
 70
     1
102
RTVSPropertyOp3
 70
     1
102
RTVSPropertyOp4
 70
     1
102
RTVSPropertyOp5
 70
     1
102
RTVSPropertyOp6
 70
     1
102
RTVSPropertyOp7
 70
     1
102
RTVSPropertyOp8
 70
     1
102
RTVSPropertyOp9
 70
     1
102
RTVSPropertyOp10
 70
     1
102
RTVSPropertyOp11
 70
     1
102
RTVSPropertyOp12
 70
     1
102
RTVSPropertyOp13
 70
     1
102
RTVSPropertyOp14
 70
     1
102
RTVSPropertyOp15
 70
     1
102
RTVSPropertyOp16
 70
     1
102
RTVSPropertyOp17
 70
     1
102
RTVSPropertyOp18
 70
     1
102
RTVSPropertyOp19
 70
     1
102
RTVSPropertyOp20
 70
     1
102
RTVSPropertyOp21
 70
     1
102
RTVSPropertyOp22
 70
     1
102
RTVSPropertyOp23
 70
     1
102
RTVSPropertyOp24
 70
     1
102
RTVSPropertyOp25
 70
     1
102
RTVSPropertyOp26
 70
     1
102
RTVSPropertyOp27
 70
     1
  0
XRECORD
  5
7B14
102
{ACAD_REACTORS
330
7B13
102
}
330
7B13
100
AcDbXrecord
280
     1
102
RTVSPropertyOp0
 70
     1
102
RTVSPropertyOp1
 70
     1
102
RTVSPropertyOp2
 70
     1
102
RTVSPropertyOp3
 70
     1
102
RTVSPropertyOp4
 70
     1
102
RTVSPropertyOp5
 70
     1
102
RTVSPropertyOp6
 70
     1
102
RTVSPropertyOp7
 70
     1
102
RTVSPropertyOp8
 70
     1
102
RTVSPropertyOp9
 70
     1
102
RTVSPropertyOp10
 70
     1
102
RTVSPropertyOp11
 70
     1
102
RTVSPropertyOp12
 70
     1
102
RTVSPropertyOp13
 70
     1
102
RTVSPropertyOp14
 70
     1
102
RTVSPropertyOp15
 70
     1
102
RTVSPropertyOp16
 70
     1
102
RTVSPropertyOp17
 70
     1
102
RTVSPropertyOp18
 70
     1
102
RTVSPropertyOp19
 70
     1
102
RTVSPropertyOp20
 70
     1
102
RTVSPropertyOp21
 70
     1
102
RTVSPropertyOp22
 70
     1
102
RTVSPropertyOp23
 70
     1
102
RTVSPropertyOp24
 70
     1
102
RTVSPropertyOp25
 70
     1
102
RTVSPropertyOp26
 70
     1
102
RTVSPropertyOp27
 70
     1
  0
XRECORD
  5
7B22
102
{ACAD_REACTORS
330
7B21
102
}
330
7B21
100
AcDbXrecord
280
     1
102
RTVSPropertyOp0
 70
     1
102
RTVSPropertyOp1
 70
     1
102
RTVSPropertyOp2
 70
     1
102
RTVSPropertyOp3
 70
     1
102
RTVSPropertyOp4
 70
     1
102
RTVSPropertyOp5
 70
     1
102
RTVSPropertyOp6
 70
     1
102
RTVSPropertyOp7
 70
     1
102
RTVSPropertyOp8
 70
     1
102
RTVSPropertyOp9
 70
     1
102
RTVSPropertyOp10
 70
     1
102
RTVSPropertyOp11
 70
     1
102
RTVSPropertyOp12
 70
     1
102
RTVSPropertyOp13
 70
     1
102
RTVSPropertyOp14
 70
     1
102
RTVSPropertyOp15
 70
     1
102
RTVSPropertyOp16
 70
     1
102
RTVSPropertyOp17
 70
     1
102
RTVSPropertyOp18
 70
     1
102
RTVSPropertyOp19
 70
     1
102
RTVSPropertyOp20
 70
     1
102
RTVSPropertyOp21
 70
     1
102
RTVSPropertyOp22
 70
     1
102
RTVSPropertyOp23
 70
     1
102
RTVSPropertyOp24
 70
     1
102
RTVSPropertyOp25
 70
     1
102
RTVSPropertyOp26
 70
     1
102
RTVSPropertyOp27
 70
     1
  0
XRECORD
  5
7B2A
102
{ACAD_REACTORS
330
7B29
102
}
330
7B29
100
AcDbXrecord
280
     1
102
RTVSPropertyOp0
 70
     1
102
RTVSPropertyOp1
 70
     1
102
RTVSPropertyOp2
 70
     1
102
RTVSPropertyOp3
 70
     1
102
RTVSPropertyOp4
 70
     1
102
RTVSPropertyOp5
 70
     1
102
RTVSPropertyOp6
 70
     1
102
RTVSPropertyOp7
 70
     1
102
RTVSPropertyOp8
 70
     1
102
RTVSPropertyOp9
 70
     1
102
RTVSPropertyOp10
 70
     1
102
RTVSPropertyOp11
 70
     1
102
RTVSPropertyOp12
 70
     1
102
RTVSPropertyOp13
 70
     1
102
RTVSPropertyOp14
 70
     1
102
RTVSPropertyOp15
 70
     1
102
RTVSPropertyOp16
 70
     1
102
RTVSPropertyOp17
 70
     1
102
RTVSPropertyOp18
 70
     1
102
RTVSPropertyOp19
 70
     1
102
RTVSPropertyOp20
 70
     1
102
RTVSPropertyOp21
 70
     1
102
RTVSPropertyOp22
 70
     1
102
RTVSPropertyOp23
 70
     1
102
RTVSPropertyOp24
 70
     1
102
RTVSPropertyOp25
 70
     1
102
RTVSPropertyOp26
 70
     1
102
RTVSPropertyOp27
 70
     1
  0
XRECORD
  5
7B1C
102
{ACAD_REACTORS
330
7B1B
102
}
330
7B1B
100
AcDbXrecord
280
     1
102
RTVSPropertyOp0
 70
     1
102
RTVSPropertyOp1
 70
     1
102
RTVSPropertyOp2
 70
     1
102
RTVSPropertyOp3
 70
     1
102
RTVSPropertyOp4
 70
     1
102
RTVSPropertyOp5
 70
     1
102
RTVSPropertyOp6
 70
     1
102
RTVSPropertyOp7
 70
     1
102
RTVSPropertyOp8
 70
     1
102
RTVSPropertyOp9
 70
     1
102
RTVSPropertyOp10
 70
     1
102
RTVSPropertyOp11
 70
     1
102
RTVSPropertyOp12
 70
     1
102
RTVSPropertyOp13
 70
     1
102
RTVSPropertyOp14
 70
     1
102
RTVSPropertyOp15
 70
     1
102
RTVSPropertyOp16
 70
     1
102
RTVSPropertyOp17
 70
     1
102
RTVSPropertyOp18
 70
     1
102
RTVSPropertyOp19
 70
     1
102
RTVSPropertyOp20
 70
     1
102
RTVSPropertyOp21
 70
     1
102
RTVSPropertyOp22
 70
     1
102
RTVSPropertyOp23
 70
     1
102
RTVSPropertyOp24
 70
     1
102
RTVSPropertyOp25
 70
     1
102
RTVSPropertyOp26
 70
     1
102
RTVSPropertyOp27
 70
     1
  0
XRECORD
  5
7B20
102
{ACAD_REACTORS
330
7B1F
102
}
330
7B1F
100
AcDbXrecord
280
     1
102
RTVSPropertyOp0
 70
     1
102
RTVSPropertyOp1
 70
     1
102
RTVSPropertyOp2
 70
     1
102
RTVSPropertyOp3
 70
     1
102
RTVSPropertyOp4
 70
     1
102
RTVSPropertyOp5
 70
     1
102
RTVSPropertyOp6
 70
     1
102
RTVSPropertyOp7
 70
     1
102
RTVSPropertyOp8
 70
     1
102
RTVSPropertyOp9
 70
     1
102
RTVSPropertyOp10
 70
     1
102
RTVSPropertyOp11
 70
     1
102
RTVSPropertyOp12
 70
     1
102
RTVSPropertyOp13
 70
     1
102
RTVSPropertyOp14
 70
     1
102
RTVSPropertyOp15
 70
     1
102
RTVSPropertyOp16
 70
     1
102
RTVSPropertyOp17
 70
     1
102
RTVSPropertyOp18
 70
     1
102
RTVSPropertyOp19
 70
     1
102
RTVSPropertyOp20
 70
     1
102
RTVSPropertyOp21
 70
     1
102
RTVSPropertyOp22
 70
     1
102
RTVSPropertyOp23
 70
     1
102
RTVSPropertyOp24
 70
     1
102
RTVSPropertyOp25
 70
     1
102
RTVSPropertyOp26
 70
     1
102
RTVSPropertyOp27
 70
     1
  0
XRECORD
  5
7B30
102
{ACAD_REACTORS
330
7B2F
102
}
330
7B2F
100
AcDbXrecord
280
     1
102
RTVSPropertyOp0
 70
     0
102
RTVSPropertyOp1
 70
     0
102
RTVSPropertyOp2
 70
     0
102
RTVSPropertyOp3
 70
     0
102
RTVSPropertyOp4
 70
     0
102
RTVSPropertyOp5
 70
     0
102
RTVSPropertyOp6
 70
     0
102
RTVSPropertyOp7
 70
     0
102
RTVSPropertyOp8
 70
     0
102
RTVSPropertyOp9
 70
     0
102
RTVSPropertyOp10
 70
     0
102
RTVSPropertyOp11
 70
     0
102
RTVSPropertyOp12
 70
     0
102
RTVSPropertyOp13
 70
     0
102
RTVSPropertyOp14
 70
     2
102
RTVSPropertyOp15
 70
     0
102
RTVSPropertyOp16
 70
     0
102
RTVSPropertyOp17
 70
     0
102
RTVSPropertyOp18
 70
     0
102
RTVSPropertyOp19
 70
     0
102
RTVSPropertyOp20
 70
     0
102
RTVSPropertyOp21
 70
     0
102
RTVSPropertyOp22
 70
     0
102
RTVSPropertyOp23
 70
     0
102
RTVSPropertyOp24
 70
     0
102
RTVSPropertyOp25
 70
     0
102
RTVSPropertyOp26
 70
     0
102
RTVSPropertyOp27
 70
     0
  0
XRECORD
  5
7B28
102
{ACAD_REACTORS
330
7B27
102
}
330
7B27
100
AcDbXrecord
280
     1
102
RTVSPropertyOp0
 70
     1
102
RTVSPropertyOp1
 70
     1
102
RTVSPropertyOp2
 70
     1
102
RTVSPropertyOp3
 70
     1
102
RTVSPropertyOp4
 70
     1
102
RTVSPropertyOp5
 70
     1
102
RTVSPropertyOp6
 70
     1
102
RTVSPropertyOp7
 70
     1
102
RTVSPropertyOp8
 70
     1
102
RTVSPropertyOp9
 70
     1
102
RTVSPropertyOp10
 70
     1
102
RTVSPropertyOp11
 70
     1
102
RTVSPropertyOp12
 70
     1
102
RTVSPropertyOp13
 70
     1
102
RTVSPropertyOp14
 70
     1
102
RTVSPropertyOp15
 70
     1
102
RTVSPropertyOp16
 70
     1
102
RTVSPropertyOp17
 70
     1
102
RTVSPropertyOp18
 70
     1
102
RTVSPropertyOp19
 70
     1
102
RTVSPropertyOp20
 70
     1
102
RTVSPropertyOp21
 70
     1
102
RTVSPropertyOp22
 70
     1
102
RTVSPropertyOp23
 70
     1
102
RTVSPropertyOp24
 70
     1
102
RTVSPropertyOp25
 70
     1
102
RTVSPropertyOp26
 70
     1
102
RTVSPropertyOp27
 70
     1
  0
XRECORD
  5
7B0C
102
{ACAD_REACTORS
330
7B0B
102
}
330
7B0B
100
AcDbXrecord
280
     1
102
RTVSPropertyOp0
 70
     1
102
RTVSPropertyOp1
 70
     1
102
RTVSPropertyOp2
 70
     1
102
RTVSPropertyOp3
 70
     1
102
RTVSPropertyOp4
 70
     1
102
RTVSPropertyOp5
 70
     1
102
RTVSPropertyOp6
 70
     1
102
RTVSPropertyOp7
 70
     1
102
RTVSPropertyOp8
 70
     1
102
RTVSPropertyOp9
 70
     1
102
RTVSPropertyOp10
 70
     1
102
RTVSPropertyOp11
 70
     1
102
RTVSPropertyOp12
 70
     1
102
RTVSPropertyOp13
 70
     1
102
RTVSPropertyOp14
 70
     1
102
RTVSPropertyOp15
 70
     1
102
RTVSPropertyOp16
 70
     1
102
RTVSPropertyOp17
 70
     1
102
RTVSPropertyOp18
 70
     1
102
RTVSPropertyOp19
 70
     1
102
RTVSPropertyOp20
 70
     1
102
RTVSPropertyOp21
 70
     1
102
RTVSPropertyOp22
 70
     1
102
RTVSPropertyOp23
 70
     1
102
RTVSPropertyOp24
 70
     1
102
RTVSPropertyOp25
 70
     1
102
RTVSPropertyOp26
 70
     1
102
RTVSPropertyOp27
 70
     1
  0
XRECORD
  5
7B0E
102
{ACAD_REACTORS
330
7B0D
102
}
330
7B0D
100
AcDbXrecord
280
     1
102
RTVSPropertyOp0
 70
     1
102
RTVSPropertyOp1
 70
     1
102
RTVSPropertyOp2
 70
     1
102
RTVSPropertyOp3
 70
     1
102
RTVSPropertyOp4
 70
     1
102
RTVSPropertyOp5
 70
     1
102
RTVSPropertyOp6
 70
     1
102
RTVSPropertyOp7
 70
     1
102
RTVSPropertyOp8
 70
     1
102
RTVSPropertyOp9
 70
     1
102
RTVSPropertyOp10
 70
     1
102
RTVSPropertyOp11
 70
     1
102
RTVSPropertyOp12
 70
     1
102
RTVSPropertyOp13
 70
     1
102
RTVSPropertyOp14
 70
     1
102
RTVSPropertyOp15
 70
     1
102
RTVSPropertyOp16
 70
     1
102
RTVSPropertyOp17
 70
     1
102
RTVSPropertyOp18
 70
     1
102
RTVSPropertyOp19
 70
     1
102
RTVSPropertyOp20
 70
     1
102
RTVSPropertyOp21
 70
     1
102
RTVSPropertyOp22
 70
     1
102
RTVSPropertyOp23
 70
     1
102
RTVSPropertyOp24
 70
     1
102
RTVSPropertyOp25
 70
     1
102
RTVSPropertyOp26
 70
     1
102
RTVSPropertyOp27
 70
     1
  0
XRECORD
  5
7B10
102
{ACAD_REACTORS
330
7B0F
102
}
330
7B0F
100
AcDbXrecord
280
     1
102
RTVSPropertyOp0
 70
     1
102
RTVSPropertyOp1
 70
     1
102
RTVSPropertyOp2
 70
     1
102
RTVSPropertyOp3
 70
     1
102
RTVSPropertyOp4
 70
     1
102
RTVSPropertyOp5
 70
     1
102
RTVSPropertyOp6
 70
     1
102
RTVSPropertyOp7
 70
     1
102
RTVSPropertyOp8
 70
     1
102
RTVSPropertyOp9
 70
     1
102
RTVSPropertyOp10
 70
     1
102
RTVSPropertyOp11
 70
     1
102
RTVSPropertyOp12
 70
     1
102
RTVSPropertyOp13
 70
     1
102
RTVSPropertyOp14
 70
     1
102
RTVSPropertyOp15
 70
     1
102
RTVSPropertyOp16
 70
     1
102
RTVSPropertyOp17
 70
     1
102
RTVSPropertyOp18
 70
     1
102
RTVSPropertyOp19
 70
     1
102
RTVSPropertyOp20
 70
     1
102
RTVSPropertyOp21
 70
     1
102
RTVSPropertyOp22
 70
     1
102
RTVSPropertyOp23
 70
     1
102
RTVSPropertyOp24
 70
     1
102
RTVSPropertyOp25
 70
     1
102
RTVSPropertyOp26
 70
     1
102
RTVSPropertyOp27
 70
     1
  0
XRECORD
  5
7B12
102
{ACAD_REACTORS
330
7B11
102
}
330
7B11
100
AcDbXrecord
280
     1
102
RTVSPropertyOp0
 70
     1
102
RTVSPropertyOp1
 70
     1
102
RTVSPropertyOp2
 70
     1
102
RTVSPropertyOp3
 70
     1
102
RTVSPropertyOp4
 70
     1
102
RTVSPropertyOp5
 70
     1
102
RTVSPropertyOp6
 70
     1
102
RTVSPropertyOp7
 70
     1
102
RTVSPropertyOp8
 70
     1
102
RTVSPropertyOp9
 70
     1
102
RTVSPropertyOp10
 70
     1
102
RTVSPropertyOp11
 70
     1
102
RTVSPropertyOp12
 70
     1
102
RTVSPropertyOp13
 70
     1
102
RTVSPropertyOp14
 70
     1
102
RTVSPropertyOp15
 70
     1
102
RTVSPropertyOp16
 70
     1
102
RTVSPropertyOp17
 70
     1
102
RTVSPropertyOp18
 70
     1
102
RTVSPropertyOp19
 70
     1
102
RTVSPropertyOp20
 70
     1
102
RTVSPropertyOp21
 70
     1
102
RTVSPropertyOp22
 70
     1
102
RTVSPropertyOp23
 70
     1
102
RTVSPropertyOp24
 70
     1
102
RTVSPropertyOp25
 70
     1
102
RTVSPropertyOp26
 70
     1
102
RTVSPropertyOp27
 70
     1
  0
XRECORD
  5
7B2C
102
{ACAD_REACTORS
330
7B2B
102
}
330
7B2B
100
AcDbXrecord
280
     1
102
RTVSPropertyOp0
 70
     0
102
RTVSPropertyOp1
 70
     0
102
RTVSPropertyOp2
 70
     0
102
RTVSPropertyOp3
 70
     0
102
RTVSPropertyOp4
 70
     0
102
RTVSPropertyOp5
 70
     0
102
RTVSPropertyOp6
 70
     0
102
RTVSPropertyOp7
 70
     0
102
RTVSPropertyOp8
 70
     0
102
RTVSPropertyOp9
 70
     0
102
RTVSPropertyOp10
 70
     0
102
RTVSPropertyOp11
 70
     0
102
RTVSPropertyOp12
 70
     0
102
RTVSPropertyOp13
 70
     0
102
RTVSPropertyOp14
 70
     2
102
RTVSPropertyOp15
 70
     0
102
RTVSPropertyOp16
 70
     0
102
RTVSPropertyOp17
 70
     0
102
RTVSPropertyOp18
 70
     0
102
RTVSPropertyOp19
 70
     0
102
RTVSPropertyOp20
 70
     0
102
RTVSPropertyOp21
 70
     0
102
RTVSPropertyOp22
 70
     0
102
RTVSPropertyOp23
 70
     0
102
RTVSPropertyOp24
 70
     0
102
RTVSPropertyOp25
 70
     0
102
RTVSPropertyOp26
 70
     0
102
RTVSPropertyOp27
 70
     0
  0
XRECORD
  5
7B26
102
{ACAD_REACTORS
330
7B25
102
}
330
7B25
100
AcDbXrecord
280
     1
102
RTVSPropertyOp0
 70
     1
102
RTVSPropertyOp1
 70
     1
102
RTVSPropertyOp2
 70
     1
102
RTVSPropertyOp3
 70
     1
102
RTVSPropertyOp4
 70
     1
102
RTVSPropertyOp5
 70
     1
102
RTVSPropertyOp6
 70
     1
102
RTVSPropertyOp7
 70
     1
102
RTVSPropertyOp8
 70
     1
102
RTVSPropertyOp9
 70
     1
102
RTVSPropertyOp10
 70
     1
102
RTVSPropertyOp11
 70
     1
102
RTVSPropertyOp12
 70
     1
102
RTVSPropertyOp13
 70
     1
102
RTVSPropertyOp14
 70
     1
102
RTVSPropertyOp15
 70
     1
102
RTVSPropertyOp16
 70
     1
102
RTVSPropertyOp17
 70
     1
102
RTVSPropertyOp18
 70
     1
102
RTVSPropertyOp19
 70
     1
102
RTVSPropertyOp20
 70
     1
102
RTVSPropertyOp21
 70
     1
102
RTVSPropertyOp22
 70
     1
102
RTVSPropertyOp23
 70
     1
102
RTVSPropertyOp24
 70
     1
102
RTVSPropertyOp25
 70
     1
102
RTVSPropertyOp26
 70
     1
102
RTVSPropertyOp27
 70
     1
  0
XRECORD
  5
7B2E
102
{ACAD_REACTORS
330
7B2D
102
}
330
7B2D
100
AcDbXrecord
280
     1
102
RTVSPropertyOp0
 70
     0
102
RTVSPropertyOp1
 70
     0
102
RTVSPropertyOp2
 70
     0
102
RTVSPropertyOp3
 70
     0
102
RTVSPropertyOp4
 70
     0
102
RTVSPropertyOp5
 70
     0
102
RTVSPropertyOp6
 70
     0
102
RTVSPropertyOp7
 70
     0
102
RTVSPropertyOp8
 70
     0
102
RTVSPropertyOp9
 70
     0
102
RTVSPropertyOp10
 70
     0
102
RTVSPropertyOp11
 70
     0
102
RTVSPropertyOp12
 70
     0
102
RTVSPropertyOp13
 70
     0
102
RTVSPropertyOp14
 70
     2
102
RTVSPropertyOp15
 70
     0
102
RTVSPropertyOp16
 70
     0
102
RTVSPropertyOp17
 70
     0
102
RTVSPropertyOp18
 70
     0
102
RTVSPropertyOp19
 70
     0
102
RTVSPropertyOp20
 70
     0
102
RTVSPropertyOp21
 70
     0
102
RTVSPropertyOp22
 70
     0
102
RTVSPropertyOp23
 70
     0
102
RTVSPropertyOp24
 70
     0
102
RTVSPropertyOp25
 70
     0
102
RTVSPropertyOp26
 70
     0
102
RTVSPropertyOp27
 70
     0
  0
XRECORD
  5
7B1E
102
{ACAD_REACTORS
330
7B1D
102
}
330
7B1D
100
AcDbXrecord
280
     1
102
RTVSPropertyOp0
 70
     1
102
RTVSPropertyOp1
 70
     1
102
RTVSPropertyOp2
 70
     1
102
RTVSPropertyOp3
 70
     1
102
RTVSPropertyOp4
 70
     1
102
RTVSPropertyOp5
 70
     1
102
RTVSPropertyOp6
 70
     1
102
RTVSPropertyOp7
 70
     1
102
RTVSPropertyOp8
 70
     1
102
RTVSPropertyOp9
 70
     1
102
RTVSPropertyOp10
 70
     1
102
RTVSPropertyOp11
 70
     1
102
RTVSPropertyOp12
 70
     1
102
RTVSPropertyOp13
 70
     1
102
RTVSPropertyOp14
 70
     1
102
RTVSPropertyOp15
 70
     1
102
RTVSPropertyOp16
 70
     1
102
RTVSPropertyOp17
 70
     1
102
RTVSPropertyOp18
 70
     1
102
RTVSPropertyOp19
 70
     1
102
RTVSPropertyOp20
 70
     1
102
RTVSPropertyOp21
 70
     1
102
RTVSPropertyOp22
 70
     1
102
RTVSPropertyOp23
 70
     1
102
RTVSPropertyOp24
 70
     1
102
RTVSPropertyOp25
 70
     1
102
RTVSPropertyOp26
 70
     1
102
RTVSPropertyOp27
 70
     1
  0
XRECORD
  5
7B24
102
{ACAD_REACTORS
330
7B23
102
}
330
7B23
100
AcDbXrecord
280
     1
102
RTVSPropertyOp0
 70
     1
102
RTVSPropertyOp1
 70
     1
102
RTVSPropertyOp2
 70
     1
102
RTVSPropertyOp3
 70
     1
102
RTVSPropertyOp4
 70
     1
102
RTVSPropertyOp5
 70
     1
102
RTVSPropertyOp6
 70
     1
102
RTVSPropertyOp7
 70
     1
102
RTVSPropertyOp8
 70
     1
102
RTVSPropertyOp9
 70
     1
102
RTVSPropertyOp10
 70
     1
102
RTVSPropertyOp11
 70
     1
102
RTVSPropertyOp12
 70
     1
102
RTVSPropertyOp13
 70
     1
102
RTVSPropertyOp14
 70
     1
102
RTVSPropertyOp15
 70
     1
102
RTVSPropertyOp16
 70
     1
102
RTVSPropertyOp17
 70
     1
102
RTVSPropertyOp18
 70
     1
102
RTVSPropertyOp19
 70
     1
102
RTVSPropertyOp20
 70
     1
102
RTVSPropertyOp21
 70
     1
102
RTVSPropertyOp22
 70
     1
102
RTVSPropertyOp23
 70
     1
102
RTVSPropertyOp24
 70
     1
102
RTVSPropertyOp25
 70
     1
102
RTVSPropertyOp26
 70
     1
102
RTVSPropertyOp27
 70
     1
  0
ENDSEC
  0
EOF
