  0
SECTION
  2
HEADER
  9
$ACADVER
  1
AC1015
  9
$ACADMAINTVER
 70
    20
  9
$DWGCODEPAGE
  3
ANSI_932
  9
$INSBASE
 10
0.0
 20
0.0
 30
0.0
  9
$EXTMIN
 10
364.5631020671417
 20
-278.934016023919
 30
-0.0000000000112498
  9
$EXTMAX
 10
784.2299203190941
 20
352.6873814532155
 30
0.0000000000002956
  9
$LIMMIN
 10
-1176.0
 20
-798.0
  9
$LIMMAX
 10
594.0
 20
1078.0
  9
$ORTHOMODE
 70
     1
  9
$REGENMODE
 70
     1
  9
$FILLMODE
 70
     1
  9
$QTEXTMODE
 70
     0
  9
$MIRRTEXT
 70
     1
  9
$LTSCALE
 40
10.0
  9
$ATTMODE
 70
     1
  9
$TEXTSIZE
 40
2.0
  9
$TRACEWID
 40
0.05
  9
$TEXTSTYLE
  7
STANDARD
  9
$CLAYER
  8
0
  9
$CELTYPE
  6
BYLAYER
  9
$CECOLOR
 62
   256
  9
$CELTSCALE
 40
1.0
  9
$DISPSILH
 70
     0
  9
$DIMSCALE
 40
1.0
  9
$DIMASZ
 40
2.0
  9
$DIMEXO
 40
1.0
  9
$DIMDLI
 40
0.5
  9
$DIMRND
 40
0.0
  9
$DIMDLE
 40
0.0
  9
$DIMEXE
 40
0.5
  9
$DIMTP
 40
0.0
  9
$DIMTM
 40
0.0
  9
$DIMTXT
 40
4.0
  9
$DIMCEN
 40
0.09
  9
$DIMTSZ
 40
0.0
  9
$DIMTOL
 70
     0
  9
$DIMLIM
 70
     0
  9
$DIMTIH
 70
     0
  9
$DIMTOH
 70
     1
  9
$DIMSE1
 70
     0
  9
$DIMSE2
 70
     0
  9
$DIMTAD
 70
     3
  9
$DIMZIN
 70
    12
  9
$DIMBLK
  1
OPEN
  9
$DIMASO
 70
     1
  9
$DIMSHO
 70
     1
  9
$DIMPOST
  1

  9
$DIMAPOST
  1

  9
$DIMALT
 70
     0
  9
$DIMALTD
 70
     2
  9
$DIMALTF
 40
25.4
  9
$DIMLFAC
 40
1.0
  9
$DIMTOFL
 70
     0
  9
$DIMTVP
 40
0.0
  9
$DIMTIX
 70
     0
  9
$DIMSOXD
 70
     0
  9
$DIMSAH
 70
     0
  9
$DIMBLK1
  1

  9
$DIMBLK2
  1

  9
$DIMSTYLE
  2
STANDARD
  9
$DIMCLRD
 70
     0
  9
$DIMCLRE
 70
     0
  9
$DIMCLRT
 70
     0
  9
$DIMTFAC
 40
1.0
  9
$DIMGAP
 40
1.0
  9
$DIMJUST
 70
     0
  9
$DIMSD1
 70
     0
  9
$DIMSD2
 70
     0
  9
$DIMTOLJ
 70
     1
  9
$DIMTZIN
 70
     0
  9
$DIMALTZ
 70
     0
  9
$DIMALTTZ
 70
     0
  9
$DIMUPT
 70
     0
  9
$DIMDEC
 70
     1
  9
$DIMTDEC
 70
     1
  9
$DIMALTU
 70
     2
  9
$DIMALTTD
 70
     2
  9
$DIMTXSTY
  7
STANDARD
  9
$DIMAUNIT
 70
     0
  9
$DIMADEC
 70
     0
  9
$DIMALTRND
 40
0.0
  9
$DIMAZIN
 70
     0
  9
$DIMDSEP
 70
    46
  9
$DIMATFIT
 70
     3
  9
$DIMFRAC
 70
     0
  9
$DIMLDRBLK
  1
OPEN
  9
$DIMLUNIT
 70
     2
  9
$DIMLWD
 70
    -2
  9
$DIMLWE
 70
    -2
  9
$DIMTMOVE
 70
     0
  9
$LUNITS
 70
     2
  9
$LUPREC
 70
     8
  9
$SKETCHINC
 40
0.1
  9
$FILLETRAD
 40
0.0
  9
$AUNITS
 70
     0
  9
$AUPREC
 70
     0
  9
$MENU
  1
.
  9
$ELEVATION
 40
0.0
  9
$PELEVATION
 40
0.0
  9
$THICKNESS
 40
0.0
  9
$LIMCHECK
 70
     0
  9
$CHAMFERA
 40
0.0
  9
$CHAMFERB
 40
0.0
  9
$CHAMFERC
 40
0.0
  9
$CHAMFERD
 40
0.0
  9
$SKPOLY
 70
     0
  9
$TDCREATE
 40
2452286.555658658
  9
$TDUCREATE
 40
2452286.180658658
  9
$TDUPDATE
 40
2456211.458514537
  9
$TDUUPDATE
 40
2456211.083514537
  9
$TDINDWG
 40
2.4143428125
  9
$TDUSRTIMER
 40
2.4143372106
  9
$USRTIMER
 70
     1
  9
$ANGBASE
 50
0.0
  9
$ANGDIR
 70
     0
  9
$PDMODE
 70
     0
  9
$PDSIZE
 40
0.0
  9
$PLINEWID
 40
0.0
  9
$SPLFRAME
 70
     0
  9
$SPLINETYPE
 70
     6
  9
$SPLINESEGS
 70
     8
  9
$HANDSEED
  5
160D6
  9
$SURFTAB1
 70
     6
  9
$SURFTAB2
 70
     6
  9
$SURFTYPE
 70
     6
  9
$SURFU
 70
     6
  9
$SURFV
 70
     6
  9
$UCSBASE
  2

  9
$UCSNAME
  2

  9
$UCSORG
 10
0.0
 20
0.0
 30
0.0
  9
$UCSXDIR
 10
1.0
 20
0.0
 30
0.0
  9
$UCSYDIR
 10
0.0
 20
1.0
 30
0.0
  9
$UCSORTHOREF
  2

  9
$UCSORTHOVIEW
 70
     0
  9
$UCSORGTOP
 10
0.0
 20
0.0
 30
0.0
  9
$UCSORGBOTTOM
 10
0.0
 20
0.0
 30
0.0
  9
$UCSORGLEFT
 10
0.0
 20
0.0
 30
0.0
  9
$UCSORGRIGHT
 10
0.0
 20
0.0
 30
0.0
  9
$UCSORGFRONT
 10
0.0
 20
0.0
 30
0.0
  9
$UCSORGBACK
 10
0.0
 20
0.0
 30
0.0
  9
$PUCSBASE
  2

  9
$PUCSNAME
  2

  9
$PUCSORG
 10
0.0
 20
0.0
 30
0.0
  9
$PUCSXDIR
 10
1.0
 20
0.0
 30
0.0
  9
$PUCSYDIR
 10
0.0
 20
1.0
 30
0.0
  9
$PUCSORTHOREF
  2

  9
$PUCSORTHOVIEW
 70
     0
  9
$PUCSORGTOP
 10
0.0
 20
0.0
 30
0.0
  9
$PUCSORGBOTTOM
 10
0.0
 20
0.0
 30
0.0
  9
$PUCSORGLEFT
 10
0.0
 20
0.0
 30
0.0
  9
$PUCSORGRIGHT
 10
0.0
 20
0.0
 30
0.0
  9
$PUCSORGFRONT
 10
0.0
 20
0.0
 30
0.0
  9
$PUCSORGBACK
 10
0.0
 20
0.0
 30
0.0
  9
$USERI1
 70
     0
  9
$USERI2
 70
     0
  9
$USERI3
 70
     0
  9
$USERI4
 70
     0
  9
$USERI5
 70
     0
  9
$USERR1
 40
0.0
  9
$USERR2
 40
0.0
  9
$USERR3
 40
0.0
  9
$USERR4
 40
0.0
  9
$USERR5
 40
0.0
  9
$WORLDVIEW
 70
     1
  9
$SHADEDGE
 70
     3
  9
$SHADEDIF
 70
    70
  9
$TILEMODE
 70
     1
  9
$MAXACTVP
 70
    48
  9
$PINSBASE
 10
0.0
 20
0.0
 30
0.0
  9
$PLIMCHECK
 70
     0
  9
$PEXTMIN
 10
0.0
 20
0.0
 30
0.0
  9
$PEXTMAX
 10
0.0
 20
0.0
 30
0.0
  9
$PLIMMIN
 10
0.0
 20
0.0
  9
$PLIMMAX
 10
0.0
 20
0.0
  9
$UNITMODE
 70
     0
  9
$VISRETAIN
 70
     1
  9
$PLINEGEN
 70
     0
  9
$PSLTSCALE
 70
     1
  9
$TREEDEPTH
 70
  3020
  9
$CMLSTYLE
  2
STANDARD
  9
$CMLJUST
 70
     0
  9
$CMLSCALE
 40
1.0
  9
$PROXYGRAPHICS
 70
     1
  9
$MEASUREMENT
 70
     0
  9
$CELWEIGHT
370
    -1
  9
$ENDCAPS
280
     0
  9
$JOINSTYLE
280
     0
  9
$LWDISPLAY
290
     0
  9
$INSUNITS
 70
     0
  9
$HYPERLINKBASE
  1

  9
$STYLESHEET
  1
MONOCHROME.CTB
  9
$XEDIT
290
     1
  9
$CEPSNTYPE
380
     0
  9
$PSTYLEMODE
290
     1
  9
$FINGERPRINTGUID
  2

  9
$VERSIONGUID
  2
{D189ADB0-186C-4D22-B299-F1DCFEED4C0E}
  9
$EXTNAMES
290
     1
  9
$PSVPSCALE
 40
0.0
  9
$OLESTARTUP
290
     0
  0
ENDSEC
  0
SECTION
  2
CLASSES
  0
CLASS
  1
ACDBDICTIONARYWDFLT
  2
AcDbDictionaryWithDefault
  3
ObjectDBX Classes
 90
        0
280
     0
281
     0
  0
CLASS
  1
ACDBPLACEHOLDER
  2
AcDbPlaceHolder
  3
ObjectDBX Classes
 90
        0
280
     0
281
     0
  0
CLASS
  1
LAYOUT
  2
AcDbLayout
  3
ObjectDBX Classes
 90
        0
280
     0
281
     0
  0
CLASS
  1
DICTIONARYVAR
  2
AcDbDictionaryVar
  3
ObjectDBX Classes
 90
        0
280
     0
281
     0
  0
CLASS
  1
MATERIAL
  2
AcDbMaterial
  3
ObjectDBX Classes
 90
     1153
280
     0
281
     0
  0
CLASS
  1
VISUALSTYLE
  2
AcDbVisualStyle
  3
ObjectDBX Classes
 90
     4095
280
     0
281
     0
  0
CLASS
  1
TABLESTYLE
  2
AcDbTableStyle
  3
ObjectDBX Classes
 90
     4095
280
     0
281
     0
  0
CLASS
  1
SCALE
  2
AcDbScale
  3
ObjectDBX Classes
 90
     1153
280
     0
281
     0
  0
CLASS
  1
MLEADERSTYLE
  2
AcDbMLeaderStyle
  3
ACDB_MLEADERSTYLE_CLASS
 90
     4095
280
     0
281
     0
  0
CLASS
  1
CELLSTYLEMAP
  2
AcDbCellStyleMap
  3
ObjectDBX Classes
 90
     1152
280
     0
281
     0
  0
CLASS
  1
AEC_REFEDIT_STATUS_TRACKER
  2
AecDbRefEditStatusTracker
  3
AecArchBase60|Product Desc: Autodesk Architectural Desktop 2007 |Company: Autodesk,Inc. |WEB Address: www.autodesk.com
 90
    32897
280
     0
281
     0
  0
CLASS
  1
NPOCOLLECTION
  2
AcDbImpNonPersistentObjectsCollection
  3
ObjectDBX Classes
 90
    33921
280
     0
281
     0
  0
CLASS
  1
SORTENTSTABLE
  2
AcDbSortentsTable
  3
ObjectDBX Classes
 90
        0
280
     0
281
     0
  0
ENDSEC
  0
SECTION
  2
TABLES
  0
TABLE
  2
VPORT
  5
8
330
0
100
AcDbSymbolTable
 70
     1
  0
VPORT
  5
12F63
330
8
100
AcDbSymbolTableRecord
100
AcDbViewportTableRecord
  2
*Active
 70
     0
 10
0.0
 20
0.0
 11
1.0
 21
1.0
 12
574.3965111931179
 22
36.87668271464827
 13
0.0
 23
0.0
 14
1.0
 24
1.0
 15
10.0
 25
10.0
 16
0.0
 26
0.0
 36
1.0
 17
0.0
 27
0.0
 37
0.0
 40
635.972405955737
 41
1.737931034482758
 42
50.0
 43
0.0
 44
0.0
 50
0.0
 51
0.0
 71
     0
 72
   100
 73
     1
 74
     1
 75
     0
 76
     1
 77
     0
 78
     1
281
     0
 65
     1
110
0.0
120
0.0
130
0.0
111
1.0
121
0.0
131
0.0
112
0.0
122
1.0
132
0.0
 79
     0
146
0.0
  0
ENDTAB
  0
TABLE
  2
LTYPE
  5
5
330
0
100
AcDbSymbolTable
 70
     6
  0
LTYPE
  5
13
330
5
100
AcDbSymbolTableRecord
100
AcDbLinetypeTableRecord
  2
BYBLOCK
 70
     0
  3

 72
    65
 73
     0
 40
0.0
  0
LTYPE
  5
14
330
5
100
AcDbSymbolTableRecord
100
AcDbLinetypeTableRecord
  2
BYLAYER
 70
     0
  3

 72
    65
 73
     0
 40
0.0
  0
LTYPE
  5
15
330
5
100
AcDbSymbolTableRecord
100
AcDbLinetypeTableRecord
  2
CONTINUOUS
 70
     0
  3
Solid line
 72
    65
 73
     0
 40
0.0
  0
LTYPE
  5
22
330
5
100
AcDbSymbolTableRecord
100
AcDbLinetypeTableRecord
  2
CONTINOUS
 70
     0
  3
Solid line
 72
    65
 73
     0
 40
0.0
  0
LTYPE
  5
23
330
5
100
AcDbSymbolTableRecord
100
AcDbLinetypeTableRecord
  2
DASHED
 70
     0
  3
__ __ __ __ __ __ __ __ __ __ __ __ __ __ __
 72
    65
 73
     2
 40
0.75
 49
0.5
 74
     0
 49
-0.25
 74
     0
  0
LTYPE
  5
24
330
5
100
AcDbSymbolTableRecord
100
AcDbLinetypeTableRecord
  2
DASHDOT
 70
     0
  3
__ . __ . __ . __ . __ . __ . __ . __ . __ . __
 72
    65
 73
     4
 40
1.0
 49
0.5
 74
     0
 49
-0.25
 74
     0
 49
0.0
 74
     0
 49
-0.25
 74
     0
  0
LTYPE
  5
4C47
330
5
100
AcDbSymbolTableRecord
100
AcDbLinetypeTableRecord
  2
DIVIDE
 70
     0
  3
Divide ____ . . ____ . . ____ . . ____ . . ____
 72
    65
 73
     6
 40
1.25
 49
0.5
 74
     0
 49
-0.25
 74
     0
 49
0.0
 74
     0
 49
-0.25
 74
     0
 49
0.0
 74
     0
 49
-0.25
 74
     0
  0
LTYPE
  5
6FA1
330
5
100
AcDbSymbolTableRecord
100
AcDbLinetypeTableRecord
  2
HIDDEN
 70
     0
  3
_ _ _ _ _ _ _ _ _ _ _ _ _ _ _ _ _ _ _ _ _ _ _
 72
    65
 73
     2
 40
0.5
 49
0.25
 74
     0
 49
-0.25
 74
     0
  0
ENDTAB
  0
TABLE
  2
LAYER
  5
2
330
0
100
AcDbSymbolTable
 70
    11
  0
LAYER
  5
10
102
{ACAD_XDICTIONARY
360
E512
102
}
330
2
100
AcDbSymbolTableRecord
100
AcDbLayerTableRecord
  2
0
 70
     0
 62
     7
  6
CONTINOUS
370
    -3
390
F
  0
LAYER
  5
2F
102
{ACAD_XDICTIONARY
360
E514
102
}
330
2
100
AcDbSymbolTableRecord
100
AcDbLayerTableRecord
  2
10
 70
     0
 62
     1
  6
CONTINOUS
370
    -3
390
F
  0
LAYER
  5
31
102
{ACAD_XDICTIONARY
360
E516
102
}
330
2
100
AcDbSymbolTableRecord
100
AcDbLayerTableRecord
  2
12
 70
     0
 62
     3
  6
DASHED
370
    -3
390
F
  0
LAYER
  5
35
102
{ACAD_XDICTIONARY
360
E518
102
}
330
2
100
AcDbSymbolTableRecord
100
AcDbLayerTableRecord
  2
16
 70
     0
 62
     6
  6
DASHDOT
370
    -3
390
F
  0
LAYER
  5
3D
102
{ACAD_XDICTIONARY
360
E51C
102
}
330
2
100
AcDbSymbolTableRecord
100
AcDbLayerTableRecord
  2
24
 70
     0
 62
     2
  6
CONTINOUS
370
    -3
390
F
  0
LAYER
  5
3A2
102
{ACAD_XDICTIONARY
360
E51E
102
}
330
2
100
AcDbSymbolTableRecord
100
AcDbLayerTableRecord
  2
30
 70
     0
 62
     9
  6
CONTINUOUS
370
    -3
390
F
  0
LAYER
  5
3A4
330
2
100
AcDbSymbolTableRecord
100
AcDbLayerTableRecord
  2
DEFPOINTS
 70
     0
 62
     7
  6
CONTINUOUS
290
     0
370
    -3
390
F
  0
LAYER
  5
3BBA
102
{ACAD_XDICTIONARY
360
E520
102
}
330
2
100
AcDbSymbolTableRecord
100
AcDbLayerTableRecord
  2
18
 70
     0
 62
     5
  6
DIVIDE
370
    -3
390
F
  0
LAYER
  5
7837
102
{ACAD_XDICTIONARY
360
E524
102
}
330
2
100
AcDbSymbolTableRecord
100
AcDbLayerTableRecord
  2
17
 70
     0
 62
     2
  6
DASHDOT
370
    -3
390
F
  0
LAYER
  5
7BC8
102
{ACAD_XDICTIONARY
360
E526
102
}
330
2
100
AcDbSymbolTableRecord
100
AcDbLayerTableRecord
  2
1
 70
     0
 62
     7
  6
CONTINUOUS
370
    -3
390
F
  0
LAYER
  5
E473
102
{ACAD_XDICTIONARY
360
E534
102
}
330
2
100
AcDbSymbolTableRecord
100
AcDbLayerTableRecord
  2
130
 70
     0
 62
     4
  6
CONTINUOUS
370
    -3
390
F
  0
ENDTAB
  0
TABLE
  2
STYLE
  5
3
330
0
100
AcDbSymbolTable
 70
     2
  0
STYLE
  5
11
330
3
100
AcDbSymbolTableRecord
100
AcDbTextStyleTableRecord
  2
STANDARD
 70
     0
 40
0.0
 41
1.0
 50
0.0
 71
     0
 42
2.0
  3
txt.shx
  4
bigfont.shx
  0
STYLE
  5
C503
330
3
100
AcDbSymbolTableRecord
100
AcDbTextStyleTableRecord
  2
blockfont
 70
     0
 40
0.0
 41
1.0
 50
0.0
 71
     0
 42
0.2
  3
simplex.shx
  4
bigfont
  0
ENDTAB
  0
TABLE
  2
VIEW
  5
6
330
0
100
AcDbSymbolTable
 70
     3
  0
VIEW
  5
230C
330
6
100
AcDbSymbolTableRecord
100
AcDbViewTableRecord
  2
OLE1
 70
     0
 40
148.912488
 10
429.497628
 20
2.560627
 41
103.145806
 11
0.0
 21
0.0
 31
1.0
 12
0.0
 22
0.0
 32
0.0
 42
50.0
 43
0.0
 44
0.0
 50
0.0
 71
     0
281
     0
 72
     0
  0
VIEW
  5
230E
330
6
100
AcDbSymbolTableRecord
100
AcDbViewTableRecord
  2
OLE2
 70
     0
 40
170.778692
 10
322.66497
 20
-5.978304
 41
102.467215
 11
0.0
 21
0.0
 31
1.0
 12
0.0
 22
0.0
 32
0.0
 42
50.0
 43
0.0
 44
0.0
 50
0.0
 71
     0
281
     0
 72
     0
  0
VIEW
  5
23AA
330
6
100
AcDbSymbolTableRecord
100
AcDbViewTableRecord
  2
OLE3
 70
     0
 40
591.7897389999998
 10
84.79698199999999
 20
-46.09335999999998
 41
388.792096
 11
0.0
 21
0.0
 31
1.0
 12
0.0
 22
0.0
 32
0.0
 42
50.0
 43
0.0
 44
0.0
 50
0.0
 71
     0
281
     0
 72
     0
  0
ENDTAB
  0
TABLE
  2
UCS
  5
7
330
0
100
AcDbSymbolTable
 70
     0
  0
ENDTAB
  0
TABLE
  2
APPID
  5
9
330
0
100
AcDbSymbolTable
 70
     6
  0
APPID
  5
12
330
9
100
AcDbSymbolTableRecord
100
AcDbRegAppTableRecord
  2
ACAD
 70
     0
  0
APPID
  5
ECD
330
9
100
AcDbSymbolTableRecord
100
AcDbRegAppTableRecord
  2
CONTENTBLOCKICON
 70
     0
  0
APPID
  5
E582
330
9
100
AcDbSymbolTableRecord
100
AcDbRegAppTableRecord
  2
DCO15
 70
     0
  0
APPID
  5
F8B0
330
9
100
AcDbSymbolTableRecord
100
AcDbRegAppTableRecord
  2
ACAD_MLEADERVER
 70
     0
  0
APPID
  5
F8D5
330
9
100
AcDbSymbolTableRecord
100
AcDbRegAppTableRecord
  2
ACAD_PSEXT
 70
     0
  0
APPID
  5
F997
330
9
100
AcDbSymbolTableRecord
100
AcDbRegAppTableRecord
  2
ACAD_EXEMPT_FROM_CAD_STANDARDS
 70
     0
  0
ENDTAB
  0
TABLE
  2
DIMSTYLE
  5
A
330
0
100
AcDbSymbolTable
 70
     2
100
AcDbDimStyleTable
 71
     2
340
C24A
340
175
  0
DIMSTYLE
105
175
330
A
100
AcDbSymbolTableRecord
100
AcDbDimStyleTableRecord
  2
STANDARD
 70
     0
 41
2.0
 42
1.0
 43
0.5
 44
0.5
 73
     0
 77
     3
 78
    12
140
4.0
147
1.0
271
     1
272
     1
340
11
341
3B2
342
3B2
  0
DIMSTYLE
105
C24A
102
{ACAD_REACTORS
330
132F0
330
132ED
330
132F1
330
132EF
330
132EC
330
132F3
330
132EE
330
132EB
330
13919
330
1391A
330
1391C
330
13923
330
13927
330
13922
330
13921
330
13FD9
330
13FD1
330
13FD8
330
13FD7
330
13FDB
330
13FD6
330
13FDD
330
13FD3
330
13FD2
330
13FD4
330
13FD5
330
145AD
330
145AC
330
145A8
330
145AA
330
145A9
330
145AB
330
146C9
330
147E0
102
}
330
A
100
AcDbSymbolTableRecord
100
AcDbDimStyleTableRecord
  2
STANDARD1
 70
     0
 41
2.0
 42
3.0
 43
0.5
 44
0.5
 73
     0
 74
     0
 77
     3
 78
    12
140
6.0
147
2.0
172
     1
271
     8
272
     8
289
     2
340
11
341
3B2
342
3B2
  0
ENDTAB
  0
TABLE
  2
BLOCK_RECORD
  5
1
330
0
100
AcDbSymbolTable
 70
    37
  0
BLOCK_RECORD
  5
1E
102
{ACAD_XDICTIONARY
360
178
102
}
330
1
100
AcDbSymbolTableRecord
100
AcDbBlockTableRecord
  2
*MODEL_SPACE
340
904E
  0
BLOCK_RECORD
  5
1A
102
{ACAD_XDICTIONARY
360
17A
102
}
330
1
100
AcDbSymbolTableRecord
100
AcDbBlockTableRecord
  2
*PAPER_SPACE
340
904F
  0
BLOCK_RECORD
  5
3B2
330
1
100
AcDbSymbolTableRecord
100
AcDbBlockTableRecord
  2
_OPEN
340
0
102
{BLKREFS
331
14448
331
14449
331
14451
331
14452
331
1445A
331
1445B
331
1446C
331
1446D
331
14491
331
14492
331
1449A
331
1449B
331
144A3
331
144A4
331
144AC
331
144AD
331
144B5
331
144B6
331
144E4
331
144E5
331
144F8
331
144F9
331
15A72
331
15A73
331
15B05
331
15B06
331
15B10
331
15B11
331
15B19
331
15B1A
331
15B2B
331
15B2C
331
15B36
331
15B37
331
15B3F
331
15B40
331
15D47
331
15D48
331
15D52
331
15D53
331
15D5C
331
15D5D
331
15D66
331
15D67
331
15D6E
331
15D6F
331
15D75
331
15D76
331
15EAC
331
15EAD
331
15EB5
331
15EB6
331
15EBC
331
15F0F
331
15F10
331
15F27
331
15F28
331
15F31
331
15F32
331
15F3A
331
15F3B
331
15F43
331
15F44
331
15F4C
331
15F4D
331
15F54
331
15FB0
331
15FB1
331
16014
331
16015
102
}
  0
BLOCK_RECORD
  5
132F4
330
1
100
AcDbSymbolTableRecord
100
AcDbBlockTableRecord
  2
*D1
340
0
  0
BLOCK_RECORD
  5
13302
330
1
100
AcDbSymbolTableRecord
100
AcDbBlockTableRecord
  2
*D2
340
0
  0
BLOCK_RECORD
  5
13310
330
1
100
AcDbSymbolTableRecord
100
AcDbBlockTableRecord
  2
*D3
340
0
  0
BLOCK_RECORD
  5
1331D
330
1
100
AcDbSymbolTableRecord
100
AcDbBlockTableRecord
  2
*D4
340
0
  0
BLOCK_RECORD
  5
1332A
330
1
100
AcDbSymbolTableRecord
100
AcDbBlockTableRecord
  2
*D5
340
0
  0
BLOCK_RECORD
  5
13337
330
1
100
AcDbSymbolTableRecord
100
AcDbBlockTableRecord
  2
*D6
340
0
  0
BLOCK_RECORD
  5
13343
330
1
100
AcDbSymbolTableRecord
100
AcDbBlockTableRecord
  2
*D7
340
0
  0
BLOCK_RECORD
  5
13356
330
1
100
AcDbSymbolTableRecord
100
AcDbBlockTableRecord
  2
*D8
340
0
  0
BLOCK_RECORD
  5
13938
330
1
100
AcDbSymbolTableRecord
100
AcDbBlockTableRecord
  2
*D9
340
0
  0
BLOCK_RECORD
  5
13945
330
1
100
AcDbSymbolTableRecord
100
AcDbBlockTableRecord
  2
*D10
340
0
  0
BLOCK_RECORD
  5
1395F
330
1
100
AcDbSymbolTableRecord
100
AcDbBlockTableRecord
  2
*D11
340
0
  0
BLOCK_RECORD
  5
1399F
330
1
100
AcDbSymbolTableRecord
100
AcDbBlockTableRecord
  2
*D12
340
0
  0
BLOCK_RECORD
  5
139AB
330
1
100
AcDbSymbolTableRecord
100
AcDbBlockTableRecord
  2
*D13
340
0
  0
BLOCK_RECORD
  5
139B7
330
1
100
AcDbSymbolTableRecord
100
AcDbBlockTableRecord
  2
*D14
340
0
  0
BLOCK_RECORD
  5
139E8
330
1
100
AcDbSymbolTableRecord
100
AcDbBlockTableRecord
  2
*D15
340
0
  0
BLOCK_RECORD
  5
13FDE
330
1
100
AcDbSymbolTableRecord
100
AcDbBlockTableRecord
  2
*D16
340
0
  0
BLOCK_RECORD
  5
13FEA
330
1
100
AcDbSymbolTableRecord
100
AcDbBlockTableRecord
  2
*D17
340
0
  0
BLOCK_RECORD
  5
13FF7
330
1
100
AcDbSymbolTableRecord
100
AcDbBlockTableRecord
  2
*D18
340
0
  0
BLOCK_RECORD
  5
14004
330
1
100
AcDbSymbolTableRecord
100
AcDbBlockTableRecord
  2
*D19
340
0
  0
BLOCK_RECORD
  5
14011
330
1
100
AcDbSymbolTableRecord
100
AcDbBlockTableRecord
  2
*D20
340
0
  0
BLOCK_RECORD
  5
1401E
330
1
100
AcDbSymbolTableRecord
100
AcDbBlockTableRecord
  2
*D21
340
0
  0
BLOCK_RECORD
  5
1402A
330
1
100
AcDbSymbolTableRecord
100
AcDbBlockTableRecord
  2
*D22
340
0
  0
BLOCK_RECORD
  5
14037
330
1
100
AcDbSymbolTableRecord
100
AcDbBlockTableRecord
  2
*D23
340
0
  0
BLOCK_RECORD
  5
14043
330
1
100
AcDbSymbolTableRecord
100
AcDbBlockTableRecord
  2
*D24
340
0
  0
BLOCK_RECORD
  5
1404F
330
1
100
AcDbSymbolTableRecord
100
AcDbBlockTableRecord
  2
*D25
340
0
  0
BLOCK_RECORD
  5
1405B
330
1
100
AcDbSymbolTableRecord
100
AcDbBlockTableRecord
  2
*D26
340
0
  0
BLOCK_RECORD
  5
14067
330
1
100
AcDbSymbolTableRecord
100
AcDbBlockTableRecord
  2
*D27
340
0
  0
BLOCK_RECORD
  5
14074
330
1
100
AcDbSymbolTableRecord
100
AcDbBlockTableRecord
  2
*D28
340
0
  0
BLOCK_RECORD
  5
145AF
330
1
100
AcDbSymbolTableRecord
100
AcDbBlockTableRecord
  2
*D29
340
0
  0
BLOCK_RECORD
  5
145BB
330
1
100
AcDbSymbolTableRecord
100
AcDbBlockTableRecord
  2
*D30
340
0
  0
BLOCK_RECORD
  5
145C8
330
1
100
AcDbSymbolTableRecord
100
AcDbBlockTableRecord
  2
*D31
340
0
  0
BLOCK_RECORD
  5
145D5
330
1
100
AcDbSymbolTableRecord
100
AcDbBlockTableRecord
  2
*D32
340
0
  0
BLOCK_RECORD
  5
145E1
330
1
100
AcDbSymbolTableRecord
100
AcDbBlockTableRecord
  2
*D33
340
0
  0
BLOCK_RECORD
  5
145ED
330
1
100
AcDbSymbolTableRecord
100
AcDbBlockTableRecord
  2
*D34
340
0
  0
BLOCK_RECORD
  5
146CA
330
1
100
AcDbSymbolTableRecord
100
AcDbBlockTableRecord
  2
*D35
340
0
  0
BLOCK_RECORD
  5
147E2
330
1
100
AcDbSymbolTableRecord
100
AcDbBlockTableRecord
  2
*D36
340
0
  0
ENDTAB
  0
ENDSEC
  0
SECTION
  2
BLOCKS
  0
BLOCK
  5
1F
330
1E
100
AcDbEntity
  8
0
100
AcDbBlockBegin
  2
*MODEL_SPACE
 70
     0
 10
0.0
 20
0.0
 30
0.0
  3
*MODEL_SPACE
  1

  0
ENDBLK
  5
20
330
1E
100
AcDbEntity
  8
0
100
AcDbBlockEnd
  0
BLOCK
  5
1B
330
1A
100
AcDbEntity
 67
     1
  8
0
100
AcDbBlockBegin
  2
*PAPER_SPACE
 70
     0
 10
0.0
 20
0.0
 30
0.0
  3
*PAPER_SPACE
  1

  0
ENDBLK
  5
1C
330
1A
100
AcDbEntity
 67
     1
  8
0
100
AcDbBlockEnd
  0
BLOCK
  5
3B6
330
3B2
100
AcDbEntity
  8
0
100
AcDbBlockBegin
  2
_OPEN
 70
     0
 10
0.0
 20
0.0
 30
0.0
  3
_OPEN
  1

  0
LINE
  5
3B3
330
3B2
100
AcDbEntity
  8
30
  6
Continuous
 62
     0
100
AcDbLine
 10
-1.0
 20
0.166667
 30
0.0
 11
0.0
 21
0.0
 31
0.0
  0
LINE
  5
3B4
330
3B2
100
AcDbEntity
  8
30
  6
Continuous
 62
     0
100
AcDbLine
 10
-1.0
 20
-0.166667
 30
0.0
 11
0.0
 21
0.0
 31
0.0
  0
LINE
  5
3B5
330
3B2
100
AcDbEntity
  8
30
  6
Continuous
 62
     0
100
AcDbLine
 10
0.0
 20
0.0
 30
0.0
 11
-1.0
 21
0.0
 31
0.0
  0
ENDBLK
  5
3B7
330
3B2
100
AcDbEntity
  8
0
100
AcDbBlockEnd
  0
BLOCK
  5
132F5
330
132F4
100
AcDbEntity
  8
0
100
AcDbBlockBegin
  2
*D1
 70
     1
 10
0.0
 20
0.0
 30
0.0
  3
*D1
  1

  0
LINE
  5
15D43
330
132F4
100
AcDbEntity
  8
30
 62
     0
370
    -2
100
AcDbLine
 10
670.7596557644063
 20
309.0
 30
0.0
 11
690.2870437644065
 21
309.0
 31
0.0
  0
LINE
  5
15D44
330
132F4
100
AcDbEntity
  8
30
 62
     0
370
    -2
100
AcDbLine
 10
670.7596557644063
 20
300.0
 30
0.0
 11
690.2870437644065
 21
300.0
 31
0.0
  0
LINE
  5
15D45
330
132F4
100
AcDbEntity
  8
30
 62
     0
370
    -2
100
AcDbLine
 10
689.7870437644066
 20
307.0
 30
0.0
 11
689.7870437644066
 21
302.0
 31
0.0
  0
LINE
  5
15D46
330
132F4
100
AcDbEntity
  8
30
 62
     0
370
    -2
100
AcDbLine
 10
689.7870437644066
 20
300.0
 30
0.0
 11
689.7870437644066
 21
254.8
 31
0.0
  0
INSERT
  5
15D47
330
132F4
100
AcDbEntity
  8
30
 62
     0
370
    -2
100
AcDbBlockReference
  2
_OPEN
 10
689.7870437644066
 20
309.0
 30
0.0
 41
2.0
 42
2.0
 43
2.0
 50
90.0
  0
INSERT
  5
15D48
330
132F4
100
AcDbEntity
  8
30
 62
     0
370
    -2
100
AcDbBlockReference
  2
_OPEN
 10
689.7870437644066
 20
300.0
 30
0.0
 41
2.0
 42
2.0
 43
2.0
 50
270.0
  0
MTEXT
  5
15D49
330
132F4
100
AcDbEntity
  8
30
 62
     0
100
AcDbMText
 10
684.7870437644067
 20
276.4000000000001
 30
0.0
 40
6.0
 41
0.0
 71
     5
 72
     1
  1
\A1; 9 (max.)
 11
0.0000000000000001
 21
1.0
 31
0.0
 73
     1
 44
1.0
1001
ACAD
1000
MTEXTBEGIN
1070
    73
1070
     1
1070
    44
1040
1.0
1070
    74
1070
     0
1000
MTEXTEND
  0
POINT
  5
15D4A
330
132F4
100
AcDbEntity
  8
DEFPOINTS
 62
     0
100
AcDbPoint
 10
667.7596557644065
 20
309.0
 30
0.0
  0
POINT
  5
15D4B
330
132F4
100
AcDbEntity
  8
DEFPOINTS
 62
     0
100
AcDbPoint
 10
667.7596557644065
 20
300.0
 30
0.0
  0
POINT
  5
15D4C
330
132F4
100
AcDbEntity
  8
DEFPOINTS
 62
     0
100
AcDbPoint
 10
689.7870437644066
 20
300.0
 30
0.0
  0
ENDBLK
  5
132F6
330
132F4
100
AcDbEntity
  8
0
100
AcDbBlockEnd
  0
BLOCK
  5
13303
330
13302
100
AcDbEntity
  8
0
100
AcDbBlockBegin
  2
*D2
 70
     1
 10
0.0
 20
0.0
 30
0.0
  3
*D2
  1

  0
LINE
  5
15D4D
330
13302
100
AcDbEntity
  8
30
 62
     0
370
    -2
100
AcDbLine
 10
583.7569117644062
 20
306.5
 30
0.0
 11
599.2842997644067
 21
306.5
 31
0.0
  0
LINE
  5
15D4E
330
13302
100
AcDbEntity
  8
30
 62
     0
370
    -2
100
AcDbLine
 10
583.7569117644062
 20
300.0
 30
0.0
 11
599.2842997644067
 21
300.0
 31
0.0
  0
LINE
  5
15D4F
330
13302
100
AcDbEntity
  8
30
 62
     0
370
    -2
100
AcDbLine
 10
598.7842997644066
 20
308.5
 30
0.0
 11
598.7842997644066
 21
310.5
 31
0.0
  0
LINE
  5
15D50
330
13302
100
AcDbEntity
  8
30
 62
     0
370
    -2
100
AcDbLine
 10
598.7842997644066
 20
298.0
 30
0.0
 11
598.7842997644062
 21
244.8
 31
0.0
  0
LINE
  5
15D51
330
13302
100
AcDbEntity
  8
30
 62
     0
370
    -2
100
AcDbLine
 10
598.7842997644066
 20
306.5
 30
0.0
 11
598.7842997644066
 21
300.0
 31
0.0
  0
INSERT
  5
15D52
330
13302
100
AcDbEntity
  8
30
 62
     0
370
    -2
100
AcDbBlockReference
  2
_OPEN
 10
598.7842997644066
 20
306.5
 30
0.0
 41
2.0
 42
2.0
 43
2.0
 50
270.0
  0
INSERT
  5
15D53
330
13302
100
AcDbEntity
  8
30
 62
     0
370
    -2
100
AcDbBlockReference
  2
_OPEN
 10
598.7842997644066
 20
300.0
 30
0.0
 41
2.0
 42
2.0
 43
2.0
 50
90.0
  0
MTEXT
  5
15D54
330
13302
100
AcDbEntity
  8
30
 62
     0
100
AcDbMText
 10
593.7842997644062
 20
270.4
 30
0.0
 40
6.0
 41
0.0
 71
     5
 72
     1
  1
\A1; 6.5 (max.)
 11
0.0000000000000001
 21
1.0
 31
0.0
 73
     1
 44
1.0
1001
ACAD
1000
MTEXTBEGIN
1070
    73
1070
     1
1070
    44
1040
1.0
1070
    74
1070
     0
1000
MTEXTEND
  0
POINT
  5
15D55
330
13302
100
AcDbEntity
  8
DEFPOINTS
 62
     0
100
AcDbPoint
 10
580.7569117644062
 20
306.5
 30
0.0
  0
POINT
  5
15D56
330
13302
100
AcDbEntity
  8
DEFPOINTS
 62
     0
100
AcDbPoint
 10
580.7569117644062
 20
300.0
 30
0.0
  0
POINT
  5
15D57
330
13302
100
AcDbEntity
  8
DEFPOINTS
 62
     0
100
AcDbPoint
 10
598.7842997644066
 20
300.0
 30
0.0
  0
ENDBLK
  5
13304
330
13302
100
AcDbEntity
  8
0
100
AcDbBlockEnd
  0
BLOCK
  5
13311
330
13310
100
AcDbEntity
  8
0
100
AcDbBlockBegin
  2
*D3
 70
     1
 10
0.0
 20
0.0
 30
0.0
  3
*D3
  1

  0
LINE
  5
15EA9
330
13310
100
AcDbEntity
  8
30
 62
     0
370
    -2
100
AcDbLine
 10
462.4999999999997
 20
324.2
 30
0.0
 11
486.0793
 21
324.2
 31
0.0
  0
LINE
  5
15EAA
330
13310
100
AcDbEntity
  8
30
 62
     0
370
    -2
100
AcDbLine
 10
449.9999999999998
 20
279.0
 30
0.0
 11
486.0793
 21
279.0
 31
0.0
  0
LINE
  5
15EAB
330
13310
100
AcDbEntity
  8
30
 62
     0
370
    -2
100
AcDbLine
 10
485.5793
 20
322.2
 30
0.0
 11
485.5793
 21
281.0
 31
0.0
  0
INSERT
  5
15EAC
330
13310
100
AcDbEntity
  8
30
 62
     0
370
    -2
100
AcDbBlockReference
  2
_OPEN
 10
485.5793
 20
324.2
 30
0.0
 41
2.0
 42
2.0
 43
2.0
 50
90.0
  0
INSERT
  5
15EAD
330
13310
100
AcDbEntity
  8
30
 62
     0
370
    -2
100
AcDbBlockReference
  2
_OPEN
 10
485.5793
 20
279.0
 30
0.0
 41
2.0
 42
2.0
 43
2.0
 50
270.0
  0
MTEXT
  5
15EAE
330
13310
100
AcDbEntity
  8
30
 62
     0
100
AcDbMText
 10
480.5793
 20
301.6000000000001
 30
0.0
 40
6.0
 41
0.0
 71
     5
 72
     1
  1
\A1; 45.2 
 11
0.0000000000000001
 21
1.0
 31
0.0
 73
     1
 44
1.0
1001
ACAD
1000
MTEXTBEGIN
1070
    73
1070
     1
1070
    44
1040
1.0
1070
    74
1070
     0
1000
MTEXTEND
  0
POINT
  5
15EAF
330
13310
100
AcDbEntity
  8
DEFPOINTS
 62
     0
100
AcDbPoint
 10
459.4999999999997
 20
324.2
 30
0.0
  0
POINT
  5
15EB0
330
13310
100
AcDbEntity
  8
DEFPOINTS
 62
     0
100
AcDbPoint
 10
446.9999999999997
 20
279.0
 30
0.0
  0
POINT
  5
15EB1
330
13310
100
AcDbEntity
  8
DEFPOINTS
 62
     0
100
AcDbPoint
 10
485.5793
 20
279.0
 30
0.0
  0
ENDBLK
  5
13312
330
13310
100
AcDbEntity
  8
0
100
AcDbBlockEnd
  0
BLOCK
  5
1331E
330
1331D
100
AcDbEntity
  8
0
100
AcDbBlockBegin
  2
*D4
 70
     1
 10
0.0
 20
0.0
 30
0.0
  3
*D4
  1

  0
LINE
  5
15D58
330
1331D
100
AcDbEntity
  8
30
 62
     0
370
    -2
100
AcDbLine
 10
658.7576557644062
 20
295.0
 30
0.0
 11
658.7576557644062
 21
279.5
 31
0.0
  0
LINE
  5
15D59
330
1331D
100
AcDbEntity
  8
30
 62
     0
370
    -2
100
AcDbLine
 10
672.7576557644063
 20
295.0
 30
0.0
 11
672.7576557644063
 21
279.5
 31
0.0
  0
LINE
  5
15D5A
330
1331D
100
AcDbEntity
  8
30
 62
     0
370
    -2
100
AcDbLine
 10
670.7576557644062
 20
280.0
 30
0.0
 11
660.7576557644063
 21
280.0
 31
0.0
  0
LINE
  5
15D5B
330
1331D
100
AcDbEntity
  8
30
 62
     0
370
    -2
100
AcDbLine
 10
658.7576557644062
 20
280.0
 30
0.0
 11
609.5576557644062
 21
280.0
 31
0.0
  0
INSERT
  5
15D5C
330
1331D
100
AcDbEntity
  8
30
 62
     0
370
    -2
100
AcDbBlockReference
  2
_OPEN
 10
672.7576557644063
 20
280.0
 30
0.0
 41
2.0
 42
2.0
 43
2.0
  0
INSERT
  5
15D5D
330
1331D
100
AcDbEntity
  8
30
 62
     0
370
    -2
100
AcDbBlockReference
  2
_OPEN
 10
658.7576557644062
 20
280.0
 30
0.0
 41
2.0
 42
2.0
 43
2.0
 50
180.0
  0
MTEXT
  5
15D5E
330
1331D
100
AcDbEntity
  8
30
 62
     0
100
AcDbMText
 10
633.1576557644062
 20
290.0
 30
0.0
 40
6.0
 41
0.0
 71
     5
 72
     1
  1
\A1; 14 (max.) \Pmax.t5
 73
     1
 44
1.0
1001
ACAD
1000
MTEXTBEGIN
1070
    73
1070
     1
1070
    44
1040
1.0
1070
    74
1070
     0
1000
MTEXTEND
  0
POINT
  5
15D5F
330
1331D
100
AcDbEntity
  8
DEFPOINTS
 62
     0
100
AcDbPoint
 10
658.7576557644062
 20
298.0
 30
0.0
  0
POINT
  5
15D60
330
1331D
100
AcDbEntity
  8
DEFPOINTS
 62
     0
100
AcDbPoint
 10
672.7576557644063
 20
298.0
 30
0.0
  0
POINT
  5
15D61
330
1331D
100
AcDbEntity
  8
DEFPOINTS
 62
     0
100
AcDbPoint
 10
672.7576557644063
 20
280.0
 30
0.0
  0
ENDBLK
  5
1331F
330
1331D
100
AcDbEntity
  8
0
100
AcDbBlockEnd
  0
BLOCK
  5
1332B
330
1332A
100
AcDbEntity
  8
0
100
AcDbBlockBegin
  2
*D5
 70
     1
 10
0.0
 20
0.0
 30
0.0
  3
*D5
  1

  0
LINE
  5
15D62
330
1332A
100
AcDbEntity
  8
30
 62
     0
370
    -2
100
AcDbLine
 10
570.5049117644066
 20
295.0
 30
0.0
 11
570.5049117644066
 21
279.5
 31
0.0
  0
LINE
  5
15D63
330
1332A
100
AcDbEntity
  8
30
 62
     0
370
    -2
100
AcDbLine
 10
587.0049117644066
 20
295.0
 30
0.0
 11
587.0049117644066
 21
279.5
 31
0.0
  0
LINE
  5
15D64
330
1332A
100
AcDbEntity
  8
30
 62
     0
370
    -2
100
AcDbLine
 10
585.0049117644066
 20
280.0
 30
0.0
 11
572.5049117644066
 21
280.0
 31
0.0
  0
LINE
  5
15D65
330
1332A
100
AcDbEntity
  8
30
 62
     0
370
    -2
100
AcDbLine
 10
570.5049117644066
 20
280.0
 30
0.0
 11
510.0
 21
280.0
 31
0.0
  0
INSERT
  5
15D66
330
1332A
100
AcDbEntity
  8
30
 62
     0
370
    -2
100
AcDbBlockReference
  2
_OPEN
 10
587.0049117644066
 20
280.0
 30
0.0
 41
2.0
 42
2.0
 43
2.0
  0
INSERT
  5
15D67
330
1332A
100
AcDbEntity
  8
30
 62
     0
370
    -2
100
AcDbBlockReference
  2
_OPEN
 10
570.5049117644066
 20
280.0
 30
0.0
 41
2.0
 42
2.0
 43
2.0
 50
180.0
  0
MTEXT
  5
15D68
330
1332A
100
AcDbEntity
  8
30
 62
     0
100
AcDbMText
 10
537.6
 20
290.0
 30
0.0
 40
6.0
 41
0.0
 71
     5
 72
     1
  1
\A1; 16.5 (max.) \Pmax.t5
 73
     1
 44
1.0
1001
ACAD
1000
MTEXTBEGIN
1070
    73
1070
     1
1070
    44
1040
1.0
1070
    74
1070
     0
1000
MTEXTEND
  0
POINT
  5
15D69
330
1332A
100
AcDbEntity
  8
DEFPOINTS
 62
     0
100
AcDbPoint
 10
570.5049117644066
 20
298.0
 30
0.0
  0
POINT
  5
15D6A
330
1332A
100
AcDbEntity
  8
DEFPOINTS
 62
     0
100
AcDbPoint
 10
587.0049117644066
 20
298.0
 30
0.0
  0
POINT
  5
15D6B
330
1332A
100
AcDbEntity
  8
DEFPOINTS
 62
     0
100
AcDbPoint
 10
587.0049117644066
 20
280.0
 30
0.0
  0
ENDBLK
  5
1332C
330
1332A
100
AcDbEntity
  8
0
100
AcDbBlockEnd
  0
BLOCK
  5
13338
330
13337
100
AcDbEntity
  8
0
100
AcDbBlockBegin
  2
*D6
 70
     1
 10
0.0
 20
0.0
 30
0.0
  3
*D6
  1

  0
LINE
  5
15EB2
330
13337
100
AcDbEntity
  8
30
 62
     0
370
    -2
100
AcDbLine
 10
436.0
 20
328.5000000000001
 30
0.0
 11
436.0
 21
339.7
 31
0.0
  0
LINE
  5
15EB3
330
13337
100
AcDbEntity
  8
30
 62
     0
370
    -2
100
AcDbLine
 10
454.0
 20
328.5000000000001
 30
0.0
 11
454.0
 21
339.7
 31
0.0
  0
LINE
  5
15EB4
330
13337
100
AcDbEntity
  8
30
 62
     0
370
    -2
100
AcDbLine
 10
438.0
 20
339.2
 30
0.0
 11
452.0
 21
339.2
 31
0.0
  0
INSERT
  5
15EB5
330
13337
100
AcDbEntity
  8
30
 62
     0
370
    -2
100
AcDbBlockReference
  2
_OPEN
 10
436.0
 20
339.2
 30
0.0
 41
2.0
 42
2.0
 43
2.0
 50
180.0
  0
INSERT
  5
15EB6
330
13337
100
AcDbEntity
  8
30
 62
     0
370
    -2
100
AcDbBlockReference
  2
_OPEN
 10
454.0
 20
339.2
 30
0.0
 41
2.0
 42
2.0
 43
2.0
  0
MTEXT
  5
15EB7
330
13337
100
AcDbEntity
  8
30
 62
     0
100
AcDbMText
 10
444.0
 20
344.2
 30
0.0
 40
6.0
 41
0.0
 71
     5
 72
     1
  1
\A1; 18 
 73
     1
 44
1.0
1001
ACAD
1000
MTEXTBEGIN
1070
    73
1070
     1
1070
    44
1040
1.0
1070
    74
1070
     0
1000
MTEXTEND
  0
POINT
  5
15EB8
330
13337
100
AcDbEntity
  8
DEFPOINTS
 62
     0
100
AcDbPoint
 10
436.0
 20
325.5000000000001
 30
0.0
  0
POINT
  5
15EB9
330
13337
100
AcDbEntity
  8
DEFPOINTS
 62
     0
100
AcDbPoint
 10
454.0
 20
325.5000000000001
 30
0.0
  0
POINT
  5
15EBA
330
13337
100
AcDbEntity
  8
DEFPOINTS
 62
     0
100
AcDbPoint
 10
454.0
 20
339.2
 30
0.0
  0
ENDBLK
  5
13339
330
13337
100
AcDbEntity
  8
0
100
AcDbBlockEnd
  0
BLOCK
  5
13344
330
13343
100
AcDbEntity
  8
0
100
AcDbBlockBegin
  2
*D7
 70
     1
 10
0.0
 20
0.0
 30
0.0
  3
*D7
  1

  0
LINE
  5
15EBB
330
13343
100
AcDbEntity
  8
30
 62
     0
370
    -2
100
AcDbLine
 10
455.6858339999998
 20
285.6428220000001
 30
0.0
 11
471.6858339999998
 21
285.6428220000001
 31
0.0
  0
INSERT
  5
15EBC
330
13343
100
AcDbEntity
  8
30
 62
     0
370
    -2
100
AcDbBlockReference
  2
_OPEN
 10
453.685834
 20
285.6428220000001
 30
0.0
 41
2.0
 42
2.0
 43
2.0
 50
180.0
  0
MTEXT
  5
15EBD
330
13343
100
AcDbEntity
  8
30
 62
     0
100
AcDbMText
 10
464.685834
 20
290.6428220000001
 30
0.0
 40
6.0
 41
0.0
 71
     5
 72
     1
  1
\A1;R9
 73
     1
 44
1.0
1001
ACAD
1000
MTEXTBEGIN
1070
    73
1070
     1
1070
    44
1040
1.0
1070
    74
1070
     0
1000
MTEXTEND
  0
POINT
  5
15EBE
330
13343
100
AcDbEntity
  8
DEFPOINTS
 62
     0
100
AcDbPoint
 10
453.685834
 20
285.6428220000001
 30
0.0
  0
POINT
  5
15EBF
330
13343
100
AcDbEntity
  8
DEFPOINTS
 62
     0
100
AcDbPoint
 10
453.685834
 20
285.6428220000001
 30
0.0
  0
ENDBLK
  5
13345
330
13343
100
AcDbEntity
  8
0
100
AcDbBlockEnd
  0
BLOCK
  5
13357
330
13356
100
AcDbEntity
  8
0
100
AcDbBlockBegin
  2
*D8
 70
     1
 10
0.0
 20
0.0
 30
0.0
  3
*D8
  1

  0
LINE
  5
15D6C
330
13356
100
AcDbEntity
  8
30
 62
     0
370
    -2
100
AcDbLine
 10
668.0625796285835
 20
308.0318416502474
 30
0.0
 11
663.4527339002302
 21
309.9681583497526
 31
0.0
  0
LINE
  5
15D6D
330
13356
100
AcDbEntity
  8
30
 62
     0
370
    -2
100
AcDbLine
 10
661.608795608889
 20
310.7426850295547
 30
0.0
 11
590.637596821451
 21
340.5533827175025
 31
0.0
  0
INSERT
  5
15D6E
330
13356
100
AcDbEntity
  8
30
 62
     0
370
    -2
100
AcDbBlockReference
  2
_OPEN
 10
669.9065179199248
 20
307.2573149704453
 30
0.0
 41
2.0
 42
2.0
 43
2.0
 50
337.2156767648598
  0
INSERT
  5
15D6F
330
13356
100
AcDbEntity
  8
30
 62
     0
370
    -2
100
AcDbBlockReference
  2
_OPEN
 10
661.608795608889
 20
310.7426850295547
 30
0.0
 41
2.0
 42
2.0
 43
2.0
 50
157.2156767648598
  0
MTEXT
  5
15D70
330
13356
100
AcDbEntity
  8
30
 62
     0
100
AcDbMText
 10
620.693972463912
 20
333.3516965788744
 30
0.0
 40
6.0
 41
0.0
 71
     5
 72
     1
  1
\A1;\U+03C69(60-125A)
 11
0.9219691456706627
 21
-0.3872633399010395
 31
0.0
 73
     1
 44
1.0
1001
ACAD
1000
MTEXTBEGIN
1070
    73
1070
     1
1070
    44
1040
1.0
1070
    74
1070
     0
1000
MTEXTEND
  0
POINT
  5
15D71
330
13356
100
AcDbEntity
  8
DEFPOINTS
 62
     0
100
AcDbPoint
 10
661.608795608889
 20
310.7426850295547
 30
0.0
  0
POINT
  5
15D72
330
13356
100
AcDbEntity
  8
DEFPOINTS
 62
     0
100
AcDbPoint
 10
669.9065179199248
 20
307.2573149704453
 30
0.0
  0
ENDBLK
  5
13358
330
13356
100
AcDbEntity
  8
0
100
AcDbBlockEnd
  0
BLOCK
  5
13939
330
13938
100
AcDbEntity
  8
0
100
AcDbBlockBegin
  2
*D9
 70
     1
 10
0.0
 20
0.0
 30
0.0
  3
*D9
  1

  0
LINE
  5
14445
330
13938
100
AcDbEntity
  8
30
 62
     0
370
    -2
100
AcDbLine
 10
461.7291579999998
 20
180.0
 30
0.0
 11
500.3558099999998
 21
180.0
 31
0.0
  0
LINE
  5
14446
330
13938
100
AcDbEntity
  8
30
 62
     0
370
    -2
100
AcDbLine
 10
462.5791659999999
 20
130.0
 30
0.0
 11
500.3558099999998
 21
130.0
 31
0.0
  0
LINE
  5
14447
330
13938
100
AcDbEntity
  8
30
 62
     0
370
    -2
100
AcDbLine
 10
499.8558099999998
 20
178.0
 30
0.0
 11
499.8558099999998
 21
132.0
 31
0.0
  0
INSERT
  5
14448
330
13938
100
AcDbEntity
  8
30
 62
     0
370
    -2
100
AcDbBlockReference
  2
_OPEN
 10
499.8558099999998
 20
180.0
 30
0.0
 41
2.0
 42
2.0
 43
2.0
 50
90.0
  0
INSERT
  5
14449
330
13938
100
AcDbEntity
  8
30
 62
     0
370
    -2
100
AcDbBlockReference
  2
_OPEN
 10
499.8558099999998
 20
130.0
 30
0.0
 41
2.0
 42
2.0
 43
2.0
 50
270.0
  0
MTEXT
  5
1444A
330
13938
100
AcDbEntity
  8
30
 62
     0
100
AcDbMText
 10
494.8558099999998
 20
155.0000000000001
 30
0.0
 40
6.0
 41
0.0
 71
     5
 72
     1
  1
\A1; 50 
 11
0.0000000000000001
 21
1.0
 31
0.0
 73
     1
 44
1.0
1001
ACAD
1000
MTEXTBEGIN
1070
    73
1070
     1
1070
    44
1040
1.0
1070
    74
1070
     0
1000
MTEXTEND
  0
POINT
  5
1444B
330
13938
100
AcDbEntity
  8
DEFPOINTS
 62
     0
100
AcDbPoint
 10
458.7291580000001
 20
180.0
 30
0.0
  0
POINT
  5
1444C
330
13938
100
AcDbEntity
  8
DEFPOINTS
 62
     0
100
AcDbPoint
 10
459.5791659999998
 20
130.0
 30
0.0
  0
POINT
  5
1444D
330
13938
100
AcDbEntity
  8
DEFPOINTS
 62
     0
100
AcDbPoint
 10
499.8558099999998
 20
130.0
 30
0.0
  0
ENDBLK
  5
1393A
330
13938
100
AcDbEntity
  8
0
100
AcDbBlockEnd
  0
BLOCK
  5
13946
330
13945
100
AcDbEntity
  8
0
100
AcDbBlockBegin
  2
*D10
 70
     1
 10
0.0
 20
0.0
 30
0.0
  3
*D10
  1

  0
LINE
  5
1444E
330
13945
100
AcDbEntity
  8
30
 62
     0
370
    -2
100
AcDbLine
 10
462.5791659999999
 20
0.0000000000000276
 30
0.0
 11
500.3558099999998
 21
0.0000000000000169
 31
0.0
  0
LINE
  5
1444F
330
13945
100
AcDbEntity
  8
30
 62
     0
370
    -2
100
AcDbLine
 10
462.5791659999999
 20
130.0
 30
0.0
 11
500.3558099999998
 21
130.0
 31
0.0
  0
LINE
  5
14450
330
13945
100
AcDbEntity
  8
30
 62
     0
370
    -2
100
AcDbLine
 10
499.8558099999998
 20
2.000000000000015
 30
0.0
 11
499.8558099999998
 21
128.0
 31
0.0
  0
INSERT
  5
14451
330
13945
100
AcDbEntity
  8
30
 62
     0
370
    -2
100
AcDbBlockReference
  2
_OPEN
 10
499.8558099999998
 20
0.000000000000017
 30
0.0
 41
2.0
 42
2.0
 43
2.0
 50
270.0
  0
INSERT
  5
14452
330
13945
100
AcDbEntity
  8
30
 62
     0
370
    -2
100
AcDbBlockReference
  2
_OPEN
 10
499.8558099999998
 20
130.0
 30
0.0
 41
2.0
 42
2.0
 43
2.0
 50
90.0
  0
MTEXT
  5
14453
330
13945
100
AcDbEntity
  8
30
 62
     0
100
AcDbMText
 10
494.8558099999998
 20
65.00000000000007
 30
0.0
 40
6.0
 41
0.0
 71
     5
 72
     1
  1
\A1; 130 
 11
0.0000000000000001
 21
1.0
 31
0.0
 73
     1
 44
1.0
1001
ACAD
1000
MTEXTBEGIN
1070
    73
1070
     1
1070
    44
1040
1.0
1070
    74
1070
     0
1000
MTEXTEND
  0
POINT
  5
14454
330
13945
100
AcDbEntity
  8
DEFPOINTS
 62
     0
100
AcDbPoint
 10
459.5791659999998
 20
0.0000000000000284
 30
0.0
  0
POINT
  5
14455
330
13945
100
AcDbEntity
  8
DEFPOINTS
 62
     0
100
AcDbPoint
 10
459.5791659999998
 20
130.0
 30
0.0
  0
POINT
  5
14456
330
13945
100
AcDbEntity
  8
DEFPOINTS
 62
     0
100
AcDbPoint
 10
499.8558099999998
 20
130.0
 30
0.0
  0
ENDBLK
  5
13947
330
13945
100
AcDbEntity
  8
0
100
AcDbBlockEnd
  0
BLOCK
  5
13960
330
1395F
100
AcDbEntity
  8
0
100
AcDbBlockBegin
  2
*D11
 70
     1
 10
0.0
 20
0.0
 30
0.0
  3
*D11
  1

  0
LINE
  5
14457
330
1395F
100
AcDbEntity
  8
30
 62
     0
370
    -2
100
AcDbLine
 10
455.2541659999998
 20
122.0
 30
0.0
 11
480.35581
 21
122.0
 31
0.0
  0
LINE
  5
14458
330
1395F
100
AcDbEntity
  8
30
 62
     0
370
    -2
100
AcDbLine
 10
455.2541659999998
 20
8.000000000000026
 30
0.0
 11
480.35581
 21
8.000000000000021
 31
0.0
  0
LINE
  5
14459
330
1395F
100
AcDbEntity
  8
30
 62
     0
370
    -2
100
AcDbLine
 10
479.85581
 20
120.0
 30
0.0
 11
479.85581
 21
10.00000000000002
 31
0.0
  0
INSERT
  5
1445A
330
1395F
100
AcDbEntity
  8
30
 62
     0
370
    -2
100
AcDbBlockReference
  2
_OPEN
 10
479.85581
 20
122.0
 30
0.0
 41
2.0
 42
2.0
 43
2.0
 50
90.0
  0
INSERT
  5
1445B
330
1395F
100
AcDbEntity
  8
30
 62
     0
370
    -2
100
AcDbBlockReference
  2
_OPEN
 10
479.85581
 20
8.000000000000021
 30
0.0
 41
2.0
 42
2.0
 43
2.0
 50
270.0
  0
MTEXT
  5
1445C
330
1395F
100
AcDbEntity
  8
30
 62
     0
100
AcDbMText
 10
474.8558099999998
 20
65.00000000000007
 30
0.0
 40
6.0
 41
0.0
 71
     5
 72
     1
  1
\A1; 114 
 11
0.0000000000000001
 21
1.0
 31
0.0
 73
     1
 44
1.0
1001
ACAD
1000
MTEXTBEGIN
1070
    73
1070
     1
1070
    44
1040
1.0
1070
    74
1070
     0
1000
MTEXTEND
  0
POINT
  5
1445D
330
1395F
100
AcDbEntity
  8
DEFPOINTS
 62
     0
100
AcDbPoint
 10
452.2541659999998
 20
122.0
 30
0.0
  0
POINT
  5
1445E
330
1395F
100
AcDbEntity
  8
DEFPOINTS
 62
     0
100
AcDbPoint
 10
452.2541659999998
 20
8.000000000000026
 30
0.0
  0
POINT
  5
1445F
330
1395F
100
AcDbEntity
  8
DEFPOINTS
 62
     0
100
AcDbPoint
 10
479.85581
 20
8.000000000000021
 30
0.0
  0
ENDBLK
  5
13961
330
1395F
100
AcDbEntity
  8
0
100
AcDbBlockEnd
  0
BLOCK
  5
139A0
330
1399F
100
AcDbEntity
  8
0
100
AcDbBlockBegin
  2
*D12
 70
     1
 10
0.0
 20
0.0
 30
0.0
  3
*D12
  1

  0
LINE
  5
15FAD
330
1399F
100
AcDbEntity
  8
30
 62
     0
370
    -2
100
AcDbLine
 10
382.5000000000002
 20
-2.999999999999971
 30
0.0
 11
382.5000000000002
 21
-48.09963399999998
 31
0.0
  0
LINE
  5
15FAE
330
1399F
100
AcDbEntity
  8
30
 62
     0
370
    -2
100
AcDbLine
 10
457.5
 20
-2.999999999999971
 30
0.0
 11
457.5
 21
-48.09963399999998
 31
0.0
  0
LINE
  5
15FAF
330
1399F
100
AcDbEntity
  8
30
 62
     0
370
    -2
100
AcDbLine
 10
384.5000000000002
 20
-47.59963399999998
 30
0.0
 11
455.4999999999998
 21
-47.59963399999998
 31
0.0
  0
INSERT
  5
15FB0
330
1399F
100
AcDbEntity
  8
30
 62
     0
370
    -2
100
AcDbBlockReference
  2
_OPEN
 10
382.5000000000002
 20
-47.59963399999998
 30
0.0
 41
2.0
 42
2.0
 43
2.0
 50
180.0
  0
INSERT
  5
15FB1
330
1399F
100
AcDbEntity
  8
30
 62
     0
370
    -2
100
AcDbBlockReference
  2
_OPEN
 10
457.5
 20
-47.59963399999998
 30
0.0
 41
2.0
 42
2.0
 43
2.0
  0
MTEXT
  5
15FB2
330
1399F
100
AcDbEntity
  8
30
 62
     0
100
AcDbMText
 10
420.0000000000001
 20
-42.59963399999995
 30
0.0
 40
6.0
 41
0.0
 71
     5
 72
     1
  1
\A1; 75 
 73
     1
 44
1.0
1001
ACAD
1000
MTEXTBEGIN
1070
    73
1070
     1
1070
    44
1040
1.0
1070
    74
1070
     0
1000
MTEXTEND
  0
POINT
  5
15FB3
330
1399F
100
AcDbEntity
  8
DEFPOINTS
 62
     0
100
AcDbPoint
 10
382.5000000000002
 20
0.0000000000000284
 30
0.0
  0
POINT
  5
15FB4
330
1399F
100
AcDbEntity
  8
DEFPOINTS
 62
     0
100
AcDbPoint
 10
457.5
 20
0.0000000000000284
 30
0.0
  0
POINT
  5
15FB5
330
1399F
100
AcDbEntity
  8
DEFPOINTS
 62
     0
100
AcDbPoint
 10
457.5
 20
-47.59963399999998
 30
0.0
  0
ENDBLK
  5
139A1
330
1399F
100
AcDbEntity
  8
0
100
AcDbBlockEnd
  0
BLOCK
  5
139AC
330
139AB
100
AcDbEntity
  8
0
100
AcDbBlockBegin
  2
*D13
 70
     1
 10
0.0
 20
0.0
 30
0.0
  3
*D13
  1

  0
LINE
  5
14469
330
139AB
100
AcDbEntity
  8
30
 62
     0
370
    -2
100
AcDbLine
 10
395.079166
 20
3.000000000000028
 30
0.0
 11
395.079166
 21
-32.09963399999998
 31
0.0
  0
LINE
  5
1446A
330
139AB
100
AcDbEntity
  8
30
 62
     0
370
    -2
100
AcDbLine
 10
445.079166
 20
3.000000000000028
 30
0.0
 11
445.079166
 21
-32.09963399999998
 31
0.0
  0
LINE
  5
1446B
330
139AB
100
AcDbEntity
  8
30
 62
     0
370
    -2
100
AcDbLine
 10
397.079166
 20
-31.59963399999998
 30
0.0
 11
443.0791659999998
 21
-31.59963399999998
 31
0.0
  0
INSERT
  5
1446C
330
139AB
100
AcDbEntity
  8
30
 62
     0
370
    -2
100
AcDbBlockReference
  2
_OPEN
 10
395.079166
 20
-31.59963399999998
 30
0.0
 41
2.0
 42
2.0
 43
2.0
 50
180.0
  0
INSERT
  5
1446D
330
139AB
100
AcDbEntity
  8
30
 62
     0
370
    -2
100
AcDbBlockReference
  2
_OPEN
 10
445.079166
 20
-31.59963399999998
 30
0.0
 41
2.0
 42
2.0
 43
2.0
  0
MTEXT
  5
1446E
330
139AB
100
AcDbEntity
  8
30
 62
     0
100
AcDbMText
 10
420.079166
 20
-26.59963399999998
 30
0.0
 40
6.0
 41
0.0
 71
     5
 72
     1
  1
\A1; 50 
 73
     1
 44
1.0
1001
ACAD
1000
MTEXTBEGIN
1070
    73
1070
     1
1070
    44
1040
1.0
1070
    74
1070
     0
1000
MTEXTEND
  0
POINT
  5
1446F
330
139AB
100
AcDbEntity
  8
DEFPOINTS
 62
     0
100
AcDbPoint
 10
395.079166
 20
6.000000000000027
 30
0.0
  0
POINT
  5
14470
330
139AB
100
AcDbEntity
  8
DEFPOINTS
 62
     0
100
AcDbPoint
 10
445.079166
 20
6.000000000000027
 30
0.0
  0
POINT
  5
14471
330
139AB
100
AcDbEntity
  8
DEFPOINTS
 62
     0
100
AcDbPoint
 10
445.079166
 20
-31.59963399999998
 30
0.0
  0
ENDBLK
  5
139AD
330
139AB
100
AcDbEntity
  8
0
100
AcDbBlockEnd
  0
BLOCK
  5
139B8
330
139B7
100
AcDbEntity
  8
0
100
AcDbBlockBegin
  2
*D14
 70
     1
 10
0.0
 20
0.0
 30
0.0
  3
*D14
  1

  0
LINE
  5
15F23
330
139B7
100
AcDbEntity
  8
30
 62
     0
370
    -2
100
AcDbLine
 10
409.0791659999998
 20
90.5
 30
0.0
 11
409.0791659999998
 21
95.5
 31
0.0
  0
LINE
  5
15F24
330
139B7
100
AcDbEntity
  8
30
 62
     0
370
    -2
100
AcDbLine
 10
431.0791659999998
 20
90.5
 30
0.0
 11
431.0791659999998
 21
95.5
 31
0.0
  0
LINE
  5
15F25
330
139B7
100
AcDbEntity
  8
30
 62
     0
370
    -2
100
AcDbLine
 10
429.0791659999999
 20
95.0
 30
0.0
 11
411.0791659999998
 21
95.0
 31
0.0
  0
LINE
  5
15F26
330
139B7
100
AcDbEntity
  8
30
 62
     0
370
    -2
100
AcDbLine
 10
409.0791659999998
 20
95.0
 30
0.0
 11
389.4791659999999
 21
95.0
 31
0.0
  0
INSERT
  5
15F27
330
139B7
100
AcDbEntity
  8
30
 62
     0
370
    -2
100
AcDbBlockReference
  2
_OPEN
 10
431.0791659999998
 20
95.0
 30
0.0
 41
2.0
 42
2.0
 43
2.0
  0
INSERT
  5
15F28
330
139B7
100
AcDbEntity
  8
30
 62
     0
370
    -2
100
AcDbBlockReference
  2
_OPEN
 10
409.0791659999998
 20
95.0
 30
0.0
 41
2.0
 42
2.0
 43
2.0
 50
180.0
  0
MTEXT
  5
15F29
330
139B7
100
AcDbEntity
  8
30
 62
     0
100
AcDbMText
 10
398.2791659999999
 20
100.0
 30
0.0
 40
6.0
 41
0.0
 71
     5
 72
     1
  1
\A1; 22 
 73
     1
 44
1.0
1001
ACAD
1000
MTEXTBEGIN
1070
    73
1070
     1
1070
    44
1040
1.0
1070
    74
1070
     0
1000
MTEXTEND
  0
POINT
  5
15F2A
330
139B7
100
AcDbEntity
  8
DEFPOINTS
 62
     0
100
AcDbPoint
 10
409.0791659999998
 20
87.5
 30
0.0
  0
POINT
  5
15F2B
330
139B7
100
AcDbEntity
  8
DEFPOINTS
 62
     0
100
AcDbPoint
 10
431.0791659999998
 20
87.5
 30
0.0
  0
POINT
  5
15F2C
330
139B7
100
AcDbEntity
  8
DEFPOINTS
 62
     0
100
AcDbPoint
 10
431.0791659999998
 20
95.0
 30
0.0
  0
ENDBLK
  5
139B9
330
139B7
100
AcDbEntity
  8
0
100
AcDbBlockEnd
  0
BLOCK
  5
139E9
330
139E8
100
AcDbEntity
  8
0
100
AcDbBlockBegin
  2
*D15
 70
     1
 10
0.0
 20
0.0
 30
0.0
  3
*D15
  1

  0
LINE
  5
15F0C
330
139E8
100
AcDbEntity
  8
30
 62
     0
370
    -2
100
AcDbLine
 10
454.4999999999998
 20
39.50000000000002
 30
0.0
 11
454.4999999999998
 21
29.5
 31
0.0
  0
LINE
  5
15F0D
330
139E8
100
AcDbEntity
  8
30
 62
     0
370
    -2
100
AcDbLine
 10
385.5
 20
39.50000000000002
 30
0.0
 11
385.5
 21
29.5
 31
0.0
  0
LINE
  5
15F0E
330
139E8
100
AcDbEntity
  8
30
 62
     0
370
    -2
100
AcDbLine
 10
452.4999999999998
 20
30.0
 30
0.0
 11
387.5
 21
30.0
 31
0.0
  0
INSERT
  5
15F0F
330
139E8
100
AcDbEntity
  8
30
 62
     0
370
    -2
100
AcDbBlockReference
  2
_OPEN
 10
454.4999999999998
 20
30.0
 30
0.0
 41
2.0
 42
2.0
 43
2.0
  0
INSERT
  5
15F10
330
139E8
100
AcDbEntity
  8
30
 62
     0
370
    -2
100
AcDbBlockReference
  2
_OPEN
 10
385.5
 20
30.0
 30
0.0
 41
2.0
 42
2.0
 43
2.0
 50
180.0
  0
MTEXT
  5
15F11
330
139E8
100
AcDbEntity
  8
30
 62
     0
100
AcDbMText
 10
401.920834
 20
35.0
 30
0.0
 40
6.0
 41
0.0
 71
     5
 72
     1
  1
\A1; 69 
 73
     1
 44
1.0
1001
ACAD
1000
MTEXTBEGIN
1070
    73
1070
     1
1070
    44
1040
1.0
1070
    74
1070
     0
1000
MTEXTEND
  0
POINT
  5
15F12
330
139E8
100
AcDbEntity
  8
DEFPOINTS
 62
     0
100
AcDbPoint
 10
454.4999999999998
 20
42.50000000000002
 30
0.0
  0
POINT
  5
15F13
330
139E8
100
AcDbEntity
  8
DEFPOINTS
 62
     0
100
AcDbPoint
 10
385.5
 20
42.50000000000002
 30
0.0
  0
POINT
  5
15F14
330
139E8
100
AcDbEntity
  8
DEFPOINTS
 62
     0
100
AcDbPoint
 10
385.5
 20
30.0
 30
0.0
  0
ENDBLK
  5
139EA
330
139E8
100
AcDbEntity
  8
0
100
AcDbBlockEnd
  0
BLOCK
  5
13FDF
330
13FDE
100
AcDbEntity
  8
0
100
AcDbBlockBegin
  2
*D16
 70
     1
 10
0.0
 20
0.0
 30
0.0
  3
*D16
  1

  0
LINE
  5
15B16
330
13FDE
100
AcDbEntity
  8
30
 62
     0
370
    -2
100
AcDbLine
 10
605.5764220000002
 20
24.24800000000005
 30
0.0
 11
605.5764220000002
 21
-40.49999999999999
 31
0.0
  0
LINE
  5
15B17
330
13FDE
100
AcDbEntity
  8
30
 62
     0
370
    -2
100
AcDbLine
 10
673.576422
 20
-4.999999999999943
 30
0.0
 11
673.576422
 21
-40.49999999999999
 31
0.0
  0
LINE
  5
15B18
330
13FDE
100
AcDbEntity
  8
30
 62
     0
370
    -2
100
AcDbLine
 10
607.5764220000002
 20
-40.0
 30
0.0
 11
671.5764219999997
 21
-40.0
 31
0.0
  0
INSERT
  5
15B19
330
13FDE
100
AcDbEntity
  8
30
 62
     0
370
    -2
100
AcDbBlockReference
  2
_OPEN
 10
605.5764220000002
 20
-40.0
 30
0.0
 41
2.0
 42
2.0
 43
2.0
 50
180.0
  0
INSERT
  5
15B1A
330
13FDE
100
AcDbEntity
  8
30
 62
     0
370
    -2
100
AcDbBlockReference
  2
_OPEN
 10
673.576422
 20
-40.0
 30
0.0
 41
2.0
 42
2.0
 43
2.0
  0
MTEXT
  5
15B1B
330
13FDE
100
AcDbEntity
  8
30
 62
     0
100
AcDbMText
 10
639.5764220000001
 20
-35.0
 30
0.0
 40
6.0
 41
0.0
 71
     5
 72
     1
  1
\A1; 68 
 73
     1
 44
1.0
1001
ACAD
1000
MTEXTBEGIN
1070
    73
1070
     1
1070
    44
1040
1.0
1070
    74
1070
     0
1000
MTEXTEND
  0
POINT
  5
15B1C
330
13FDE
100
AcDbEntity
  8
DEFPOINTS
 62
     0
100
AcDbPoint
 10
605.5764220000002
 20
27.24800000000005
 30
0.0
  0
POINT
  5
15B1D
330
13FDE
100
AcDbEntity
  8
DEFPOINTS
 62
     0
100
AcDbPoint
 10
673.576422
 20
-1.999999999999943
 30
0.0
  0
POINT
  5
15B1E
330
13FDE
100
AcDbEntity
  8
DEFPOINTS
 62
     0
100
AcDbPoint
 10
673.576422
 20
-40.0
 30
0.0
  0
ENDBLK
  5
13FE0
330
13FDE
100
AcDbEntity
  8
0
100
AcDbBlockEnd
  0
BLOCK
  5
13FEB
330
13FEA
100
AcDbEntity
  8
0
100
AcDbBlockBegin
  2
*D17
 70
     1
 10
0.0
 20
0.0
 30
0.0
  3
*D17
  1

  0
LINE
  5
1448E
330
13FEA
100
AcDbEntity
  8
30
 62
     0
370
    -2
100
AcDbLine
 10
596.5764220000002
 20
90.00000000000005
 30
0.0
 11
536.85581
 21
90.00000000000005
 31
0.0
  0
LINE
  5
1448F
330
13FEA
100
AcDbEntity
  8
30
 62
     0
370
    -2
100
AcDbLine
 10
596.5764220000002
 20
40.00000000000006
 30
0.0
 11
536.85581
 21
40.00000000000007
 31
0.0
  0
LINE
  5
14490
330
13FEA
100
AcDbEntity
  8
30
 62
     0
370
    -2
100
AcDbLine
 10
537.35581
 20
88.00000000000004
 30
0.0
 11
537.35581
 21
42.00000000000008
 31
0.0
  0
INSERT
  5
14491
330
13FEA
100
AcDbEntity
  8
30
 62
     0
370
    -2
100
AcDbBlockReference
  2
_OPEN
 10
537.35581
 20
90.00000000000005
 30
0.0
 41
2.0
 42
2.0
 43
2.0
 50
90.0
  0
INSERT
  5
14492
330
13FEA
100
AcDbEntity
  8
30
 62
     0
370
    -2
100
AcDbBlockReference
  2
_OPEN
 10
537.35581
 20
40.00000000000007
 30
0.0
 41
2.0
 42
2.0
 43
2.0
 50
270.0
  0
MTEXT
  5
14493
330
13FEA
100
AcDbEntity
  8
30
 62
     0
100
AcDbMText
 10
532.35581
 20
65.00000000000014
 30
0.0
 40
6.0
 41
0.0
 71
     5
 72
     1
  1
\A1; 50 
 11
0.0000000000000001
 21
1.0
 31
0.0
 73
     1
 44
1.0
1001
ACAD
1000
MTEXTBEGIN
1070
    73
1070
     1
1070
    44
1040
1.0
1070
    74
1070
     0
1000
MTEXTEND
  0
POINT
  5
14494
330
13FEA
100
AcDbEntity
  8
DEFPOINTS
 62
     0
100
AcDbPoint
 10
599.5764219999998
 20
90.00000000000005
 30
0.0
  0
POINT
  5
14495
330
13FEA
100
AcDbEntity
  8
DEFPOINTS
 62
     0
100
AcDbPoint
 10
599.5764219999998
 20
40.00000000000006
 30
0.0
  0
POINT
  5
14496
330
13FEA
100
AcDbEntity
  8
DEFPOINTS
 62
     0
100
AcDbPoint
 10
537.35581
 20
40.00000000000007
 30
0.0
  0
ENDBLK
  5
13FEC
330
13FEA
100
AcDbEntity
  8
0
100
AcDbBlockEnd
  0
BLOCK
  5
13FF8
330
13FF7
100
AcDbEntity
  8
0
100
AcDbBlockBegin
  2
*D18
 70
     1
 10
0.0
 20
0.0
 30
0.0
  3
*D18
  1

  0
LINE
  5
14497
330
13FF7
100
AcDbEntity
  8
30
 62
     0
370
    -2
100
AcDbLine
 10
590.921362
 20
87.50000000000005
 30
0.0
 11
552.85581
 21
87.50000000000005
 31
0.0
  0
LINE
  5
14498
330
13FF7
100
AcDbEntity
  8
30
 62
     0
370
    -2
100
AcDbLine
 10
590.921362
 20
42.50000000000006
 30
0.0
 11
552.85581
 21
42.50000000000007
 31
0.0
  0
LINE
  5
14499
330
13FF7
100
AcDbEntity
  8
30
 62
     0
370
    -2
100
AcDbLine
 10
553.35581
 20
85.50000000000002
 30
0.0
 11
553.35581
 21
44.50000000000006
 31
0.0
  0
INSERT
  5
1449A
330
13FF7
100
AcDbEntity
  8
30
 62
     0
370
    -2
100
AcDbBlockReference
  2
_OPEN
 10
553.35581
 20
87.50000000000005
 30
0.0
 41
2.0
 42
2.0
 43
2.0
 50
90.0
  0
INSERT
  5
1449B
330
13FF7
100
AcDbEntity
  8
30
 62
     0
370
    -2
100
AcDbBlockReference
  2
_OPEN
 10
553.35581
 20
42.50000000000007
 30
0.0
 41
2.0
 42
2.0
 43
2.0
 50
270.0
  0
MTEXT
  5
1449C
330
13FF7
100
AcDbEntity
  8
30
 62
     0
100
AcDbMText
 10
548.35581
 20
65.00000000000014
 30
0.0
 40
6.0
 41
0.0
 71
     5
 72
     1
  1
\A1; 45 
 11
0.0000000000000001
 21
1.0
 31
0.0
 73
     1
 44
1.0
1001
ACAD
1000
MTEXTBEGIN
1070
    73
1070
     1
1070
    44
1040
1.0
1070
    74
1070
     0
1000
MTEXTEND
  0
POINT
  5
1449D
330
13FF7
100
AcDbEntity
  8
DEFPOINTS
 62
     0
100
AcDbPoint
 10
593.921362
 20
87.50000000000005
 30
0.0
  0
POINT
  5
1449E
330
13FF7
100
AcDbEntity
  8
DEFPOINTS
 62
     0
100
AcDbPoint
 10
593.921362
 20
42.50000000000006
 30
0.0
  0
POINT
  5
1449F
330
13FF7
100
AcDbEntity
  8
DEFPOINTS
 62
     0
100
AcDbPoint
 10
553.35581
 20
42.50000000000007
 30
0.0
  0
ENDBLK
  5
13FF9
330
13FF7
100
AcDbEntity
  8
0
100
AcDbBlockEnd
  0
BLOCK
  5
14005
330
14004
100
AcDbEntity
  8
0
100
AcDbBlockBegin
  2
*D19
 70
     1
 10
0.0
 20
0.0
 30
0.0
  3
*D19
  1

  0
LINE
  5
144A0
330
14004
100
AcDbEntity
  8
30
 62
     0
370
    -2
100
AcDbLine
 10
602.5764220000001
 20
116.0
 30
0.0
 11
520.85581
 21
116.0
 31
0.0
  0
LINE
  5
144A1
330
14004
100
AcDbEntity
  8
30
 62
     0
370
    -2
100
AcDbLine
 10
605.0764220000002
 20
14.00000000000005
 30
0.0
 11
520.85581
 21
14.00000000000008
 31
0.0
  0
LINE
  5
144A2
330
14004
100
AcDbEntity
  8
30
 62
     0
370
    -2
100
AcDbLine
 10
521.35581
 20
114.0
 30
0.0
 11
521.35581
 21
16.00000000000008
 31
0.0
  0
INSERT
  5
144A3
330
14004
100
AcDbEntity
  8
30
 62
     0
370
    -2
100
AcDbBlockReference
  2
_OPEN
 10
521.35581
 20
116.0
 30
0.0
 41
2.0
 42
2.0
 43
2.0
 50
90.0
  0
INSERT
  5
144A4
330
14004
100
AcDbEntity
  8
30
 62
     0
370
    -2
100
AcDbBlockReference
  2
_OPEN
 10
521.35581
 20
14.00000000000008
 30
0.0
 41
2.0
 42
2.0
 43
2.0
 50
270.0
  0
MTEXT
  5
144A5
330
14004
100
AcDbEntity
  8
30
 62
     0
100
AcDbMText
 10
516.35581
 20
65.00000000000014
 30
0.0
 40
6.0
 41
0.0
 71
     5
 72
     1
  1
\A1; 102 
 11
0.0000000000000001
 21
1.0
 31
0.0
 73
     1
 44
1.0
1001
ACAD
1000
MTEXTBEGIN
1070
    73
1070
     1
1070
    44
1040
1.0
1070
    74
1070
     0
1000
MTEXTEND
  0
POINT
  5
144A6
330
14004
100
AcDbEntity
  8
DEFPOINTS
 62
     0
100
AcDbPoint
 10
605.5764220000002
 20
116.0
 30
0.0
  0
POINT
  5
144A7
330
14004
100
AcDbEntity
  8
DEFPOINTS
 62
     0
100
AcDbPoint
 10
608.0764219999998
 20
14.00000000000005
 30
0.0
  0
POINT
  5
144A8
330
14004
100
AcDbEntity
  8
DEFPOINTS
 62
     0
100
AcDbPoint
 10
521.35581
 20
14.00000000000008
 30
0.0
  0
ENDBLK
  5
14006
330
14004
100
AcDbEntity
  8
0
100
AcDbBlockEnd
  0
BLOCK
  5
14012
330
14011
100
AcDbEntity
  8
0
100
AcDbBlockBegin
  2
*D20
 70
     1
 10
0.0
 20
0.0
 30
0.0
  3
*D20
  1

  0
LINE
  5
144A9
330
14011
100
AcDbEntity
  8
30
 62
     0
370
    -2
100
AcDbLine
 10
649.5764219999998
 20
114.498
 30
0.0
 11
649.5764219999998
 21
95.90036600000003
 31
0.0
  0
LINE
  5
144AA
330
14011
100
AcDbEntity
  8
30
 62
     0
370
    -2
100
AcDbLine
 10
673.576422
 20
124.0
 30
0.0
 11
673.576422
 21
95.90036600000003
 31
0.0
  0
LINE
  5
144AB
330
14011
100
AcDbEntity
  8
30
 62
     0
370
    -2
100
AcDbLine
 10
651.5764220000002
 20
96.40036600000003
 30
0.0
 11
671.5764220000002
 21
96.40036600000003
 31
0.0
  0
INSERT
  5
144AC
330
14011
100
AcDbEntity
  8
30
 62
     0
370
    -2
100
AcDbBlockReference
  2
_OPEN
 10
649.5764219999998
 20
96.40036600000003
 30
0.0
 41
2.0
 42
2.0
 43
2.0
 50
180.0
  0
INSERT
  5
144AD
330
14011
100
AcDbEntity
  8
30
 62
     0
370
    -2
100
AcDbBlockReference
  2
_OPEN
 10
673.576422
 20
96.40036600000003
 30
0.0
 41
2.0
 42
2.0
 43
2.0
  0
MTEXT
  5
144AE
330
14011
100
AcDbEntity
  8
30
 62
     0
100
AcDbMText
 10
661.5764219999999
 20
101.400366
 30
0.0
 40
6.0
 41
0.0
 71
     5
 72
     1
  1
\A1; 24 
 73
     1
 44
1.0
1001
ACAD
1000
MTEXTBEGIN
1070
    73
1070
     1
1070
    44
1040
1.0
1070
    74
1070
     0
1000
MTEXTEND
  0
POINT
  5
144AF
330
14011
100
AcDbEntity
  8
DEFPOINTS
 62
     0
100
AcDbPoint
 10
649.5764219999998
 20
117.498
 30
0.0
  0
POINT
  5
144B0
330
14011
100
AcDbEntity
  8
DEFPOINTS
 62
     0
100
AcDbPoint
 10
673.576422
 20
127.0
 30
0.0
  0
POINT
  5
144B1
330
14011
100
AcDbEntity
  8
DEFPOINTS
 62
     0
100
AcDbPoint
 10
673.576422
 20
96.40036600000003
 30
0.0
  0
ENDBLK
  5
14013
330
14011
100
AcDbEntity
  8
0
100
AcDbBlockEnd
  0
BLOCK
  5
1401F
330
1401E
100
AcDbEntity
  8
0
100
AcDbBlockBegin
  2
*D21
 70
     1
 10
0.0
 20
0.0
 30
0.0
  3
*D21
  1

  0
LINE
  5
144B2
330
1401E
100
AcDbEntity
  8
30
 62
     0
370
    -2
100
AcDbLine
 10
612.5764219999997
 20
134.110844
 30
0.0
 11
612.5764219999997
 21
208.900366
 31
0.0
  0
LINE
  5
144B3
330
1401E
100
AcDbEntity
  8
30
 62
     0
370
    -2
100
AcDbLine
 10
673.576422
 20
135.0
 30
0.0
 11
673.576422
 21
208.900366
 31
0.0
  0
LINE
  5
144B4
330
1401E
100
AcDbEntity
  8
30
 62
     0
370
    -2
100
AcDbLine
 10
614.5764220000001
 20
208.400366
 30
0.0
 11
671.5764220000002
 21
208.400366
 31
0.0
  0
INSERT
  5
144B5
330
1401E
100
AcDbEntity
  8
30
 62
     0
370
    -2
100
AcDbBlockReference
  2
_OPEN
 10
612.5764219999997
 20
208.400366
 30
0.0
 41
2.0
 42
2.0
 43
2.0
 50
180.0
  0
INSERT
  5
144B6
330
1401E
100
AcDbEntity
  8
30
 62
     0
370
    -2
100
AcDbBlockReference
  2
_OPEN
 10
673.576422
 20
208.400366
 30
0.0
 41
2.0
 42
2.0
 43
2.0
  0
MTEXT
  5
144B7
330
1401E
100
AcDbEntity
  8
30
 62
     0
100
AcDbMText
 10
643.0764220000002
 20
213.4003660000001
 30
0.0
 40
6.0
 41
0.0
 71
     5
 72
     1
  1
\A1; 61 
 73
     1
 44
1.0
1001
ACAD
1000
MTEXTBEGIN
1070
    73
1070
     1
1070
    44
1040
1.0
1070
    74
1070
     0
1000
MTEXTEND
  0
POINT
  5
144B8
330
1401E
100
AcDbEntity
  8
DEFPOINTS
 62
     0
100
AcDbPoint
 10
612.5764219999997
 20
131.110844
 30
0.0
  0
POINT
  5
144B9
330
1401E
100
AcDbEntity
  8
DEFPOINTS
 62
     0
100
AcDbPoint
 10
673.576422
 20
132.0
 30
0.0
  0
POINT
  5
144BA
330
1401E
100
AcDbEntity
  8
DEFPOINTS
 62
     0
100
AcDbPoint
 10
673.576422
 20
208.400366
 30
0.0
  0
ENDBLK
  5
14020
330
1401E
100
AcDbEntity
  8
0
100
AcDbBlockEnd
  0
BLOCK
  5
1402B
330
1402A
100
AcDbEntity
  8
0
100
AcDbBlockBegin
  2
*D22
 70
     1
 10
0.0
 20
0.0
 30
0.0
  3
*D22
  1

  0
LINE
  5
15B0B
330
1402A
100
AcDbEntity
  8
30
 62
     0
370
    -2
100
AcDbLine
 10
673.576422
 20
4.500000000000056
 30
0.0
 11
673.576422
 21
-20.5
 31
0.0
  0
LINE
  5
15B0C
330
1402A
100
AcDbEntity
  8
30
 62
     0
370
    -2
100
AcDbLine
 10
681.2764219999998
 20
2.250000000000055
 30
0.0
 11
681.2764219999998
 21
-20.5
 31
0.0
  0
LINE
  5
15B0D
330
1402A
100
AcDbEntity
  8
30
 62
     0
370
    -2
100
AcDbLine
 10
671.5764219999997
 20
-20.0
 30
0.0
 11
669.576422
 21
-20.0
 31
0.0
  0
LINE
  5
15B0E
330
1402A
100
AcDbEntity
  8
30
 62
     0
370
    -2
100
AcDbLine
 10
683.2764219999997
 20
-20.0
 30
0.0
 11
707.2764219999997
 21
-20.0
 31
0.0
  0
LINE
  5
15B0F
330
1402A
100
AcDbEntity
  8
30
 62
     0
370
    -2
100
AcDbLine
 10
673.576422
 20
-20.0
 30
0.0
 11
681.2764219999998
 21
-20.0
 31
0.0
  0
INSERT
  5
15B10
330
1402A
100
AcDbEntity
  8
30
 62
     0
370
    -2
100
AcDbBlockReference
  2
_OPEN
 10
673.576422
 20
-20.0
 30
0.0
 41
2.0
 42
2.0
 43
2.0
  0
INSERT
  5
15B11
330
1402A
100
AcDbEntity
  8
30
 62
     0
370
    -2
100
AcDbBlockReference
  2
_OPEN
 10
681.2764219999998
 20
-20.0
 30
0.0
 41
2.0
 42
2.0
 43
2.0
 50
180.0
  0
MTEXT
  5
15B12
330
1402A
100
AcDbEntity
  8
30
 62
     0
100
AcDbMText
 10
696.2764219999996
 20
-15.0
 30
0.0
 40
6.0
 41
0.0
 71
     5
 72
     1
  1
\A1;\fsimplex.shx;\fsimplex.shx; 7.7 
 73
     1
 44
1.0
1001
ACAD
1000
MTEXTBEGIN
1070
    73
1070
     1
1070
    44
1040
1.0
1070
    74
1070
     0
1000
MTEXTEND
  0
POINT
  5
15B13
330
1402A
100
AcDbEntity
  8
DEFPOINTS
 62
     0
100
AcDbPoint
 10
673.576422
 20
7.500000000000056
 30
0.0
  0
POINT
  5
15B14
330
1402A
100
AcDbEntity
  8
DEFPOINTS
 62
     0
100
AcDbPoint
 10
681.2764219999998
 20
5.250000000000056
 30
0.0
  0
POINT
  5
15B15
330
1402A
100
AcDbEntity
  8
DEFPOINTS
 62
     0
100
AcDbPoint
 10
681.2764219999998
 20
-20.0
 30
0.0
  0
ENDBLK
  5
1402C
330
1402A
100
AcDbEntity
  8
0
100
AcDbBlockEnd
  0
BLOCK
  5
14038
330
14037
100
AcDbEntity
  8
0
100
AcDbBlockBegin
  2
*D23
 70
     1
 10
0.0
 20
0.0
 30
0.0
  3
*D23
  1

  0
LINE
  5
15B02
330
14037
100
AcDbEntity
  8
30
 62
     0
370
    -2
100
AcDbLine
 10
621.5764220000002
 20
2.250000000000055
 30
0.0
 11
621.5764220000002
 21
-20.5
 31
0.0
  0
LINE
  5
15B03
330
14037
100
AcDbEntity
  8
30
 62
     0
370
    -2
100
AcDbLine
 10
673.576422
 20
2.250000000000055
 30
0.0
 11
673.576422
 21
-20.5
 31
0.0
  0
LINE
  5
15B04
330
14037
100
AcDbEntity
  8
30
 62
     0
370
    -2
100
AcDbLine
 10
623.5764220000001
 20
-20.0
 30
0.0
 11
671.5764219999997
 21
-20.0
 31
0.0
  0
INSERT
  5
15B05
330
14037
100
AcDbEntity
  8
30
 62
     0
370
    -2
100
AcDbBlockReference
  2
_OPEN
 10
621.5764220000002
 20
-20.0
 30
0.0
 41
2.0
 42
2.0
 43
2.0
 50
180.0
  0
INSERT
  5
15B06
330
14037
100
AcDbEntity
  8
30
 62
     0
370
    -2
100
AcDbBlockReference
  2
_OPEN
 10
673.576422
 20
-20.0
 30
0.0
 41
2.0
 42
2.0
 43
2.0
  0
MTEXT
  5
15B07
330
14037
100
AcDbEntity
  8
30
 62
     0
100
AcDbMText
 10
647.5764220000002
 20
-15.0
 30
0.0
 40
6.0
 41
0.0
 71
     5
 72
     1
  1
\A1; 52 
 73
     1
 44
1.0
1001
ACAD
1000
MTEXTBEGIN
1070
    73
1070
     1
1070
    44
1040
1.0
1070
    74
1070
     0
1000
MTEXTEND
  0
POINT
  5
15B08
330
14037
100
AcDbEntity
  8
DEFPOINTS
 62
     0
100
AcDbPoint
 10
621.5764220000002
 20
5.250000000000056
 30
0.0
  0
POINT
  5
15B09
330
14037
100
AcDbEntity
  8
DEFPOINTS
 62
     0
100
AcDbPoint
 10
673.576422
 20
5.250000000000056
 30
0.0
  0
POINT
  5
15B0A
330
14037
100
AcDbEntity
  8
DEFPOINTS
 62
     0
100
AcDbPoint
 10
673.576422
 20
-20.0
 30
0.0
  0
ENDBLK
  5
14039
330
14037
100
AcDbEntity
  8
0
100
AcDbBlockEnd
  0
BLOCK
  5
14044
330
14043
100
AcDbEntity
  8
0
100
AcDbBlockBegin
  2
*D24
 70
     1
 10
0.0
 20
0.0
 30
0.0
  3
*D24
  1

  0
LINE
  5
15B3C
330
14043
100
AcDbEntity
  8
30
 62
     0
370
    -2
100
AcDbLine
 10
578.5764219999999
 20
60.00000000000007
 30
0.0
 11
578.5764219999999
 21
-80.5
 31
0.0
  0
LINE
  5
15B3D
330
14043
100
AcDbEntity
  8
30
 62
     0
370
    -2
100
AcDbLine
 10
673.576422
 20
60.00000000000007
 30
0.0
 11
673.576422
 21
-80.5
 31
0.0
  0
LINE
  5
15B3E
330
14043
100
AcDbEntity
  8
30
 62
     0
370
    -2
100
AcDbLine
 10
580.5764219999997
 20
-80.0
 30
0.0
 11
671.5764219999997
 21
-80.0
 31
0.0
  0
INSERT
  5
15B3F
330
14043
100
AcDbEntity
  8
30
 62
     0
370
    -2
100
AcDbBlockReference
  2
_OPEN
 10
578.5764219999999
 20
-80.0
 30
0.0
 41
2.0
 42
2.0
 43
2.0
 50
180.0
  0
INSERT
  5
15B40
330
14043
100
AcDbEntity
  8
30
 62
     0
370
    -2
100
AcDbBlockReference
  2
_OPEN
 10
673.576422
 20
-80.0
 30
0.0
 41
2.0
 42
2.0
 43
2.0
  0
MTEXT
  5
15B41
330
14043
100
AcDbEntity
  8
30
 62
     0
100
AcDbMText
 10
626.0764219999997
 20
-75.0
 30
0.0
 40
6.0
 41
0.0
 71
     5
 72
     1
  1
\A1; 95 
 73
     1
 44
1.0
1001
ACAD
1000
MTEXTBEGIN
1070
    73
1070
     1
1070
    44
1040
1.0
1070
    74
1070
     0
1000
MTEXTEND
  0
POINT
  5
15B42
330
14043
100
AcDbEntity
  8
DEFPOINTS
 62
     0
100
AcDbPoint
 10
578.5764219999999
 20
63.00000000000006
 30
0.0
  0
POINT
  5
15B43
330
14043
100
AcDbEntity
  8
DEFPOINTS
 62
     0
100
AcDbPoint
 10
673.576422
 20
63.00000000000006
 30
0.0
  0
POINT
  5
15B44
330
14043
100
AcDbEntity
  8
DEFPOINTS
 62
     0
100
AcDbPoint
 10
673.576422
 20
-80.0
 30
0.0
  0
ENDBLK
  5
14045
330
14043
100
AcDbEntity
  8
0
100
AcDbBlockEnd
  0
BLOCK
  5
14050
330
1404F
100
AcDbEntity
  8
0
100
AcDbBlockBegin
  2
*D25
 70
     1
 10
0.0
 20
0.0
 30
0.0
  3
*D25
  1

  0
LINE
  5
15B28
330
1404F
100
AcDbEntity
  8
30
 62
     0
370
    -2
100
AcDbLine
 10
601.5764220000002
 20
35.00000000000007
 30
0.0
 11
601.5764220000002
 21
-60.49999999999999
 31
0.0
  0
LINE
  5
15B29
330
1404F
100
AcDbEntity
  8
30
 62
     0
370
    -2
100
AcDbLine
 10
673.576422
 20
-4.999999999999943
 30
0.0
 11
673.576422
 21
-60.5
 31
0.0
  0
LINE
  5
15B2A
330
1404F
100
AcDbEntity
  8
30
 62
     0
370
    -2
100
AcDbLine
 10
603.5764220000002
 20
-60.0
 30
0.0
 11
671.5764219999997
 21
-60.0
 31
0.0
  0
INSERT
  5
15B2B
330
1404F
100
AcDbEntity
  8
30
 62
     0
370
    -2
100
AcDbBlockReference
  2
_OPEN
 10
601.5764220000002
 20
-60.0
 30
0.0
 41
2.0
 42
2.0
 43
2.0
 50
180.0
  0
INSERT
  5
15B2C
330
1404F
100
AcDbEntity
  8
30
 62
     0
370
    -2
100
AcDbBlockReference
  2
_OPEN
 10
673.576422
 20
-60.0
 30
0.0
 41
2.0
 42
2.0
 43
2.0
  0
MTEXT
  5
15B2D
330
1404F
100
AcDbEntity
  8
30
 62
     0
100
AcDbMText
 10
637.5764219999997
 20
-55.0
 30
0.0
 40
6.0
 41
0.0
 71
     5
 72
     1
  1
\A1; 72 
 73
     1
 44
1.0
1001
ACAD
1000
MTEXTBEGIN
1070
    73
1070
     1
1070
    44
1040
1.0
1070
    74
1070
     0
1000
MTEXTEND
  0
POINT
  5
15B2E
330
1404F
100
AcDbEntity
  8
DEFPOINTS
 62
     0
100
AcDbPoint
 10
601.5764220000002
 20
38.00000000000006
 30
0.0
  0
POINT
  5
15B2F
330
1404F
100
AcDbEntity
  8
DEFPOINTS
 62
     0
100
AcDbPoint
 10
673.576422
 20
-1.999999999999943
 30
0.0
  0
POINT
  5
15B30
330
1404F
100
AcDbEntity
  8
DEFPOINTS
 62
     0
100
AcDbPoint
 10
673.576422
 20
-60.0
 30
0.0
  0
ENDBLK
  5
14051
330
1404F
100
AcDbEntity
  8
0
100
AcDbBlockEnd
  0
BLOCK
  5
1405C
330
1405B
100
AcDbEntity
  8
0
100
AcDbBlockBegin
  2
*D26
 70
     1
 10
0.0
 20
0.0
 30
0.0
  3
*D26
  1

  0
LINE
  5
144E1
330
1405B
100
AcDbEntity
  8
30
 62
     0
370
    -2
100
AcDbLine
 10
607.5764219999999
 20
126.502
 30
0.0
 11
607.5764219999999
 21
220.900366
 31
0.0
  0
LINE
  5
144E2
330
1405B
100
AcDbEntity
  8
30
 62
     0
370
    -2
100
AcDbLine
 10
673.576422
 20
135.0
 30
0.0
 11
673.576422
 21
220.900366
 31
0.0
  0
LINE
  5
144E3
330
1405B
100
AcDbEntity
  8
30
 62
     0
370
    -2
100
AcDbLine
 10
609.5764220000002
 20
220.4003660000001
 30
0.0
 11
671.5764220000002
 21
220.4003660000001
 31
0.0
  0
INSERT
  5
144E4
330
1405B
100
AcDbEntity
  8
30
 62
     0
370
    -2
100
AcDbBlockReference
  2
_OPEN
 10
607.5764219999999
 20
220.4003660000001
 30
0.0
 41
2.0
 42
2.0
 43
2.0
 50
180.0
  0
INSERT
  5
144E5
330
1405B
100
AcDbEntity
  8
30
 62
     0
370
    -2
100
AcDbBlockReference
  2
_OPEN
 10
673.576422
 20
220.4003660000001
 30
0.0
 41
2.0
 42
2.0
 43
2.0
  0
MTEXT
  5
144E6
330
1405B
100
AcDbEntity
  8
30
 62
     0
100
AcDbMText
 10
640.576422
 20
225.400366
 30
0.0
 40
6.0
 41
0.0
 71
     5
 72
     1
  1
\A1; 66 
 73
     1
 44
1.0
1001
ACAD
1000
MTEXTBEGIN
1070
    73
1070
     1
1070
    44
1040
1.0
1070
    74
1070
     0
1000
MTEXTEND
  0
POINT
  5
144E7
330
1405B
100
AcDbEntity
  8
DEFPOINTS
 62
     0
100
AcDbPoint
 10
607.5764219999999
 20
123.502
 30
0.0
  0
POINT
  5
144E8
330
1405B
100
AcDbEntity
  8
DEFPOINTS
 62
     0
100
AcDbPoint
 10
673.576422
 20
132.0
 30
0.0
  0
POINT
  5
144E9
330
1405B
100
AcDbEntity
  8
DEFPOINTS
 62
     0
100
AcDbPoint
 10
673.576422
 20
220.4003660000001
 30
0.0
  0
ENDBLK
  5
1405D
330
1405B
100
AcDbEntity
  8
0
100
AcDbBlockEnd
  0
BLOCK
  5
14068
330
14067
100
AcDbEntity
  8
0
100
AcDbBlockBegin
  2
*D27
 70
     1
 10
0.0
 20
0.0
 30
0.0
  3
*D27
  1

  0
LINE
  5
15B31
330
14067
100
AcDbEntity
  8
30
 62
     0
370
    -2
100
AcDbLine
 10
595.0764219999999
 20
60.00000000000007
 30
0.0
 11
595.0764219999999
 21
-60.49999999999999
 31
0.0
  0
LINE
  5
15B32
330
14067
100
AcDbEntity
  8
30
 62
     0
370
    -2
100
AcDbLine
 10
601.5764220000002
 20
35.00000000000007
 30
0.0
 11
601.5764220000002
 21
-60.49999999999999
 31
0.0
  0
LINE
  5
15B33
330
14067
100
AcDbEntity
  8
30
 62
     0
370
    -2
100
AcDbLine
 10
603.5764220000002
 20
-60.0
 30
0.0
 11
605.5764220000002
 21
-60.0
 31
0.0
  0
LINE
  5
15B34
330
14067
100
AcDbEntity
  8
30
 62
     0
370
    -2
100
AcDbLine
 10
593.0764219999997
 20
-60.0
 30
0.0
 11
557.1999999999998
 21
-60.0
 31
0.0
  0
LINE
  5
15B35
330
14067
100
AcDbEntity
  8
30
 62
     0
370
    -2
100
AcDbLine
 10
601.5764220000002
 20
-60.0
 30
0.0
 11
595.0764219999999
 21
-60.0
 31
0.0
  0
INSERT
  5
15B36
330
14067
100
AcDbEntity
  8
30
 62
     0
370
    -2
100
AcDbBlockReference
  2
_OPEN
 10
601.5764220000002
 20
-60.0
 30
0.0
 41
2.0
 42
2.0
 43
2.0
 50
180.0
  0
INSERT
  5
15B37
330
14067
100
AcDbEntity
  8
30
 62
     0
370
    -2
100
AcDbBlockReference
  2
_OPEN
 10
595.0764219999999
 20
-60.0
 30
0.0
 41
2.0
 42
2.0
 43
2.0
  0
MTEXT
  5
15B38
330
14067
100
AcDbEntity
  8
30
 62
     0
100
AcDbMText
 10
567.0
 20
-55.0
 30
0.0
 40
6.0
 41
0.0
 71
     5
 72
     1
  1
\A1; 6.5 
 73
     1
 44
1.0
1001
ACAD
1000
MTEXTBEGIN
1070
    73
1070
     1
1070
    44
1040
1.0
1070
    74
1070
     0
1000
MTEXTEND
  0
POINT
  5
15B39
330
14067
100
AcDbEntity
  8
DEFPOINTS
 62
     0
100
AcDbPoint
 10
595.0764219999999
 20
63.00000000000006
 30
0.0
  0
POINT
  5
15B3A
330
14067
100
AcDbEntity
  8
DEFPOINTS
 62
     0
100
AcDbPoint
 10
601.5764220000002
 20
38.00000000000006
 30
0.0
  0
POINT
  5
15B3B
330
14067
100
AcDbEntity
  8
DEFPOINTS
 62
     0
100
AcDbPoint
 10
601.5764220000002
 20
-60.0
 30
0.0
  0
ENDBLK
  5
14069
330
14067
100
AcDbEntity
  8
0
100
AcDbBlockEnd
  0
BLOCK
  5
14075
330
14074
100
AcDbEntity
  8
0
100
AcDbBlockBegin
  2
*D28
 70
     1
 10
0.0
 20
0.0
 30
0.0
  3
*D28
  1

  0
LINE
  5
144F5
330
14074
100
AcDbEntity
  8
30
 62
     0
370
    -2
100
AcDbLine
 10
612.5764219999997
 20
134.110844
 30
0.0
 11
612.5764219999997
 21
196.900366
 31
0.0
  0
LINE
  5
144F6
330
14074
100
AcDbEntity
  8
30
 62
     0
370
    -2
100
AcDbLine
 10
672.8764219999998
 20
183.0
 30
0.0
 11
672.8764219999998
 21
196.900366
 31
0.0
  0
LINE
  5
144F7
330
14074
100
AcDbEntity
  8
30
 62
     0
370
    -2
100
AcDbLine
 10
614.5764220000001
 20
196.400366
 30
0.0
 11
670.8764219999998
 21
196.400366
 31
0.0
  0
INSERT
  5
144F8
330
14074
100
AcDbEntity
  8
30
 62
     0
370
    -2
100
AcDbBlockReference
  2
_OPEN
 10
612.5764219999997
 20
196.400366
 30
0.0
 41
2.0
 42
2.0
 43
2.0
 50
180.0
  0
INSERT
  5
144F9
330
14074
100
AcDbEntity
  8
30
 62
     0
370
    -2
100
AcDbBlockReference
  2
_OPEN
 10
672.8764219999998
 20
196.400366
 30
0.0
 41
2.0
 42
2.0
 43
2.0
  0
MTEXT
  5
144FA
330
14074
100
AcDbEntity
  8
30
 62
     0
100
AcDbMText
 10
642.7264219999997
 20
201.4003660000001
 30
0.0
 40
6.0
 41
0.0
 71
     5
 72
     1
  1
\A1; 60.3 
 73
     1
 44
1.0
1001
ACAD
1000
MTEXTBEGIN
1070
    73
1070
     1
1070
    44
1040
1.0
1070
    74
1070
     0
1000
MTEXTEND
  0
POINT
  5
144FB
330
14074
100
AcDbEntity
  8
DEFPOINTS
 62
     0
100
AcDbPoint
 10
612.5764219999997
 20
131.110844
 30
0.0
  0
POINT
  5
144FC
330
14074
100
AcDbEntity
  8
DEFPOINTS
 62
     0
100
AcDbPoint
 10
672.8764219999998
 20
180.0
 30
0.0
  0
POINT
  5
144FD
330
14074
100
AcDbEntity
  8
DEFPOINTS
 62
     0
100
AcDbPoint
 10
672.8764219999998
 20
196.400366
 30
0.0
  0
ENDBLK
  5
14076
330
14074
100
AcDbEntity
  8
0
100
AcDbBlockEnd
  0
BLOCK
  5
145B0
330
145AF
100
AcDbEntity
  8
0
100
AcDbBlockBegin
  2
*D29
 70
     1
 10
0.0
 20
0.0
 30
0.0
  3
*D29
  1

  0
LINE
  5
15F2E
330
145AF
100
AcDbEntity
  8
30
 62
     0
370
    -2
100
AcDbLine
 10
604.5000000000002
 20
-209.9999999999999
 30
0.0
 11
604.5000000000002
 21
-278.898872
 31
0.0
  0
LINE
  5
15F2F
330
145AF
100
AcDbEntity
  8
30
 62
     0
370
    -2
100
AcDbLine
 10
675.5000000000002
 20
-209.9999999999999
 30
0.0
 11
675.5000000000002
 21
-278.898872
 31
0.0
  0
LINE
  5
15F30
330
145AF
100
AcDbEntity
  8
30
 62
     0
370
    -2
100
AcDbLine
 10
606.5000000000002
 20
-278.398872
 30
0.0
 11
673.5000000000002
 21
-278.398872
 31
0.0
  0
INSERT
  5
15F31
330
145AF
100
AcDbEntity
  8
30
 62
     0
370
    -2
100
AcDbBlockReference
  2
_OPEN
 10
604.5000000000002
 20
-278.398872
 30
0.0
 41
2.0
 42
2.0
 43
2.0
 50
180.0
  0
INSERT
  5
15F32
330
145AF
100
AcDbEntity
  8
30
 62
     0
370
    -2
100
AcDbBlockReference
  2
_OPEN
 10
675.5000000000002
 20
-278.398872
 30
0.0
 41
2.0
 42
2.0
 43
2.0
  0
MTEXT
  5
15F33
330
145AF
100
AcDbEntity
  8
30
 62
     0
100
AcDbMText
 10
640.0000000000002
 20
-273.3988720000001
 30
0.0
 40
6.0
 41
0.0
 71
     5
 72
     1
  1
\A1; 71 
 73
     1
 44
1.0
1001
ACAD
1000
MTEXTBEGIN
1070
    73
1070
     1
1070
    44
1040
1.0
1070
    74
1070
     0
1000
MTEXTEND
  0
POINT
  5
15F34
330
145AF
100
AcDbEntity
  8
DEFPOINTS
 62
     0
100
AcDbPoint
 10
604.5000000000002
 20
-206.9999999999999
 30
0.0
  0
POINT
  5
15F35
330
145AF
100
AcDbEntity
  8
DEFPOINTS
 62
     0
100
AcDbPoint
 10
675.5000000000002
 20
-206.9999999999999
 30
0.0
  0
POINT
  5
15F36
330
145AF
100
AcDbEntity
  8
DEFPOINTS
 62
     0
100
AcDbPoint
 10
675.5000000000002
 20
-278.398872
 30
0.0
  0
ENDBLK
  5
145B1
330
145AF
100
AcDbEntity
  8
0
100
AcDbBlockEnd
  0
BLOCK
  5
145BC
330
145BB
100
AcDbEntity
  8
0
100
AcDbBlockBegin
  2
*D30
 70
     1
 10
0.0
 20
0.0
 30
0.0
  3
*D30
  1

  0
LINE
  5
15F37
330
145BB
100
AcDbEntity
  8
30
 62
     0
370
    -2
100
AcDbLine
 10
634.9979999999998
 20
-154.0
 30
0.0
 11
573.7902440000001
 21
-154.0
 31
0.0
  0
LINE
  5
15F38
330
145BB
100
AcDbEntity
  8
30
 62
     0
370
    -2
100
AcDbLine
 10
635.0000000000002
 20
-205.9999999999999
 30
0.0
 11
573.7902440000001
 21
-205.9999999999999
 31
0.0
  0
LINE
  5
15F39
330
145BB
100
AcDbEntity
  8
30
 62
     0
370
    -2
100
AcDbLine
 10
574.2902440000001
 20
-156.0
 30
0.0
 11
574.2902440000001
 21
-203.9999999999999
 31
0.0
  0
INSERT
  5
15F3A
330
145BB
100
AcDbEntity
  8
30
 62
     0
370
    -2
100
AcDbBlockReference
  2
_OPEN
 10
574.2902440000001
 20
-154.0
 30
0.0
 41
2.0
 42
2.0
 43
2.0
 50
90.0
  0
INSERT
  5
15F3B
330
145BB
100
AcDbEntity
  8
30
 62
     0
370
    -2
100
AcDbBlockReference
  2
_OPEN
 10
574.2902440000001
 20
-205.9999999999999
 30
0.0
 41
2.0
 42
2.0
 43
2.0
 50
270.0
  0
MTEXT
  5
15F3C
330
145BB
100
AcDbEntity
  8
30
 62
     0
100
AcDbMText
 10
569.2902440000001
 20
-179.9999999999998
 30
0.0
 40
6.0
 41
0.0
 71
     5
 72
     1
  1
\A1; 52 
 11
0.0000000000000001
 21
1.0
 31
0.0
 73
     1
 44
1.0
1001
ACAD
1000
MTEXTBEGIN
1070
    73
1070
     1
1070
    44
1040
1.0
1070
    74
1070
     0
1000
MTEXTEND
  0
POINT
  5
15F3D
330
145BB
100
AcDbEntity
  8
DEFPOINTS
 62
     0
100
AcDbPoint
 10
637.9979999999997
 20
-154.0
 30
0.0
  0
POINT
  5
15F3E
330
145BB
100
AcDbEntity
  8
DEFPOINTS
 62
     0
100
AcDbPoint
 10
638.0000000000002
 20
-205.9999999999999
 30
0.0
  0
POINT
  5
15F3F
330
145BB
100
AcDbEntity
  8
DEFPOINTS
 62
     0
100
AcDbPoint
 10
574.2902440000001
 20
-205.9999999999999
 30
0.0
  0
ENDBLK
  5
145BD
330
145BB
100
AcDbEntity
  8
0
100
AcDbBlockEnd
  0
BLOCK
  5
145C9
330
145C8
100
AcDbEntity
  8
0
100
AcDbBlockBegin
  2
*D31
 70
     1
 10
0.0
 20
0.0
 30
0.0
  3
*D31
  1

  0
LINE
  5
15A6F
330
145C8
100
AcDbEntity
  8
30
 62
     0
370
    -2
100
AcDbLine
 10
415.7583339999998
 20
-124.5
 30
0.0
 11
483.0833339999998
 21
-124.5
 31
0.0
  0
LINE
  5
15A70
330
145C8
100
AcDbEntity
  8
30
 62
     0
370
    -2
100
AcDbLine
 10
440.7583339999998
 20
-235.5
 30
0.0
 11
483.0833339999998
 21
-235.5
 31
0.0
  0
LINE
  5
15A71
330
145C8
100
AcDbEntity
  8
30
 62
     0
370
    -2
100
AcDbLine
 10
482.5833339999999
 20
-126.5000000000001
 30
0.0
 11
482.5833339999999
 21
-233.5
 31
0.0
  0
INSERT
  5
15A72
330
145C8
100
AcDbEntity
  8
30
 62
     0
370
    -2
100
AcDbBlockReference
  2
_OPEN
 10
482.5833339999999
 20
-124.5
 30
0.0
 41
2.0
 42
2.0
 43
2.0
 50
90.0
  0
INSERT
  5
15A73
330
145C8
100
AcDbEntity
  8
30
 62
     0
370
    -2
100
AcDbBlockReference
  2
_OPEN
 10
482.5833339999999
 20
-235.5
 30
0.0
 41
2.0
 42
2.0
 43
2.0
 50
270.0
  0
MTEXT
  5
15A74
330
145C8
100
AcDbEntity
  8
30
 62
     0
100
AcDbMText
 10
477.5833339999998
 20
-180.0
 30
0.0
 40
6.0
 41
0.0
 71
     5
 72
     1
  1
\A1; 111 
 11
0.0000000000000001
 21
1.0
 31
0.0
 73
     1
 44
1.0
1001
ACAD
1000
MTEXTBEGIN
1070
    73
1070
     1
1070
    44
1040
1.0
1070
    74
1070
     0
1000
MTEXTEND
  0
POINT
  5
15A75
330
145C8
100
AcDbEntity
  8
DEFPOINTS
 62
     0
100
AcDbPoint
 10
412.7583339999998
 20
-124.5
 30
0.0
  0
POINT
  5
15A76
330
145C8
100
AcDbEntity
  8
DEFPOINTS
 62
     0
100
AcDbPoint
 10
437.7583339999998
 20
-235.5
 30
0.0
  0
POINT
  5
15A77
330
145C8
100
AcDbEntity
  8
DEFPOINTS
 62
     0
100
AcDbPoint
 10
482.5833339999999
 20
-235.5
 30
0.0
  0
ENDBLK
  5
145CA
330
145C8
100
AcDbEntity
  8
0
100
AcDbBlockEnd
  0
BLOCK
  5
145D6
330
145D5
100
AcDbEntity
  8
0
100
AcDbBlockBegin
  2
*D32
 70
     1
 10
0.0
 20
0.0
 30
0.0
  3
*D32
  1

  0
LINE
  5
16011
330
145D5
100
AcDbEntity
  8
30
 62
     0
370
    -2
100
AcDbLine
 10
407.5
 20
-127.5
 30
0.0
 11
407.5
 21
-277.099634
 31
0.0
  0
LINE
  5
16012
330
145D5
100
AcDbEntity
  8
30
 62
     0
370
    -2
100
AcDbLine
 10
432.5
 20
-238.5
 30
0.0
 11
432.5
 21
-277.099634
 31
0.0
  0
LINE
  5
16013
330
145D5
100
AcDbEntity
  8
30
 62
     0
370
    -2
100
AcDbLine
 10
409.4999999999997
 20
-276.599634
 30
0.0
 11
430.4999999999998
 21
-276.599634
 31
0.0
  0
INSERT
  5
16014
330
145D5
100
AcDbEntity
  8
30
 62
     0
370
    -2
100
AcDbBlockReference
  2
_OPEN
 10
407.5
 20
-276.599634
 30
0.0
 41
2.0
 42
2.0
 43
2.0
 50
180.0
  0
INSERT
  5
16015
330
145D5
100
AcDbEntity
  8
30
 62
     0
370
    -2
100
AcDbBlockReference
  2
_OPEN
 10
432.5
 20
-276.599634
 30
0.0
 41
2.0
 42
2.0
 43
2.0
  0
MTEXT
  5
16016
330
145D5
100
AcDbEntity
  8
30
 62
     0
100
AcDbMText
 10
420.0
 20
-271.599634
 30
0.0
 40
6.0
 41
0.0
 71
     5
 72
     1
  1
\A1; 25 
 73
     1
 44
1.0
1001
ACAD
1000
MTEXTBEGIN
1070
    73
1070
     1
1070
    44
1040
1.0
1070
    74
1070
     0
1000
MTEXTEND
  0
POINT
  5
16017
330
145D5
100
AcDbEntity
  8
DEFPOINTS
 62
     0
100
AcDbPoint
 10
407.5
 20
-124.5
 30
0.0
  0
POINT
  5
16018
330
145D5
100
AcDbEntity
  8
DEFPOINTS
 62
     0
100
AcDbPoint
 10
432.5
 20
-235.5
 30
0.0
  0
POINT
  5
16019
330
145D5
100
AcDbEntity
  8
DEFPOINTS
 62
     0
100
AcDbPoint
 10
432.5
 20
-276.599634
 30
0.0
  0
ENDBLK
  5
145D7
330
145D5
100
AcDbEntity
  8
0
100
AcDbBlockEnd
  0
BLOCK
  5
145E2
330
145E1
100
AcDbEntity
  8
0
100
AcDbBlockBegin
  2
*D33
 70
     1
 10
0.0
 20
0.0
 30
0.0
  3
*D33
  1

  0
LINE
  5
15F40
330
145E1
100
AcDbEntity
  8
30
 62
     0
370
    -2
100
AcDbLine
 10
604.5000000000002
 20
-209.9999999999999
 30
0.0
 11
604.5000000000002
 21
-262.8988720000001
 31
0.0
  0
LINE
  5
15F41
330
145E1
100
AcDbEntity
  8
30
 62
     0
370
    -2
100
AcDbLine
 10
640.0
 20
-258.0
 30
0.0
 11
640.0
 21
-262.8988720000001
 31
0.0
  0
LINE
  5
15F42
330
145E1
100
AcDbEntity
  8
30
 62
     0
370
    -2
100
AcDbLine
 10
606.5000000000002
 20
-262.398872
 30
0.0
 11
638.0
 21
-262.398872
 31
0.0
  0
INSERT
  5
15F43
330
145E1
100
AcDbEntity
  8
30
 62
     0
370
    -2
100
AcDbBlockReference
  2
_OPEN
 10
604.5000000000002
 20
-262.398872
 30
0.0
 41
2.0
 42
2.0
 43
2.0
 50
180.0
  0
INSERT
  5
15F44
330
145E1
100
AcDbEntity
  8
30
 62
     0
370
    -2
100
AcDbBlockReference
  2
_OPEN
 10
640.0
 20
-262.398872
 30
0.0
 41
2.0
 42
2.0
 43
2.0
  0
MTEXT
  5
15F45
330
145E1
100
AcDbEntity
  8
30
 62
     0
100
AcDbMText
 10
622.2500000000001
 20
-257.398872
 30
0.0
 40
6.0
 41
0.0
 71
     5
 72
     1
  1
\A1; 35.5 
 73
     1
 44
1.0
1001
ACAD
1000
MTEXTBEGIN
1070
    73
1070
     1
1070
    44
1040
1.0
1070
    74
1070
     0
1000
MTEXTEND
  0
POINT
  5
15F46
330
145E1
100
AcDbEntity
  8
DEFPOINTS
 62
     0
100
AcDbPoint
 10
604.5000000000002
 20
-206.9999999999999
 30
0.0
  0
POINT
  5
15F47
330
145E1
100
AcDbEntity
  8
DEFPOINTS
 62
     0
100
AcDbPoint
 10
640.0
 20
-254.9999999999999
 30
0.0
  0
POINT
  5
15F48
330
145E1
100
AcDbEntity
  8
DEFPOINTS
 62
     0
100
AcDbPoint
 10
640.0
 20
-262.398872
 30
0.0
  0
ENDBLK
  5
145E3
330
145E1
100
AcDbEntity
  8
0
100
AcDbBlockEnd
  0
BLOCK
  5
145EE
330
145ED
100
AcDbEntity
  8
0
100
AcDbBlockBegin
  2
*D34
 70
     1
 10
0.0
 20
0.0
 30
0.0
  3
*D34
  1

  0
LINE
  5
15F49
330
145ED
100
AcDbEntity
  8
30
 62
     0
370
    -2
100
AcDbLine
 10
602.5
 20
-110.0
 30
0.0
 11
602.5
 21
-101.898872
 31
0.0
  0
LINE
  5
15F4A
330
145ED
100
AcDbEntity
  8
30
 62
     0
370
    -2
100
AcDbLine
 10
640.0
 20
-110.0
 30
0.0
 11
640.0
 21
-101.898872
 31
0.0
  0
LINE
  5
15F4B
330
145ED
100
AcDbEntity
  8
30
 62
     0
370
    -2
100
AcDbLine
 10
604.4999999999999
 20
-102.398872
 30
0.0
 11
638.0
 21
-102.398872
 31
0.0
  0
INSERT
  5
15F4C
330
145ED
100
AcDbEntity
  8
30
 62
     0
370
    -2
100
AcDbBlockReference
  2
_OPEN
 10
602.5
 20
-102.398872
 30
0.0
 41
2.0
 42
2.0
 43
2.0
 50
180.0
  0
INSERT
  5
15F4D
330
145ED
100
AcDbEntity
  8
30
 62
     0
370
    -2
100
AcDbBlockReference
  2
_OPEN
 10
640.0
 20
-102.398872
 30
0.0
 41
2.0
 42
2.0
 43
2.0
  0
MTEXT
  5
15F4E
330
145ED
100
AcDbEntity
  8
30
 62
     0
100
AcDbMText
 10
621.25
 20
-97.398872
 30
0.0
 40
6.0
 41
0.0
 71
     5
 72
     1
  1
\A1; 37.5 
 73
     1
 44
1.0
1001
ACAD
1000
MTEXTBEGIN
1070
    73
1070
     1
1070
    44
1040
1.0
1070
    74
1070
     0
1000
MTEXTEND
  0
POINT
  5
15F4F
330
145ED
100
AcDbEntity
  8
DEFPOINTS
 62
     0
100
AcDbPoint
 10
602.5
 20
-113.0
 30
0.0
  0
POINT
  5
15F50
330
145ED
100
AcDbEntity
  8
DEFPOINTS
 62
     0
100
AcDbPoint
 10
640.0
 20
-113.0
 30
0.0
  0
POINT
  5
15F51
330
145ED
100
AcDbEntity
  8
DEFPOINTS
 62
     0
100
AcDbPoint
 10
640.0
 20
-102.398872
 30
0.0
  0
ENDBLK
  5
145EF
330
145ED
100
AcDbEntity
  8
0
100
AcDbBlockEnd
  0
BLOCK
  5
146CB
330
146CA
100
AcDbEntity
  8
0
100
AcDbBlockBegin
  2
*D35
 70
     1
 10
0.0
 20
0.0
 30
0.0
  3
*D35
  1

  0
LINE
  5
15F52
330
146CA
100
AcDbEntity
  8
30
  6
Continuous
 62
     0
370
    -2
100
AcDbLine
 10
602.8194220773746
 20
-153.6529654790107
 30
0.0
 11
587.1388441547509
 21
-145.7732170141141
 31
0.0
  0
LINE
  5
15F53
330
146CA
100
AcDbEntity
  8
30
  6
Continuous
 62
     0
370
    -2
100
AcDbLine
 10
605.4999999999986
 20
-154.9999999999997
 30
0.0
 11
604.606474025791
 21
-154.5509884930035
 31
0.0
  0
INSERT
  5
15F54
330
146CA
100
AcDbEntity
  8
30
  6
Continuous
 62
     0
370
    -2
100
AcDbBlockReference
  2
_OPEN
 10
604.606474025791
 20
-154.5509884930035
 30
0.0
 41
2.0
 42
2.0
 43
2.0
 50
333.3197190641447
  0
MTEXT
  5
15F55
330
146CA
100
AcDbEntity
  8
30
  6
Continuous
 62
     0
100
AcDbMText
 10
594.7450575349825
 20
-143.999656185052
 30
0.0
 40
6.0
 41
0.0
 71
     5
 72
     1
  1
\A1;R1
 11
0.8935259742082346
 21
-0.4490115069964526
 31
0.0
 73
     1
 44
1.0
1001
ACAD
1000
MTEXTBEGIN
1070
    73
1070
     1
1070
    44
1040
1.0
1070
    74
1070
     0
1000
MTEXTEND
  0
POINT
  5
15F56
330
146CA
100
AcDbEntity
  8
DEFPOINTS
  6
Continuous
 62
     0
100
AcDbPoint
 10
604.606474025791
 20
-154.5509884930035
 30
0.0
  0
POINT
  5
15F57
330
146CA
100
AcDbEntity
  8
DEFPOINTS
  6
Continuous
 62
     0
100
AcDbPoint
 10
605.4999999999986
 20
-154.9999999999997
 30
0.0
  0
ENDBLK
  5
146CC
330
146CA
100
AcDbEntity
  8
0
100
AcDbBlockEnd
  0
BLOCK
  5
147E3
330
147E2
100
AcDbEntity
  8
0
100
AcDbBlockBegin
  2
*D36
 70
     1
 10
0.0
 20
0.0
 30
0.0
  3
*D36
  1

  0
LINE
  5
15D73
330
147E2
100
AcDbEntity
  8
30
 62
     0
370
    -2
100
AcDbLine
 10
581.0598356285827
 20
305.5318416502471
 30
0.0
 11
576.4499899002295
 21
307.4681583497524
 31
0.0
  0
LINE
  5
15D74
330
147E2
100
AcDbEntity
  8
30
 62
     0
370
    -2
100
AcDbLine
 10
574.6060516088882
 20
308.2426850295547
 30
0.0
 11
503.634852821451
 21
338.0533827175033
 31
0.0
  0
INSERT
  5
15D75
330
147E2
100
AcDbEntity
  8
30
 62
     0
370
    -2
100
AcDbBlockReference
  2
_OPEN
 10
582.9037739199242
 20
304.757314970445
 30
0.0
 41
2.0
 42
2.0
 43
2.0
 50
337.215676764859
  0
INSERT
  5
15D76
330
147E2
100
AcDbEntity
  8
30
 62
     0
370
    -2
100
AcDbBlockReference
  2
_OPEN
 10
574.6060516088882
 20
308.2426850295547
 30
0.0
 41
2.0
 42
2.0
 43
2.0
 50
157.215676764859
  0
MTEXT
  5
15D77
330
147E2
100
AcDbEntity
  8
30
 62
     0
100
AcDbMText
 10
533.6912284639111
 20
330.851696578874
 30
0.0
 40
6.0
 41
0.0
 71
     5
 72
     1
  1
\A1;\U+03C69(60-125A)
 11
0.9219691456706575
 21
-0.3872633399010519
 31
0.0
 73
     1
 44
1.0
1001
ACAD
1000
MTEXTBEGIN
1070
    73
1070
     1
1070
    44
1040
1.0
1070
    74
1070
     0
1000
MTEXTEND
  0
POINT
  5
15D78
330
147E2
100
AcDbEntity
  8
DEFPOINTS
 62
     0
100
AcDbPoint
 10
574.6060516088882
 20
308.2426850295547
 30
0.0
  0
POINT
  5
15D79
330
147E2
100
AcDbEntity
  8
DEFPOINTS
 62
     0
100
AcDbPoint
 10
582.9037739199242
 20
304.757314970445
 30
0.0
  0
ENDBLK
  5
147E4
330
147E2
100
AcDbEntity
  8
0
100
AcDbBlockEnd
  0
ENDSEC
  0
SECTION
  2
ENTITIES
  0
MTEXT
  5
A94C
330
1E
100
AcDbEntity
  8
30
  6
Continuous
100
AcDbMText
 10
709.0
 20
250.0
 30
0.0
 40
6.0
 41
0.0
 71
     7
 72
     5
  1
S50-SD 3P FC\PS125-SD 3P FC\PS125-GD 3P FC\PS125-SDN 3P FC
 73
     1
 44
1.0
1001
ACAD
1000
MTEXTBEGIN
1070
    73
1070
     1
1070
    44
1040
1.0
1070
    74
1070
     0
1000
MTEXTEND
  0
LINE
  5
1329C
330
1E
100
AcDbEntity
  8
130
100
AcDbLine
 10
385.5
 20
252.2000000000001
 30
0.0
 11
454.4999999999998
 21
252.2000000000001
 31
0.0
  0
LINE
  5
1329D
330
1E
100
AcDbEntity
  8
130
100
AcDbLine
 10
426.4999999999997
 20
230.0000000000001
 30
0.0
 11
426.4999999999997
 21
245.7000000000001
 31
0.0
  0
LINE
  5
1329E
330
1E
100
AcDbEntity
  8
130
100
AcDbLine
 10
384.2999999999999
 20
258.2
 30
0.0
 11
384.2999999999999
 21
263.2000000000001
 31
0.0
  0
LINE
  5
1329F
330
1E
100
AcDbEntity
  8
17
100
AcDbLine
 10
432.5
 20
314.64219
 30
0.0
 11
432.5
 21
336.9000000000001
 31
0.0
  0
LINE
  5
132A0
330
1E
100
AcDbEntity
  8
1
  6
Continuous
 62
     2
100
AcDbLine
 10
436.2
 20
302.7000000000001
 30
0.0
 11
436.2
 21
300.2000000000001
 31
0.0
  0
LINE
  5
132A1
330
1E
100
AcDbEntity
  8
1
  6
Continuous
 62
     2
100
AcDbLine
 10
587.0049117644066
 20
329.515956
 30
0.0
 11
587.0049117644066
 21
300.0
 31
0.0
  0
LINE
  5
132A2
330
1E
100
AcDbEntity
  8
1
  6
Continuous
 62
     2
100
AcDbLine
 10
403.7999999999998
 20
302.7000000000001
 30
0.0
 11
403.7999999999998
 21
300.2000000000001
 31
0.0
  0
LINE
  5
132A3
330
1E
100
AcDbEntity
  8
1
  6
Continuous
 62
     2
100
AcDbLine
 10
454.0
 20
288.0000000000001
 30
0.0
 11
454.0
 21
323.5000000000001
 31
0.0
  0
LINE
  5
132A4
330
1E
100
AcDbEntity
  8
1
  6
Continuous
 62
     2
100
AcDbLine
 10
665.3322117644062
 20
332.7386720000001
 30
0.0
 11
669.8030977644062
 21
330.406814
 31
0.0
  0
LINE
  5
132A5
330
1E
100
AcDbEntity
  8
17
100
AcDbLine
 10
445.0
 20
334.2
 30
0.0
 11
445.0
 21
269.0000000000001
 31
0.0
  0
LINE
  5
132A6
330
1E
100
AcDbEntity
  8
17
100
AcDbLine
 10
434.9999999999998
 20
288.0000000000001
 30
0.0
 11
454.9999999999998
 21
288.0000000000001
 31
0.0
  0
LINE
  5
132A7
330
1E
100
AcDbEntity
  8
1
  6
Continuous
 62
     2
100
AcDbLine
 10
436.0
 20
288.0000000000001
 30
0.0
 11
436.0
 21
323.5000000000001
 31
0.0
  0
LINE
  5
132A8
330
1E
100
AcDbEntity
  8
130
100
AcDbLine
 10
382.5
 20
263.2000000000001
 30
0.0
 11
457.5
 21
263.2000000000001
 31
0.0
  0
LINE
  5
132A9
330
1E
100
AcDbEntity
  8
130
100
AcDbLine
 10
430.9999999999998
 20
245.7000000000001
 30
0.0
 11
430.9999999999998
 21
252.2000000000001
 31
0.0
  0
LINE
  5
132AA
330
1E
100
AcDbEntity
  8
130
100
AcDbLine
 10
382.5
 20
256.2000000000001
 30
0.0
 11
457.5
 21
256.2000000000001
 31
0.0
  0
LINE
  5
132AB
330
1E
100
AcDbEntity
  8
1
  6
Continuous
 62
     2
100
AcDbLine
 10
405.4999999999997
 20
331.9000000000002
 30
0.0
 11
405.4999999999997
 21
324.2
 31
0.0
  0
LINE
  5
132AC
330
1E
100
AcDbEntity
  8
16
100
AcDbLine
 10
420.0
 20
334.2
 30
0.0
 11
420.0
 21
220.0
 31
0.0
  0
LINE
  5
132AD
330
1E
100
AcDbEntity
  8
1
  6
Continuous
 62
     2
100
AcDbLine
 10
411.0
 20
288.0000000000001
 30
0.0
 11
411.0
 21
323.5000000000001
 31
0.0
  0
LINE
  5
132AE
330
1E
100
AcDbEntity
  8
1
  6
Continuous
 62
     2
100
AcDbLine
 10
665.7576557644063
 20
315.25
 30
0.0
 11
665.7576557644063
 21
302.75
 31
0.0
  0
LINE
  5
132AF
330
1E
100
AcDbEntity
  8
1
  6
Continuous
 62
     2
100
AcDbLine
 10
570.5049117644066
 20
332.4999999999999
 30
0.0
 11
570.5049117644066
 21
300.0
 31
0.0
  0
LINE
  5
132B0
330
1E
100
AcDbEntity
  8
1
  6
Continuous
 62
     2
100
AcDbLine
 10
428.7999999999998
 20
302.7000000000001
 30
0.0
 11
428.7999999999998
 21
300.2000000000001
 31
0.0
  0
LINE
  5
132B1
330
1E
100
AcDbEntity
  8
1
  6
Continuous
 62
     2
100
AcDbLine
 10
386.2
 20
300.2000000000001
 30
0.0
 11
403.7999999999998
 21
300.2000000000001
 31
0.0
  0
LINE
  5
132B2
330
1E
100
AcDbEntity
  8
130
100
AcDbLine
 10
454.4999999999998
 20
252.2000000000001
 30
0.0
 11
454.4999999999998
 21
256.2000000000001
 31
0.0
  0
LINE
  5
132B3
330
1E
100
AcDbEntity
  8
130
100
AcDbLine
 10
382.5
 20
258.2
 30
0.0
 11
384.2999999999999
 21
258.2
 31
0.0
  0
LINE
  5
132B4
330
1E
100
AcDbEntity
  8
130
100
AcDbLine
 10
457.5
 20
324.2
 30
0.0
 11
457.5
 21
256.2000000000001
 31
0.0
  0
LINE
  5
132B5
330
1E
100
AcDbEntity
  8
1
  6
Continuous
 62
     2
100
AcDbLine
 10
386.2
 20
302.7000000000001
 30
0.0
 11
386.2
 21
300.2000000000001
 31
0.0
  0
LINE
  5
132B7
330
1E
100
AcDbEntity
  8
1
  6
Continuous
 62
     2
100
AcDbLine
 10
386.2
 20
302.7000000000001
 30
0.0
 11
403.7999999999998
 21
302.7000000000001
 31
0.0
  0
LINE
  5
132B8
330
1E
100
AcDbEntity
  8
1
  6
Continuous
 62
     2
100
AcDbLine
 10
572.5049117644062
 20
306.5
 30
0.0
 11
585.0049117644062
 21
306.5
 31
0.0
  0
LINE
  5
132B9
330
1E
100
AcDbEntity
  8
1
  6
Continuous
 62
     2
100
AcDbLine
 10
578.7549117644062
 20
312.75
 30
0.0
 11
578.7549117644062
 21
300.25
 31
0.0
  0
LINE
  5
132BA
330
1E
100
AcDbEntity
  8
1
  6
Continuous
 62
     2
100
AcDbLine
 10
672.7576557644063
 20
329.515956
 30
0.0
 11
672.7576557644063
 21
300.0
 31
0.0
  0
LINE
  5
132BB
330
1E
100
AcDbEntity
  8
17
100
AcDbLine
 10
409.9999999999998
 20
288.0000000000001
 30
0.0
 11
429.9999999999998
 21
288.0000000000001
 31
0.0
  0
LINE
  5
132BC
330
1E
100
AcDbEntity
  8
130
100
AcDbLine
 10
455.6999999999998
 20
258.2
 30
0.0
 11
457.5
 21
258.2
 31
0.0
  0
LINE
  5
132BD
330
1E
100
AcDbEntity
  8
1
  6
Continuous
 62
     2
100
AcDbLine
 10
430.4999999999997
 20
331.9000000000002
 30
0.0
 11
430.4999999999997
 21
324.2
 31
0.0
  0
LINE
  5
132BE
330
1E
100
AcDbEntity
  8
1
  6
Continuous
 62
     2
100
AcDbLine
 10
436.2
 20
300.2000000000001
 30
0.0
 11
453.7999999999998
 21
300.2000000000001
 31
0.0
  0
LINE
  5
132BF
330
1E
100
AcDbEntity
  8
130
100
AcDbLine
 10
408.9999999999998
 20
245.7000000000001
 30
0.0
 11
408.9999999999998
 21
252.2000000000001
 31
0.0
  0
LINE
  5
132C0
330
1E
100
AcDbEntity
  8
1
  6
Continuous
 62
     2
100
AcDbLine
 10
436.2
 20
302.7000000000001
 30
0.0
 11
453.7999999999998
 21
302.7000000000001
 31
0.0
  0
LINE
  5
132C1
330
1E
100
AcDbEntity
  8
1
  6
Continuous
 62
     2
100
AcDbLine
 10
658.7576557644062
 20
300.0
 30
0.0
 11
672.7576557644063
 21
300.0
 31
0.0
  0
LINE
  5
132C2
330
1E
100
AcDbEntity
  8
17
100
AcDbLine
 10
407.5
 20
314.64219
 30
0.0
 11
407.5
 21
336.9000000000001
 31
0.0
  0
LINE
  5
132C3
330
1E
100
AcDbEntity
  8
1
  6
Continuous
 62
     2
100
AcDbLine
 10
429.0
 20
288.0000000000001
 30
0.0
 11
429.0
 21
323.5000000000001
 31
0.0
  0
LINE
  5
132C4
330
1E
100
AcDbEntity
  8
1
  6
Continuous
 62
     2
100
AcDbLine
 10
453.7999999999998
 20
302.7000000000001
 30
0.0
 11
453.7999999999998
 21
300.2000000000001
 31
0.0
  0
LINE
  5
132C5
330
1E
100
AcDbEntity
  8
1
  6
Continuous
 62
     2
100
AcDbLine
 10
658.7576557644062
 20
333.1110319999999
 30
0.0
 11
658.7576557644062
 21
300.0
 31
0.0
  0
LINE
  5
132C6
330
1E
100
AcDbEntity
  8
1
  6
Continuous
 62
     2
100
AcDbLine
 10
659.5076557644063
 20
309.0
 30
0.0
 11
672.0076557644063
 21
309.0
 31
0.0
  0
LINE
  5
132C7
330
1E
100
AcDbEntity
  8
130
100
AcDbLine
 10
382.5
 20
256.2000000000001
 30
0.0
 11
382.5
 21
324.2
 31
0.0
  0
LINE
  5
132C8
330
1E
100
AcDbEntity
  8
130
100
AcDbLine
 10
426.4999999999997
 20
230.0000000000001
 30
0.0
 11
413.4999999999997
 21
230.0000000000001
 31
0.0
  0
LINE
  5
132C9
330
1E
100
AcDbEntity
  8
1
  6
Continuous
 62
     2
100
AcDbLine
 10
386.0
 20
288.0000000000001
 30
0.0
 11
386.0
 21
323.5000000000001
 31
0.0
  0
LINE
  5
132CA
330
1E
100
AcDbEntity
  8
1
  6
Continuous
 62
     4
100
AcDbLine
 10
429.0
 20
323.5000000000001
 30
0.0
 11
436.0
 21
323.5000000000001
 31
0.0
  0
LINE
  5
132CB
330
1E
100
AcDbEntity
  8
17
100
AcDbLine
 10
395.0
 20
334.2
 30
0.0
 11
395.0
 21
269.0000000000001
 31
0.0
  0
LINE
  5
132CC
330
1E
100
AcDbEntity
  8
1
  6
Continuous
 62
     2
100
AcDbLine
 10
409.4999999999997
 20
331.9000000000002
 30
0.0
 11
409.4999999999997
 21
324.2
 31
0.0
  0
LINE
  5
132CD
330
1E
100
AcDbEntity
  8
1
  6
Continuous
 62
     2
100
AcDbLine
 10
411.2
 20
300.2000000000001
 30
0.0
 11
428.7999999999998
 21
300.2000000000001
 31
0.0
  0
LINE
  5
132CE
330
1E
100
AcDbEntity
  8
1
  6
Continuous
 62
     2
100
AcDbLine
 10
570.5049117644066
 20
300.0
 30
0.0
 11
587.0049117644066
 21
300.0
 31
0.0
  0
LINE
  5
132CF
330
1E
100
AcDbEntity
  8
130
100
AcDbLine
 10
382.5
 20
324.2
 30
0.0
 11
457.5
 21
324.2
 31
0.0
  0
LINE
  5
132D0
330
1E
100
AcDbEntity
  8
130
100
AcDbLine
 10
408.9999999999998
 20
245.7000000000001
 30
0.0
 11
430.9999999999998
 21
245.7000000000001
 31
0.0
  0
LINE
  5
132D1
330
1E
100
AcDbEntity
  8
130
100
AcDbLine
 10
413.4999999999997
 20
230.0000000000001
 30
0.0
 11
413.4999999999997
 21
245.7000000000001
 31
0.0
  0
LINE
  5
132D2
330
1E
100
AcDbEntity
  8
130
100
AcDbLine
 10
455.6999999999998
 20
258.2
 30
0.0
 11
455.6999999999998
 21
263.2000000000001
 31
0.0
  0
LINE
  5
132D3
330
1E
100
AcDbEntity
  8
1
  6
Continuous
 62
     4
100
AcDbLine
 10
404.0
 20
323.5000000000001
 30
0.0
 11
411.0
 21
323.5000000000001
 31
0.0
  0
LINE
  5
132D4
330
1E
100
AcDbEntity
  8
17
100
AcDbLine
 10
385.0
 20
288.0000000000001
 30
0.0
 11
404.9999999999998
 21
288.0000000000001
 31
0.0
  0
LINE
  5
132D5
330
1E
100
AcDbEntity
  8
1
  6
Continuous
 62
     2
100
AcDbLine
 10
405.4999999999997
 20
331.9000000000002
 30
0.0
 11
409.4999999999997
 21
331.9000000000002
 31
0.0
  0
LINE
  5
132D6
330
1E
100
AcDbEntity
  8
1
  6
Continuous
 62
     2
100
AcDbLine
 10
411.2
 20
302.7000000000001
 30
0.0
 11
428.7999999999998
 21
302.7000000000001
 31
0.0
  0
LINE
  5
132D7
330
1E
100
AcDbEntity
  8
130
100
AcDbLine
 10
385.5
 20
252.2000000000001
 30
0.0
 11
385.5
 21
256.2000000000001
 31
0.0
  0
LINE
  5
132D8
330
1E
100
AcDbEntity
  8
1
  6
Continuous
 62
     4
100
AcDbLine
 10
382.5
 20
323.5000000000001
 30
0.0
 11
386.0
 21
323.5000000000001
 31
0.0
  0
LINE
  5
132D9
330
1E
100
AcDbEntity
  8
1
  6
Continuous
 62
     2
100
AcDbLine
 10
404.0
 20
288.0000000000001
 30
0.0
 11
404.0
 21
323.5000000000001
 31
0.0
  0
LINE
  5
132DA
330
1E
100
AcDbEntity
  8
1
  6
Continuous
 62
     4
100
AcDbLine
 10
454.0
 20
323.5000000000001
 30
0.0
 11
457.5
 21
323.5000000000001
 31
0.0
  0
LINE
  5
132DB
330
1E
100
AcDbEntity
  8
1
  6
Continuous
 62
     2
100
AcDbLine
 10
430.4999999999997
 20
331.9000000000002
 30
0.0
 11
434.4999999999997
 21
331.9000000000002
 31
0.0
  0
LINE
  5
132DC
330
1E
100
AcDbEntity
  8
1
  6
Continuous
 62
     2
100
AcDbLine
 10
434.4999999999997
 20
331.9000000000002
 30
0.0
 11
434.4999999999997
 21
324.2
 31
0.0
  0
LINE
  5
132DD
330
1E
100
AcDbEntity
  8
1
  6
Continuous
 62
     2
100
AcDbLine
 10
411.2
 20
302.7000000000001
 30
0.0
 11
411.2
 21
300.2000000000001
 31
0.0
  0
LINE
  5
132DE
330
1E
100
AcDbEntity
  8
1
  6
Continuous
 62
     2
100
AcDbLine
 10
578.3294677644063
 20
332.7386720000001
 30
0.0
 11
582.8003537644063
 21
330.406814
 31
0.0
  0
ARC
  5
132DF
330
1E
100
AcDbEntity
  8
1
  6
Continuous
 62
     2
100
AcDbCircle
 10
420.0
 20
288.0000000000001
 30
0.0
 40
9.0
100
AcDbArc
 50
180.0
 51
0.0
  0
ARC
  5
132E0
330
1E
100
AcDbEntity
  8
1
  6
Continuous
 62
     2
100
AcDbCircle
 10
673.5026537644065
 20
337.4999999999999
 30
0.0
 40
8.0
100
AcDbArc
 50
242.4550399999975
 51
264.6566030000009
  0
ARC
  5
132E1
330
1E
100
AcDbEntity
  8
1
  6
Continuous
 62
     2
100
AcDbCircle
 10
661.6326557644063
 20
325.645486
 30
0.0
 40
8.0
100
AcDbArc
 50
58.96075999999734
 51
111.0618179999997
  0
ARC
  5
132E2
330
1E
100
AcDbEntity
  8
1
  6
Continuous
 62
     2
100
AcDbCircle
 10
395.0
 20
288.0000000000001
 30
0.0
 40
9.0
100
AcDbArc
 50
180.0
 51
0.0
  0
ARC
  5
132E3
330
1E
100
AcDbEntity
  8
1
  6
Continuous
 62
     2
100
AcDbCircle
 10
445.0
 20
288.0000000000001
 30
0.0
 40
9.0
100
AcDbArc
 50
180.0
 51
0.0
  0
CIRCLE
  5
132E4
330
1E
100
AcDbEntity
  8
1
  6
Continuous
 62
     2
100
AcDbCircle
 10
665.7576557644063
 20
309.0
 30
0.0
 40
4.5
  0
ARC
  5
132E6
330
1E
100
AcDbEntity
  8
1
  6
Continuous
 62
     2
100
AcDbCircle
 10
586.4999097644063
 20
337.4999999999999
 30
0.0
 40
8.0
100
AcDbArc
 50
242.4550399999975
 51
273.6192169999994
  0
ARC
  5
132E7
330
1E
100
AcDbEntity
  8
1
  6
Continuous
 62
     2
100
AcDbCircle
 10
574.6299117644066
 20
325.645486
 30
0.0
 40
8.0
100
AcDbArc
 50
58.96075999999734
 51
121.0392400000026
  0
MTEXT
  5
132E8
330
1E
100
AcDbEntity
  8
16
100
AcDbMText
 10
418.7365668859891
 20
340.295322
 30
0.0
 40
5.0
 41
0.0
 71
     7
 72
     5
  1
\W01.000;\fsimplex.shx;H
  7
blockfont
 73
     2
 44
0.9036139999999999
1001
ACAD
1000
MTEXTBEGIN
1070
    73
1070
     2
1070
    44
1040
0.9036139999999999
1070
    74
1070
     0
1000
MTEXTEND
  0
MTEXT
  5
132E9
330
1E
100
AcDbEntity
  8
16
100
AcDbMText
 10
420.0612108859894
 20
337.7196240000001
 30
0.0
 40
5.0
 41
0.0
 71
     7
 72
     5
  1
\W01.000;\fsimplex.shx;L
  7
blockfont
 73
     2
 44
0.9036139999999999
1001
ACAD
1000
MTEXTBEGIN
1070
    73
1070
     2
1070
    44
1040
0.9036139999999999
1070
    74
1070
     0
1000
MTEXTEND
  0
DIMENSION
  5
132EB
330
1E
100
AcDbEntity
  8
30
100
AcDbDimension
  2
*D1
 10
689.7870437644066
 20
300.0
 30
0.0
 11
684.7870437644067
 21
276.4000000000001
 31
0.0
 70
    32
  1
 <> (max.)
 71
     0
 72
     0
 41
0.0
 42
9.0
  3
STANDARD1
100
AcDbAlignedDimension
 13
667.7596557644065
 23
309.0
 33
0.0
 14
667.7596557644065
 24
300.0
 34
0.0
 50
90.0
100
AcDbRotatedDimension
  0
DIMENSION
  5
132EC
330
1E
100
AcDbEntity
  8
30
100
AcDbDimension
  2
*D2
 10
598.7842997644066
 20
300.0
 30
0.0
 11
593.7842997644062
 21
270.4
 31
0.0
 70
    32
  1
 <> (max.)
 71
     0
 72
     0
 41
0.0
 42
6.5
  3
STANDARD1
100
AcDbAlignedDimension
 13
580.7569117644062
 23
306.5
 33
0.0
 14
580.7569117644062
 24
300.0
 34
0.0
 50
90.0
100
AcDbRotatedDimension
  0
DIMENSION
  5
132ED
330
1E
100
AcDbEntity
  8
30
100
AcDbDimension
  2
*D3
 10
485.5793
 20
279.0
 30
0.0
 11
480.5793
 21
301.6000000000001
 31
0.0
 70
    32
  1
 <> 
 71
     0
 72
     0
 41
0.0
 42
45.19999999999998
  3
STANDARD1
100
AcDbAlignedDimension
 13
459.4999999999997
 23
324.2
 33
0.0
 14
446.9999999999997
 24
279.0
 34
0.0
 50
90.0
100
AcDbRotatedDimension
  0
DIMENSION
  5
132EE
330
1E
100
AcDbEntity
  8
30
100
AcDbDimension
  2
*D4
 10
672.7576557644063
 20
280.0
 30
0.0
 11
633.1576557644062
 21
280.0
 31
0.0
 70
   160
  1
 <> (max.) \Pmax.t5
 71
     5
 42
14.0
  3
STANDARD1
100
AcDbAlignedDimension
 13
658.7576557644062
 23
298.0
 33
0.0
 14
672.7576557644063
 24
298.0
 34
0.0
100
AcDbRotatedDimension
  0
DIMENSION
  5
132EF
330
1E
100
AcDbEntity
  8
30
100
AcDbDimension
  2
*D5
 10
587.0049117644066
 20
280.0
 30
0.0
 11
537.6
 21
280.0
 31
0.0
 70
   160
  1
 <> (max.) \Pmax.t5
 71
     5
 42
16.5
  3
STANDARD1
100
AcDbAlignedDimension
 13
570.5049117644066
 23
298.0
 33
0.0
 14
587.0049117644066
 24
298.0
 34
0.0
100
AcDbRotatedDimension
  0
DIMENSION
  5
132F0
330
1E
100
AcDbEntity
  8
30
100
AcDbDimension
  2
*D6
 10
454.0
 20
339.2
 30
0.0
 11
444.0
 21
339.2
 31
0.0
 70
   160
  1
 <> 
 71
     5
 42
18.0
  3
STANDARD1
100
AcDbAlignedDimension
 13
436.0
 23
325.5000000000001
 33
0.0
 14
454.0
 24
325.5000000000001
 34
0.0
100
AcDbRotatedDimension
  0
DIMENSION
  5
132F1
330
1E
100
AcDbEntity
  8
30
100
AcDbDimension
  2
*D7
 10
453.685834
 20
285.6428220000001
 30
0.0
 11
464.685834
 21
290.6428220000001
 31
0.0
 70
    36
  1
R9
 71
     5
 42
0.0
  3
STANDARD1
100
AcDbRadialDimension
 15
453.685834
 25
285.6428220000001
 35
0.0
 40
0.0
  0
DIMENSION
  5
132F3
330
1E
100
AcDbEntity
  8
30
100
AcDbDimension
  2
*D8
 10
669.9065179199248
 20
307.2573149704453
 30
0.0
 11
618.7576557644067
 21
328.741850850521
 31
0.0
 70
   163
  1
\U+03C69(60-125A)
 71
     5
 42
8.999999999999827
  3
STANDARD1
100
AcDbDiametricDimension
 15
661.608795608889
 25
310.7426850295547
 35
0.0
 40
0.0
  0
CIRCLE
  5
1348E
330
1E
100
AcDbEntity
  8
1
  6
Continuous
 62
     2
100
AcDbCircle
 10
578.7549127644068
 20
306.4999999999999
 30
0.0
 40
4.5
  0
TEXT
  5
13692
330
1E
100
AcDbEntity
  8
30
100
AcDbText
 10
597.5138215058002
 20
348.889612628567
 30
0.0
 40
5.999999999999999
  1
\U+03C65.5(15-50A)
 50
336.6771654413633
100
AcDbText
  0
LINE
  5
13815
330
1E
100
AcDbEntity
  8
1
  6
Continuous
 62
     4
100
AcDbLine
 10
388.8791659999998
 20
118.504858
 30
0.0
 11
388.8791659999998
 21
123.614824
 31
0.0
  0
LINE
  5
13817
330
1E
100
AcDbEntity
  8
130
100
AcDbLine
 10
382.5
 20
0.0000000000000284
 30
0.0
 11
382.5
 21
130.0
 31
0.0
  0
LINE
  5
13818
330
1E
100
AcDbEntity
  8
1
  6
Continuous
 62
     4
100
AcDbLine
 10
431.332774
 20
128.24642
 30
0.0
 11
431.333644
 21
127.154504
 31
0.0
  0
LINE
  5
13819
330
1E
100
AcDbEntity
  8
1
  6
Continuous
 62
     4
100
AcDbLine
 10
457.1301519999998
 20
119.0
 30
0.0
 11
457.1400860000001
 21
127.1
 31
0.0
  0
LINE
  5
1381A
330
1E
100
AcDbEntity
  8
1
  6
Continuous
 62
     4
100
AcDbLine
 10
387.379394
 20
125.1
 30
0.0
 11
384.579166
 21
125.1
 31
0.0
  0
LINE
  5
1381B
330
1E
100
AcDbEntity
  8
1
  6
Continuous
 62
     4
100
AcDbLine
 10
412.4291660000001
 20
118.5
 30
0.0
 11
412.4291660000001
 21
124.5
 31
0.0
  0
LINE
  5
1381C
330
1E
100
AcDbEntity
  8
1
  6
Continuous
 62
     4
100
AcDbLine
 10
434.2813880000001
 20
129.0
 30
0.0
 11
433.2741799999998
 21
129.0
 31
0.0
  0
LINE
  5
1381D
330
1E
100
AcDbEntity
  8
1
  6
Continuous
 62
     4
100
AcDbLine
 10
402.7291660000001
 20
118.5
 30
0.0
 11
402.7291660000001
 21
124.5
 31
0.0
  0
LINE
  5
1381F
330
1E
100
AcDbEntity
  8
1
  6
Continuous
 62
     4
100
AcDbLine
 10
455.9299299999998
 20
118.5
 30
0.0
 11
456.6295199999998
 21
118.5
 31
0.0
  0
LINE
  5
13820
330
1E
100
AcDbEntity
  8
1
  6
Continuous
 62
     4
100
AcDbLine
 10
448.6101760000001
 20
116.5
 30
0.0
 11
439.4291660000002
 21
116.5
 31
0.0
  0
LINE
  5
13821
330
1E
100
AcDbEntity
  8
1
  6
Continuous
 62
     4
100
AcDbLine
 10
437.4291660000001
 20
118.5
 30
0.0
 11
437.4291660000001
 21
130.2
 31
0.0
  0
LINE
  5
13825
330
1E
100
AcDbEntity
  8
130
100
AcDbLine
 10
426.4999999999998
 20
67.69911200000001
 30
0.0
 11
426.4999999999998
 21
79.51185399999999
 31
0.0
  0
LINE
  5
13827
330
1E
100
AcDbEntity
  8
1
  6
Continuous
 62
     4
100
AcDbLine
 10
437.4178300000001
 20
131.37199
 30
0.0
 11
437.62048
 21
131.779414
 31
0.0
  0
LINE
  5
13828
330
1E
100
AcDbEntity
  8
130
100
AcDbLine
 10
454.4999999999998
 20
87.5
 30
0.0
 11
454.4999999999998
 21
42.50000000000002
 31
0.0
  0
LINE
  5
1382A
330
1E
100
AcDbEntity
  8
130
100
AcDbLine
 10
438.5791659999998
 20
0.0000000000000284
 30
0.0
 11
438.5791659999998
 21
11.00000000000003
 31
0.0
  0
LINE
  5
1382B
330
1E
100
AcDbEntity
  8
1
  6
Continuous
 62
     4
100
AcDbLine
 10
382.779166
 20
131.8
 30
0.0
 11
427.527612
 21
131.8
 31
0.0
  0
LINE
  5
1382C
330
1E
100
AcDbEntity
  8
130
100
AcDbLine
 10
427.0
 20
78.00000000000003
 30
0.0
 11
426.4999999999998
 21
78.00000000000003
 31
0.0
  0
LINE
  5
1382D
330
1E
100
AcDbEntity
  8
130
100
AcDbLine
 10
457.5
 20
14.00000000000003
 30
0.0
 11
382.5
 21
14.00000000000003
 31
0.0
  0
LINE
  5
1382F
330
1E
100
AcDbEntity
  8
130
100
AcDbLine
 10
413.4999999999998
 20
78.00000000000003
 30
0.0
 11
413.0
 21
78.00000000000003
 31
0.0
  0
LINE
  5
13830
330
1E
100
AcDbEntity
  8
130
100
AcDbLine
 10
457.5
 20
0.0000000000000284
 30
0.0
 11
457.5
 21
130.0
 31
0.0
  0
LINE
  5
13831
330
1E
100
AcDbEntity
  8
1
  6
Continuous
 62
     4
100
AcDbLine
 10
433.191196
 20
128.05
 30
0.0
 11
431.9671379999999
 21
128.05
 31
0.0
  0
LINE
  5
13832
330
1E
100
AcDbEntity
  8
130
100
AcDbLine
 10
431.0791659999998
 20
48.22500000000001
 30
0.0
 11
431.0791659999998
 21
87.5
 31
0.0
  0
LINE
  5
13836
330
1E
100
AcDbEntity
  8
1
  6
Continuous
 62
     4
100
AcDbLine
 10
431.832174
 20
129.0
 30
0.0
 11
431.8327739999999
 21
128.24642
 31
0.0
  0
LINE
  5
13837
330
1E
100
AcDbEntity
  8
1
  6
Continuous
 62
     4
100
AcDbLine
 10
436.079166
 20
131.8
 30
0.0
 11
429.079166
 21
131.8
 31
0.0
  0
LINE
  5
13838
330
1E
100
AcDbEntity
  8
1
  6
Continuous
 62
     4
100
AcDbLine
 10
431.8841520000001
 20
129.0
 30
0.0
 11
430.876944
 21
129.0
 31
0.0
  0
LINE
  5
1383A
330
1E
100
AcDbEntity
  8
1
  6
Continuous
 62
     4
100
AcDbLine
 10
427.760894
 20
136.0
 30
0.0
 11
437.3974379999999
 21
136.0
 31
0.0
  0
LINE
  5
1383D
330
1E
100
AcDbEntity
  8
1
  6
Continuous
 62
     4
100
AcDbLine
 10
431.333644
 20
127.154504
 30
0.0
 11
433.8246899999998
 21
127.154504
 31
0.0
  0
LINE
  5
1383F
330
1E
100
AcDbEntity
  8
130
100
AcDbLine
 10
413.4999999999998
 20
71.53906600000002
 30
0.0
 11
426.4999999999998
 21
71.53906600000002
 31
0.0
  0
LINE
  5
13840
330
1E
100
AcDbEntity
  8
130
100
AcDbLine
 10
382.5
 20
116.0
 30
0.0
 11
457.5
 21
116.0
 31
0.0
  0
LINE
  5
13841
330
1E
100
AcDbEntity
  8
1
  6
Continuous
 62
     4
100
AcDbLine
 10
382.779166
 20
131.73016
 30
0.0
 11
382.7456420000002
 21
131.39478
 31
0.0
  0
LINE
  5
13842
330
1E
100
AcDbEntity
  8
1
  6
Continuous
 62
     4
100
AcDbLine
 10
382.779166
 20
179.5
 30
0.0
 11
382.779166
 21
131.73016
 31
0.0
  0
LINE
  5
13845
330
1E
100
AcDbEntity
  8
1
  6
Continuous
 62
     4
100
AcDbLine
 10
382.7456420000002
 20
131.39478
 30
0.0
 11
382.7435359999999
 21
127.1
 31
0.0
  0
LINE
  5
1384A
330
1E
100
AcDbEntity
  8
1
  6
Continuous
 62
     4
100
AcDbLine
 10
382.868246
 20
127.1
 30
0.0
 11
382.8781819999999
 21
119.0
 31
0.0
  0
LINE
  5
1384B
330
1E
100
AcDbEntity
  8
130
100
AcDbLine
 10
427.0
 20
78.00000000000003
 30
0.0
 11
427.0
 21
50.50000000000003
 31
0.0
  0
LINE
  5
1384C
330
1E
100
AcDbEntity
  8
130
100
AcDbLine
 10
409.0791659999998
 20
87.5
 30
0.0
 11
409.0791659999998
 21
42.50000000000002
 31
0.0
  0
LINE
  5
1384D
330
1E
100
AcDbEntity
  8
1
  6
Continuous
 62
     4
100
AcDbLine
 10
404.229166
 20
126.0
 30
0.0
 11
410.9291660000002
 21
126.0
 31
0.0
  0
LINE
  5
1384F
330
1E
100
AcDbEntity
  8
1
  6
Continuous
 62
     2
100
AcDbLine
 10
457.2291660000001
 20
131.73016
 30
0.0
 11
457.26269
 21
131.39478
 31
0.0
  0
LINE
  5
13850
330
1E
100
AcDbEntity
  8
1
  6
Continuous
 62
     4
100
AcDbLine
 10
384.079166
 20
118.5
 30
0.0
 11
383.3788139999999
 21
118.5
 31
0.0
  0
LINE
  5
13852
330
1E
100
AcDbEntity
  8
1
  6
Continuous
 62
     4
100
AcDbLine
 10
437.3974379999999
 20
130.196606
 30
0.0
 11
437.3974379999999
 21
136.0
 31
0.0
  0
LINE
  5
13854
330
1E
100
AcDbEntity
  8
1
  6
Continuous
 62
     4
100
AcDbLine
 10
457.26269
 20
131.39478
 30
0.0
 11
457.2647979999998
 21
127.1
 31
0.0
  0
LINE
  5
13855
330
1E
100
AcDbEntity
  8
130
100
AcDbLine
 10
413.4999999999998
 20
79.51185200000002
 30
0.0
 11
413.4999999999998
 21
67.69911200000001
 31
0.0
  0
LINE
  5
13856
330
1E
100
AcDbEntity
  8
1
  6
Continuous
 62
     4
100
AcDbLine
 10
438.2203379999999
 20
131.8
 30
0.0
 11
457.2291660000001
 21
131.8
 31
0.0
  0
LINE
  5
13858
330
1E
100
AcDbEntity
  8
1
  6
Continuous
 62
     4
100
AcDbLine
 10
436.079166
 20
134.5
 30
0.0
 11
436.079166
 21
131.8
 31
0.0
  0
LINE
  5
13859
330
1E
100
AcDbEntity
  8
1
  6
Continuous
 62
     4
100
AcDbLine
 10
431.9672660000001
 20
128.050008
 30
0.0
 11
431.779166
 21
130.2
 31
0.0
  0
LINE
  5
1385A
330
1E
100
AcDbEntity
  8
1
  6
Continuous
 62
     4
100
AcDbLine
 10
433.3255599999998
 20
128.24642
 30
0.0
 11
433.3261580000001
 21
129.0
 31
0.0
  0
LINE
  5
1385C
330
1E
100
AcDbEntity
  8
130
100
AcDbLine
 10
451.5791659999998
 20
11.00000000000003
 30
0.0
 11
451.5791659999998
 21
0.0000000000000284
 31
0.0
  0
LINE
  5
1385D
330
1E
100
AcDbEntity
  8
1
  6
Continuous
 62
     4
100
AcDbLine
 10
429.079166
 20
131.8
 30
0.0
 11
429.079166
 21
134.5
 31
0.0
  0
LINE
  5
1385E
330
1E
100
AcDbEntity
  8
1
  6
Continuous
 62
     2
100
AcDbLine
 10
457.2647979999998
 20
127.1
 30
0.0
 11
457.1400860000001
 21
127.1
 31
0.0
  0
LINE
  5
1385F
330
1E
100
AcDbEntity
  8
1
  6
Continuous
 62
     4
100
AcDbLine
 10
429.079166
 20
134.5
 30
0.0
 11
436.079166
 21
134.5
 31
0.0
  0
LINE
  5
13860
330
1E
100
AcDbEntity
  8
130
100
AcDbLine
 10
431.0791659999998
 20
42.50000000000002
 30
0.0
 11
431.0791659999998
 21
44.22500000000002
 31
0.0
  0
LINE
  5
13861
330
1E
100
AcDbEntity
  8
1
  6
Continuous
 62
     4
100
AcDbLine
 10
431.8327739999999
 20
128.24642
 30
0.0
 11
431.332774
 21
128.24642
 31
0.0
  0
LINE
  5
13863
330
1E
100
AcDbEntity
  8
1
  6
Continuous
 62
     4
100
AcDbLine
 10
455.4291660000002
 20
118.996714
 30
0.0
 11
455.4291660000002
 21
131.8
 31
0.0
  0
LINE
  5
13864
330
1E
100
AcDbEntity
  8
130
100
AcDbLine
 10
413.0
 20
50.50000000000003
 30
0.0
 11
413.0
 21
78.00000000000003
 31
0.0
  0
LINE
  5
13867
330
1E
100
AcDbEntity
  8
1
  6
Continuous
 62
     4
100
AcDbLine
 10
400.7291659999998
 20
116.5
 30
0.0
 11
390.898158
 21
116.5
 31
0.0
  0
LINE
  5
1386B
330
1E
100
AcDbEntity
  8
1
  6
Continuous
 62
     4
100
AcDbLine
 10
425.6499999999999
 20
116.5
 30
0.0
 11
414.3500000000001
 21
116.5
 31
0.0
  0
LINE
  5
1386C
330
1E
100
AcDbEntity
  8
130
100
AcDbLine
 10
426.4999999999998
 20
67.69911200000001
 30
0.0
 11
413.4999999999998
 21
67.69911200000001
 31
0.0
  0
LINE
  5
1386E
330
1E
100
AcDbEntity
  8
130
  6
HIDDEN
100
AcDbLine
 10
382.7449580518863
 20
130.0
 30
0.0
 11
457.2633745976371
 21
130.0
 31
0.0
  0
LINE
  5
1386F
330
1E
100
AcDbEntity
  8
130
100
AcDbLine
 10
426.5791659999998
 20
11.00000000000003
 30
0.0
 11
426.5791659999998
 21
0.0000000000000284
 31
0.0
  0
LINE
  5
13870
330
1E
100
AcDbEntity
  8
1
  6
Continuous
 62
     2
100
AcDbLine
 10
457.119762
 20
120.2
 30
0.0
 11
457.131624
 21
120.2
 31
0.0
  0
LINE
  5
13872
330
1E
100
AcDbEntity
  8
1
  6
Continuous
 62
     4
100
AcDbLine
 10
454.4291660000001
 20
125.5
 30
0.0
 11
452.1289379999998
 21
125.5
 31
0.0
  0
LINE
  5
13874
330
1E
100
AcDbEntity
  8
1
  6
Continuous
 62
     4
100
AcDbLine
 10
427.760894
 20
136.0
 30
0.0
 11
427.760894
 21
130.196606
 31
0.0
  0
LINE
  5
13875
330
1E
100
AcDbEntity
  8
130
100
AcDbLine
 10
431.0791659999998
 20
44.325
 30
0.0
 11
431.0791659999998
 21
48.12500000000003
 31
0.0
  0
LINE
  5
13876
330
1E
100
AcDbEntity
  8
1
  6
Continuous
 62
     4
100
AcDbLine
 10
457.2291660000001
 20
179.5
 30
0.0
 11
457.2291660000001
 21
131.73016
 31
0.0
  0
LINE
  5
1387B
330
1E
100
AcDbEntity
  8
1
  6
Continuous
 62
     4
100
AcDbLine
 10
433.8255599999998
 20
128.24642
 30
0.0
 11
433.3255599999998
 21
128.24642
 31
0.0
  0
LINE
  5
1387C
330
1E
100
AcDbEntity
  8
1
  6
Continuous
 62
     4
100
AcDbLine
 10
430.8350399999998
 20
130.2
 30
0.0
 11
430.876944
 21
129.0
 31
0.0
  0
LINE
  5
13881
330
1E
100
AcDbEntity
  8
1
  6
Continuous
 62
     2
100
AcDbLine
 10
382.868246
 20
127.1
 30
0.0
 11
382.7435359999999
 21
127.1
 31
0.0
  0
LINE
  5
13883
330
1E
100
AcDbEntity
  8
130
100
AcDbLine
 10
413.0
 20
50.50000000000003
 30
0.0
 11
427.0
 21
50.50000000000003
 31
0.0
  0
LINE
  5
13884
330
1E
100
AcDbEntity
  8
1
  6
Continuous
 62
     4
100
AcDbLine
 10
427.7291660000001
 20
118.5
 30
0.0
 11
427.7291660000001
 21
130.2
 31
0.0
  0
LINE
  5
13885
330
1E
100
AcDbEntity
  8
1
  6
Continuous
 62
     4
100
AcDbLine
 10
434.323294
 20
130.2
 30
0.0
 11
434.2813880000001
 21
129.0
 31
0.0
  0
LINE
  5
13886
330
1E
100
AcDbEntity
  8
1
  6
Continuous
 62
     2
100
AcDbLine
 10
457.1301519999998
 20
119.0
 30
0.0
 11
457.131624
 21
120.2
 31
0.0
  0
LINE
  5
1388A
330
1E
100
AcDbEntity
  8
1
  6
Continuous
 62
     4
100
AcDbLine
 10
454.4291660000001
 20
125.5
 30
0.0
 11
454.4291660000001
 21
131.8
 31
0.0
  0
LINE
  5
1388D
330
1E
100
AcDbEntity
  8
16
100
AcDbLine
 10
372.579166
 20
65.00000000000003
 30
0.0
 11
467.5791659999998
 21
65.00000000000003
 31
0.0
  0
LINE
  5
1388E
330
1E
100
AcDbEntity
  8
1
  6
Continuous
 62
     4
100
AcDbLine
 10
427.7291660000001
 20
130.2
 30
0.0
 11
437.4291660000001
 21
130.2
 31
0.0
  0
LINE
  5
13891
330
1E
100
AcDbEntity
  8
1
  6
Continuous
 62
     4
100
AcDbLine
 10
433.1910660000001
 20
128.050008
 30
0.0
 11
433.3791659999998
 21
130.2
 31
0.0
  0
LINE
  5
13892
330
1E
100
AcDbEntity
  8
1
  6
Continuous
 62
     4
100
AcDbLine
 10
384.579166
 20
131.8
 30
0.0
 11
384.579166
 21
119.0
 31
0.0
  0
LINE
  5
13893
330
1E
100
AcDbEntity
  8
1
  6
Continuous
 62
     4
100
AcDbLine
 10
383.279174
 20
180.0
 30
0.0
 11
456.729158
 21
180.0
 31
0.0
  0
LINE
  5
13894
330
1E
100
AcDbEntity
  8
130
100
AcDbLine
 10
385.5
 20
87.5
 30
0.0
 11
385.5
 21
42.50000000000002
 31
0.0
  0
LINE
  5
1389A
330
1E
100
AcDbEntity
  8
130
100
AcDbLine
 10
388.579166
 20
0.0000000000000284
 30
0.0
 11
388.579166
 21
11.00000000000003
 31
0.0
  0
LINE
  5
1389F
330
1E
100
AcDbEntity
  8
130
100
AcDbLine
 10
426.4999999999998
 20
79.51212800000002
 30
0.0
 11
413.4999999999998
 21
79.51212800000002
 31
0.0
  0
LINE
  5
138A0
330
1E
100
AcDbEntity
  8
1
  6
Continuous
 62
     4
100
AcDbLine
 10
433.8246899999998
 20
127.154504
 30
0.0
 11
433.8255599999998
 21
128.24642
 31
0.0
  0
LINE
  5
138A3
330
1E
100
AcDbEntity
  8
130
100
AcDbLine
 10
413.5791659999998
 20
0.0000000000000284
 30
0.0
 11
413.5791659999998
 21
11.00000000000003
 31
0.0
  0
LINE
  5
138A4
330
1E
100
AcDbEntity
  8
1
  6
Continuous
 62
     4
100
AcDbLine
 10
427.527612
 20
131.8
 30
0.0
 11
427.7405020000001
 21
131.37199
 31
0.0
  0
LINE
  5
138A6
330
1E
100
AcDbEntity
  8
16
100
AcDbLine
 10
420.0
 20
190.0
 30
0.0
 11
420.0
 21
-9.999997999999976
 31
0.0
  0
LINE
  5
138A9
330
1E
100
AcDbEntity
  8
1
  6
Continuous
 62
     4
100
AcDbLine
 10
450.6291659999998
 20
124.014824
 30
0.0
 11
450.6291659999998
 21
118.504858
 31
0.0
  0
LINE
  5
138AD
330
1E
100
AcDbEntity
  8
130
100
AcDbLine
 10
401.5791659999998
 20
11.00000000000003
 30
0.0
 11
401.5791659999998
 21
0.0000000000000284
 31
0.0
  0
CIRCLE
  5
138B1
330
1E
100
AcDbEntity
  8
1
  6
Continuous
 62
     2
100
AcDbCircle
 10
420.0
 20
8.000000000000026
 30
0.0
 40
3.0
  0
CIRCLE
  5
138B2
330
1E
100
AcDbEntity
  8
1
  6
DASHED
 62
     2
 48
12.111292
100
AcDbCircle
 10
445.079166
 20
122.0
 30
0.0
 40
3.0
  0
ARC
  5
138B3
330
1E
100
AcDbEntity
  8
130
100
AcDbCircle
 10
441.579166
 20
11.00000000000003
 30
0.0
 40
3.0
100
AcDbArc
 50
90.0
 51
180.0
  0
ARC
  5
138B4
330
1E
100
AcDbEntity
  8
130
100
AcDbCircle
 10
423.579166
 20
11.00000000000003
 30
0.0
 40
3.0
100
AcDbArc
 50
0.0
 51
90.0
  0
ARC
  5
138BA
330
1E
100
AcDbEntity
  8
1
  6
Continuous
 62
     4
100
AcDbCircle
 10
410.9291660000002
 20
124.5
 30
0.0
 40
1.5
100
AcDbArc
 50
0.0
 51
90.0
  0
ARC
  5
138BB
330
1E
100
AcDbEntity
  8
1
  6
Continuous
 62
     4
100
AcDbCircle
 10
425.7266605787322
 20
118.5010377794684
 30
0.0
 40
2.002505690177021
100
AcDbArc
 50
267.8060480931809
 51
359.9703070075873
  0
CIRCLE
  5
138BC
330
1E
100
AcDbEntity
  8
24
100
AcDbCircle
 10
445.079166
 20
8.000000000000026
 30
0.0
 40
3.0
  0
ARC
  5
138BF
330
1E
100
AcDbEntity
  8
130
100
AcDbCircle
 10
448.579166
 20
11.00000000000003
 30
0.0
 40
3.0
100
AcDbArc
 50
0.0
 51
90.0
  0
ARC
  5
138C0
330
1E
100
AcDbEntity
  8
1
  6
Continuous
 62
     4
100
AcDbCircle
 10
384.079166
 20
119.0
 30
0.0
 40
0.5
100
AcDbArc
 50
270.0
 51
0.0
  0
ARC
  5
138C3
330
1E
100
AcDbEntity
  8
130
100
AcDbCircle
 10
391.579166
 20
11.00000000000003
 30
0.0
 40
3.0
100
AcDbArc
 50
90.0
 51
180.0
  0
ARC
  5
138C4
330
1E
100
AcDbEntity
  8
1
  6
Continuous
 62
     4
100
AcDbCircle
 10
400.7291659999998
 20
118.5
 30
0.0
 40
2.0
100
AcDbArc
 50
270.0
 51
0.0
  0
ARC
  5
138C6
330
1E
100
AcDbEntity
  8
1
  6
Continuous
 62
     4
100
AcDbCircle
 10
414.5104578868086
 20
118.576507296164
 30
0.0
 40
2.082697597939151
100
AcDbArc
 50
182.105217609843
 51
265.5813656861682
  0
CIRCLE
  5
138C7
330
1E
100
AcDbEntity
  8
24
100
AcDbCircle
 10
395.079166
 20
8.000000000000026
 30
0.0
 40
3.0
  0
CIRCLE
  5
138CB
330
1E
100
AcDbEntity
  8
1
  6
DASHED
 62
     2
 48
11.09137
100
AcDbCircle
 10
395.079166
 20
122.0
 30
0.0
 40
3.0
  0
ARC
  5
138CD
330
1E
100
AcDbEntity
  8
130
100
AcDbCircle
 10
398.579166
 20
11.00000000000003
 30
0.0
 40
3.0
100
AcDbArc
 50
0.0
 51
90.0
  0
ARC
  5
138CE
330
1E
100
AcDbEntity
  8
1
  6
Continuous
 62
     4
100
AcDbCircle
 10
404.229166
 20
124.5
 30
0.0
 40
1.5
100
AcDbArc
 50
90.0
 51
180.0
  0
CIRCLE
  5
138D0
330
1E
100
AcDbEntity
  8
1
  6
Continuous
 62
     2
100
AcDbCircle
 10
432.579166
 20
9.500000000000023
 30
0.0
 40
2.25
  0
ARC
  5
138D3
330
1E
100
AcDbEntity
  8
1
  6
Continuous
 62
     4
100
AcDbCircle
 10
439.4291660000002
 20
118.5
 30
0.0
 40
2.0
100
AcDbArc
 50
180.0
 51
270.0
  0
CIRCLE
  5
138D4
330
1E
100
AcDbEntity
  8
24
100
AcDbCircle
 10
407.579166
 20
120.5
 30
0.0
 40
2.25
  0
CIRCLE
  5
138D6
330
1E
100
AcDbEntity
  8
1
  6
DASHED
 62
     2
 48
11.70016
100
AcDbCircle
 10
420.0
 20
121.9999788196508
 30
0.0
 40
3.0
  0
ARC
  5
138D7
330
1E
100
AcDbEntity
  8
130
100
AcDbCircle
 10
416.579166
 20
11.00000000000003
 30
0.0
 40
3.0
100
AcDbArc
 50
90.0
 51
180.0
  0
SPLINE
  5
138D9
330
1E
100
AcDbEntity
  8
1
  6
Continuous
 62
     2
100
AcDbSpline
210
0.0
220
0.0
230
1.0
 70
    24
 71
     1
 72
     4
 73
     2
 74
     0
 42
0.0000000001
 43
0.0000000001
 40
0.0
 40
0.0
 40
1.0
 40
1.0
 10
390.8844077565375
 20
116.5000481772435
 30
0.0
 10
390.8981578466375
 20
116.5000007449434
 30
0.0
  0
SPLINE
  5
138DA
330
1E
100
AcDbEntity
  8
1
  6
Continuous
 62
     4
100
AcDbSpline
210
0.0
220
0.0
230
1.0
 70
     8
 71
     3
 72
    14
 73
    10
 74
     0
 42
0.0000000001
 43
0.0000000001
 40
0.0
 40
0.0
 40
0.0
 40
0.0
 40
0.1419587247139159
 40
0.2841663976669054
 40
0.4267234261235216
 40
0.5696608499859749
 40
0.7129346914338435
 40
0.8564335650175721
 40
1.0
 40
1.0
 40
1.0
 40
1.0
 10
455.9299303401373
 20
118.5000007449434
 30
0.0
 10
455.9007801527224
 20
118.5000007449434
 30
0.0
 10
455.8144657182076
 20
118.5083577919012
 30
0.0
 10
455.7129045987442
 20
118.5453326878764
 30
0.0
 10
455.6159325532767
 20
118.6052132995584
 30
0.0
 10
455.5360567074719
 20
118.6846276636224
 30
0.0
 10
455.4753883555743
 20
118.7817459155009
 30
0.0
 10
455.4377075769978
 20
118.8840497851414
 30
0.0
 10
455.4291664847376
 20
118.971256281766
 30
0.0
 10
455.4291664847376
 20
119.0007366007434
 30
0.0
  0
SPLINE
  5
138DC
330
1E
100
AcDbEntity
  8
1
  6
Continuous
 62
     4
100
AcDbSpline
210
0.0
220
0.0
230
1.0
 70
     8
 71
     3
 72
    14
 73
    10
 74
     0
 42
0.0000000001
 43
0.0000000001
 40
0.0
 40
0.0
 40
0.0
 40
0.0
 40
0.1435847037465123
 40
0.2870859416106166
 40
0.4303508720509223
 40
0.5732749694357126
 40
0.7158216273093588
 40
0.8580283868957469
 40
1.0
 40
1.0
 40
1.0
 40
1.0
 10
457.130151886337
 20
119.0000007449434
 30
0.0
 10
457.1301157983496
 20
118.9705767415543
 30
0.0
 10
457.1214837796717
 20
118.8834195570825
 30
0.0
 10
457.0837461994988
 20
118.7812714085446
 30
0.0
 10
457.023067665438
 20
118.6842998040244
 30
0.0
 10
456.943233712798
 20
118.6050230658265
 30
0.0
 10
456.8463361025171
 20
118.5452495961434
 30
0.0
 10
456.7448865177737
 20
118.5083420847901
 30
0.0
 10
456.6586130701418
 20
118.5000007449434
 30
0.0
 10
456.6295196064372
 20
118.5000007449434
 30
0.0
  0
SPLINE
  5
138DD
330
1E
100
AcDbEntity
  8
1
  6
Continuous
 62
     4
100
AcDbSpline
210
0.0
220
0.0
230
1.0
 70
     8
 71
     3
 72
    17
 73
    13
 74
     0
 42
0.0000000001
 43
0.0000000001
 40
0.0
 40
0.0
 40
0.0
 40
0.0
 40
0.099528295942572
 40
0.199192139791247
 40
0.2990298209605552
 40
0.3990643111069804
 40
0.4992977545557046
 40
0.5997143716595657
 40
0.7002785598207911
 40
0.8009413375305744
 40
0.901642802861552
 40
1.0
 40
1.0
 40
1.0
 40
1.0
 10
390.8843296918374
 20
116.5000007449436
 30
0.0
 10
390.5575204654235
 20
116.5000007449436
 30
0.0
 10
390.67492950167
 20
116.516339613267
 30
0.0
 10
390.23817651986
 20
116.5892788677765
 30
0.0
 10
389.9824836137716
 20
116.7091611795585
 30
0.0
 10
389.7037873475263
 20
116.8730046903401
 30
0.0
 10
389.4655417620495
 20
117.0781266973515
 30
0.0
 10
389.2586418324516
 20
117.3155580992329
 30
0.0
 10
389.092470628075
 20
117.5948900262701
 30
0.0
 10
388.9705102419723
 20
117.8517812701786
 30
0.0
 10
388.8960727059509
 20
118.290789037763
 30
0.0
 10
388.880364096289
 20
118.1745672025962
 30
0.0
 10
388.8791798745377
 20
118.4975552947434
 30
0.0
  0
SPLINE
  5
138DE
330
1E
100
AcDbEntity
  8
1
  6
Continuous
 62
     4
100
AcDbSpline
210
0.0
220
0.0
230
1.0
 70
     8
 71
     3
 72
    16
 73
    12
 74
     0
 42
0.0000000001
 43
0.0000000001
 40
0.0
 40
0.0
 40
0.0
 40
0.0
 40
0.1116630915222202
 40
0.2232496346488235
 40
0.3347053467620808
 40
0.44599152961802
 40
0.5570898099112791
 40
0.6680043925941296
 40
0.778761685231907
 40
0.8894071666712124
 40
1.0
 40
1.0
 40
1.0
 40
1.0
 10
452.1289380275373
 20
125.5000007449434
 30
0.0
 10
451.9248789545483
 20
125.5000007449434
 30
0.0
 10
451.9213912299126
 20
125.4848984609063
 30
0.0
 10
451.5989645025531
 20
125.4175633312003
 30
0.0
 10
451.3792282663068
 20
125.3077468332416
 30
0.0
 10
451.159094400675
 20
125.1582063368025
 30
0.0
 10
450.9745989152445
 20
124.9755802929266
 30
0.0
 10
450.8235036850644
 20
124.7575429440584
 30
0.0
 10
450.7125080590573
 20
124.5399696614654
 30
0.0
 10
450.6444384255462
 20
124.2204368674301
 30
0.0
 10
450.6291664847373
 20
124.216928101981
 30
0.0
 10
450.6291664847373
 20
124.0148248757436
 30
0.0
  0
SPLINE
  5
138DF
330
1E
100
AcDbEntity
  8
1
  6
Continuous
 62
     2
100
AcDbSpline
210
0.0
220
0.0
230
1.0
 70
    24
 71
     1
 72
     4
 73
     2
 74
     0
 42
0.0000000001
 43
0.0000000001
 40
0.0
 40
0.0
 40
1.0
 40
1.0
 10
409.1338703885121
 20
131.8000859859227
 30
0.0
 10
409.14398657269
 20
131.8000007449418
 30
0.0
  0
SPLINE
  5
138E0
330
1E
100
AcDbEntity
  8
1
  6
Continuous
 62
     2
100
AcDbSpline
210
0.0
220
0.0
230
1.0
 70
    24
 71
     1
 72
     4
 73
     2
 74
     0
 42
0.0000000001
 43
0.0000000001
 40
0.0
 40
0.0
 40
1.0
 40
1.0
 10
448.6101751229373
 20
116.5000007449434
 30
0.0
 10
448.6239252130373
 20
116.5000481772435
 30
0.0
  0
SPLINE
  5
138E1
330
1E
100
AcDbEntity
  8
1
  6
Continuous
 62
     4
100
AcDbSpline
210
0.0
220
0.0
230
1.0
 70
     8
 71
     3
 72
    15
 73
    11
 74
     0
 42
0.0000000001
 43
0.0000000001
 40
0.0
 40
0.0
 40
0.0
 40
0.0
 40
0.0248223484269692
 40
0.0837286937252883
 40
0.1751034182552111
 40
0.2962787828629193
 40
0.4437033538270531
 40
0.6130496992028679
 40
0.7993410228924615
 40
1.0
 40
1.0
 40
1.0
 40
1.0
 10
427.7405022862374
 20
131.3719905958434
 30
0.0
 10
427.7455974556658
 20
131.361746877193
 30
0.0
 10
427.7429418006818
 20
131.3306183924626
 30
0.0
 10
427.7508797443196
 20
131.2607505357268
 30
0.0
 10
427.7517043744516
 20
131.155055456481
 30
0.0
 10
427.7555470425743
 20
131.0137843530605
 30
0.0
 10
427.7575642774379
 20
130.8418651877479
 30
0.0
 10
427.7594637344133
 20
130.6463668447972
 30
0.0
 10
427.7605658849116
 20
130.4209627597176
 30
0.0
 10
427.7608558030252
 20
130.2890914390174
 30
0.0
 10
427.7608943752372
 20
130.1966053474434
 30
0.0
  0
SPLINE
  5
138E2
330
1E
100
AcDbEntity
  8
1
  6
Continuous
 62
     2
100
AcDbSpline
210
0.0
220
0.0
230
1.0
 70
    24
 71
     1
 72
     4
 73
     2
 74
     0
 42
0.0000000001
 43
0.0000000001
 40
0.0
 40
0.0
 40
1.0
 40
1.0
 10
385.3687805184122
 20
131.8000859859227
 30
0.0
 10
385.3788967025898
 20
131.8000007449418
 30
0.0
  0
SPLINE
  5
138E3
330
1E
100
AcDbEntity
  8
1
  6
Continuous
 62
     2
100
AcDbSpline
210
0.0
220
0.0
230
1.0
 70
     8
 71
     3
 72
     8
 73
     4
 74
     0
 42
0.0000000001
 43
0.0000000001
 40
0.0
 40
0.0
 40
0.0
 40
0.0
 40
1.0
 40
1.0
 40
1.0
 40
1.0
 10
450.6291664847373
 20
118.5048596676703
 30
0.0
 10
450.629166482716
 20
118.504839665673
 30
0.0
 10
450.6291531622803
 20
118.4975741856221
 30
0.0
 10
450.6291530909638
 20
118.4975541837519
 30
0.0
  0
SPLINE
  5
138E4
330
1E
100
AcDbEntity
  8
1
  6
Continuous
 62
     4
100
AcDbSpline
210
0.0
220
0.0
230
1.0
 70
     8
 71
     3
 72
    17
 73
    13
 74
     0
 42
0.0000000001
 43
0.0000000001
 40
0.0
 40
0.0
 40
0.0
 40
0.0
 40
0.0983571971387444
 40
0.1990586624599058
 40
0.2997214401673593
 40
0.4002856283262532
 40
0.5007022454277879
 40
0.6009356888984822
 40
0.7009701790153804
 40
0.8008078601823717
 40
0.900471704059729
 40
1.0
 40
1.0
 40
1.0
 40
1.0
 10
450.6291530950371
 20
118.4975552947434
 30
0.0
 10
450.6279688732859
 20
118.1745672025876
 30
0.0
 10
450.612260263442
 20
118.2907890377775
 30
0.0
 10
450.5378227276476
 20
117.8517812701631
 30
0.0
 10
450.415862341488
 20
117.5948900262712
 30
0.0
 10
450.2496911371219
 20
117.3155580992379
 30
0.0
 10
450.0427912075243
 20
117.0781266973112
 30
0.0
 10
449.8045456219677
 20
116.8730046904054
 30
0.0
 10
449.5258493557931
 20
116.7091611795269
 30
0.0
 10
449.2701564496861
 20
116.5892788677633
 30
0.0
 10
448.8334034678011
 20
116.5163396132784
 30
0.0
 10
448.9508125040511
 20
116.5000007449434
 30
0.0
 10
448.6240032776374
 20
116.5000007449434
 30
0.0
  0
SPLINE
  5
138E5
330
1E
100
AcDbEntity
  8
1
  6
Continuous
 62
     2
100
AcDbSpline
210
0.0
220
0.0
230
1.0
 70
    24
 71
     1
 72
     4
 73
     2
 74
     0
 42
0.0000000001
 43
0.0000000001
 40
0.0
 40
0.0
 40
1.0
 40
1.0
 10
406.0143463967845
 20
131.8000007449436
 30
0.0
 10
406.024462580962
 20
131.8000859859209
 30
0.0
  0
SPLINE
  5
138E6
330
1E
100
AcDbEntity
  8
1
  6
Continuous
 62
     4
100
AcDbSpline
210
0.0
220
0.0
230
1.0
 70
     8
 71
     3
 72
    16
 73
    12
 74
     0
 42
0.0000000001
 43
0.0000000001
 40
0.0
 40
0.0
 40
0.0
 40
0.0
 40
0.1105928333314727
 40
0.2212383147623131
 40
0.3319956074027832
 40
0.4429101901129884
 40
0.5540084703785987
 40
0.6652946532723388
 40
0.7767503653882982
 40
0.8883369085176171
 40
1.0
 40
1.0
 40
1.0
 40
1.0
 10
388.8791664847374
 20
123.6148248757435
 30
0.0
 10
388.8791664847374
 20
123.8169281019811
 30
0.0
 10
388.8638945438959
 20
123.8204368674191
 30
0.0
 10
388.7958249105412
 20
124.1399696614762
 30
0.0
 10
388.6848292845213
 20
124.3575429440947
 30
0.0
 10
388.5337340542148
 20
124.5755802928544
 30
0.0
 10
388.3492385688967
 20
124.7582063368754
 30
0.0
 10
388.1291047031711
 20
124.9077468332052
 30
0.0
 10
387.9093684669294
 20
125.0175633312077
 30
0.0
 10
387.5869417395922
 20
125.0848984608933
 30
0.0
 10
387.5834540149488
 20
125.1000007449435
 30
0.0
 10
387.3793949420377
 20
125.1000007449435
 30
0.0
  0
SPLINE
  5
138E7
330
1E
100
AcDbEntity
  8
1
  6
Continuous
 62
     4
100
AcDbSpline
210
0.0
220
0.0
230
1.0
 70
     8
 71
     3
 72
    14
 73
    10
 74
     0
 42
0.0000000001
 43
0.0000000001
 40
0.0
 40
0.0
 40
0.0
 40
0.0
 40
0.2196976766809044
 40
0.4286472390157279
 40
0.6166317070786871
 40
0.7744549261345453
 40
0.8944022123333892
 40
0.970664663645747
 40
1.0
 40
1.0
 40
1.0
 40
1.0
 10
438.2203345485375
 20
131.8000007449436
 30
0.0
 10
438.1938942055551
 20
131.8000007449436
 30
0.0
 10
438.0826609309285
 20
131.7996777506097
 30
0.0
 10
437.9689397478641
 20
131.798214414771
 30
0.0
 10
437.8550777594996
 20
131.7959264473499
 30
0.0
 10
437.7638930958917
 20
131.7927610263372
 30
0.0
 10
437.6890591414918
 20
131.7894620655424
 30
0.0
 10
437.6514939755117
 20
131.7852734760522
 30
0.0
 10
437.6218621528367
 20
131.7866702490948
 30
0.0
 10
437.6191580626201
 20
131.7765633741341
 30
0.0
  0
SPLINE
  5
138E8
330
1E
100
AcDbEntity
  8
1
  6
Continuous
 62
     4
100
AcDbSpline
210
0.0
220
0.0
230
1.0
 70
     8
 71
     3
 72
    14
 73
    10
 74
     0
 42
0.0000000001
 43
0.0000000001
 40
0.0
 40
0.0
 40
0.0
 40
0.0
 40
0.1428597944296514
 40
0.2857190638505021
 40
0.4285773868210349
 40
0.5714345297962932
 40
0.7142904926386398
 40
0.8571455090377513
 40
1.0
 40
1.0
 40
1.0
 40
1.0
 10
457.2291664847373
 20
179.5000007449436
 30
0.0
 10
457.2291664847336
 20
179.5292509431898
 30
0.0
 10
457.2207334471413
 20
179.6159807111302
 30
0.0
 10
457.1834690052798
 20
179.7177572280958
 30
0.0
 10
457.1233083196768
 20
179.8146441361904
 30
0.0
 10
457.0438176895465
 20
179.8941379690358
 30
0.0
 10
456.9469343766366
 20
179.9543012068071
 30
0.0
 10
456.8451615231813
 20
179.991567312371
 30
0.0
 10
456.7584346356113
 20
180.0000007449433
 30
0.0
 10
456.7291855232372
 20
180.0000007449433
 30
0.0
  0
SPLINE
  5
138E9
330
1E
100
AcDbEntity
  8
1
  6
Continuous
 62
     4
100
AcDbSpline
210
0.0
220
0.0
230
1.0
 70
     8
 71
     3
 72
    14
 73
    10
 74
     0
 42
0.0000000001
 43
0.0000000001
 40
0.0
 40
0.0
 40
0.0
 40
0.0
 40
0.1419726506202619
 40
0.284179233298632
 40
0.4267250629421341
 40
0.5696482472845716
 40
0.712912697461605
 40
0.8564141603292176
 40
1.0
 40
1.0
 40
1.0
 40
1.0
 10
383.3788133630376
 20
118.5000007449434
 30
0.0
 10
383.3497196867263
 20
118.5000007449434
 30
0.0
 10
383.263445955092
 20
118.508342172407
 30
0.0
 10
383.1619964058706
 20
118.5452498453445
 30
0.0
 10
383.0650992893995
 20
118.6050231076189
 30
0.0
 10
382.9852657038066
 20
118.6842993750894
 30
0.0
 10
382.9245871694263
 20
118.7812705970195
 30
0.0
 10
382.8868492998069
 20
118.8834188925045
 30
0.0
 10
382.8782171715109
 20
118.9705765087814
 30
0.0
 10
382.8781810832372
 20
119.0000007449436
 30
0.0
  0
SPLINE
  5
138EA
330
1E
100
AcDbEntity
  8
1
  6
Continuous
 62
     4
100
AcDbSpline
210
0.0
220
0.0
230
1.0
 70
     8
 71
     3
 72
    14
 73
    10
 74
     0
 42
0.0000000001
 43
0.0000000001
 40
0.0
 40
0.0
 40
0.0
 40
0.0
 40
0.1428575670384678
 40
0.2857150501828206
 40
0.4285723817869661
 40
0.571429524772034
 40
0.7142864788206126
 40
0.8571432815682488
 40
1.0
 40
1.0
 40
1.0
 40
1.0
 10
382.7791664847375
 20
179.5000007449434
 30
0.0
 10
382.7791664847375
 20
179.5292514227064
 30
0.0
 10
382.7875998228612
 20
179.6159806830291
 30
0.0
 10
382.8248655607665
 20
179.7177575642828
 30
0.0
 10
382.8850282751493
 20
179.8146444380751
 30
0.0
 10
382.9645215414182
 20
179.8941382168788
 30
0.0
 10
383.061407840062
 20
179.9543013395563
 30
0.0
 10
383.1631841351493
 20
179.9915673437159
 30
0.0
 10
383.2499129346303
 20
180.0000007449433
 30
0.0
 10
383.2791634386374
 20
180.0000007449433
 30
0.0
  0
SPLINE
  5
138EB
330
1E
100
AcDbEntity
  8
1
  6
Continuous
 62
     4
100
AcDbSpline
210
0.0
220
0.0
230
1.0
 70
     8
 71
     3
 72
     8
 73
     4
 74
     0
 42
0.0000000001
 43
0.0000000001
 40
0.0
 40
0.0
 40
0.0
 40
0.0
 40
1.0
 40
1.0
 40
1.0
 40
1.0
 10
388.879179878611
 20
118.4975541837519
 30
0.0
 10
388.8791798072946
 20
118.4975741856221
 30
0.0
 10
388.8791664867588
 20
118.504839665673
 30
0.0
 10
388.8791664847374
 20
118.5048596676703
 30
0.0
  0
MTEXT
  5
138EC
330
1E
100
AcDbEntity
  8
16
100
AcDbMText
 10
419.081298
 20
196.095322
 30
0.0
 40
5.0
 41
0.0
 71
     7
 72
     5
  1
\W01.000;\fsimplex.shx;H
  7
blockfont
 73
     2
 44
0.9036139999999999
1001
ACAD
1000
MTEXTBEGIN
1070
    73
1070
     2
1070
    44
1040
0.9036139999999999
1070
    74
1070
     0
1000
MTEXTEND
  0
MTEXT
  5
138ED
330
1E
100
AcDbEntity
  8
16
100
AcDbMText
 10
420.405942
 20
193.519624
 30
0.0
 40
5.0
 41
0.0
 71
     7
 72
     5
  1
\W01.000;\fsimplex.shx;L
  7
blockfont
 73
     2
 44
0.9036139999999999
1001
ACAD
1000
MTEXTBEGIN
1070
    73
1070
     2
1070
    44
1040
0.9036139999999999
1070
    74
1070
     0
1000
MTEXTEND
  0
MTEXT
  5
138EE
330
1E
100
AcDbEntity
  8
16
100
AcDbMText
 10
364.6018039999999
 20
62.08959800000002
 30
0.0
 40
5.0
 41
0.0
 71
     7
 72
     5
  1
\W01.000;\fsimplex.shx;C
  7
blockfont
 73
     2
 44
0.9036139999999999
1001
ACAD
1000
MTEXTBEGIN
1070
    73
1070
     2
1070
    44
1040
0.9036139999999999
1070
    74
1070
     0
1000
MTEXTEND
  0
MTEXT
  5
138EF
330
1E
100
AcDbEntity
  8
16
100
AcDbMText
 10
365.967404
 20
60.16169000000002
 30
0.0
 40
5.0
 41
0.0
 71
     7
 72
     5
  1
\W01.000;\fsimplex.shx;L
  7
blockfont
 73
     2
 44
0.9036139999999999
1001
ACAD
1000
MTEXTBEGIN
1070
    73
1070
     2
1070
    44
1040
0.9036139999999999
1070
    74
1070
     0
1000
MTEXTEND
  0
LINE
  5
138F4
330
1E
100
AcDbEntity
  8
24
100
AcDbLine
 10
389.904166
 20
8.000000000000026
 30
0.0
 11
400.2541659999998
 21
8.000000000000026
 31
0.0
  0
LINE
  5
138F5
330
1E
100
AcDbEntity
  8
24
100
AcDbLine
 10
395.079166
 20
2.825000000000017
 30
0.0
 11
395.079166
 21
13.17500000000004
 31
0.0
  0
LINE
  5
138F6
330
1E
100
AcDbEntity
  8
24
100
AcDbLine
 10
414.8249999999999
 20
8.000000000000026
 30
0.0
 11
425.1749999999998
 21
8.000000000000026
 31
0.0
  0
LINE
  5
138F8
330
1E
100
AcDbEntity
  8
24
100
AcDbLine
 10
439.904166
 20
8.000000000000026
 30
0.0
 11
450.2541659999998
 21
8.000000000000026
 31
0.0
  0
LINE
  5
138F9
330
1E
100
AcDbEntity
  8
24
100
AcDbLine
 10
445.079166
 20
2.825000000000017
 30
0.0
 11
445.079166
 21
13.17500000000004
 31
0.0
  0
LINE
  5
138FA
330
1E
100
AcDbEntity
  8
24
100
AcDbLine
 10
427.404166
 20
9.500000000000023
 30
0.0
 11
437.7541659999998
 21
9.500000000000023
 31
0.0
  0
LINE
  5
138FB
330
1E
100
AcDbEntity
  8
24
100
AcDbLine
 10
432.579166
 20
4.325000000000017
 30
0.0
 11
432.579166
 21
14.67500000000003
 31
0.0
  0
LINE
  5
138FC
330
1E
100
AcDbEntity
  8
24
100
AcDbLine
 10
439.904166
 20
122.0
 30
0.0
 11
450.2541659999998
 21
122.0
 31
0.0
  0
LINE
  5
138FD
330
1E
100
AcDbEntity
  8
24
100
AcDbLine
 10
445.079166
 20
116.825
 30
0.0
 11
445.079166
 21
127.175
 31
0.0
  0
LINE
  5
138FE
330
1E
100
AcDbEntity
  8
24
100
AcDbLine
 10
414.8250000000001
 20
121.9999788196508
 30
0.0
 11
425.175
 21
121.9999788196508
 31
0.0
  0
LINE
  5
138FF
330
1E
100
AcDbEntity
  8
24
100
AcDbLine
 10
420.0
 20
116.8249788196508
 30
0.0
 11
420.0
 21
127.1749788196508
 31
0.0
  0
LINE
  5
13900
330
1E
100
AcDbEntity
  8
24
100
AcDbLine
 10
389.904166
 20
122.0
 30
0.0
 11
400.2541659999998
 21
122.0
 31
0.0
  0
LINE
  5
13901
330
1E
100
AcDbEntity
  8
24
100
AcDbLine
 10
395.079166
 20
116.825
 30
0.0
 11
395.079166
 21
127.175
 31
0.0
  0
LINE
  5
13902
330
1E
100
AcDbEntity
  8
24
100
AcDbLine
 10
402.4041659999999
 20
120.5
 30
0.0
 11
412.7541659999998
 21
120.5
 31
0.0
  0
LINE
  5
13903
330
1E
100
AcDbEntity
  8
24
100
AcDbLine
 10
407.579166
 20
115.325
 30
0.0
 11
407.579166
 21
125.675
 31
0.0
  0
DIMENSION
  5
13919
330
1E
100
AcDbEntity
  8
30
100
AcDbDimension
  2
*D9
 10
499.8558099999998
 20
130.0
 30
0.0
 11
494.8558099999998
 21
155.0000000000001
 31
0.0
 70
    32
  1
 <> 
 71
     0
 72
     0
 41
0.0
 42
50.0
  3
STANDARD1
100
AcDbAlignedDimension
 13
458.7291580000001
 23
180.0
 33
0.0
 14
459.5791659999998
 24
130.0
 34
0.0
 50
90.0
100
AcDbRotatedDimension
  0
DIMENSION
  5
1391A
330
1E
100
AcDbEntity
  8
30
100
AcDbDimension
  2
*D10
 10
499.8558099999998
 20
130.0
 30
0.0
 11
494.8558099999998
 21
65.00000000000007
 31
0.0
 70
    32
  1
 <> 
 71
     0
 72
     0
 41
0.0
 42
130.0
  3
STANDARD1
100
AcDbAlignedDimension
 13
459.5791659999998
 23
0.0000000000000284
 33
0.0
 14
459.5791659999998
 24
130.0
 34
0.0
 50
90.0
100
AcDbRotatedDimension
  0
DIMENSION
  5
1391C
330
1E
100
AcDbEntity
  8
30
100
AcDbDimension
  2
*D11
 10
479.85581
 20
8.000000000000021
 30
0.0
 11
474.8558099999998
 21
65.00000000000007
 31
0.0
 70
    32
  1
 <> 
 71
     0
 72
     0
 41
0.0
 42
113.9999999999999
  3
STANDARD1
100
AcDbAlignedDimension
 13
452.2541659999998
 23
122.0
 33
0.0
 14
452.2541659999998
 24
8.000000000000026
 34
0.0
 50
90.0
100
AcDbRotatedDimension
  0
DIMENSION
  5
13921
330
1E
100
AcDbEntity
  8
30
100
AcDbDimension
  2
*D12
 10
457.5
 20
-47.59963399999998
 30
0.0
 11
420.0000000000001
 21
-42.59963399999995
 31
0.0
 70
    32
  1
 <> 
 71
     5
 42
74.9999999999999
  3
STANDARD1
100
AcDbAlignedDimension
 13
382.5000000000002
 23
0.0000000000000284
 33
0.0
 14
457.5
 24
0.0000000000000284
 34
0.0
100
AcDbRotatedDimension
  0
DIMENSION
  5
13922
330
1E
100
AcDbEntity
  8
30
100
AcDbDimension
  2
*D13
 10
445.079166
 20
-31.59963399999998
 30
0.0
 11
420.079166
 21
-26.59963399999998
 31
0.0
 70
    32
  1
 <> 
 71
     5
 42
50.0
  3
STANDARD1
100
AcDbAlignedDimension
 13
395.079166
 23
6.000000000000027
 33
0.0
 14
445.079166
 24
6.000000000000027
 34
0.0
100
AcDbRotatedDimension
  0
DIMENSION
  5
13923
330
1E
100
AcDbEntity
  8
30
100
AcDbDimension
  2
*D14
 10
431.0791659999998
 20
95.0
 30
0.0
 11
398.2791659999999
 21
95.0
 31
0.0
 70
   160
  1
 <> 
 71
     5
 42
22.0
  3
STANDARD1
100
AcDbAlignedDimension
 13
409.0791659999998
 23
87.5
 33
0.0
 14
431.0791659999998
 24
87.5
 34
0.0
100
AcDbRotatedDimension
  0
DIMENSION
  5
13927
330
1E
100
AcDbEntity
  8
30
100
AcDbDimension
  2
*D15
 10
385.5
 20
30.0
 30
0.0
 11
401.920834
 21
30.0
 31
0.0
 70
   160
  1
 <> 
 71
     5
 42
68.99999999999988
  3
STANDARD1
100
AcDbAlignedDimension
 13
454.4999999999998
 23
42.50000000000002
 33
0.0
 14
385.5
 24
42.50000000000002
 34
0.0
100
AcDbRotatedDimension
  0
LINE
  5
13F79
330
1E
100
AcDbEntity
  8
130
100
AcDbLine
 10
595.921362
 20
87.50000000000005
 30
0.0
 11
601.5764220000002
 21
87.50000000000005
 31
0.0
  0
LINE
  5
13F7A
330
1E
100
AcDbEntity
  8
17
100
AcDbLine
 10
635.3764219999998
 20
119.5
 30
0.0
 11
652.5764220000001
 21
119.5
 31
0.0
  0
LINE
  5
13F7B
330
1E
100
AcDbEntity
  8
130
  6
HIDDEN
100
AcDbLine
 10
621.5764220000002
 20
7.250000000000056
 30
0.0
 11
673.576422
 21
7.250000000000056
 31
0.0
  0
LINE
  5
13F7C
330
1E
100
AcDbEntity
  8
1
  6
Continuous
 62
     4
100
AcDbLine
 10
672.8764219999998
 20
180.0
 30
0.0
 11
622.4745799999997
 21
180.0
 31
0.0
  0
LINE
  5
13F7D
330
1E
100
AcDbEntity
  8
130
100
AcDbLine
 10
621.5764220000002
 20
13.75000000000005
 30
0.0
 11
621.5764220000002
 21
11.75000000000006
 31
0.0
  0
LINE
  5
13F7E
330
1E
100
AcDbEntity
  8
1
  6
Continuous
 62
     4
100
AcDbLine
 10
613.0364220000001
 20
132.0
 30
0.0
 11
612.2243339999998
 21
126.221688
 31
0.0
  0
LINE
  5
13F7F
330
1E
100
AcDbEntity
  8
130
100
AcDbLine
 10
615.576422
 20
13.75000000000005
 30
0.0
 11
615.576422
 21
5.250000000000056
 31
0.0
  0
LINE
  5
13F80
330
1E
100
AcDbEntity
  8
130
100
AcDbLine
 10
673.576422
 20
11.75000000000006
 30
0.0
 11
681.2764219999998
 21
11.75000000000006
 31
0.0
  0
LINE
  5
13F81
330
1E
100
AcDbEntity
  8
1
  6
Continuous
 62
     4
100
AcDbLine
 10
607.5764219999999
 20
120.5
 30
0.0
 11
607.5764219999999
 21
122.5
 31
0.0
  0
LINE
  5
13F82
330
1E
100
AcDbEntity
  8
16
100
AcDbLine
 10
579.3051500000001
 20
74.70006400000007
 30
0.0
 11
578.5764219999999
 21
65.00000000000007
 31
0.0
  0
LINE
  5
13F83
330
1E
100
AcDbEntity
  8
130
100
AcDbLine
 10
614.9335660000001
 20
127.0
 30
0.0
 11
673.576422
 21
127.0
 31
0.0
  0
LINE
  5
13F84
330
1E
100
AcDbEntity
  8
130
100
AcDbLine
 10
607.5764219999999
 20
116.0
 30
0.0
 11
612.5764219999997
 21
116.0
 31
0.0
  0
LINE
  5
13F85
330
1E
100
AcDbEntity
  8
130
100
AcDbLine
 10
617.193254
 20
0.0000000000000568
 30
0.0
 11
673.576422
 21
0.0000000000000568
 31
0.0
  0
LINE
  5
13F86
330
1E
100
AcDbEntity
  8
17
100
AcDbLine
 10
640.3764219999998
 20
124.5
 30
0.0
 11
640.3764219999998
 21
114.5
 31
0.0
  0
LINE
  5
13F87
330
1E
100
AcDbEntity
  8
1
  6
Continuous
 62
     2
100
AcDbLine
 10
672.8764219999998
 20
130.0
 30
0.0
 11
673.576422
 21
130.0
 31
0.0
  0
LINE
  5
13F88
330
1E
100
AcDbEntity
  8
130
100
AcDbLine
 10
621.5764220000002
 20
13.75000000000005
 30
0.0
 11
621.5764220000002
 21
5.250000000000056
 31
0.0
  0
LINE
  5
13F89
330
1E
100
AcDbEntity
  8
130
  6
HIDDEN
100
AcDbLine
 10
621.5764220000002
 20
11.75000000000006
 30
0.0
 11
673.576422
 21
11.75000000000006
 31
0.0
  0
LINE
  5
13F8A
330
1E
100
AcDbEntity
  8
130
100
AcDbLine
 10
673.576422
 20
0.0000000000000568
 30
0.0
 11
673.576422
 21
130.0
 31
0.0
  0
LINE
  5
13F8B
330
1E
100
AcDbEntity
  8
17
100
AcDbLine
 10
647.5764220000002
 20
130.0
 30
0.0
 11
647.5764220000002
 21
109.0
 31
0.0
  0
LINE
  5
13F8C
330
1E
100
AcDbEntity
  8
1
  6
Continuous
 62
     4
100
AcDbLine
 10
609.539814
 20
118.5
 30
0.0
 11
613.1121379999997
 21
118.5
 31
0.0
  0
LINE
  5
13F8D
330
1E
100
AcDbEntity
  8
130
100
AcDbLine
 10
595.921362
 20
42.50000000000006
 30
0.0
 11
601.5764220000002
 21
42.50000000000006
 31
0.0
  0
LINE
  5
13F8E
330
1E
100
AcDbEntity
  8
130
100
AcDbLine
 10
673.576422
 20
7.250000000000056
 30
0.0
 11
681.2764219999998
 21
7.250000000000056
 31
0.0
  0
LINE
  5
13F8F
330
1E
100
AcDbEntity
  8
12
100
AcDbLine
 10
647.5764220000002
 20
130.0
 30
0.0
 11
649.5764219999998
 21
130.0
 31
0.0
  0
LINE
  5
13F90
330
1E
100
AcDbEntity
  8
130
100
AcDbLine
 10
601.5764220000002
 20
90.00000000000005
 30
0.0
 11
605.5764220000002
 21
90.00000000000005
 31
0.0
  0
LINE
  5
13F91
330
1E
100
AcDbEntity
  8
16
100
AcDbLine
 10
683.5764220000002
 20
65.00000000000007
 30
0.0
 11
570.1912580000001
 21
65.00000000000007
 31
0.0
  0
LINE
  5
13F92
330
1E
100
AcDbEntity
  8
130
100
AcDbLine
 10
605.5764220000002
 20
42.50000000000006
 30
0.0
 11
605.5764220000002
 21
16.00000000000006
 31
0.0
  0
LINE
  5
13F93
330
1E
100
AcDbEntity
  8
17
100
AcDbLine
 10
645.5764219999998
 20
127.2
 30
0.0
 11
647.5764220000002
 21
127.2
 31
0.0
  0
LINE
  5
13F94
330
1E
100
AcDbEntity
  8
130
  6
HIDDEN
100
AcDbLine
 10
612.6299939999999
 20
13.75000000000005
 30
0.0
 11
621.5764220000002
 21
13.75000000000005
 31
0.0
  0
LINE
  5
13F95
330
1E
100
AcDbEntity
  8
130
100
AcDbLine
 10
607.5764219999999
 20
14.00000000000005
 30
0.0
 11
612.5764219999997
 21
14.00000000000005
 31
0.0
  0
LINE
  5
13F96
330
1E
100
AcDbEntity
  8
17
100
AcDbLine
 10
642.3764219999998
 20
126.5
 30
0.0
 11
645.5764219999998
 21
126.5
 31
0.0
  0
LINE
  5
13F97
330
1E
100
AcDbEntity
  8
24
100
AcDbLine
 10
649.5764219999998
 20
130.0
 30
0.0
 11
649.5764219999998
 21
109.0
 31
0.0
  0
LINE
  5
13F98
330
1E
100
AcDbEntity
  8
17
100
AcDbLine
 10
645.5764219999998
 20
111.8
 30
0.0
 11
647.5764220000002
 21
111.8
 31
0.0
  0
LINE
  5
13F99
330
1E
100
AcDbEntity
  8
130
100
AcDbLine
 10
585.2784719999997
 20
71.53906600000005
 30
0.0
 11
580.9115199999999
 21
72.31509000000007
 31
0.0
  0
LINE
  5
13F9A
330
1E
100
AcDbEntity
  8
130
100
AcDbLine
 10
601.5764220000002
 20
40.00000000000006
 30
0.0
 11
605.5764220000002
 21
40.00000000000006
 31
0.0
  0
LINE
  5
13F9B
330
1E
100
AcDbEntity
  8
130
  6
HIDDEN
100
AcDbLine
 10
614.4514220000002
 20
5.250000000000056
 30
0.0
 11
621.5764220000002
 21
5.250000000000056
 31
0.0
  0
LINE
  5
13F9C
330
1E
100
AcDbEntity
  8
130
  6
HIDDEN
100
AcDbLine
 10
617.193254
 20
130.0
 30
0.0
 11
673.576422
 21
130.0
 31
0.0
  0
LINE
  5
13F9D
330
1E
100
AcDbEntity
  8
130
100
AcDbLine
 10
615.23765
 20
1.58094200000005
 30
0.0
 11
612.5764219999997
 21
14.00000000000005
 31
0.0
  0
LINE
  5
13F9E
330
1E
100
AcDbEntity
  8
130
100
AcDbLine
 10
602.2764219999998
 20
9.500000000000056
 30
0.0
 11
691.2764219999997
 21
9.500000000000056
 31
0.0
  0
LINE
  5
13F9F
330
1E
100
AcDbEntity
  8
130
100
AcDbLine
 10
621.5764220000002
 20
7.250000000000056
 30
0.0
 11
621.5764220000002
 21
5.250000000000056
 31
0.0
  0
LINE
  5
13FA0
330
1E
100
AcDbEntity
  8
130
100
AcDbLine
 10
579.3051500000001
 20
74.70006400000007
 30
0.0
 11
579.9912579999999
 21
77.92795200000006
 31
0.0
  0
LINE
  5
13FA1
330
1E
100
AcDbEntity
  8
1
  6
Continuous
 62
     4
100
AcDbLine
 10
610.4404519999998
 20
122.445166
 30
0.0
 11
607.5764219999999
 21
122.723262
 31
0.0
  0
LINE
  5
13FA2
330
1E
100
AcDbEntity
  8
130
100
AcDbLine
 10
614.9335660000001
 20
127.0
 30
0.0
 11
615.23765
 21
128.419058
 31
0.0
  0
LINE
  5
13FA3
330
1E
100
AcDbEntity
  8
1
  6
Continuous
 62
     4
100
AcDbLine
 10
607.6081623348102
 20
120.0842434688072
 30
0.0
 11
610.4404519999998
 21
120.354834
 31
0.0
  0
LINE
  5
13FA4
330
1E
100
AcDbEntity
  8
1
  6
Continuous
 62
     4
100
AcDbLine
 10
672.8764219999998
 20
180.0
 30
0.0
 11
672.8764219999998
 21
127.0
 31
0.0
  0
LINE
  5
13FA5
330
1E
100
AcDbEntity
  8
130
100
AcDbLine
 10
601.5764220000002
 20
90.00000000000005
 30
0.0
 11
601.5764220000002
 21
40.00000000000006
 31
0.0
  0
LINE
  5
13FA6
330
1E
100
AcDbEntity
  8
17
100
AcDbLine
 10
642.3764219999998
 20
112.5
 30
0.0
 11
645.5764219999998
 21
112.5
 31
0.0
  0
LINE
  5
13FA7
330
1E
100
AcDbEntity
  8
17
100
AcDbLine
 10
647.5764220000002
 20
109.0
 30
0.0
 11
649.5764219999998
 21
109.0
 31
0.0
  0
LINE
  5
13FA8
330
1E
100
AcDbEntity
  8
17
100
AcDbLine
 10
645.5764219999998
 20
127.2
 30
0.0
 11
645.5764219999998
 21
111.8
 31
0.0
  0
LINE
  5
13FA9
330
1E
100
AcDbEntity
  8
130
100
AcDbLine
 10
582.4288059999997
 20
79.45336400000005
 30
0.0
 11
586.7338539999997
 21
78.38609800000003
 31
0.0
  0
LINE
  5
13FAA
330
1E
100
AcDbEntity
  8
130
100
AcDbLine
 10
681.2764219999998
 20
11.75000000000006
 30
0.0
 11
681.2764219999998
 21
7.250000000000056
 31
0.0
  0
LINE
  5
13FAB
330
1E
100
AcDbEntity
  8
1
  6
Continuous
 62
     4
100
AcDbLine
 10
610.2437939999997
 20
124.5
 30
0.0
 11
609.539814
 21
124.5
 31
0.0
  0
LINE
  5
13FAC
330
1E
100
AcDbEntity
  8
130
100
AcDbLine
 10
605.5764220000002
 20
114.0
 30
0.0
 11
605.5764220000002
 21
40.00000000000006
 31
0.0
  0
LINE
  5
13FAD
330
1E
100
AcDbEntity
  8
1
  6
Continuous
 62
     4
100
AcDbLine
 10
613.0364220000001
 20
132.0
 30
0.0
 11
615.4867119999997
 21
173.413352
 31
0.0
  0
LINE
  5
13FAE
330
1E
100
AcDbEntity
  8
130
100
AcDbLine
 10
612.5764219999997
 20
116.0
 30
0.0
 11
614.9335660000001
 21
127.0
 31
0.0
  0
ARC
  5
13FAF
330
1E
100
AcDbEntity
  8
130
100
AcDbCircle
 10
581.88608
 20
21.65428200000005
 30
0.0
 40
50.0
100
AcDbArc
 50
74.61736699999831
 51
86.10961399999963
  0
ARC
  5
13FB0
330
1E
100
AcDbEntity
  8
1
  6
Continuous
 62
     4
100
AcDbCircle
 10
610.2437939999997
 20
126.5
 30
0.0
 40
2.0
100
AcDbArc
 50
269.9985029999997
 51
352.0009669999998
  0
ARC
  5
13FB1
330
1E
100
AcDbEntity
  8
1
  6
Continuous
 62
     4
100
AcDbCircle
 10
622.474498
 20
173.0
 30
0.0
 40
7.0
100
AcDbArc
 50
89.99931999999994
 51
176.6146059999998
  0
ARC
  5
13FB2
330
1E
100
AcDbEntity
  8
130
100
AcDbCircle
 10
603.924718
 20
125.337928
 30
0.0
 40
50.0
100
AcDbArc
 50
249.8903860000023
 51
260.0658999999976
  0
ARC
  5
13FB3
330
1E
100
AcDbEntity
  8
130
100
AcDbCircle
 10
895.0764220000001
 20
65.00000000000007
 30
0.0
 40
300.0
100
AcDbArc
 50
175.6987779999998
 51
184.3012220000002
  0
ARC
  5
13FB4
330
1E
100
AcDbEntity
  8
1
  6
Continuous
 62
     4
100
AcDbCircle
 10
610.3398139999998
 20
121.4
 30
0.0
 40
1.05
100
AcDbArc
 50
275.5000000000005
 51
84.49999999999945
  0
ARC
  5
13FB5
330
1E
100
AcDbEntity
  8
130
100
AcDbCircle
 10
607.5764219999999
 20
16.00000000000006
 30
0.0
 40
2.0
100
AcDbArc
 50
180.0
 51
270.0
  0
ARC
  5
13FB6
330
1E
100
AcDbEntity
  8
130
100
AcDbCircle
 10
581.947554
 20
77.51212800000004
 30
0.0
 40
2.0
100
AcDbArc
 50
76.0765070000009
 51
168.0000000000005
  0
ARC
  5
13FB7
330
1E
100
AcDbEntity
  8
130
100
AcDbCircle
 10
-617.193254
 20
128.0
 30
0.0
 40
2.0
210
0.0
220
0.0
230
-1.0
100
AcDbArc
 50
12.0947570000005
 51
90.0
  0
ARC
  5
13FB8
330
1E
100
AcDbEntity
  8
130
100
AcDbCircle
 10
607.5764219999999
 20
114.0
 30
0.0
 40
2.0
100
AcDbArc
 50
90.0
 51
180.0
  0
ARC
  5
13FB9
330
1E
100
AcDbEntity
  8
130
100
AcDbCircle
 10
617.193254
 20
2.000000000000053
 30
0.0
 40
2.0
100
AcDbArc
 50
192.0947570000004
 51
270.0
  0
ARC
  5
13FBA
330
1E
100
AcDbEntity
  8
130
100
AcDbCircle
 10
581.2614459999998
 20
74.28424000000005
 30
0.0
 40
2.0
100
AcDbArc
 50
168.0000000000005
 51
259.9234930000012
  0
ARC
  5
13FBB
330
1E
100
AcDbEntity
  8
1
  6
Continuous
 62
     4
100
AcDbCircle
 10
609.5144928698884
 20
120.4388693842698
 30
0.0
 40
1.939034720908606
100
AcDbArc
 50
178.1933759614259
 51
270.7482254489032
  0
ARC
  5
13FBC
330
1E
100
AcDbEntity
  8
17
100
AcDbCircle
 10
642.3764219999998
 20
114.5
 30
0.0
 40
2.0
100
AcDbArc
 50
180.0
 51
270.0
  0
ARC
  5
13FBD
330
1E
100
AcDbEntity
  8
1
  6
Continuous
 62
     4
100
AcDbCircle
 10
610.3398139999998
 20
121.4
 30
0.0
 40
1.05
100
AcDbArc
 50
92.9999999999991
 51
266.9999999999977
  0
ARC
  5
13FBE
330
1E
100
AcDbEntity
  8
17
100
AcDbCircle
 10
642.3764219999998
 20
124.5
 30
0.0
 40
2.0
100
AcDbArc
 50
90.0
 51
180.0
  0
ARC
  5
13FBF
330
1E
100
AcDbEntity
  8
1
  6
Continuous
 62
     4
100
AcDbCircle
 10
609.5144928698884
 20
122.5611306157303
 30
0.0
 40
1.939034720908453
100
AcDbArc
 50
89.25177455109681
 51
181.8066240385757
  0
SPLINE
  5
13FC0
330
1E
100
AcDbEntity
  8
1
  6
Continuous
 62
     2
100
AcDbSpline
210
0.0
220
0.0
230
1.0
 70
     8
 71
     3
 72
    10
 73
     6
 74
     0
 42
0.0000000001
 43
0.0000000001
 40
0.0
 40
0.0
 40
0.0
 40
0.0
 40
0.3315707384531519
 40
0.6683276061140628
 40
1.0
 40
1.0
 40
1.0
 40
1.0
 10
613.2683384323262
 20
135.9197014124812
 30
0.0
 10
613.2688879208982
 20
135.9288859034015
 30
0.0
 10
613.2721879147914
 20
135.9829677085257
 30
0.0
 10
613.2741844004982
 20
136.0167104733123
 30
0.0
 10
613.2772853924497
 20
136.0708149931435
 30
0.0
 10
613.2778227748493
 20
136.0800001994759
 30
0.0
  0
MTEXT
  5
13FC3
330
1E
100
AcDbEntity
  8
16
100
AcDbMText
 10
562.213896
 20
62.08959800000005
 30
0.0
 40
5.0
 41
0.0
 71
     7
 72
     5
  1
\W01.000;\fsimplex.shx;C
  7
blockfont
 73
     2
 44
0.9036139999999999
1001
ACAD
1000
MTEXTBEGIN
1070
    73
1070
     2
1070
    44
1040
0.9036139999999999
1070
    74
1070
     0
1000
MTEXTEND
  0
MTEXT
  5
13FC4
330
1E
100
AcDbEntity
  8
16
100
AcDbMText
 10
563.5794960000001
 20
60.16169000000004
 30
0.0
 40
5.0
 41
0.0
 71
     7
 72
     5
  1
\W01.000;\fsimplex.shx;L
  7
blockfont
 73
     2
 44
0.9036139999999999
1001
ACAD
1000
MTEXTBEGIN
1070
    73
1070
     2
1070
    44
1040
0.9036139999999999
1070
    74
1070
     0
1000
MTEXTEND
  0
DIMENSION
  5
13FD1
330
1E
100
AcDbEntity
  8
30
100
AcDbDimension
  2
*D16
 10
673.576422
 20
-40.0
 30
0.0
 11
639.5764220000001
 21
-35.0
 31
0.0
 70
    32
  1
 <> 
 71
     5
 42
67.99999999999977
  3
STANDARD1
100
AcDbAlignedDimension
 13
605.5764220000002
 23
27.24800000000005
 33
0.0
 14
673.576422
 24
-1.999999999999943
 34
0.0
100
AcDbRotatedDimension
  0
DIMENSION
  5
13FD2
330
1E
100
AcDbEntity
  8
30
100
AcDbDimension
  2
*D17
 10
537.35581
 20
40.00000000000007
 30
0.0
 11
532.35581
 21
65.00000000000014
 31
0.0
 70
    32
  1
 <> 
 71
     0
 72
     0
 41
0.0
 42
49.99999999999996
  3
STANDARD1
100
AcDbAlignedDimension
 13
599.5764219999998
 23
90.00000000000005
 33
0.0
 14
599.5764219999998
 24
40.00000000000006
 34
0.0
 50
90.0
100
AcDbRotatedDimension
  0
DIMENSION
  5
13FD3
330
1E
100
AcDbEntity
  8
30
100
AcDbDimension
  2
*D18
 10
553.35581
 20
42.50000000000007
 30
0.0
 11
548.35581
 21
65.00000000000014
 31
0.0
 70
    32
  1
 <> 
 71
     0
 72
     0
 41
0.0
 42
44.99999999999996
  3
STANDARD1
100
AcDbAlignedDimension
 13
593.921362
 23
87.50000000000005
 33
0.0
 14
593.921362
 24
42.50000000000006
 34
0.0
 50
90.0
100
AcDbRotatedDimension
  0
DIMENSION
  5
13FD4
330
1E
100
AcDbEntity
  8
30
100
AcDbDimension
  2
*D19
 10
521.35581
 20
14.00000000000008
 30
0.0
 11
516.35581
 21
65.00000000000014
 31
0.0
 70
    32
  1
 <> 
 71
     0
 72
     0
 41
0.0
 42
102.0
  3
STANDARD1
100
AcDbAlignedDimension
 13
605.5764220000002
 23
116.0
 33
0.0
 14
608.0764219999998
 24
14.00000000000005
 34
0.0
 50
90.0
100
AcDbRotatedDimension
  0
DIMENSION
  5
13FD5
330
1E
100
AcDbEntity
  8
30
100
AcDbDimension
  2
*D20
 10
673.576422
 20
96.40036600000003
 30
0.0
 11
661.5764219999999
 21
101.400366
 31
0.0
 70
    32
  1
 <> 
 71
     5
 42
24.0
  3
STANDARD1
100
AcDbAlignedDimension
 13
649.5764219999998
 23
117.498
 33
0.0
 14
673.576422
 24
127.0
 34
0.0
100
AcDbRotatedDimension
  0
DIMENSION
  5
13FD6
330
1E
100
AcDbEntity
  8
30
100
AcDbDimension
  2
*D21
 10
673.576422
 20
208.400366
 30
0.0
 11
643.0764220000002
 21
213.4003660000001
 31
0.0
 70
    32
  1
 <> 
 71
     5
 42
61.0
  3
STANDARD1
100
AcDbAlignedDimension
 13
612.5764219999997
 23
131.110844
 33
0.0
 14
673.576422
 24
132.0
 34
0.0
100
AcDbRotatedDimension
  0
DIMENSION
  5
13FD7
330
1E
100
AcDbEntity
  8
30
100
AcDbDimension
  2
*D22
 10
681.2764219999998
 20
-20.0
 30
0.0
 11
696.2764219999996
 21
-15.0
 31
0.0
 70
    32
  1
\fsimplex.shx;\fsimplex.shx; <> 
 71
     5
 42
7.699999999999817
  3
STANDARD1
100
AcDbAlignedDimension
 13
673.576422
 23
7.500000000000056
 33
0.0
 14
681.2764219999998
 24
5.250000000000056
 34
0.0
100
AcDbRotatedDimension
  0
DIMENSION
  5
13FD8
330
1E
100
AcDbEntity
  8
30
100
AcDbDimension
  2
*D23
 10
673.576422
 20
-20.0
 30
0.0
 11
647.5764220000002
 21
-15.0
 31
0.0
 70
    32
  1
 <> 
 71
     5
 42
51.99999999999977
  3
STANDARD1
100
AcDbAlignedDimension
 13
621.5764220000002
 23
5.250000000000056
 33
0.0
 14
673.576422
 24
5.250000000000056
 34
0.0
100
AcDbRotatedDimension
  0
DIMENSION
  5
13FD9
330
1E
100
AcDbEntity
  8
30
100
AcDbDimension
  2
*D24
 10
673.576422
 20
-80.0
 30
0.0
 11
626.0764219999997
 21
-75.0
 31
0.0
 70
    32
  1
 <> 
 71
     5
 42
95.00000000000012
  3
STANDARD1
100
AcDbAlignedDimension
 13
578.5764219999999
 23
63.00000000000006
 33
0.0
 14
673.576422
 24
63.00000000000006
 34
0.0
100
AcDbRotatedDimension
  0
DIMENSION
  5
13FDB
330
1E
100
AcDbEntity
  8
30
100
AcDbDimension
  2
*D26
 10
673.576422
 20
220.4003660000001
 30
0.0
 11
640.576422
 21
225.400366
 31
0.0
 70
    32
  1
 <> 
 71
     5
 42
66.0
  3
STANDARD1
100
AcDbAlignedDimension
 13
607.5764219999999
 23
123.502
 33
0.0
 14
673.576422
 24
132.0
 34
0.0
100
AcDbRotatedDimension
  0
DIMENSION
  5
13FDD
330
1E
100
AcDbEntity
  8
30
100
AcDbDimension
  2
*D28
 10
672.8764219999998
 20
196.400366
 30
0.0
 11
642.7264219999997
 21
201.4003660000001
 31
0.0
 70
    32
  1
 <> 
 71
     5
 42
60.29999999999995
  3
STANDARD1
100
AcDbAlignedDimension
 13
612.5764219999997
 23
131.110844
 33
0.0
 14
672.8764219999998
 24
180.0
 34
0.0
100
AcDbRotatedDimension
  0
LINE
  5
1457A
330
1E
100
AcDbEntity
  8
18
100
AcDbLine
 10
677.5
 20
-115.0
 30
0.0
 11
602.5
 21
-115.0
 31
0.0
  0
LINE
  5
1457B
330
1E
100
AcDbEntity
  8
18
100
AcDbLine
 10
457.5
 20
-245.0
 30
0.0
 11
457.5
 21
-115.0
 31
0.0
  0
LINE
  5
1457C
330
1E
100
AcDbEntity
  8
16
100
AcDbLine
 10
592.5000000000002
 20
-179.9999999999999
 30
0.0
 11
687.5
 21
-179.9999999999999
 31
0.0
  0
LINE
  5
1457D
330
1E
100
AcDbEntity
  8
10
100
AcDbLine
 10
675.5000000000002
 20
-204.9999999999999
 30
0.0
 11
675.5000000000002
 21
-155.0
 31
0.0
  0
LINE
  5
1457E
330
1E
100
AcDbEntity
  8
18
100
AcDbLine
 10
382.5
 20
-245.0
 30
0.0
 11
457.5
 21
-245.0
 31
0.0
  0
LINE
  5
1457F
330
1E
100
AcDbEntity
  8
10
100
AcDbLine
 10
604.5000000000002
 20
-155.0
 30
0.0
 11
604.5000000000002
 21
-204.9999999999999
 31
0.0
  0
LINE
  5
14580
330
1E
100
AcDbEntity
  8
18
100
AcDbLine
 10
382.5
 20
-115.0
 30
0.0
 11
382.5
 21
-245.0
 31
0.0
  0
LINE
  5
14581
330
1E
100
AcDbEntity
  8
10
100
AcDbLine
 10
674.5000000000002
 20
-154.0
 30
0.0
 11
605.5000000000002
 21
-154.0
 31
0.0
  0
LINE
  5
14582
330
1E
100
AcDbEntity
  8
10
100
AcDbLine
 10
605.5000000000002
 20
-205.9999999999999
 30
0.0
 11
674.5000000000002
 21
-205.9999999999999
 31
0.0
  0
LINE
  5
14583
330
1E
100
AcDbEntity
  8
16
100
AcDbLine
 10
420.0
 20
-105.0
 30
0.0
 11
420.0
 21
-255.0
 31
0.0
  0
LINE
  5
14584
330
1E
100
AcDbEntity
  8
16
100
AcDbLine
 10
372.5
 20
-180.0
 30
0.0
 11
467.4999999999998
 21
-180.0
 31
0.0
  0
LINE
  5
14585
330
1E
100
AcDbEntity
  8
16
100
AcDbLine
 10
640.0
 20
-105.0
 30
0.0
 11
640.0
 21
-254.9999999999999
 31
0.0
  0
LINE
  5
14586
330
1E
100
AcDbEntity
  8
18
100
AcDbLine
 10
457.5
 20
-115.0
 30
0.0
 11
382.5
 21
-115.0
 31
0.0
  0
LINE
  5
14587
330
1E
100
AcDbEntity
  8
18
100
AcDbLine
 10
602.5
 20
-115.0
 30
0.0
 11
602.5
 21
-244.9999999999999
 31
0.0
  0
LINE
  5
14588
330
1E
100
AcDbEntity
  8
18
100
AcDbLine
 10
602.5
 20
-244.9999999999999
 30
0.0
 11
677.5
 21
-244.9999999999999
 31
0.0
  0
LINE
  5
14589
330
1E
100
AcDbEntity
  8
18
100
AcDbLine
 10
677.5
 20
-244.9999999999999
 30
0.0
 11
677.5
 21
-115.0
 31
0.0
  0
ARC
  5
1458A
330
1E
100
AcDbEntity
  8
10
100
AcDbCircle
 10
605.5000000000002
 20
-155.0
 30
0.0
 40
1.0
100
AcDbArc
 50
90.0
 51
180.0
  0
CIRCLE
  5
1458B
330
1E
100
AcDbEntity
  8
1
  6
DASHED
 62
     2
 48
23.885136
100
AcDbCircle
 10
432.5
 20
-235.5
 30
0.0
 40
2.0
  0
ARC
  5
1458C
330
1E
100
AcDbEntity
  8
10
100
AcDbCircle
 10
674.5000000000002
 20
-155.0
 30
0.0
 40
1.0
100
AcDbArc
 50
0.0
 51
90.0
  0
ARC
  5
1458D
330
1E
100
AcDbEntity
  8
10
100
AcDbCircle
 10
674.5000000000002
 20
-204.9999999999999
 30
0.0
 40
1.0
100
AcDbArc
 50
270.0
 51
0.0
  0
ARC
  5
1458F
330
1E
100
AcDbEntity
  8
10
100
AcDbCircle
 10
605.5000000000002
 20
-204.9999999999999
 30
0.0
 40
1.0
100
AcDbArc
 50
180.0
 51
270.0
  0
CIRCLE
  5
14590
330
1E
100
AcDbEntity
  8
24
100
AcDbCircle
 10
407.5
 20
-124.5
 30
0.0
 40
2.0
  0
MTEXT
  5
14594
330
1E
100
AcDbEntity
  8
16
100
AcDbMText
 10
419.164632
 20
-98.90467600000006
 30
0.0
 40
5.0
 41
0.0
 71
     7
 72
     5
  1
\W01.000;\fsimplex.shx;H
  7
blockfont
 73
     2
 44
0.9036139999999999
1001
ACAD
1000
MTEXTBEGIN
1070
    73
1070
     2
1070
    44
1040
0.9036139999999999
1070
    74
1070
     0
1000
MTEXTEND
  0
MTEXT
  5
14595
330
1E
100
AcDbEntity
  8
16
100
AcDbMText
 10
420.4892760000001
 20
-101.480374
 30
0.0
 40
5.0
 41
0.0
 71
     7
 72
     5
  1
\W01.000;\fsimplex.shx;L
  7
blockfont
 73
     2
 44
0.9036139999999999
1001
ACAD
1000
MTEXTBEGIN
1070
    73
1070
     2
1070
    44
1040
0.9036139999999999
1070
    74
1070
     0
1000
MTEXTEND
  0
MTEXT
  5
14596
330
1E
100
AcDbEntity
  8
16
100
AcDbMText
 10
639.2567989999998
 20
-98.90467600000006
 30
0.0
 40
5.0
 41
0.0
 71
     7
 72
     5
  1
\W01.000;\fsimplex.shx;H
  7
blockfont
 73
     2
 44
0.9036139999999999
1001
ACAD
1000
MTEXTBEGIN
1070
    73
1070
     2
1070
    44
1040
0.9036139999999999
1070
    74
1070
     0
1000
MTEXTEND
  0
MTEXT
  5
14597
330
1E
100
AcDbEntity
  8
16
100
AcDbMText
 10
640.5814429999998
 20
-101.480374
 30
0.0
 40
5.0
 41
0.0
 71
     7
 72
     5
  1
\W01.000;\fsimplex.shx;L
  7
blockfont
 73
     2
 44
0.9036139999999999
1001
ACAD
1000
MTEXTBEGIN
1070
    73
1070
     2
1070
    44
1040
0.9036139999999999
1070
    74
1070
     0
1000
MTEXTEND
  0
MTEXT
  5
14598
330
1E
100
AcDbEntity
  8
16
100
AcDbMText
 10
584.5226360000002
 20
-182.9104019999999
 30
0.0
 40
5.0
 41
0.0
 71
     7
 72
     5
  1
\W01.000;\fsimplex.shx;C
  7
blockfont
 73
     2
 44
0.9036139999999999
1001
ACAD
1000
MTEXTBEGIN
1070
    73
1070
     2
1070
    44
1040
0.9036139999999999
1070
    74
1070
     0
1000
MTEXTEND
  0
MTEXT
  5
14599
330
1E
100
AcDbEntity
  8
16
100
AcDbMText
 10
585.8882379999996
 20
-184.8383099999999
 30
0.0
 40
5.0
 41
0.0
 71
     7
 72
     5
  1
\W01.000;\fsimplex.shx;L
  7
blockfont
 73
     2
 44
0.9036139999999999
1001
ACAD
1000
MTEXTBEGIN
1070
    73
1070
     2
1070
    44
1040
0.9036139999999999
1070
    74
1070
     0
1000
MTEXTEND
  0
MTEXT
  5
1459B
330
1E
100
AcDbEntity
  8
16
100
AcDbMText
 10
365.9715719999995
 20
-184.83831
 30
0.0
 40
5.0
 41
0.0
 71
     7
 72
     5
  1
\W01.000;\fsimplex.shx;L
  7
blockfont
 73
     2
 44
0.9036139999999999
1001
ACAD
1000
MTEXTBEGIN
1070
    73
1070
     2
1070
    44
1040
0.9036139999999999
1070
    74
1070
     0
1000
MTEXTEND
  0
MTEXT
  5
1459C
330
1E
100
AcDbEntity
  8
16
100
AcDbMText
 10
364.60597
 20
-182.910402
 30
0.0
 40
5.0
 41
0.0
 71
     7
 72
     5
  1
\W01.000;\fsimplex.shx;C
  7
blockfont
 73
     2
 44
0.9036139999999999
1001
ACAD
1000
MTEXTBEGIN
1070
    73
1070
     2
1070
    44
1040
0.9036139999999999
1070
    74
1070
     0
1000
MTEXTEND
  0
LINE
  5
1459E
330
1E
100
AcDbEntity
  8
17
100
AcDbLine
 10
402.3249999999999
 20
-124.5
 30
0.0
 11
412.6749999999998
 21
-124.5
 31
0.0
  0
LINE
  5
1459F
330
1E
100
AcDbEntity
  8
17
100
AcDbLine
 10
407.5
 20
-129.675
 30
0.0
 11
407.5
 21
-119.325
 31
0.0
  0
LINE
  5
145A0
330
1E
100
AcDbEntity
  8
17
100
AcDbLine
 10
427.3249999999999
 20
-235.5
 30
0.0
 11
437.6749999999998
 21
-235.5
 31
0.0
  0
LINE
  5
145A1
330
1E
100
AcDbEntity
  8
17
100
AcDbLine
 10
432.5
 20
-240.675
 30
0.0
 11
432.5
 21
-230.325
 31
0.0
  0
LINE
  5
145A3
330
1E
100
AcDbEntity
  8
30
100
AcDbLine
 10
434.3929880000001
 20
-236.351558
 30
0.0
 11
452.8240979999998
 21
-265.099634
 31
0.0
  0
MTEXT
  5
145A4
330
1E
100
AcDbEntity
  8
30
  6
Continuous
100
AcDbMText
 10
454.5833339999998
 20
-263.099634
 30
0.0
 40
6.0
 41
0.0
 71
     7
 72
     5
  1
{\Ftxt|c128;M4}\U+00D7{\Ftxt|c128;0.7}
 73
     1
 44
0.8
1001
ACAD
1000
MTEXTBEGIN
1070
    73
1070
     1
1070
    44
1040
0.8
1070
    74
1070
     0
1000
MTEXTEND
  0
LINE
  5
145A5
330
1E
100
AcDbEntity
  8
30
100
AcDbLine
 10
486.6415401673452
 20
-265.099634
 30
0.0
 11
452.8240979999998
 21
-265.099634
 31
0.0
  0
SOLID
  5
145A7
330
1E
100
AcDbEntity
  8
30
100
AcDbTrace
 10
434.3096540000003
 20
-236.351558
 30
0.0
 11
437.0411239999996
 21
-239.351832
 31
0.0
 12
435.8959859999996
 22
-240.086014
 32
0.0
 13
434.3096540000003
 23
-236.351558
 33
0.0
  0
DIMENSION
  5
145A8
330
1E
100
AcDbEntity
  8
30
100
AcDbDimension
  2
*D29
 10
675.5000000000002
 20
-278.398872
 30
0.0
 11
640.0000000000002
 21
-273.3988720000001
 31
0.0
 70
    32
  1
 <> 
 71
     5
 42
71.0
  3
STANDARD1
100
AcDbAlignedDimension
 13
604.5000000000002
 23
-206.9999999999999
 33
0.0
 14
675.5000000000002
 24
-206.9999999999999
 34
0.0
100
AcDbRotatedDimension
  0
DIMENSION
  5
145A9
330
1E
100
AcDbEntity
  8
30
100
AcDbDimension
  2
*D30
 10
574.2902440000001
 20
-205.9999999999999
 30
0.0
 11
569.2902440000001
 21
-179.9999999999998
 31
0.0
 70
    32
  1
 <> 
 71
     0
 72
     0
 41
0.0
 42
51.99999999999992
  3
STANDARD1
100
AcDbAlignedDimension
 13
637.9979999999997
 23
-154.0
 33
0.0
 14
638.0000000000002
 24
-205.9999999999999
 34
0.0
 50
90.0
100
AcDbRotatedDimension
  0
DIMENSION
  5
145AA
330
1E
100
AcDbEntity
  8
30
100
AcDbDimension
  2
*D31
 10
482.5833339999999
 20
-235.5
 30
0.0
 11
477.5833339999998
 21
-180.0
 31
0.0
 70
    32
  1
 <> 
 71
     0
 72
     0
 41
0.0
 42
110.9999999999999
  3
STANDARD1
100
AcDbAlignedDimension
 13
412.7583339999998
 23
-124.5
 33
0.0
 14
437.7583339999998
 24
-235.5
 34
0.0
 50
90.0
100
AcDbRotatedDimension
  0
DIMENSION
  5
145AB
330
1E
100
AcDbEntity
  8
30
100
AcDbDimension
  2
*D32
 10
432.5
 20
-276.599634
 30
0.0
 11
420.0
 21
-271.599634
 31
0.0
 70
    32
  1
 <> 
 71
     5
 42
25.0
  3
STANDARD1
100
AcDbAlignedDimension
 13
407.5
 23
-124.5
 33
0.0
 14
432.5
 24
-235.5
 34
0.0
100
AcDbRotatedDimension
  0
DIMENSION
  5
145AC
330
1E
100
AcDbEntity
  8
30
100
AcDbDimension
  2
*D33
 10
640.0
 20
-262.398872
 30
0.0
 11
622.2500000000001
 21
-257.398872
 31
0.0
 70
    32
  1
 <> 
 71
     5
 42
35.49999999999978
  3
STANDARD1
100
AcDbAlignedDimension
 13
604.5000000000002
 23
-206.9999999999999
 33
0.0
 14
640.0
 24
-254.9999999999999
 34
0.0
100
AcDbRotatedDimension
  0
DIMENSION
  5
145AD
330
1E
100
AcDbEntity
  8
30
100
AcDbDimension
  2
*D34
 10
640.0
 20
-102.398872
 30
0.0
 11
621.25
 21
-97.398872
 31
0.0
 70
    32
  1
 <> 
 71
     5
 42
37.5
  3
STANDARD1
100
AcDbAlignedDimension
 13
602.5
 23
-113.0
 33
0.0
 14
640.0
 24
-113.0
 34
0.0
100
AcDbRotatedDimension
  0
DIMENSION
  5
146C9
330
1E
100
AcDbEntity
  8
30
  6
Continuous
100
AcDbDimension
  2
*D35
 10
605.4999999999986
 20
-154.9999999999997
 30
0.0
 11
592.5000000000002
 21
-148.4672860560932
 31
0.0
 70
   164
 71
     5
 42
0.9999999999993175
  3
STANDARD1
100
AcDbRadialDimension
 15
604.606474025791
 25
-154.5509884930035
 35
0.0
 40
0.0
  0
DIMENSION
  5
147E0
330
1E
100
AcDbEntity
  8
30
100
AcDbDimension
  2
*D36
 10
582.9037739199242
 20
304.757314970445
 30
0.0
 11
531.7549117644058
 21
326.2418508505208
 31
0.0
 70
   163
  1
\U+03C69(60-125A)
 71
     5
 42
9.000000000000227
  3
STANDARD1
100
AcDbDiametricDimension
 15
574.6060516088882
 25
308.2426850295547
 35
0.0
 40
0.0
  0
TEXT
  5
147E1
330
1E
100
AcDbEntity
  8
30
100
AcDbText
 10
510.5110775058006
 20
346.389612628567
 30
0.0
 40
5.999999999999999
  1
\U+03C65.5(15-50A)
 50
336.6771654413633
100
AcDbText
  0
LINE
  5
15E7D
330
1E
100
AcDbEntity
  8
1
  6
Continuous
 62
     2
100
AcDbLine
 10
457.2633745976371
 20
130.0
 30
0.0
 11
457.5
 21
130.0
 31
0.0
  0
LINE
  5
15E7E
330
1E
100
AcDbEntity
  8
1
  6
Continuous
 62
     2
100
AcDbLine
 10
382.5
 20
130.0
 30
0.0
 11
382.7449580518863
 21
130.0
 31
0.0
  0
LINE
  5
15E91
330
1E
100
AcDbEntity
  8
130
100
AcDbLine
 10
382.5
 20
0.0000000000000284
 30
0.0
 11
457.5
 21
0.0000000000000284
 31
0.0
  0
LINE
  5
15ED2
330
1E
100
AcDbEntity
  8
130
100
AcDbLine
 10
385.5
 20
42.50000000000002
 30
0.0
 11
454.4999999999998
 21
42.50000000000002
 31
0.0
  0
LINE
  5
15F0B
330
1E
100
AcDbEntity
  8
130
100
AcDbLine
 10
385.5
 20
87.5
 30
0.0
 11
454.4999999999998
 21
87.5
 31
0.0
  0
VIEWPORT
  5
9AC
102
{ACAD_XDICTIONARY
360
160A7
102
}
330
1A
100
AcDbEntity
 67
     1
  8
0
  6
Continuous
100
AcDbViewport
 10
0.0
 20
0.0
 30
0.0
 40
0.0
 41
0.0
 68
     1
 69
     1
 12
0.0
 22
0.0
 13
0.0
 23
0.0
 14
10.0
 24
10.0
 15
10.0
 25
10.0
 16
0.0
 26
0.0
 36
1.0
 17
0.0
 27
0.0
 37
0.0
 42
50.0
 43
0.0
 44
0.0
 45
0.0
 50
0.0
 51
0.0
 72
   100
 90
    32800
  1

281
     0
 71
     1
 74
     0
110
0.0
120
0.0
130
0.0
111
1.0
121
0.0
131
0.0
112
0.0
122
1.0
132
0.0
 79
     0
146
0.0
  0
VIEWPORT
  5
E19D
102
{ACAD_XDICTIONARY
360
160AD
102
}
330
1A
100
AcDbEntity
 67
     1
  8
30
100
AcDbViewport
 10
0.0
 20
0.0
 30
0.0
 40
0.0
 41
0.0
 68
     2
 69
     2
 12
8.653370891979619
 22
137.2805829780177
 13
0.0
 23
0.0
 14
1.0
 24
1.0
 15
10.0
 25
10.0
 16
0.0
 26
0.0
 36
1.0
 17
0.0
 27
0.0
 37
0.0
 42
50.0
 43
0.0
 44
0.0
 45
689.9195596776387
 50
0.0
 51
0.0
 72
   100
 90
    37664
  1

281
     0
 71
     1
 74
     0
110
0.0
120
0.0
130
0.0
111
1.0
121
0.0
131
0.0
112
0.0
122
1.0
132
0.0
 79
     0
146
0.0
  0
ENDSEC
  0
SECTION
  2
OBJECTS
  0
DICTIONARY
  5
C
330
0
100
AcDbDictionary
281
     1
  3
ACAD_COLOR
350
E4E8
  3
ACAD_GROUP
350
D
  3
ACAD_LAYOUT
350
19
  3
ACAD_MATERIAL
350
E4BB
  3
ACAD_MLEADERSTYLE
350
E50D
  3
ACAD_MLINESTYLE
350
16
  3
ACAD_PLOTSETTINGS
350
18
  3
ACAD_PLOTSTYLENAME
350
E
  3
ACAD_SCALELIST
350
E4EB
  3
ACAD_TABLESTYLE
350
E4E9
  3
ACAD_VISUALSTYLE
350
E4D4
  3
ACADDIM
350
6D5E
  3
ACDB_RECOMPOSE_DATA
350
160A5
  3
ACDBVARIABLEDICTIONARY
350
5697
  3
AEC_PROPERTY_SET_DEFS
350
F8DB
  3
ASE_INDEX_DICTIONARY
350
15FB6
  3
DWGPROPS
350
160A6
  0
DICTIONARY
  5
E512
330
10
100
AcDbDictionary
280
     1
281
     1
  3
ADSK_XREC_LAYER_RECONCILED
360
E513
  0
DICTIONARY
  5
E514
330
2F
100
AcDbDictionary
280
     1
281
     1
  3
ADSK_XREC_LAYER_RECONCILED
360
E515
  0
DICTIONARY
  5
E516
330
31
100
AcDbDictionary
280
     1
281
     1
  3
ADSK_XREC_LAYER_RECONCILED
360
E517
  0
DICTIONARY
  5
E518
330
35
100
AcDbDictionary
280
     1
281
     1
  3
ADSK_XREC_LAYER_RECONCILED
360
E519
  0
DICTIONARY
  5
E51C
330
3D
100
AcDbDictionary
280
     1
281
     1
  3
ADSK_XREC_LAYER_RECONCILED
360
E51D
  0
DICTIONARY
  5
E51E
330
3A2
100
AcDbDictionary
280
     1
281
     1
  3
ADSK_XREC_LAYER_RECONCILED
360
E51F
  0
DICTIONARY
  5
E520
330
3BBA
100
AcDbDictionary
280
     1
281
     1
  3
ADSK_XREC_LAYER_RECONCILED
360
E521
  0
DICTIONARY
  5
E524
330
7837
100
AcDbDictionary
280
     1
281
     1
  3
ADSK_XREC_LAYER_RECONCILED
360
E525
  0
DICTIONARY
  5
E526
330
7BC8
100
AcDbDictionary
280
     1
281
     1
  3
ADSK_XREC_LAYER_RECONCILED
360
E527
  0
DICTIONARY
  5
E534
330
E473
100
AcDbDictionary
280
     1
281
     1
  3
ADSK_XREC_LAYER_RECONCILED
360
E535
  0
DICTIONARY
  5
178
330
1E
100
AcDbDictionary
280
     1
281
     1
  3
ACAD_LAYOUTSELFREF
360
9011
  3
ACAD_SORTENTS
360
13693
  0
DICTIONARY
  5
17A
330
1A
100
AcDbDictionary
280
     1
281
     1
  3
ACAD_LAYOUTSELFREF
360
9010
  0
DICTIONARY
  5
160A7
330
9AC
100
AcDbDictionary
280
     1
281
     1
  3
ACAD_XREC_ROUNDTRIP
360
160A8
  0
DICTIONARY
  5
160AD
330
E19D
100
AcDbDictionary
280
     1
281
     1
  3
ACAD_XREC_ROUNDTRIP
360
160AE
  0
DICTIONARY
  5
E4E8
102
{ACAD_REACTORS
330
C
102
}
330
C
100
AcDbDictionary
281
     1
  0
DICTIONARY
  5
D
102
{ACAD_REACTORS
330
C
102
}
330
C
100
AcDbDictionary
281
     1
  0
DICTIONARY
  5
19
102
{ACAD_REACTORS
330
C
102
}
330
C
100
AcDbDictionary
281
     1
  3
Model
350
904E
  3
ﾚｲｱｳﾄ1
350
904F
  0
DICTIONARY
  5
E4BB
102
{ACAD_REACTORS
330
C
102
}
330
C
100
AcDbDictionary
281
     1
  3
ByBlock
350
E4C4
  3
ByLayer
350
E4BC
  3
Global
350
E4CC
  0
DICTIONARY
  5
E50D
102
{ACAD_REACTORS
330
C
102
}
330
C
100
AcDbDictionary
281
     1
  3
Standard
350
E50E
  0
DICTIONARY
  5
16
102
{ACAD_REACTORS
330
C
102
}
330
C
100
AcDbDictionary
281
     1
  3
STANDARD
350
17
  0
DICTIONARY
  5
18
102
{ACAD_REACTORS
330
C
102
}
330
C
100
AcDbDictionary
281
     1
  0
ACDBDICTIONARYWDFLT
  5
E
102
{ACAD_REACTORS
330
C
102
}
330
C
100
AcDbDictionary
281
     1
  3
Normal
350
F
100
AcDbDictionaryWithDefault
340
F
  0
DICTIONARY
  5
E4EB
102
{ACAD_REACTORS
330
C
102
}
330
C
100
AcDbDictionary
281
     1
  3
A0
350
E4EC
  3
A1
350
E4ED
  3
A2
350
E4EE
  3
A3
350
E4EF
  3
A4
350
E4F0
  3
A5
350
E4F1
  3
A6
350
E4F2
  3
A7
350
E4F3
  3
A8
350
E4F4
  3
A9
350
E4F5
  3
B0
350
E4F6
  3
B1
350
E4F7
  3
B2
350
E4F8
  3
B3
350
E4F9
  3
B4
350
E4FA
  3
B5
350
E4FB
  3
B6
350
E4FC
  3
B7
350
E4FD
  3
B8
350
E4FE
  3
B9
350
E4FF
  3
C0
350
E500
  3
C1
350
E501
  3
C2
350
E502
  3
C3
350
E503
  3
C4
350
E504
  3
C5
350
E505
  3
C6
350
E506
  3
C7
350
E507
  3
C8
350
E508
  3
C9
350
E509
  3
D0
350
E50A
  3
D1
350
E50B
  3
D2
350
E50C
  0
DICTIONARY
  5
E4E9
102
{ACAD_REACTORS
330
C
102
}
330
C
100
AcDbDictionary
281
     1
  3
Standard
350
E4EA
  0
DICTIONARY
  5
E4D4
102
{ACAD_REACTORS
330
C
102
}
330
C
100
AcDbDictionary
281
     1
  3
2dWireframe
350
E4DA
  3
3D Hidden
350
E4DC
  3
3dWireframe
350
E4DB
  3
Basic
350
E4D9
  3
Brighten
350
E4E0
  3
ColorChange
350
E4E4
  3
Conceptual
350
E4DD
  3
Dim
350
E4DF
  3
EdgeColorOff
350
E4E7
  3
Facepattern
350
E4E3
  3
Flat
350
E4D5
  3
FlatWithEdges
350
E4D6
  3
Gouraud
350
E4D7
  3
GouraudWithEdges
350
E4D8
  3
JitterOff
350
E4E5
  3
Linepattern
350
E4E2
  3
OverhangOff
350
E4E6
  3
Realistic
350
E4DE
  3
Thicken
350
E4E1
  0
XRECORD
  5
6D5E
102
{ACAD_REACTORS
330
C
102
}
330
C
100
AcDbXrecord
280
     1
 90
   990106
  3

 60
     0
 61
     0
 62
     1
 63
     3
 64
     0
 65
     0
 66
     0
 67
     3
 68
     1
 69
     0
 70
     0
 71
     0
 72
     0
 40
0.0
170
     0
340
7CA9
  0
XRECORD
  5
160A5
102
{ACAD_REACTORS
330
C
102
}
330
C
100
AcDbXrecord
280
     1
 90
        1
330
E4EA
  0
DICTIONARY
  5
5697
102
{ACAD_REACTORS
330
C
102
}
330
C
100
AcDbDictionary
281
     1
  3
CANNOSCALE
350
F8C1
  3
CMLEADERSTYLE
350
F8C0
  3
CTABLESTYLE
350
F8BF
  3
DIMASSOC
350
5698
  3
INDEXCTL
350
F8C3
  3
SORTENTS
350
F8C2
  3
XCLIPFRAME
350
160A3
  0
DICTIONARY
  5
F8DB
102
{ACAD_REACTORS
330
C
102
}
330
C
100
AcDbDictionary
281
     1
  0
DICTIONARY
  5
15FB6
102
{ACAD_REACTORS
330
C
102
}
330
C
100
AcDbDictionary
281
     1
  3
ASEBlockHierarchyIndexRecord
350
15FB7
1001
DCO15
1040
1763194320.171
  0
XRECORD
  5
160A6
102
{ACAD_REACTORS
330
C
102
}
330
C
100
AcDbXrecord
280
     1
  1
DWGPROPS COOKIE
  2

  3

  4

  6

  7

  8
cadm
  9

300
=
301
=
302
=
303
=
304
=
305
=
306
=
307
=
308
=
309
=
 40
2.414341539351851
 41
2452286.555658658
 42
2456211.458514537
  1

 90
        0
  0
XRECORD
  5
E513
102
{ACAD_REACTORS
330
E512
102
}
330
E512
100
AcDbXrecord
280
     1
290
     1
  0
XRECORD
  5
E515
102
{ACAD_REACTORS
330
E514
102
}
330
E514
100
AcDbXrecord
280
     1
290
     1
  0
XRECORD
  5
E517
102
{ACAD_REACTORS
330
E516
102
}
330
E516
100
AcDbXrecord
280
     1
290
     1
  0
XRECORD
  5
E519
102
{ACAD_REACTORS
330
E518
102
}
330
E518
100
AcDbXrecord
280
     1
290
     1
  0
XRECORD
  5
E51D
102
{ACAD_REACTORS
330
E51C
102
}
330
E51C
100
AcDbXrecord
280
     1
290
     1
  0
XRECORD
  5
E51F
102
{ACAD_REACTORS
330
E51E
102
}
330
E51E
100
AcDbXrecord
280
     1
290
     1
  0
XRECORD
  5
E521
102
{ACAD_REACTORS
330
E520
102
}
330
E520
100
AcDbXrecord
280
     1
290
     1
  0
XRECORD
  5
E525
102
{ACAD_REACTORS
330
E524
102
}
330
E524
100
AcDbXrecord
280
     1
290
     1
  0
XRECORD
  5
E527
102
{ACAD_REACTORS
330
E526
102
}
330
E526
100
AcDbXrecord
280
     1
290
     1
  0
XRECORD
  5
E535
102
{ACAD_REACTORS
330
E534
102
}
330
E534
100
AcDbXrecord
280
     1
290
     1
  0
XRECORD
  5
9011
102
{ACAD_REACTORS
330
178
102
}
330
178
100
AcDbXrecord
280
     1
340
1E
  0
SORTENTSTABLE
  5
13693
102
{ACAD_REACTORS
330
178
102
}
330
178
100
AcDbSortentsTable
330
1E
331
132CA
  5
132CA
331
132CC
  5
132CC
331
132CE
  5
132CE
331
A94C
  5
A94C
331
132D0
  5
132D0
331
132D2
  5
132D2
331
132D4
  5
132D4
331
132D6
  5
132D6
331
1329D
  5
1329D
331
1329F
  5
1329F
331
132A1
  5
132A1
331
132A3
  5
132A3
331
132D8
  5
132D8
331
132A5
  5
132A5
331
132A7
  5
132A7
331
132DA
  5
132DA
331
132DC
  5
132DC
331
132A9
  5
132A9
331
132F0
  5
132F0
331
132DE
  5
132DE
331
132AB
  5
132AB
331
132E0
  5
132E0
331
132AD
  5
132AD
331
132AF
  5
132AF
331
132E2
  5
132E2
331
132E8
  5
132E8
331
132B1
  5
132B1
331
132E4
  5
132E4
331
132E6
  5
132E6
331
132B3
  5
132B3
331
132B5
  5
132B5
331
132EC
  5
132EC
331
132B7
  5
132B7
331
132EE
  5
132EE
331
1348E
  5
1348E
331
13692
  5
13692
331
132B9
  5
132B9
331
132BB
  5
132BB
331
132BD
  5
132BD
331
132BF
  5
132BF
331
132C1
  5
132C1
331
132C3
  5
132C3
331
132C5
  5
132C5
331
132C7
  5
132C7
331
132C9
  5
132C9
331
132CB
  5
132CB
331
132CD
  5
132CD
331
132CF
  5
132CF
331
132D1
  5
132D1
331
132D3
  5
132D3
331
132D5
  5
132D5
331
132D7
  5
132D7
331
1329C
  5
1329C
331
1329E
  5
1329E
331
132A0
  5
132A0
331
132A2
  5
132A2
331
132A4
  5
132A4
331
132A6
  5
132A6
331
132D9
  5
132D9
331
132DB
  5
132DB
331
132A8
  5
132A8
331
132DD
  5
132DD
331
132AA
  5
132AA
331
132F1
  5
132F1
331
132DF
  5
132DF
331
132AC
  5
132AC
331
132F3
  5
132F3
331
132AE
  5
132AE
331
132E1
  5
132E1
331
132E3
  5
132E3
331
132B0
  5
132B0
331
132B2
  5
132B2
331
132E9
  5
132E9
331
132E7
  5
132E7
331
132B4
  5
132B4
331
132EB
  5
132EB
331
132ED
  5
132ED
331
132EF
  5
132EF
331
132B8
  5
132B8
331
132BA
  5
132BA
331
132BC
  5
132BC
331
132BE
  5
132BE
331
132C0
  5
132C0
331
132C2
  5
132C2
331
132C4
  5
132C4
331
132C6
  5
132C6
331
132C8
  5
132C8
  0
XRECORD
  5
9010
102
{ACAD_REACTORS
330
17A
102
}
330
17A
100
AcDbXrecord
280
     1
340
1A
  0
XRECORD
  5
160A8
102
{ACAD_REACTORS
330
160A7
102
}
330
160A7
100
AcDbXrecord
280
     1
102
SHADEPLOT
 70
     0
  0
XRECORD
  5
160AE
102
{ACAD_REACTORS
330
160AD
102
}
330
160AD
100
AcDbXrecord
280
     1
102
SHADEPLOT
 70
     0
  0
LAYOUT
  5
904E
102
{ACAD_XDICTIONARY
360
160A9
102
}
102
{ACAD_REACTORS
330
19
102
}
330
19
100
AcDbPlotSettings
  1

  2
Canon LBP8620 CAD241
  4
A4
  6
OLE1
 40
5.873749732971191
 41
5.873747825622557
 42
5.873748779296875
 43
5.873748779296875
 44
209.9733276367186
 45
296.9259948730469
 46
-17.26788714005724
 47
13.2020423889775
 48
0.0
 49
0.0
140
0.0
141
0.0
142
1.0
143
2.5
 70
 11940
 72
     1
 73
     0
 74
     1
  7
monochrome.ctb
 75
     0
147
0.4
148
-297.9127783926551
149
278.934016023919
100
AcDbLayout
  1
Model
 70
     1
 71
     0
 10
0.0
 20
0.0
 11
12.0
 21
9.0
 12
0.0
 22
0.0
 32
0.0
 14
0.0
 24
0.0
 34
0.0
 15
0.0
 25
0.0
 35
0.0
146
0.0
 13
0.0
 23
0.0
 33
0.0
 16
1.0
 26
0.0
 36
0.0
 17
0.0
 27
1.0
 37
0.0
 76
     0
330
1E
331
12F63
1001
ACAD_PSEXT
1000
Canon LBP8620 CAD241
1000
Canon LBP8630/8620/8610 LIPSLX
1000
IP_192.168.54.241
1000

1070
     0
  0
LAYOUT
  5
904F
102
{ACAD_XDICTIONARY
360
160AB
102
}
102
{ACAD_REACTORS
330
19
102
}
330
19
100
AcDbPlotSettings
  1

  2
LBP5400
  4

  6

 40
0.0
 41
0.0
 42
0.0
 43
0.0
 44
0.0
 45
0.0
 46
0.0
 47
0.0
 48
0.0
 49
0.0
140
0.0
141
0.0
142
1.0
143
1.0
 70
   688
 72
     0
 73
     1
 74
     1
  7
monochrome.stb
 75
     0
147
1.0
148
0.0
149
0.0
100
AcDbLayout
  1
ﾚｲｱｳﾄ1
 70
     1
 71
     1
 10
0.0
 20
0.0
 11
0.0
 21
0.0
 12
0.0
 22
0.0
 32
0.0
 14
0.0
 24
0.0
 34
0.0
 15
0.0
 25
0.0
 35
0.0
146
0.0
 13
0.0
 23
0.0
 33
0.0
 16
1.0
 26
0.0
 36
0.0
 17
0.0
 27
1.0
 37
0.0
 76
     0
330
1A
331
9AC
  0
MATERIAL
  5
E4C4
102
{ACAD_XDICTIONARY
360
E4C5
102
}
102
{ACAD_REACTORS
330
E4BB
102
}
330
E4BB
100
AcDbMaterial
  1
ByBlock
 72
     0
 43
0.0208333333333333
 43
0.0
 43
0.0
 43
0.0
 43
0.0
 43
0.0208333333333333
 43
0.0
 43
0.0
 43
0.0
 43
0.0
 43
1.0
 43
0.0
 43
0.0
 43
0.0
 43
0.0
 43
1.0
 77
     0
 47
0.0208333333333333
 47
0.0
 47
0.0
 47
0.0
 47
0.0
 47
0.0208333333333333
 47
0.0
 47
0.0
 47
0.0
 47
0.0
 47
1.0
 47
0.0
 47
0.0
 47
0.0
 47
0.0
 47
1.0
171
     0
 49
0.0208333333333333
 49
0.0
 49
0.0
 49
0.0
 49
0.0
 49
0.0208333333333333
 49
0.0
 49
0.0
 49
0.0
 49
0.0
 49
1.0
 49
0.0
 49
0.0
 49
0.0
 49
0.0
 49
1.0
175
     0
142
0.0208333333333333
142
0.0
142
0.0
142
0.0
142
0.0
142
0.0208333333333333
142
0.0
142
0.0
142
0.0
142
0.0
142
1.0
142
0.0
142
0.0
142
0.0
142
0.0
142
1.0
179
     0
144
0.0208333333333333
144
0.0
144
0.0
144
0.0
144
0.0
144
0.0208333333333333
144
0.0
144
0.0
144
0.0
144
0.0
144
1.0
144
0.0
144
0.0
144
0.0
144
0.0
144
1.0
147
0.0208333333333333
147
0.0
147
0.0
147
0.0
147
0.0
147
0.0208333333333333
147
0.0
147
0.0
147
0.0
147
0.0
147
1.0
147
0.0
147
0.0
147
0.0
147
0.0
147
1.0
  0
MATERIAL
  5
E4BC
102
{ACAD_XDICTIONARY
360
E4BD
102
}
102
{ACAD_REACTORS
330
E4BB
102
}
330
E4BB
100
AcDbMaterial
  1
ByLayer
 72
     0
 43
0.0208333333333333
 43
0.0
 43
0.0
 43
0.0
 43
0.0
 43
0.0208333333333333
 43
0.0
 43
0.0
 43
0.0
 43
0.0
 43
1.0
 43
0.0
 43
0.0
 43
0.0
 43
0.0
 43
1.0
 77
     0
 47
0.0208333333333333
 47
0.0
 47
0.0
 47
0.0
 47
0.0
 47
0.0208333333333333
 47
0.0
 47
0.0
 47
0.0
 47
0.0
 47
1.0
 47
0.0
 47
0.0
 47
0.0
 47
0.0
 47
1.0
171
     0
 49
0.0208333333333333
 49
0.0
 49
0.0
 49
0.0
 49
0.0
 49
0.0208333333333333
 49
0.0
 49
0.0
 49
0.0
 49
0.0
 49
1.0
 49
0.0
 49
0.0
 49
0.0
 49
0.0
 49
1.0
175
     0
142
0.0208333333333333
142
0.0
142
0.0
142
0.0
142
0.0
142
0.0208333333333333
142
0.0
142
0.0
142
0.0
142
0.0
142
1.0
142
0.0
142
0.0
142
0.0
142
0.0
142
1.0
179
     0
144
0.0208333333333333
144
0.0
144
0.0
144
0.0
144
0.0
144
0.0208333333333333
144
0.0
144
0.0
144
0.0
144
0.0
144
1.0
144
0.0
144
0.0
144
0.0
144
0.0
144
1.0
147
0.0208333333333333
147
0.0
147
0.0
147
0.0
147
0.0
147
0.0208333333333333
147
0.0
147
0.0
147
0.0
147
0.0
147
1.0
147
0.0
147
0.0
147
0.0
147
0.0
147
1.0
  0
MATERIAL
  5
E4CC
102
{ACAD_XDICTIONARY
360
E4CD
102
}
102
{ACAD_REACTORS
330
E4BB
102
}
330
E4BB
100
AcDbMaterial
  1
Global
 72
     0
 43
0.0208333333333333
 43
0.0
 43
0.0
 43
0.0
 43
0.0
 43
0.0208333333333333
 43
0.0
 43
0.0
 43
0.0
 43
0.0
 43
1.0
 43
0.0
 43
0.0
 43
0.0
 43
0.0
 43
1.0
 77
     0
 47
0.0208333333333333
 47
0.0
 47
0.0
 47
0.0
 47
0.0
 47
0.0208333333333333
 47
0.0
 47
0.0
 47
0.0
 47
0.0
 47
1.0
 47
0.0
 47
0.0
 47
0.0
 47
0.0
 47
1.0
171
     0
 49
0.0208333333333333
 49
0.0
 49
0.0
 49
0.0
 49
0.0
 49
0.0208333333333333
 49
0.0
 49
0.0
 49
0.0
 49
0.0
 49
1.0
 49
0.0
 49
0.0
 49
0.0
 49
0.0
 49
1.0
175
     0
142
0.0208333333333333
142
0.0
142
0.0
142
0.0
142
0.0
142
0.0208333333333333
142
0.0
142
0.0
142
0.0
142
0.0
142
1.0
142
0.0
142
0.0
142
0.0
142
0.0
142
1.0
179
     0
144
0.0208333333333333
144
0.0
144
0.0
144
0.0
144
0.0
144
0.0208333333333333
144
0.0
144
0.0
144
0.0
144
0.0
144
1.0
144
0.0
144
0.0
144
0.0
144
0.0
144
1.0
147
0.0208333333333333
147
0.0
147
0.0
147
0.0
147
0.0
147
0.0208333333333333
147
0.0
147
0.0
147
0.0
147
0.0
147
1.0
147
0.0
147
0.0
147
0.0
147
0.0
147
1.0
  0
MLEADERSTYLE
  5
E50E
102
{ACAD_REACTORS
330
E50D
102
}
330
E50D
100
AcDbMLeaderStyle
170
     2
171
     1
172
     0
 90
        2
 40
0.0
 41
0.0
173
     1
 91
-1056964608
340
13
 92
       -2
290
     1
 42
0.09
291
     1
 43
0.36
  3
Standard
 44
0.18
300

342
11
174
     1
178
     6
175
     1
176
     0
 93
-1056964608
 45
0.18
292
     0
297
     0
 46
0.18
 94
-1056964608
 47
1.0
 49
1.0
140
1.0
293
     1
141
0.0
294
     1
177
     0
142
1.0
295
     0
296
     0
143
0.125
1001
ACAD_MLEADERVER
1070
     2
  0
MLINESTYLE
  5
17
102
{ACAD_REACTORS
330
16
102
}
330
16
100
AcDbMlineStyle
  2
STANDARD
 70
     0
  3

 62
   256
 51
90.0
 52
90.0
 71
     2
 49
0.5
 62
   256
  6
BYLAYER
 49
-0.5
 62
   256
  6
BYLAYER
  0
ACDBPLACEHOLDER
  5
F
102
{ACAD_REACTORS
330
E
102
}
330
E
  0
SCALE
  5
E4EC
102
{ACAD_REACTORS
330
E4EB
102
}
330
E4EB
100
AcDbScale
 70
     0
300
1:1
140
1.0
141
1.0
290
     1
  0
SCALE
  5
E4ED
102
{ACAD_REACTORS
330
E4EB
102
}
330
E4EB
100
AcDbScale
 70
     0
300
1:2
140
1.0
141
2.0
290
     0
  0
SCALE
  5
E4EE
102
{ACAD_REACTORS
330
E4EB
102
}
330
E4EB
100
AcDbScale
 70
     0
300
1:4
140
1.0
141
4.0
290
     0
  0
SCALE
  5
E4EF
102
{ACAD_REACTORS
330
E4EB
102
}
330
E4EB
100
AcDbScale
 70
     0
300
1:5
140
1.0
141
5.0
290
     0
  0
SCALE
  5
E4F0
102
{ACAD_REACTORS
330
E4EB
102
}
330
E4EB
100
AcDbScale
 70
     0
300
1:8
140
1.0
141
8.0
290
     0
  0
SCALE
  5
E4F1
102
{ACAD_REACTORS
330
E4EB
102
}
330
E4EB
100
AcDbScale
 70
     0
300
1:10
140
1.0
141
10.0
290
     0
  0
SCALE
  5
E4F2
102
{ACAD_REACTORS
330
E4EB
102
}
330
E4EB
100
AcDbScale
 70
     0
300
1:16
140
1.0
141
16.0
290
     0
  0
SCALE
  5
E4F3
102
{ACAD_REACTORS
330
E4EB
102
}
330
E4EB
100
AcDbScale
 70
     0
300
1:20
140
1.0
141
20.0
290
     0
  0
SCALE
  5
E4F4
102
{ACAD_REACTORS
330
E4EB
102
}
330
E4EB
100
AcDbScale
 70
     0
300
1:30
140
1.0
141
30.0
290
     0
  0
SCALE
  5
E4F5
102
{ACAD_REACTORS
330
E4EB
102
}
330
E4EB
100
AcDbScale
 70
     0
300
1:40
140
1.0
141
40.0
290
     0
  0
SCALE
  5
E4F6
102
{ACAD_REACTORS
330
E4EB
102
}
330
E4EB
100
AcDbScale
 70
     0
300
1:50
140
1.0
141
50.0
290
     0
  0
SCALE
  5
E4F7
102
{ACAD_REACTORS
330
E4EB
102
}
330
E4EB
100
AcDbScale
 70
     0
300
1:100
140
1.0
141
100.0
290
     0
  0
SCALE
  5
E4F8
102
{ACAD_REACTORS
330
E4EB
102
}
330
E4EB
100
AcDbScale
 70
     0
300
2:1
140
2.0
141
1.0
290
     0
  0
SCALE
  5
E4F9
102
{ACAD_REACTORS
330
E4EB
102
}
330
E4EB
100
AcDbScale
 70
     0
300
4:1
140
4.0
141
1.0
290
     0
  0
SCALE
  5
E4FA
102
{ACAD_REACTORS
330
E4EB
102
}
330
E4EB
100
AcDbScale
 70
     0
300
8:1
140
8.0
141
1.0
290
     0
  0
SCALE
  5
E4FB
102
{ACAD_REACTORS
330
E4EB
102
}
330
E4EB
100
AcDbScale
 70
     0
300
10:1
140
10.0
141
1.0
290
     0
  0
SCALE
  5
E4FC
102
{ACAD_REACTORS
330
E4EB
102
}
330
E4EB
100
AcDbScale
 70
     0
300
100:1
140
100.0
141
1.0
290
     0
  0
SCALE
  5
E4FD
102
{ACAD_REACTORS
330
E4EB
102
}
330
E4EB
100
AcDbScale
 70
     0
300
1/128" = 1'-0"
140
0.0078125
141
12.0
290
     0
  0
SCALE
  5
E4FE
102
{ACAD_REACTORS
330
E4EB
102
}
330
E4EB
100
AcDbScale
 70
     0
300
1/64" = 1'-0"
140
0.015625
141
12.0
290
     0
  0
SCALE
  5
E4FF
102
{ACAD_REACTORS
330
E4EB
102
}
330
E4EB
100
AcDbScale
 70
     0
300
1/32" = 1'-0"
140
0.03125
141
12.0
290
     0
  0
SCALE
  5
E500
102
{ACAD_REACTORS
330
E4EB
102
}
330
E4EB
100
AcDbScale
 70
     0
300
1/16" = 1'-0"
140
0.0625
141
12.0
290
     0
  0
SCALE
  5
E501
102
{ACAD_REACTORS
330
E4EB
102
}
330
E4EB
100
AcDbScale
 70
     0
300
3/32" = 1'-0"
140
0.09375
141
12.0
290
     0
  0
SCALE
  5
E502
102
{ACAD_REACTORS
330
E4EB
102
}
330
E4EB
100
AcDbScale
 70
     0
300
1/8" = 1'-0"
140
0.125
141
12.0
290
     0
  0
SCALE
  5
E503
102
{ACAD_REACTORS
330
E4EB
102
}
330
E4EB
100
AcDbScale
 70
     0
300
3/16" = 1'-0"
140
0.1875
141
12.0
290
     0
  0
SCALE
  5
E504
102
{ACAD_REACTORS
330
E4EB
102
}
330
E4EB
100
AcDbScale
 70
     0
300
1/4" = 1'-0"
140
0.25
141
12.0
290
     0
  0
SCALE
  5
E505
102
{ACAD_REACTORS
330
E4EB
102
}
330
E4EB
100
AcDbScale
 70
     0
300
3/8" = 1'-0"
140
0.375
141
12.0
290
     0
  0
SCALE
  5
E506
102
{ACAD_REACTORS
330
E4EB
102
}
330
E4EB
100
AcDbScale
 70
     0
300
1/2" = 1'-0"
140
0.5
141
12.0
290
     0
  0
SCALE
  5
E507
102
{ACAD_REACTORS
330
E4EB
102
}
330
E4EB
100
AcDbScale
 70
     0
300
3/4" = 1'-0"
140
0.75
141
12.0
290
     0
  0
SCALE
  5
E508
102
{ACAD_REACTORS
330
E4EB
102
}
330
E4EB
100
AcDbScale
 70
     0
300
1" = 1'-0"
140
1.0
141
12.0
290
     0
  0
SCALE
  5
E509
102
{ACAD_REACTORS
330
E4EB
102
}
330
E4EB
100
AcDbScale
 70
     0
300
1-1/2" = 1'-0"
140
1.5
141
12.0
290
     0
  0
SCALE
  5
E50A
102
{ACAD_REACTORS
330
E4EB
102
}
330
E4EB
100
AcDbScale
 70
     0
300
3" = 1'-0"
140
3.0
141
12.0
290
     0
  0
SCALE
  5
E50B
102
{ACAD_REACTORS
330
E4EB
102
}
330
E4EB
100
AcDbScale
 70
     0
300
6" = 1'-0"
140
6.0
141
12.0
290
     0
  0
SCALE
  5
E50C
102
{ACAD_REACTORS
330
E4EB
102
}
330
E4EB
100
AcDbScale
 70
     0
300
1'-0" = 1'-0"
140
12.0
141
12.0
290
     0
  0
TABLESTYLE
  5
E4EA
102
{ACAD_XDICTIONARY
360
F86C
102
}
102
{ACAD_REACTORS
330
E4E9
102
}
330
E4E9
100
AcDbTableStyle
  3
Standard
 70
     0
 71
     0
 40
0.06
 41
0.06
280
     0
281
     0
  7
STANDARD
140
0.18
170
     2
 62
     0
 63
     7
283
     0
274
    -2
284
     1
 64
     0
275
    -2
285
     1
 65
     0
276
    -2
286
     1
 66
     0
277
    -2
287
     1
 67
     0
278
    -2
288
     1
 68
     0
279
    -2
289
     1
 69
     0
  7
STANDARD
140
0.25
170
     5
 62
     0
 63
     7
283
     0
274
    -2
284
     1
 64
     0
275
    -2
285
     1
 65
     0
276
    -2
286
     1
 66
     0
277
    -2
287
     1
 67
     0
278
    -2
288
     1
 68
     0
279
    -2
289
     1
 69
     0
  7
STANDARD
140
0.18
170
     5
 62
     0
 63
     7
283
     0
274
    -2
284
     1
 64
     0
275
    -2
285
     1
 65
     0
276
    -2
286
     1
 66
     0
277
    -2
287
     1
 67
     0
278
    -2
288
     1
 68
     0
279
    -2
289
     1
 69
     0
  0
VISUALSTYLE
  5
E4DA
102
{ACAD_XDICTIONARY
360
160B9
102
}
102
{ACAD_REACTORS
330
E4D4
102
}
330
E4D4
100
AcDbVisualStyle
  2

 70
     4
 71
     0
 72
     2
 73
     0
 90
        0
 40
-0.6
 41
-30.0
 62
     5
 63
     7
 74
     1
 91
        4
 64
     7
 65
   257
 75
     1
175
     1
 42
1.0
 92
        0
 66
   257
 43
1.0
 76
     1
 77
     6
 78
     2
 67
     7
 79
     5
170
     0
171
     0
290
     0
174
     0
 93
        1
 44
0.0
173
     0
291
     0
 45
0.0
1001
ACAD
1000
AcDbSavedByObjectVersion
1070
     0
  0
VISUALSTYLE
  5
E4DC
102
{ACAD_XDICTIONARY
360
160BD
102
}
102
{ACAD_REACTORS
330
E4D4
102
}
330
E4D4
100
AcDbVisualStyle
  2

 70
     6
 71
     1
 72
     2
 73
     2
 90
        0
 40
-0.6
 41
-30.0
 62
     5
 63
     7
 74
     2
 91
        2
 64
     7
 65
   257
 75
     2
175
     1
 42
179.0
 92
        0
 66
   257
 43
1.0
 76
     1
 77
     6
 78
     2
 67
     7
 79
     3
170
     0
171
     0
290
     0
174
     0
 93
        1
 44
0.0
173
     0
291
     0
 45
0.0
1001
ACAD
1000
AcDbSavedByObjectVersion
1070
     0
  0
VISUALSTYLE
  5
E4DB
102
{ACAD_XDICTIONARY
360
160BB
102
}
102
{ACAD_REACTORS
330
E4D4
102
}
330
E4D4
100
AcDbVisualStyle
  2

 70
     5
 71
     0
 72
     2
 73
     0
 90
        0
 40
-0.6
 41
-30.0
 62
     5
 63
     7
 74
     1
 91
        4
 64
     7
 65
   257
 75
     1
175
     1
 42
1.0
 92
        0
 66
   257
 43
1.0
 76
     1
 77
     6
 78
     2
 67
     7
 79
     5
170
     0
171
     0
290
     0
174
     0
 93
        1
 44
0.0
173
     0
291
     0
 45
0.0
1001
ACAD
1000
AcDbSavedByObjectVersion
1070
     0
  0
VISUALSTYLE
  5
E4D9
102
{ACAD_XDICTIONARY
360
160B7
102
}
102
{ACAD_REACTORS
330
E4D4
102
}
330
E4D4
100
AcDbVisualStyle
  2

 70
     7
 71
     1
 72
     0
 73
     1
 90
        0
 40
-0.6
 41
-30.0
 62
     5
 63
     7
 74
     0
 91
        4
 64
     7
 65
   257
 75
     1
175
     1
 42
1.0
 92
        8
 66
     7
 43
1.0
 76
     1
 77
     6
 78
     2
 67
     7
 79
     5
170
     0
171
     0
290
     0
174
     0
 93
        1
 44
0.0
173
     0
291
     1
 45
0.0
1001
ACAD
1000
AcDbSavedByObjectVersion
1070
     0
  0
VISUALSTYLE
  5
E4E0
102
{ACAD_XDICTIONARY
360
160C5
102
}
102
{ACAD_REACTORS
330
E4D4
102
}
330
E4D4
100
AcDbVisualStyle
  2

 70
    12
 71
     2
 72
     2
 73
     0
 90
        0
 40
-0.6
 41
-30.0
 62
     5
 63
     7
 74
     1
 91
        4
 64
     7
 65
   257
 75
     1
175
     1
 42
1.0
 92
        8
 66
     7
 43
1.0
 76
     1
 77
     6
 78
     2
 67
     7
 79
     5
170
     0
171
     0
290
     0
174
     0
 93
        1
 44
50.0
173
     0
291
     1
 45
0.0
1001
ACAD
1000
AcDbSavedByObjectVersion
1070
     0
  0
VISUALSTYLE
  5
E4E4
102
{ACAD_XDICTIONARY
360
160CD
102
}
102
{ACAD_REACTORS
330
E4D4
102
}
330
E4D4
100
AcDbVisualStyle
  2

 70
    16
 71
     2
 72
     2
 73
     3
 90
        0
 40
-0.6
 41
-30.0
 62
     5
 63
     8
 74
     1
 91
        4
 64
     7
 65
   257
 75
     1
175
     1
 42
1.0
 92
        8
 66
     8
 43
1.0
 76
     1
 77
     6
 78
     2
 67
     7
 79
     5
170
     0
171
     0
290
     0
174
     0
 93
        1
 44
0.0
173
     0
291
     1
 45
0.0
1001
ACAD
1000
AcDbSavedByObjectVersion
1070
     0
  0
VISUALSTYLE
  5
E4DD
102
{ACAD_XDICTIONARY
360
160BF
102
}
102
{ACAD_REACTORS
330
E4D4
102
}
330
E4D4
100
AcDbVisualStyle
  2

 70
     9
 71
     3
 72
     2
 73
     0
 90
        0
 40
-0.6
 41
-30.0
 62
     5
 63
     7
 74
     2
 91
        2
 64
     7
 65
   257
 75
     1
175
     1
 42
179.0
 92
        8
 66
     7
 43
1.0
 76
     1
 77
     6
 78
     2
 67
     7
 79
     3
170
     0
171
     0
290
     0
174
     0
 93
        1
 44
0.0
173
     0
291
     0
 45
0.0
1001
ACAD
1000
AcDbSavedByObjectVersion
1070
     0
  0
VISUALSTYLE
  5
E4DF
102
{ACAD_XDICTIONARY
360
160C3
102
}
102
{ACAD_REACTORS
330
E4D4
102
}
330
E4D4
100
AcDbVisualStyle
  2

 70
    11
 71
     2
 72
     2
 73
     0
 90
        0
 40
-0.6
 41
-30.0
 62
     5
 63
     7
 74
     1
 91
        4
 64
     7
 65
   257
 75
     1
175
     1
 42
1.0
 92
        8
 66
     7
 43
1.0
 76
     1
 77
     6
 78
     2
 67
     7
 79
     5
170
     0
171
     0
290
     0
174
     0
 93
        1
 44
-50.0
173
     0
291
     1
 45
0.0
1001
ACAD
1000
AcDbSavedByObjectVersion
1070
     0
  0
VISUALSTYLE
  5
E4E7
102
{ACAD_XDICTIONARY
360
160D3
102
}
102
{ACAD_REACTORS
330
E4D4
102
}
330
E4D4
100
AcDbVisualStyle
  2

 70
    22
 71
     2
 72
     2
 73
     0
 90
        0
 40
-0.6
 41
-30.0
 62
     5
 63
     7
 74
     1
 91
        4
 64
     7
 65
   257
 75
     1
175
     1
 42
1.0
 92
        8
 66
     7
 43
1.0
 76
     1
 77
     6
 78
     2
 67
     7
 79
     5
170
     0
171
     0
290
     0
174
     0
 93
        1
 44
0.0
173
     0
291
     1
 45
0.0
1001
ACAD
1000
AcDbSavedByObjectVersion
1070
     0
  0
VISUALSTYLE
  5
E4E3
102
{ACAD_XDICTIONARY
360
160CB
102
}
102
{ACAD_REACTORS
330
E4D4
102
}
330
E4D4
100
AcDbVisualStyle
  2

 70
    15
 71
     2
 72
     2
 73
     0
 90
        0
 40
-0.6
 41
-30.0
 62
     5
 63
     7
 74
     1
 91
        4
 64
     7
 65
   257
 75
     1
175
     1
 42
1.0
 92
        8
 66
     7
 43
1.0
 76
     1
 77
     6
 78
     2
 67
     7
 79
     5
170
     0
171
     0
290
     0
174
     0
 93
        1
 44
0.0
173
     0
291
     1
 45
0.0
1001
ACAD
1000
AcDbSavedByObjectVersion
1070
     0
  0
VISUALSTYLE
  5
E4D5
102
{ACAD_XDICTIONARY
360
160AF
102
}
102
{ACAD_REACTORS
330
E4D4
102
}
330
E4D4
100
AcDbVisualStyle
  2

 70
     0
 71
     2
 72
     1
 73
     1
 90
        2
 40
-0.6
 41
30.0
 62
     5
 63
     7
 74
     0
 91
        4
 64
     7
 65
   257
 75
     1
175
     1
 42
1.0
 92
        8
 66
     7
 43
1.0
 76
     1
 77
     6
 78
     2
 67
     7
 79
     5
170
     0
171
     0
290
     0
174
     0
 93
       13
 44
0.0
173
     0
291
     1
 45
0.0
1001
ACAD
1000
AcDbSavedByObjectVersion
1070
     0
  0
VISUALSTYLE
  5
E4D6
102
{ACAD_XDICTIONARY
360
160B1
102
}
102
{ACAD_REACTORS
330
E4D4
102
}
330
E4D4
100
AcDbVisualStyle
  2

 70
     1
 71
     2
 72
     1
 73
     1
 90
        2
 40
-0.6
 41
30.0
 62
     5
 63
     7
 74
     1
 91
        4
 64
     7
 65
   257
 75
     1
175
     1
 42
1.0
 92
        0
 66
   257
 43
1.0
 76
     1
 77
     6
 78
     2
 67
     7
 79
     5
170
     0
171
     0
290
     0
174
     0
 93
       13
 44
0.0
173
     0
291
     1
 45
0.0
1001
ACAD
1000
AcDbSavedByObjectVersion
1070
     0
  0
VISUALSTYLE
  5
E4D7
102
{ACAD_XDICTIONARY
360
160B3
102
}
102
{ACAD_REACTORS
330
E4D4
102
}
330
E4D4
100
AcDbVisualStyle
  2

 70
     2
 71
     2
 72
     2
 73
     1
 90
        2
 40
-0.6
 41
30.0
 62
     5
 63
     7
 74
     0
 91
        4
 64
     7
 65
   257
 75
     1
175
     1
 42
1.0
 92
        0
 66
     7
 43
1.0
 76
     1
 77
     6
 78
     2
 67
     7
 79
     5
170
     0
171
     0
290
     0
174
     0
 93
       13
 44
0.0
173
     0
291
     1
 45
0.0
1001
ACAD
1000
AcDbSavedByObjectVersion
1070
     0
  0
VISUALSTYLE
  5
E4D8
102
{ACAD_XDICTIONARY
360
160B5
102
}
102
{ACAD_REACTORS
330
E4D4
102
}
330
E4D4
100
AcDbVisualStyle
  2

 70
     3
 71
     2
 72
     2
 73
     1
 90
        2
 40
-0.6
 41
30.0
 62
     5
 63
     7
 74
     1
 91
        4
 64
     7
 65
   257
 75
     1
175
     1
 42
1.0
 92
        0
 66
   257
 43
1.0
 76
     1
 77
     6
 78
     2
 67
     7
 79
     5
170
     0
171
     0
290
     0
174
     0
 93
       13
 44
0.0
173
     0
291
     1
 45
0.0
1001
ACAD
1000
AcDbSavedByObjectVersion
1070
     0
  0
VISUALSTYLE
  5
E4E5
102
{ACAD_XDICTIONARY
360
160CF
102
}
102
{ACAD_REACTORS
330
E4D4
102
}
330
E4D4
100
AcDbVisualStyle
  2

 70
    20
 71
     2
 72
     2
 73
     0
 90
        0
 40
-0.6
 41
-30.0
 62
     5
 63
     7
 74
     1
 91
        4
 64
     7
 65
   257
 75
     1
175
     1
 42
1.0
 92
       10
 66
     7
 43
1.0
 76
     1
 77
     6
 78
     2
 67
     7
 79
     5
170
     0
171
     0
290
     0
174
     0
 93
        1
 44
0.0
173
     0
291
     1
 45
0.0
1001
ACAD
1000
AcDbSavedByObjectVersion
1070
     0
  0
VISUALSTYLE
  5
E4E2
102
{ACAD_XDICTIONARY
360
160C9
102
}
102
{ACAD_REACTORS
330
E4D4
102
}
330
E4D4
100
AcDbVisualStyle
  2

 70
    14
 71
     2
 72
     2
 73
     0
 90
        0
 40
-0.6
 41
-30.0
 62
     5
 63
     7
 74
     1
 91
        4
 64
     7
 65
   257
 75
     7
175
     7
 42
1.0
 92
        8
 66
     7
 43
1.0
 76
     1
 77
     6
 78
     2
 67
     7
 79
     5
170
     0
171
     0
290
     0
174
     0
 93
        1
 44
0.0
173
     0
291
     1
 45
0.0
1001
ACAD
1000
AcDbSavedByObjectVersion
1070
     0
  0
VISUALSTYLE
  5
E4E6
102
{ACAD_XDICTIONARY
360
160D1
102
}
102
{ACAD_REACTORS
330
E4D4
102
}
330
E4D4
100
AcDbVisualStyle
  2

 70
    21
 71
     2
 72
     2
 73
     0
 90
        0
 40
-0.6
 41
-30.0
 62
     5
 63
     7
 74
     1
 91
        4
 64
     7
 65
   257
 75
     1
175
     1
 42
1.0
 92
        9
 66
     7
 43
1.0
 76
     1
 77
     6
 78
     2
 67
     7
 79
     5
170
     0
171
     0
290
     0
174
     0
 93
        1
 44
0.0
173
     0
291
     1
 45
0.0
1001
ACAD
1000
AcDbSavedByObjectVersion
1070
     0
  0
VISUALSTYLE
  5
E4DE
102
{ACAD_XDICTIONARY
360
160C1
102
}
102
{ACAD_REACTORS
330
E4D4
102
}
330
E4D4
100
AcDbVisualStyle
  2

 70
     8
 71
     2
 72
     2
 73
     0
 90
        0
 40
-0.6
 41
-30.0
 62
     5
 63
     7
 74
     1
 91
        0
 64
     7
 65
   257
 75
     1
175
     1
 42
1.0
 92
        8
 66
     8
 43
1.0
 76
     1
 77
     6
 78
     2
 67
     7
 79
     5
170
     0
171
     0
290
     0
174
     0
 93
       13
 44
0.0
173
     0
291
     0
 45
0.0
1001
ACAD
1000
AcDbSavedByObjectVersion
1070
     0
  0
VISUALSTYLE
  5
E4E1
102
{ACAD_XDICTIONARY
360
160C7
102
}
102
{ACAD_REACTORS
330
E4D4
102
}
330
E4D4
100
AcDbVisualStyle
  2

 70
    13
 71
     2
 72
     2
 73
     0
 90
        0
 40
-0.6
 41
-30.0
 62
     5
 63
     7
 74
     1
 91
        4
 64
     7
 65
   257
 75
     1
175
     1
 42
1.0
 92
       12
 66
     7
 43
1.0
 76
     1
 77
     6
 78
     2
 67
     7
 79
     5
170
     0
171
     0
290
     0
174
     0
 93
        1
 44
0.0
173
     0
291
     1
 45
0.0
1001
ACAD
1000
AcDbSavedByObjectVersion
1070
     0
  0
DICTIONARYVAR
  5
F8C1
102
{ACAD_REACTORS
330
5697
102
}
330
5697
100
DictionaryVariables
280
     0
  1
1:1
  0
DICTIONARYVAR
  5
F8C0
102
{ACAD_REACTORS
330
5697
102
}
330
5697
100
DictionaryVariables
280
     0
  1
STANDARD
  0
DICTIONARYVAR
  5
F8BF
102
{ACAD_REACTORS
330
5697
102
}
330
5697
100
DictionaryVariables
280
     0
  1
STANDARD
  0
DICTIONARYVAR
  5
5698
102
{ACAD_REACTORS
330
5697
102
}
330
5697
100
DictionaryVariables
280
     0
  1
1
  0
DICTIONARYVAR
  5
F8C3
102
{ACAD_REACTORS
330
5697
102
}
330
5697
100
DictionaryVariables
280
     0
  1
0
  0
DICTIONARYVAR
  5
F8C2
102
{ACAD_REACTORS
330
5697
102
}
330
5697
100
DictionaryVariables
280
     0
  1
127
  0
DICTIONARYVAR
  5
160A3
102
{ACAD_REACTORS
330
5697
102
}
330
5697
100
DictionaryVariables
280
     0
  1
2
  0
XRECORD
  5
15FB7
102
{ACAD_REACTORS
330
15FB6
102
}
330
15FB6
100
AcDbXrecord
280
     1
330
E1CD
330
E1CE
330
12313
330
12314
330
1231C
330
1231D
330
12325
330
12326
330
1232E
330
1232F
330
12688
330
12689
330
11806
330
11807
330
1180F
330
11810
330
11821
330
11822
330
1182A
330
1182B
330
11850
330
11851
330
11862
330
11863
330
11880
330
11881
330
11892
330
11893
330
12337
330
12338
330
12340
330
12341
330
12349
330
1234A
330
12352
330
12353
330
1235B
330
1235C
330
12EBD
330
12EBE
330
12EC6
330
12EC7
330
12ECF
330
12ED0
330
12376
330
12377
330
1237F
330
12380
330
1267F
330
12680
330
12676
330
12677
330
12664
330
12665
330
1266D
330
1266E
330
12659
330
1265A
330
1264F
330
12650
330
12707
330
12708
330
12713
330
12714
330
1271F
330
12720
330
1272B
330
1272C
330
12737
330
12738
330
12743
330
12744
330
1274F
330
12750
330
1275D
330
1275E
330
12769
330
1276A
330
12775
330
12776
330
12781
330
12782
330
1278D
330
1278E
330
1279C
330
1279D
330
127A7
330
127A8
330
127B3
330
127B4
330
127BF
330
127C0
330
127CB
330
127CC
330
127D7
330
127D8
330
127E3
330
127E4
330
127EF
330
127F0
330
127FB
330
127FC
330
12808
330
12807
330
12813
330
12814
330
1281F
330
12820
330
1282A
330
12834
330
12835
330
12840
330
12841
330
12B2E
330
12B2F
330
12B37
330
12B38
330
12B40
330
12B41
330
12B49
330
12B4A
330
12B52
330
12B53
330
12B5B
330
12B5C
330
12B64
330
12B65
330
12B6F
330
12B70
330
12B78
330
12B79
330
12B81
330
12B82
330
12B8A
330
12B8B
330
12B93
330
12B94
330
12B9F
330
12BA0
330
12BA7
330
12BA8
330
12BB0
330
12BB1
330
12BB9
330
12BBA
330
12BC2
330
12BC3
330
12BCB
330
12BCC
330
12BD4
330
12BD5
330
12BDD
330
12BDE
330
12BE6
330
12BE7
330
12BEF
330
12BF0
330
12ED8
330
12ED9
330
12C01
330
12C02
330
12EE0
330
12EE7
330
12EE8
330
12EF0
330
12EF1
330
12C35
330
12C36
330
12C41
330
12C42
330
12C84
330
12C85
330
12C8D
330
12C8E
330
12C98
330
12C99
330
12CA4
330
12CA5
330
12CCA
330
12CCB
330
12CD6
330
12CD7
330
12CE2
330
12CE3
330
12CEE
330
12CEF
330
12CFA
330
12CFB
330
12D09
330
12D0A
330
12D14
330
12D15
330
12D20
330
12D21
330
12D2C
330
12D2D
330
12D38
330
12D39
330
12D44
330
12D45
330
12E47
330
12E48
330
12E50
330
12E51
330
12E59
330
12E5A
330
12E62
330
12E63
330
12E6B
330
12E6C
330
12E77
330
12E78
330
12E7F
330
12E80
330
12E88
330
12E89
330
12E91
330
12E92
330
12E9A
330
12E9B
330
12EA3
330
12EA4
330
12F13
330
12F14
330
12F1C
330
12F1D
330
13198
330
13199
330
131F4
330
131F5
330
131AD
330
131AE
330
131B7
330
131B8
330
131E9
330
131EA
330
131CA
330
131CB
330
131D2
330
131D8
330
131E0
330
1320E
330
13227
330
15D47
330
15D48
330
15D52
330
15D53
330
15EAC
330
15EAD
330
15D5C
330
15D5D
330
15D66
330
15D67
330
15EB5
330
15EB6
330
15EBC
330
1357D
330
15D6E
330
15D6F
330
13E8A
330
13E8B
330
14448
330
14449
330
14451
330
14452
330
13E40
330
13E41
330
1445A
330
1445B
330
13EB0
330
13EB1
330
13E49
330
13E4A
330
13E6D
330
13E6E
330
13EF5
330
13EF6
330
15FB0
330
15FB1
330
1446C
330
1446D
330
15F27
330
15F28
330
13EEA
330
13EEB
330
13E76
330
13E77
330
13EA7
330
13EA8
330
15F0F
330
15F10
330
13E93
330
13E94
330
13EDF
330
13EE0
330
13E9E
330
13E9F
330
13F08
330
13F09
330
15B19
330
15B1A
330
14491
330
14492
330
1449A
330
1449B
330
144A3
330
144A4
330
144AC
330
144AD
330
144B5
330
144B6
330
15B10
330
15B11
330
15B05
330
15B06
330
15B3F
330
15B40
330
15B2B
330
15B2C
330
144E4
330
144E5
330
15B36
330
15B37
330
144F8
330
144F9
330
142BD
330
142BE
330
15F31
330
15F32
330
15F3A
330
15F3B
330
15A72
330
15A73
330
16014
330
16015
330
15F43
330
15F44
330
15F4C
330
15F4D
330
1468F
330
15F54
330
147BF
330
147C0
330
15D75
330
15D76
330
154C0
330
154C1
330
154CC
330
154CD
330
154D8
330
154D9
330
154E4
330
154E5
330
154F0
330
154F1
330
154FC
330
154FD
330
15508
330
15509
330
15516
330
15517
330
15522
330
15523
330
1552E
330
1552F
330
1553A
330
1553B
330
15546
330
15547
330
15555
330
15556
330
15560
330
15561
330
1556C
330
1556D
330
15578
330
15579
330
15584
330
15585
330
15590
330
15591
330
1559C
330
1559D
330
155A8
330
155A9
330
155B4
330
155B5
330
155C0
330
155C1
330
155CC
330
155CD
330
155D8
330
155D9
330
155E3
330
155ED
330
155EE
330
155F9
330
155FA
330
1590B
330
1590C
330
15914
330
15915
330
1591D
330
1591E
330
15926
330
15927
330
1592F
330
15930
330
15938
330
15939
330
15941
330
15942
330
1594C
330
1594D
330
15955
330
15956
330
1595E
330
1595F
330
15967
330
15968
330
15970
330
15971
330
1597C
330
1597D
330
15984
330
15985
330
1598D
330
1598E
330
15996
330
15997
330
1599F
330
159A0
330
159A8
330
159A9
330
159B1
330
159B2
330
159BA
330
159BB
330
159C3
330
159C4
330
159CC
330
159CD
330
159D5
330
159D6
330
159DE
330
159DF
330
159E6
330
159ED
330
159EE
330
159F6
330
159F7
  0
DICTIONARY
  5
160A9
330
904E
100
AcDbDictionary
280
     1
281
     1
  3
ACAD_XREC_ROUNDTRIP
360
160AA
  0
DICTIONARY
  5
160AB
330
904F
100
AcDbDictionary
280
     1
281
     1
  3
ACAD_XREC_ROUNDTRIP
360
160AC
  0
DICTIONARY
  5
E4C5
330
E4C4
100
AcDbDictionary
280
     1
281
     1
  3
ACAD_XREC_ROUNDTRIP
360
12564
  3
BUMPTILE
360
E4C7
  3
DIFFUSETILE
360
E4C6
  3
OPACITYTILE
360
E4CA
  3
REFLECTIONTILE
360
E4C9
  3
REFRACTIONTILE
360
E4CB
  3
SPECULARTILE
360
E4C8
  0
DICTIONARY
  5
E4BD
330
E4BC
100
AcDbDictionary
280
     1
281
     1
  3
ACAD_XREC_ROUNDTRIP
360
12563
  3
BUMPTILE
360
E4BF
  3
DIFFUSETILE
360
E4BE
  3
OPACITYTILE
360
E4C2
  3
REFLECTIONTILE
360
E4C1
  3
REFRACTIONTILE
360
E4C3
  3
SPECULARTILE
360
E4C0
  0
DICTIONARY
  5
E4CD
330
E4CC
100
AcDbDictionary
280
     1
281
     1
  3
ACAD_XREC_ROUNDTRIP
360
12565
  3
BUMPTILE
360
E4CF
  3
DIFFUSETILE
360
E4CE
  3
OPACITYTILE
360
E4D2
  3
REFLECTIONTILE
360
E4D1
  3
REFRACTIONTILE
360
E4D3
  3
SPECULARTILE
360
E4D0
  0
DICTIONARY
  5
F86C
330
E4EA
100
AcDbDictionary
280
     1
281
     1
  3
ACAD_ROUNDTRIP_2008_TABLESTYLE_CELLSTYLEMAP
360
160A4
  3
ACAD_XREC_ROUNDTRIP
360
160D5
  0
DICTIONARY
  5
160B9
330
E4DA
100
AcDbDictionary
280
     1
281
     1
  3
ACAD_XREC_ROUNDTRIP
360
160BA
  0
DICTIONARY
  5
160BD
330
E4DC
100
AcDbDictionary
280
     1
281
     1
  3
ACAD_XREC_ROUNDTRIP
360
160BE
  0
DICTIONARY
  5
160BB
330
E4DB
100
AcDbDictionary
280
     1
281
     1
  3
ACAD_XREC_ROUNDTRIP
360
160BC
  0
DICTIONARY
  5
160B7
330
E4D9
100
AcDbDictionary
280
     1
281
     1
  3
ACAD_XREC_ROUNDTRIP
360
160B8
  0
DICTIONARY
  5
160C5
330
E4E0
100
AcDbDictionary
280
     1
281
     1
  3
ACAD_XREC_ROUNDTRIP
360
160C6
  0
DICTIONARY
  5
160CD
330
E4E4
100
AcDbDictionary
280
     1
281
     1
  3
ACAD_XREC_ROUNDTRIP
360
160CE
  0
DICTIONARY
  5
160BF
330
E4DD
100
AcDbDictionary
280
     1
281
     1
  3
ACAD_XREC_ROUNDTRIP
360
160C0
  0
DICTIONARY
  5
160C3
330
E4DF
100
AcDbDictionary
280
     1
281
     1
  3
ACAD_XREC_ROUNDTRIP
360
160C4
  0
DICTIONARY
  5
160D3
330
E4E7
100
AcDbDictionary
280
     1
281
     1
  3
ACAD_XREC_ROUNDTRIP
360
160D4
  0
DICTIONARY
  5
160CB
330
E4E3
100
AcDbDictionary
280
     1
281
     1
  3
ACAD_XREC_ROUNDTRIP
360
160CC
  0
DICTIONARY
  5
160AF
330
E4D5
100
AcDbDictionary
280
     1
281
     1
  3
ACAD_XREC_ROUNDTRIP
360
160B0
  0
DICTIONARY
  5
160B1
330
E4D6
100
AcDbDictionary
280
     1
281
     1
  3
ACAD_XREC_ROUNDTRIP
360
160B2
  0
DICTIONARY
  5
160B3
330
E4D7
100
AcDbDictionary
280
     1
281
     1
  3
ACAD_XREC_ROUNDTRIP
360
160B4
  0
DICTIONARY
  5
160B5
330
E4D8
100
AcDbDictionary
280
     1
281
     1
  3
ACAD_XREC_ROUNDTRIP
360
160B6
  0
DICTIONARY
  5
160CF
330
E4E5
100
AcDbDictionary
280
     1
281
     1
  3
ACAD_XREC_ROUNDTRIP
360
160D0
  0
DICTIONARY
  5
160C9
330
E4E2
100
AcDbDictionary
280
     1
281
     1
  3
ACAD_XREC_ROUNDTRIP
360
160CA
  0
DICTIONARY
  5
160D1
330
E4E6
100
AcDbDictionary
280
     1
281
     1
  3
ACAD_XREC_ROUNDTRIP
360
160D2
  0
DICTIONARY
  5
160C1
330
E4DE
100
AcDbDictionary
280
     1
281
     1
  3
ACAD_XREC_ROUNDTRIP
360
160C2
  0
DICTIONARY
  5
160C7
330
E4E1
100
AcDbDictionary
280
     1
281
     1
  3
ACAD_XREC_ROUNDTRIP
360
160C8
  0
XRECORD
  5
160AA
102
{ACAD_REACTORS
330
160A9
102
}
330
160A9
100
AcDbXrecord
280
     1
102
SHADEPLOT
 70
     0
102
SHADEPLOTRESLEVEL
 70
     2
102
SHADEPLOTCUSTOMDPI
 70
   300
  0
XRECORD
  5
160AC
102
{ACAD_REACTORS
330
160AB
102
}
330
160AB
100
AcDbXrecord
280
     1
102
SHADEPLOT
 70
     0
102
SHADEPLOTRESLEVEL
 70
     2
102
SHADEPLOTCUSTOMDPI
 70
   300
  0
XRECORD
  5
12564
102
{ACAD_REACTORS
330
E4C5
102
}
330
E4C5
100
AcDbXrecord
280
     1
102
MATERIAL
148
0.0
149
0.0
149
0.0
 93
        0
 94
      127
282
     0
 72
     0
 77
     0
171
     0
175
     0
179
     0
273
     0
  0
XRECORD
  5
E4C7
102
{ACAD_REACTORS
330
E4C5
102
}
330
E4C5
100
AcDbXrecord
280
     1
270
     1
271
     1
  0
XRECORD
  5
E4C6
102
{ACAD_REACTORS
330
E4C5
102
}
330
E4C5
100
AcDbXrecord
280
     1
270
     1
271
     1
  0
XRECORD
  5
E4CA
102
{ACAD_REACTORS
330
E4C5
102
}
330
E4C5
100
AcDbXrecord
280
     1
270
     1
271
     1
  0
XRECORD
  5
E4C9
102
{ACAD_REACTORS
330
E4C5
102
}
330
E4C5
100
AcDbXrecord
280
     1
270
     1
271
     1
  0
XRECORD
  5
E4CB
102
{ACAD_REACTORS
330
E4C5
102
}
330
E4C5
100
AcDbXrecord
280
     1
270
     1
271
     1
  0
XRECORD
  5
E4C8
102
{ACAD_REACTORS
330
E4C5
102
}
330
E4C5
100
AcDbXrecord
280
     1
270
     1
271
     1
  0
XRECORD
  5
12563
102
{ACAD_REACTORS
330
E4BD
102
}
330
E4BD
100
AcDbXrecord
280
     1
102
MATERIAL
148
0.0
149
0.0
149
0.0
 93
        0
 94
      127
282
     0
 72
     0
 77
     0
171
     0
175
     0
179
     0
273
     0
  0
XRECORD
  5
E4BF
102
{ACAD_REACTORS
330
E4BD
102
}
330
E4BD
100
AcDbXrecord
280
     1
270
     1
271
     1
  0
XRECORD
  5
E4BE
102
{ACAD_REACTORS
330
E4BD
102
}
330
E4BD
100
AcDbXrecord
280
     1
270
     1
271
     1
  0
XRECORD
  5
E4C2
102
{ACAD_REACTORS
330
E4BD
102
}
330
E4BD
100
AcDbXrecord
280
     1
270
     1
271
     1
  0
XRECORD
  5
E4C1
102
{ACAD_REACTORS
330
E4BD
102
}
330
E4BD
100
AcDbXrecord
280
     1
270
     1
271
     1
  0
XRECORD
  5
E4C3
102
{ACAD_REACTORS
330
E4BD
102
}
330
E4BD
100
AcDbXrecord
280
     1
270
     1
271
     1
  0
XRECORD
  5
E4C0
102
{ACAD_REACTORS
330
E4BD
102
}
330
E4BD
100
AcDbXrecord
280
     1
270
     1
271
     1
  0
XRECORD
  5
12565
102
{ACAD_REACTORS
330
E4CD
102
}
330
E4CD
100
AcDbXrecord
280
     1
102
MATERIAL
148
0.0
149
0.0
149
0.0
 93
        0
 94
      127
282
     0
 72
     0
 77
     0
171
     0
175
     0
179
     0
273
     0
  0
XRECORD
  5
E4CF
102
{ACAD_REACTORS
330
E4CD
102
}
330
E4CD
100
AcDbXrecord
280
     1
270
     1
271
     1
  0
XRECORD
  5
E4CE
102
{ACAD_REACTORS
330
E4CD
102
}
330
E4CD
100
AcDbXrecord
280
     1
270
     1
271
     1
  0
XRECORD
  5
E4D2
102
{ACAD_REACTORS
330
E4CD
102
}
330
E4CD
100
AcDbXrecord
280
     1
270
     1
271
     1
  0
XRECORD
  5
E4D1
102
{ACAD_REACTORS
330
E4CD
102
}
330
E4CD
100
AcDbXrecord
280
     1
270
     1
271
     1
  0
XRECORD
  5
E4D3
102
{ACAD_REACTORS
330
E4CD
102
}
330
E4CD
100
AcDbXrecord
280
     1
270
     1
271
     1
  0
XRECORD
  5
E4D0
102
{ACAD_REACTORS
330
E4CD
102
}
330
E4CD
100
AcDbXrecord
280
     1
270
     1
271
     1
  0
CELLSTYLEMAP
  5
160A4
102
{ACAD_REACTORS
330
F86C
102
}
330
F86C
100
AcDbCellStyleMap
 90
        3
300
CELLSTYLE
  1
TABLEFORMAT_BEGIN
 90
        5
170
     1
 91
        0
 92
    32768
 62
   257
 93
        1
300
CONTENTFORMAT
  1
CONTENTFORMAT_BEGIN
 90
        0
 91
        0
 92
      512
 93
        0
300

 40
0.0
140
1.0
 94
        5
 62
     0
340
11
144
0.25
309
CONTENTFORMAT_END
171
     1
301
MARGIN
  1
CELLMARGIN_BEGIN
 40
0.06
 40
0.06
 40
0.06
 40
0.06
 40
0.18
 40
0.18
309
CELLMARGIN_END
 94
        6
 95
        1
302
GRIDFORMAT
  1
GRIDFORMAT_BEGIN
 90
        0
 91
        1
 62
     0
 92
       -2
340
0
 93
        0
 40
0.045
309
GRIDFORMAT_END
 95
        2
302
GRIDFORMAT
  1
GRIDFORMAT_BEGIN
 90
        0
 91
        1
 62
     0
 92
       -2
340
0
 93
        0
 40
0.045
309
GRIDFORMAT_END
 95
        4
302
GRIDFORMAT
  1
GRIDFORMAT_BEGIN
 90
        0
 91
        1
 62
     0
 92
       -2
340
0
 93
        0
 40
0.045
309
GRIDFORMAT_END
 95
        8
302
GRIDFORMAT
  1
GRIDFORMAT_BEGIN
 90
        0
 91
        1
 62
     0
 92
       -2
340
0
 93
        0
 40
0.045
309
GRIDFORMAT_END
 95
       16
302
GRIDFORMAT
  1
GRIDFORMAT_BEGIN
 90
        0
 91
        1
 62
     0
 92
       -2
340
0
 93
        0
 40
0.045
309
GRIDFORMAT_END
 95
       32
302
GRIDFORMAT
  1
GRIDFORMAT_BEGIN
 90
        0
 91
        1
 62
     0
 92
       -2
340
0
 93
        0
 40
0.045
309
GRIDFORMAT_END
309
TABLEFORMAT_END
  1
CELLSTYLE_BEGIN
 90
        1
 91
        1
300
_TITLE
309
CELLSTYLE_END
300
CELLSTYLE
  1
TABLEFORMAT_BEGIN
 90
        5
170
     1
 91
        0
 92
        0
 62
   257
 93
        1
300
CONTENTFORMAT
  1
CONTENTFORMAT_BEGIN
 90
        0
 91
        0
 92
      512
 93
        0
300

 40
0.0
140
1.0
 94
        5
 62
     0
340
11
144
0.18
309
CONTENTFORMAT_END
171
     1
301
MARGIN
  1
CELLMARGIN_BEGIN
 40
0.06
 40
0.06
 40
0.06
 40
0.06
 40
0.18
 40
0.18
309
CELLMARGIN_END
 94
        6
 95
        1
302
GRIDFORMAT
  1
GRIDFORMAT_BEGIN
 90
        0
 91
        1
 62
     0
 92
       -2
340
0
 93
        0
 40
0.045
309
GRIDFORMAT_END
 95
        2
302
GRIDFORMAT
  1
GRIDFORMAT_BEGIN
 90
        0
 91
        1
 62
     0
 92
       -2
340
0
 93
        0
 40
0.045
309
GRIDFORMAT_END
 95
        4
302
GRIDFORMAT
  1
GRIDFORMAT_BEGIN
 90
        0
 91
        1
 62
     0
 92
       -2
340
0
 93
        0
 40
0.045
309
GRIDFORMAT_END
 95
        8
302
GRIDFORMAT
  1
GRIDFORMAT_BEGIN
 90
        0
 91
        1
 62
     0
 92
       -2
340
0
 93
        0
 40
0.045
309
GRIDFORMAT_END
 95
       16
302
GRIDFORMAT
  1
GRIDFORMAT_BEGIN
 90
        0
 91
        1
 62
     0
 92
       -2
340
0
 93
        0
 40
0.045
309
GRIDFORMAT_END
 95
       32
302
GRIDFORMAT
  1
GRIDFORMAT_BEGIN
 90
        0
 91
        1
 62
     0
 92
       -2
340
0
 93
        0
 40
0.045
309
GRIDFORMAT_END
309
TABLEFORMAT_END
  1
CELLSTYLE_BEGIN
 90
        2
 91
        1
300
_HEADER
309
CELLSTYLE_END
300
CELLSTYLE
  1
TABLEFORMAT_BEGIN
 90
        5
170
     1
 91
        0
 92
        0
 62
   257
 93
        1
300
CONTENTFORMAT
  1
CONTENTFORMAT_BEGIN
 90
        0
 91
        0
 92
      512
 93
        0
300

 40
0.0
140
1.0
 94
        2
 62
     0
340
11
144
0.18
309
CONTENTFORMAT_END
171
     1
301
MARGIN
  1
CELLMARGIN_BEGIN
 40
0.06
 40
0.06
 40
0.06
 40
0.06
 40
0.18
 40
0.18
309
CELLMARGIN_END
 94
        6
 95
        1
302
GRIDFORMAT
  1
GRIDFORMAT_BEGIN
 90
        0
 91
        1
 62
     0
 92
       -2
340
0
 93
        0
 40
0.045
309
GRIDFORMAT_END
 95
        2
302
GRIDFORMAT
  1
GRIDFORMAT_BEGIN
 90
        0
 91
        1
 62
     0
 92
       -2
340
0
 93
        0
 40
0.045
309
GRIDFORMAT_END
 95
        4
302
GRIDFORMAT
  1
GRIDFORMAT_BEGIN
 90
        0
 91
        1
 62
     0
 92
       -2
340
0
 93
        0
 40
0.045
309
GRIDFORMAT_END
 95
        8
302
GRIDFORMAT
  1
GRIDFORMAT_BEGIN
 90
        0
 91
        1
 62
     0
 92
       -2
340
0
 93
        0
 40
0.045
309
GRIDFORMAT_END
 95
       16
302
GRIDFORMAT
  1
GRIDFORMAT_BEGIN
 90
        0
 91
        1
 62
     0
 92
       -2
340
0
 93
        0
 40
0.045
309
GRIDFORMAT_END
 95
       32
302
GRIDFORMAT
  1
GRIDFORMAT_BEGIN
 90
        0
 91
        1
 62
     0
 92
       -2
340
0
 93
        0
 40
0.045
309
GRIDFORMAT_END
309
TABLEFORMAT_END
  1
CELLSTYLE_BEGIN
 90
        3
 91
        2
300
_DATA
309
CELLSTYLE_END
  0
XRECORD
  5
160D5
102
{ACAD_REACTORS
330
F86C
102
}
330
F86C
100
AcDbXrecord
280
     1
102
ACAD_ROUNDTRIP_PRE2007_TABLESTYLE
 90
      512
 91
        0
  1

 92
      512
 93
        0
  2

 94
      512
 95
        0
  3

  0
XRECORD
  5
160BA
102
{ACAD_REACTORS
330
160B9
102
}
330
160B9
100
AcDbXrecord
280
     1
102
RTVSPropertyOp0
 70
     1
102
RTVSPropertyOp1
 70
     1
102
RTVSPropertyOp2
 70
     1
102
RTVSPropertyOp3
 70
     1
102
RTVSPropertyOp4
 70
     1
102
RTVSPropertyOp5
 70
     1
102
RTVSPropertyOp6
 70
     1
102
RTVSPropertyOp7
 70
     1
102
RTVSPropertyOp8
 70
     1
102
RTVSPropertyOp9
 70
     1
102
RTVSPropertyOp10
 70
     1
102
RTVSPropertyOp11
 70
     1
102
RTVSPropertyOp12
 70
     1
102
RTVSPropertyOp13
 70
     1
102
RTVSPropertyOp14
 70
     1
102
RTVSPropertyOp15
 70
     1
102
RTVSPropertyOp16
 70
     1
102
RTVSPropertyOp17
 70
     1
102
RTVSPropertyOp18
 70
     1
102
RTVSPropertyOp19
 70
     1
102
RTVSPropertyOp20
 70
     1
102
RTVSPropertyOp21
 70
     1
102
RTVSPropertyOp22
 70
     1
102
RTVSPropertyOp23
 70
     1
102
RTVSPropertyOp24
 70
     1
102
RTVSPropertyOp25
 70
     1
102
RTVSPropertyOp26
 70
     1
102
RTVSPropertyOp27
 70
     1
  0
XRECORD
  5
160BE
102
{ACAD_REACTORS
330
160BD
102
}
330
160BD
100
AcDbXrecord
280
     1
102
RTVSPropertyOp0
 70
     1
102
RTVSPropertyOp1
 70
     1
102
RTVSPropertyOp2
 70
     1
102
RTVSPropertyOp3
 70
     1
102
RTVSPropertyOp4
 70
     1
102
RTVSPropertyOp5
 70
     1
102
RTVSPropertyOp6
 70
     1
102
RTVSPropertyOp7
 70
     1
102
RTVSPropertyOp8
 70
     1
102
RTVSPropertyOp9
 70
     1
102
RTVSPropertyOp10
 70
     1
102
RTVSPropertyOp11
 70
     1
102
RTVSPropertyOp12
 70
     1
102
RTVSPropertyOp13
 70
     1
102
RTVSPropertyOp14
 70
     1
102
RTVSPropertyOp15
 70
     1
102
RTVSPropertyOp16
 70
     1
102
RTVSPropertyOp17
 70
     1
102
RTVSPropertyOp18
 70
     1
102
RTVSPropertyOp19
 70
     1
102
RTVSPropertyOp20
 70
     1
102
RTVSPropertyOp21
 70
     1
102
RTVSPropertyOp22
 70
     1
102
RTVSPropertyOp23
 70
     1
102
RTVSPropertyOp24
 70
     1
102
RTVSPropertyOp25
 70
     1
102
RTVSPropertyOp26
 70
     1
102
RTVSPropertyOp27
 70
     1
  0
XRECORD
  5
160BC
102
{ACAD_REACTORS
330
160BB
102
}
330
160BB
100
AcDbXrecord
280
     1
102
RTVSPropertyOp0
 70
     1
102
RTVSPropertyOp1
 70
     1
102
RTVSPropertyOp2
 70
     1
102
RTVSPropertyOp3
 70
     1
102
RTVSPropertyOp4
 70
     1
102
RTVSPropertyOp5
 70
     1
102
RTVSPropertyOp6
 70
     1
102
RTVSPropertyOp7
 70
     1
102
RTVSPropertyOp8
 70
     1
102
RTVSPropertyOp9
 70
     1
102
RTVSPropertyOp10
 70
     1
102
RTVSPropertyOp11
 70
     1
102
RTVSPropertyOp12
 70
     1
102
RTVSPropertyOp13
 70
     1
102
RTVSPropertyOp14
 70
     1
102
RTVSPropertyOp15
 70
     1
102
RTVSPropertyOp16
 70
     1
102
RTVSPropertyOp17
 70
     1
102
RTVSPropertyOp18
 70
     1
102
RTVSPropertyOp19
 70
     1
102
RTVSPropertyOp20
 70
     1
102
RTVSPropertyOp21
 70
     1
102
RTVSPropertyOp22
 70
     1
102
RTVSPropertyOp23
 70
     1
102
RTVSPropertyOp24
 70
     1
102
RTVSPropertyOp25
 70
     1
102
RTVSPropertyOp26
 70
     1
102
RTVSPropertyOp27
 70
     1
  0
XRECORD
  5
160B8
102
{ACAD_REACTORS
330
160B7
102
}
330
160B7
100
AcDbXrecord
280
     1
102
RTVSPropertyOp0
 70
     1
102
RTVSPropertyOp1
 70
     1
102
RTVSPropertyOp2
 70
     1
102
RTVSPropertyOp3
 70
     1
102
RTVSPropertyOp4
 70
     1
102
RTVSPropertyOp5
 70
     1
102
RTVSPropertyOp6
 70
     1
102
RTVSPropertyOp7
 70
     1
102
RTVSPropertyOp8
 70
     1
102
RTVSPropertyOp9
 70
     1
102
RTVSPropertyOp10
 70
     1
102
RTVSPropertyOp11
 70
     1
102
RTVSPropertyOp12
 70
     1
102
RTVSPropertyOp13
 70
     1
102
RTVSPropertyOp14
 70
     1
102
RTVSPropertyOp15
 70
     1
102
RTVSPropertyOp16
 70
     1
102
RTVSPropertyOp17
 70
     1
102
RTVSPropertyOp18
 70
     1
102
RTVSPropertyOp19
 70
     1
102
RTVSPropertyOp20
 70
     1
102
RTVSPropertyOp21
 70
     1
102
RTVSPropertyOp22
 70
     1
102
RTVSPropertyOp23
 70
     1
102
RTVSPropertyOp24
 70
     1
102
RTVSPropertyOp25
 70
     1
102
RTVSPropertyOp26
 70
     1
102
RTVSPropertyOp27
 70
     1
  0
XRECORD
  5
160C6
102
{ACAD_REACTORS
330
160C5
102
}
330
160C5
100
AcDbXrecord
280
     1
102
RTVSPropertyOp0
 70
     1
102
RTVSPropertyOp1
 70
     1
102
RTVSPropertyOp2
 70
     1
102
RTVSPropertyOp3
 70
     1
102
RTVSPropertyOp4
 70
     1
102
RTVSPropertyOp5
 70
     1
102
RTVSPropertyOp6
 70
     1
102
RTVSPropertyOp7
 70
     1
102
RTVSPropertyOp8
 70
     1
102
RTVSPropertyOp9
 70
     1
102
RTVSPropertyOp10
 70
     1
102
RTVSPropertyOp11
 70
     1
102
RTVSPropertyOp12
 70
     1
102
RTVSPropertyOp13
 70
     1
102
RTVSPropertyOp14
 70
     1
102
RTVSPropertyOp15
 70
     1
102
RTVSPropertyOp16
 70
     1
102
RTVSPropertyOp17
 70
     1
102
RTVSPropertyOp18
 70
     1
102
RTVSPropertyOp19
 70
     1
102
RTVSPropertyOp20
 70
     1
102
RTVSPropertyOp21
 70
     1
102
RTVSPropertyOp22
 70
     1
102
RTVSPropertyOp23
 70
     1
102
RTVSPropertyOp24
 70
     1
102
RTVSPropertyOp25
 70
     1
102
RTVSPropertyOp26
 70
     1
102
RTVSPropertyOp27
 70
     1
  0
XRECORD
  5
160CE
102
{ACAD_REACTORS
330
160CD
102
}
330
160CD
100
AcDbXrecord
280
     1
102
RTVSPropertyOp0
 70
     1
102
RTVSPropertyOp1
 70
     1
102
RTVSPropertyOp2
 70
     1
102
RTVSPropertyOp3
 70
     1
102
RTVSPropertyOp4
 70
     1
102
RTVSPropertyOp5
 70
     1
102
RTVSPropertyOp6
 70
     1
102
RTVSPropertyOp7
 70
     1
102
RTVSPropertyOp8
 70
     1
102
RTVSPropertyOp9
 70
     1
102
RTVSPropertyOp10
 70
     1
102
RTVSPropertyOp11
 70
     1
102
RTVSPropertyOp12
 70
     1
102
RTVSPropertyOp13
 70
     1
102
RTVSPropertyOp14
 70
     1
102
RTVSPropertyOp15
 70
     1
102
RTVSPropertyOp16
 70
     1
102
RTVSPropertyOp17
 70
     1
102
RTVSPropertyOp18
 70
     1
102
RTVSPropertyOp19
 70
     1
102
RTVSPropertyOp20
 70
     1
102
RTVSPropertyOp21
 70
     1
102
RTVSPropertyOp22
 70
     1
102
RTVSPropertyOp23
 70
     1
102
RTVSPropertyOp24
 70
     1
102
RTVSPropertyOp25
 70
     1
102
RTVSPropertyOp26
 70
     1
102
RTVSPropertyOp27
 70
     1
  0
XRECORD
  5
160C0
102
{ACAD_REACTORS
330
160BF
102
}
330
160BF
100
AcDbXrecord
280
     1
102
RTVSPropertyOp0
 70
     1
102
RTVSPropertyOp1
 70
     1
102
RTVSPropertyOp2
 70
     1
102
RTVSPropertyOp3
 70
     1
102
RTVSPropertyOp4
 70
     1
102
RTVSPropertyOp5
 70
     1
102
RTVSPropertyOp6
 70
     1
102
RTVSPropertyOp7
 70
     1
102
RTVSPropertyOp8
 70
     1
102
RTVSPropertyOp9
 70
     1
102
RTVSPropertyOp10
 70
     1
102
RTVSPropertyOp11
 70
     1
102
RTVSPropertyOp12
 70
     1
102
RTVSPropertyOp13
 70
     1
102
RTVSPropertyOp14
 70
     1
102
RTVSPropertyOp15
 70
     1
102
RTVSPropertyOp16
 70
     1
102
RTVSPropertyOp17
 70
     1
102
RTVSPropertyOp18
 70
     1
102
RTVSPropertyOp19
 70
     1
102
RTVSPropertyOp20
 70
     1
102
RTVSPropertyOp21
 70
     1
102
RTVSPropertyOp22
 70
     1
102
RTVSPropertyOp23
 70
     1
102
RTVSPropertyOp24
 70
     1
102
RTVSPropertyOp25
 70
     1
102
RTVSPropertyOp26
 70
     1
102
RTVSPropertyOp27
 70
     1
  0
XRECORD
  5
160C4
102
{ACAD_REACTORS
330
160C3
102
}
330
160C3
100
AcDbXrecord
280
     1
102
RTVSPropertyOp0
 70
     1
102
RTVSPropertyOp1
 70
     1
102
RTVSPropertyOp2
 70
     1
102
RTVSPropertyOp3
 70
     1
102
RTVSPropertyOp4
 70
     1
102
RTVSPropertyOp5
 70
     1
102
RTVSPropertyOp6
 70
     1
102
RTVSPropertyOp7
 70
     1
102
RTVSPropertyOp8
 70
     1
102
RTVSPropertyOp9
 70
     1
102
RTVSPropertyOp10
 70
     1
102
RTVSPropertyOp11
 70
     1
102
RTVSPropertyOp12
 70
     1
102
RTVSPropertyOp13
 70
     1
102
RTVSPropertyOp14
 70
     1
102
RTVSPropertyOp15
 70
     1
102
RTVSPropertyOp16
 70
     1
102
RTVSPropertyOp17
 70
     1
102
RTVSPropertyOp18
 70
     1
102
RTVSPropertyOp19
 70
     1
102
RTVSPropertyOp20
 70
     1
102
RTVSPropertyOp21
 70
     1
102
RTVSPropertyOp22
 70
     1
102
RTVSPropertyOp23
 70
     1
102
RTVSPropertyOp24
 70
     1
102
RTVSPropertyOp25
 70
     1
102
RTVSPropertyOp26
 70
     1
102
RTVSPropertyOp27
 70
     1
  0
XRECORD
  5
160D4
102
{ACAD_REACTORS
330
160D3
102
}
330
160D3
100
AcDbXrecord
280
     1
102
RTVSPropertyOp0
 70
     0
102
RTVSPropertyOp1
 70
     0
102
RTVSPropertyOp2
 70
     0
102
RTVSPropertyOp3
 70
     0
102
RTVSPropertyOp4
 70
     0
102
RTVSPropertyOp5
 70
     0
102
RTVSPropertyOp6
 70
     0
102
RTVSPropertyOp7
 70
     0
102
RTVSPropertyOp8
 70
     0
102
RTVSPropertyOp9
 70
     0
102
RTVSPropertyOp10
 70
     0
102
RTVSPropertyOp11
 70
     0
102
RTVSPropertyOp12
 70
     0
102
RTVSPropertyOp13
 70
     0
102
RTVSPropertyOp14
 70
     2
102
RTVSPropertyOp15
 70
     0
102
RTVSPropertyOp16
 70
     0
102
RTVSPropertyOp17
 70
     0
102
RTVSPropertyOp18
 70
     0
102
RTVSPropertyOp19
 70
     0
102
RTVSPropertyOp20
 70
     0
102
RTVSPropertyOp21
 70
     0
102
RTVSPropertyOp22
 70
     0
102
RTVSPropertyOp23
 70
     0
102
RTVSPropertyOp24
 70
     0
102
RTVSPropertyOp25
 70
     0
102
RTVSPropertyOp26
 70
     0
102
RTVSPropertyOp27
 70
     0
  0
XRECORD
  5
160CC
102
{ACAD_REACTORS
330
160CB
102
}
330
160CB
100
AcDbXrecord
280
     1
102
RTVSPropertyOp0
 70
     1
102
RTVSPropertyOp1
 70
     1
102
RTVSPropertyOp2
 70
     1
102
RTVSPropertyOp3
 70
     1
102
RTVSPropertyOp4
 70
     1
102
RTVSPropertyOp5
 70
     1
102
RTVSPropertyOp6
 70
     1
102
RTVSPropertyOp7
 70
     1
102
RTVSPropertyOp8
 70
     1
102
RTVSPropertyOp9
 70
     1
102
RTVSPropertyOp10
 70
     1
102
RTVSPropertyOp11
 70
     1
102
RTVSPropertyOp12
 70
     1
102
RTVSPropertyOp13
 70
     1
102
RTVSPropertyOp14
 70
     1
102
RTVSPropertyOp15
 70
     1
102
RTVSPropertyOp16
 70
     1
102
RTVSPropertyOp17
 70
     1
102
RTVSPropertyOp18
 70
     1
102
RTVSPropertyOp19
 70
     1
102
RTVSPropertyOp20
 70
     1
102
RTVSPropertyOp21
 70
     1
102
RTVSPropertyOp22
 70
     1
102
RTVSPropertyOp23
 70
     1
102
RTVSPropertyOp24
 70
     1
102
RTVSPropertyOp25
 70
     1
102
RTVSPropertyOp26
 70
     1
102
RTVSPropertyOp27
 70
     1
  0
XRECORD
  5
160B0
102
{ACAD_REACTORS
330
160AF
102
}
330
160AF
100
AcDbXrecord
280
     1
102
RTVSPropertyOp0
 70
     1
102
RTVSPropertyOp1
 70
     1
102
RTVSPropertyOp2
 70
     1
102
RTVSPropertyOp3
 70
     1
102
RTVSPropertyOp4
 70
     1
102
RTVSPropertyOp5
 70
     1
102
RTVSPropertyOp6
 70
     1
102
RTVSPropertyOp7
 70
     1
102
RTVSPropertyOp8
 70
     1
102
RTVSPropertyOp9
 70
     1
102
RTVSPropertyOp10
 70
     1
102
RTVSPropertyOp11
 70
     1
102
RTVSPropertyOp12
 70
     1
102
RTVSPropertyOp13
 70
     1
102
RTVSPropertyOp14
 70
     1
102
RTVSPropertyOp15
 70
     1
102
RTVSPropertyOp16
 70
     1
102
RTVSPropertyOp17
 70
     1
102
RTVSPropertyOp18
 70
     1
102
RTVSPropertyOp19
 70
     1
102
RTVSPropertyOp20
 70
     1
102
RTVSPropertyOp21
 70
     1
102
RTVSPropertyOp22
 70
     1
102
RTVSPropertyOp23
 70
     1
102
RTVSPropertyOp24
 70
     1
102
RTVSPropertyOp25
 70
     1
102
RTVSPropertyOp26
 70
     1
102
RTVSPropertyOp27
 70
     1
  0
XRECORD
  5
160B2
102
{ACAD_REACTORS
330
160B1
102
}
330
160B1
100
AcDbXrecord
280
     1
102
RTVSPropertyOp0
 70
     1
102
RTVSPropertyOp1
 70
     1
102
RTVSPropertyOp2
 70
     1
102
RTVSPropertyOp3
 70
     1
102
RTVSPropertyOp4
 70
     1
102
RTVSPropertyOp5
 70
     1
102
RTVSPropertyOp6
 70
     1
102
RTVSPropertyOp7
 70
     1
102
RTVSPropertyOp8
 70
     1
102
RTVSPropertyOp9
 70
     1
102
RTVSPropertyOp10
 70
     1
102
RTVSPropertyOp11
 70
     1
102
RTVSPropertyOp12
 70
     1
102
RTVSPropertyOp13
 70
     1
102
RTVSPropertyOp14
 70
     1
102
RTVSPropertyOp15
 70
     1
102
RTVSPropertyOp16
 70
     1
102
RTVSPropertyOp17
 70
     1
102
RTVSPropertyOp18
 70
     1
102
RTVSPropertyOp19
 70
     1
102
RTVSPropertyOp20
 70
     1
102
RTVSPropertyOp21
 70
     1
102
RTVSPropertyOp22
 70
     1
102
RTVSPropertyOp23
 70
     1
102
RTVSPropertyOp24
 70
     1
102
RTVSPropertyOp25
 70
     1
102
RTVSPropertyOp26
 70
     1
102
RTVSPropertyOp27
 70
     1
  0
XRECORD
  5
160B4
102
{ACAD_REACTORS
330
160B3
102
}
330
160B3
100
AcDbXrecord
280
     1
102
RTVSPropertyOp0
 70
     1
102
RTVSPropertyOp1
 70
     1
102
RTVSPropertyOp2
 70
     1
102
RTVSPropertyOp3
 70
     1
102
RTVSPropertyOp4
 70
     1
102
RTVSPropertyOp5
 70
     1
102
RTVSPropertyOp6
 70
     1
102
RTVSPropertyOp7
 70
     1
102
RTVSPropertyOp8
 70
     1
102
RTVSPropertyOp9
 70
     1
102
RTVSPropertyOp10
 70
     1
102
RTVSPropertyOp11
 70
     1
102
RTVSPropertyOp12
 70
     1
102
RTVSPropertyOp13
 70
     1
102
RTVSPropertyOp14
 70
     1
102
RTVSPropertyOp15
 70
     1
102
RTVSPropertyOp16
 70
     1
102
RTVSPropertyOp17
 70
     1
102
RTVSPropertyOp18
 70
     1
102
RTVSPropertyOp19
 70
     1
102
RTVSPropertyOp20
 70
     1
102
RTVSPropertyOp21
 70
     1
102
RTVSPropertyOp22
 70
     1
102
RTVSPropertyOp23
 70
     1
102
RTVSPropertyOp24
 70
     1
102
RTVSPropertyOp25
 70
     1
102
RTVSPropertyOp26
 70
     1
102
RTVSPropertyOp27
 70
     1
  0
XRECORD
  5
160B6
102
{ACAD_REACTORS
330
160B5
102
}
330
160B5
100
AcDbXrecord
280
     1
102
RTVSPropertyOp0
 70
     1
102
RTVSPropertyOp1
 70
     1
102
RTVSPropertyOp2
 70
     1
102
RTVSPropertyOp3
 70
     1
102
RTVSPropertyOp4
 70
     1
102
RTVSPropertyOp5
 70
     1
102
RTVSPropertyOp6
 70
     1
102
RTVSPropertyOp7
 70
     1
102
RTVSPropertyOp8
 70
     1
102
RTVSPropertyOp9
 70
     1
102
RTVSPropertyOp10
 70
     1
102
RTVSPropertyOp11
 70
     1
102
RTVSPropertyOp12
 70
     1
102
RTVSPropertyOp13
 70
     1
102
RTVSPropertyOp14
 70
     1
102
RTVSPropertyOp15
 70
     1
102
RTVSPropertyOp16
 70
     1
102
RTVSPropertyOp17
 70
     1
102
RTVSPropertyOp18
 70
     1
102
RTVSPropertyOp19
 70
     1
102
RTVSPropertyOp20
 70
     1
102
RTVSPropertyOp21
 70
     1
102
RTVSPropertyOp22
 70
     1
102
RTVSPropertyOp23
 70
     1
102
RTVSPropertyOp24
 70
     1
102
RTVSPropertyOp25
 70
     1
102
RTVSPropertyOp26
 70
     1
102
RTVSPropertyOp27
 70
     1
  0
XRECORD
  5
160D0
102
{ACAD_REACTORS
330
160CF
102
}
330
160CF
100
AcDbXrecord
280
     1
102
RTVSPropertyOp0
 70
     0
102
RTVSPropertyOp1
 70
     0
102
RTVSPropertyOp2
 70
     0
102
RTVSPropertyOp3
 70
     0
102
RTVSPropertyOp4
 70
     0
102
RTVSPropertyOp5
 70
     0
102
RTVSPropertyOp6
 70
     0
102
RTVSPropertyOp7
 70
     0
102
RTVSPropertyOp8
 70
     0
102
RTVSPropertyOp9
 70
     0
102
RTVSPropertyOp10
 70
     0
102
RTVSPropertyOp11
 70
     0
102
RTVSPropertyOp12
 70
     0
102
RTVSPropertyOp13
 70
     0
102
RTVSPropertyOp14
 70
     2
102
RTVSPropertyOp15
 70
     0
102
RTVSPropertyOp16
 70
     0
102
RTVSPropertyOp17
 70
     0
102
RTVSPropertyOp18
 70
     0
102
RTVSPropertyOp19
 70
     0
102
RTVSPropertyOp20
 70
     0
102
RTVSPropertyOp21
 70
     0
102
RTVSPropertyOp22
 70
     0
102
RTVSPropertyOp23
 70
     0
102
RTVSPropertyOp24
 70
     0
102
RTVSPropertyOp25
 70
     0
102
RTVSPropertyOp26
 70
     0
102
RTVSPropertyOp27
 70
     0
  0
XRECORD
  5
160CA
102
{ACAD_REACTORS
330
160C9
102
}
330
160C9
100
AcDbXrecord
280
     1
102
RTVSPropertyOp0
 70
     1
102
RTVSPropertyOp1
 70
     1
102
RTVSPropertyOp2
 70
     1
102
RTVSPropertyOp3
 70
     1
102
RTVSPropertyOp4
 70
     1
102
RTVSPropertyOp5
 70
     1
102
RTVSPropertyOp6
 70
     1
102
RTVSPropertyOp7
 70
     1
102
RTVSPropertyOp8
 70
     1
102
RTVSPropertyOp9
 70
     1
102
RTVSPropertyOp10
 70
     1
102
RTVSPropertyOp11
 70
     1
102
RTVSPropertyOp12
 70
     1
102
RTVSPropertyOp13
 70
     1
102
RTVSPropertyOp14
 70
     1
102
RTVSPropertyOp15
 70
     1
102
RTVSPropertyOp16
 70
     1
102
RTVSPropertyOp17
 70
     1
102
RTVSPropertyOp18
 70
     1
102
RTVSPropertyOp19
 70
     1
102
RTVSPropertyOp20
 70
     1
102
RTVSPropertyOp21
 70
     1
102
RTVSPropertyOp22
 70
     1
102
RTVSPropertyOp23
 70
     1
102
RTVSPropertyOp24
 70
     1
102
RTVSPropertyOp25
 70
     1
102
RTVSPropertyOp26
 70
     1
102
RTVSPropertyOp27
 70
     1
  0
XRECORD
  5
160D2
102
{ACAD_REACTORS
330
160D1
102
}
330
160D1
100
AcDbXrecord
280
     1
102
RTVSPropertyOp0
 70
     0
102
RTVSPropertyOp1
 70
     0
102
RTVSPropertyOp2
 70
     0
102
RTVSPropertyOp3
 70
     0
102
RTVSPropertyOp4
 70
     0
102
RTVSPropertyOp5
 70
     0
102
RTVSPropertyOp6
 70
     0
102
RTVSPropertyOp7
 70
     0
102
RTVSPropertyOp8
 70
     0
102
RTVSPropertyOp9
 70
     0
102
RTVSPropertyOp10
 70
     0
102
RTVSPropertyOp11
 70
     0
102
RTVSPropertyOp12
 70
     0
102
RTVSPropertyOp13
 70
     0
102
RTVSPropertyOp14
 70
     2
102
RTVSPropertyOp15
 70
     0
102
RTVSPropertyOp16
 70
     0
102
RTVSPropertyOp17
 70
     0
102
RTVSPropertyOp18
 70
     0
102
RTVSPropertyOp19
 70
     0
102
RTVSPropertyOp20
 70
     0
102
RTVSPropertyOp21
 70
     0
102
RTVSPropertyOp22
 70
     0
102
RTVSPropertyOp23
 70
     0
102
RTVSPropertyOp24
 70
     0
102
RTVSPropertyOp25
 70
     0
102
RTVSPropertyOp26
 70
     0
102
RTVSPropertyOp27
 70
     0
  0
XRECORD
  5
160C2
102
{ACAD_REACTORS
330
160C1
102
}
330
160C1
100
AcDbXrecord
280
     1
102
RTVSPropertyOp0
 70
     1
102
RTVSPropertyOp1
 70
     1
102
RTVSPropertyOp2
 70
     1
102
RTVSPropertyOp3
 70
     1
102
RTVSPropertyOp4
 70
     1
102
RTVSPropertyOp5
 70
     1
102
RTVSPropertyOp6
 70
     1
102
RTVSPropertyOp7
 70
     1
102
RTVSPropertyOp8
 70
     1
102
RTVSPropertyOp9
 70
     1
102
RTVSPropertyOp10
 70
     1
102
RTVSPropertyOp11
 70
     1
102
RTVSPropertyOp12
 70
     1
102
RTVSPropertyOp13
 70
     1
102
RTVSPropertyOp14
 70
     1
102
RTVSPropertyOp15
 70
     1
102
RTVSPropertyOp16
 70
     1
102
RTVSPropertyOp17
 70
     1
102
RTVSPropertyOp18
 70
     1
102
RTVSPropertyOp19
 70
     1
102
RTVSPropertyOp20
 70
     1
102
RTVSPropertyOp21
 70
     1
102
RTVSPropertyOp22
 70
     1
102
RTVSPropertyOp23
 70
     1
102
RTVSPropertyOp24
 70
     1
102
RTVSPropertyOp25
 70
     1
102
RTVSPropertyOp26
 70
     1
102
RTVSPropertyOp27
 70
     1
  0
XRECORD
  5
160C8
102
{ACAD_REACTORS
330
160C7
102
}
330
160C7
100
AcDbXrecord
280
     1
102
RTVSPropertyOp0
 70
     1
102
RTVSPropertyOp1
 70
     1
102
RTVSPropertyOp2
 70
     1
102
RTVSPropertyOp3
 70
     1
102
RTVSPropertyOp4
 70
     1
102
RTVSPropertyOp5
 70
     1
102
RTVSPropertyOp6
 70
     1
102
RTVSPropertyOp7
 70
     1
102
RTVSPropertyOp8
 70
     1
102
RTVSPropertyOp9
 70
     1
102
RTVSPropertyOp10
 70
     1
102
RTVSPropertyOp11
 70
     1
102
RTVSPropertyOp12
 70
     1
102
RTVSPropertyOp13
 70
     1
102
RTVSPropertyOp14
 70
     1
102
RTVSPropertyOp15
 70
     1
102
RTVSPropertyOp16
 70
     1
102
RTVSPropertyOp17
 70
     1
102
RTVSPropertyOp18
 70
     1
102
RTVSPropertyOp19
 70
     1
102
RTVSPropertyOp20
 70
     1
102
RTVSPropertyOp21
 70
     1
102
RTVSPropertyOp22
 70
     1
102
RTVSPropertyOp23
 70
     1
102
RTVSPropertyOp24
 70
     1
102
RTVSPropertyOp25
 70
     1
102
RTVSPropertyOp26
 70
     1
102
RTVSPropertyOp27
 70
     1
  0
ENDSEC
  0
EOF
