  0
SECTION
  2
HEADER
  9
$ACADVER
  1
AC1015
  9
$ACADMAINTVER
 70
    10
  9
$DWGCODEPAGE
  3
ANSI_932
  9
$INSBASE
 10
0.0
 20
0.0
 30
0.0
  9
$EXTMIN
 10
-74.18061518154672
 20
-380.6511209207249
 30
-0.0000000000112498
  9
$EXTMAX
 10
358.9000572121003
 20
169.9195574532723
 30
0.0000000000002956
  9
$LIMMIN
 10
-459.0
 20
-527.0
  9
$LIMMAX
 10
682.0
 20
313.0
  9
$ORTHOMODE
 70
     1
  9
$REGENMODE
 70
     1
  9
$FILLMODE
 70
     1
  9
$QTEXTMODE
 70
     0
  9
$MIRRTEXT
 70
     1
  9
$LTSCALE
 40
5.0
  9
$ATTMODE
 70
     1
  9
$TEXTSIZE
 40
5.0
  9
$TRACEWID
 40
0.05
  9
$TEXTSTYLE
  7
STANDARD1
  9
$CLAYER
  8
30
  9
$CELTYPE
  6
CONTINUOUS
  9
$CECOLOR
 62
   256
  9
$CELTSCALE
 40
1.0
  9
$DISPSILH
 70
     0
  9
$DIMSCALE
 40
1.0
  9
$DIMASZ
 40
2.0
  9
$DIMEXO
 40
1.0
  9
$DIMDLI
 40
0.5
  9
$DIMRND
 40
0.0
  9
$DIMDLE
 40
0.0
  9
$DIMEXE
 40
0.5
  9
$DIMTP
 40
0.0
  9
$DIMTM
 40
0.0
  9
$DIMTXT
 40
4.0
  9
$DIMCEN
 40
0.09
  9
$DIMTSZ
 40
0.0
  9
$DIMTOL
 70
     0
  9
$DIMLIM
 70
     0
  9
$DIMTIH
 70
     0
  9
$DIMTOH
 70
     0
  9
$DIMSE1
 70
     0
  9
$DIMSE2
 70
     0
  9
$DIMTAD
 70
     3
  9
$DIMZIN
 70
    12
  9
$DIMBLK
  1
OPEN
  9
$DIMASO
 70
     1
  9
$DIMSHO
 70
     1
  9
$DIMPOST
  1

  9
$DIMAPOST
  1

  9
$DIMALT
 70
     0
  9
$DIMALTD
 70
     2
  9
$DIMALTF
 40
25.4
  9
$DIMLFAC
 40
1.0
  9
$DIMTOFL
 70
     0
  9
$DIMTVP
 40
0.0
  9
$DIMTIX
 70
     0
  9
$DIMSOXD
 70
     0
  9
$DIMSAH
 70
     0
  9
$DIMBLK1
  1

  9
$DIMBLK2
  1

  9
$DIMSTYLE
  2
STANDARD
  9
$DIMCLRD
 70
     0
  9
$DIMCLRE
 70
     0
  9
$DIMCLRT
 70
     0
  9
$DIMTFAC
 40
1.0
  9
$DIMGAP
 40
1.0
  9
$DIMJUST
 70
     0
  9
$DIMSD1
 70
     0
  9
$DIMSD2
 70
     0
  9
$DIMTOLJ
 70
     1
  9
$DIMTZIN
 70
     0
  9
$DIMALTZ
 70
     0
  9
$DIMALTTZ
 70
     0
  9
$DIMUPT
 70
     0
  9
$DIMDEC
 70
     1
  9
$DIMTDEC
 70
     1
  9
$DIMALTU
 70
     2
  9
$DIMALTTD
 70
     2
  9
$DIMTXSTY
  7
STANDARD
  9
$DIMAUNIT
 70
     0
  9
$DIMADEC
 70
     0
  9
$DIMALTRND
 40
0.0
  9
$DIMAZIN
 70
     3
  9
$DIMDSEP
 70
    46
  9
$DIMATFIT
 70
     3
  9
$DIMFRAC
 70
     0
  9
$DIMLDRBLK
  1
OPEN
  9
$DIMLUNIT
 70
     2
  9
$DIMLWD
 70
    -2
  9
$DIMLWE
 70
    -2
  9
$DIMTMOVE
 70
     0
  9
$LUNITS
 70
     2
  9
$LUPREC
 70
     4
  9
$SKETCHINC
 40
0.1
  9
$FILLETRAD
 40
0.0
  9
$AUNITS
 70
     0
  9
$AUPREC
 70
     0
  9
$MENU
  1
.
  9
$ELEVATION
 40
0.0
  9
$PELEVATION
 40
0.0
  9
$THICKNESS
 40
0.0
  9
$LIMCHECK
 70
     0
  9
$CHAMFERA
 40
0.0
  9
$CHAMFERB
 40
0.0
  9
$CHAMFERC
 40
0.0
  9
$CHAMFERD
 40
0.0
  9
$SKPOLY
 70
     0
  9
$TDCREATE
 40
2452286.555658657
  9
$TDUCREATE
 40
2452286.180658657
  9
$TDUPDATE
 40
2455378.716184896
  9
$TDUUPDATE
 40
2455378.341184895
  9
$TDINDWG
 40
1.2598516435
  9
$TDUSRTIMER
 40
1.2598507407
  9
$USRTIMER
 70
     1
  9
$ANGBASE
 50
0.0
  9
$ANGDIR
 70
     0
  9
$PDMODE
 70
     0
  9
$PDSIZE
 40
0.0
  9
$PLINEWID
 40
0.0
  9
$SPLFRAME
 70
     0
  9
$SPLINETYPE
 70
     6
  9
$SPLINESEGS
 70
     8
  9
$HANDSEED
  5
7561
  9
$SURFTAB1
 70
     6
  9
$SURFTAB2
 70
     6
  9
$SURFTYPE
 70
     6
  9
$SURFU
 70
     6
  9
$SURFV
 70
     6
  9
$UCSBASE
  2

  9
$UCSNAME
  2

  9
$UCSORG
 10
0.0
 20
0.0
 30
0.0
  9
$UCSXDIR
 10
1.0
 20
0.0
 30
0.0
  9
$UCSYDIR
 10
0.0
 20
1.0
 30
0.0
  9
$UCSORTHOREF
  2

  9
$UCSORTHOVIEW
 70
     0
  9
$UCSORGTOP
 10
0.0
 20
0.0
 30
0.0
  9
$UCSORGBOTTOM
 10
0.0
 20
0.0
 30
0.0
  9
$UCSORGLEFT
 10
0.0
 20
0.0
 30
0.0
  9
$UCSORGRIGHT
 10
0.0
 20
0.0
 30
0.0
  9
$UCSORGFRONT
 10
0.0
 20
0.0
 30
0.0
  9
$UCSORGBACK
 10
0.0
 20
0.0
 30
0.0
  9
$PUCSBASE
  2

  9
$PUCSNAME
  2

  9
$PUCSORG
 10
0.0
 20
0.0
 30
0.0
  9
$PUCSXDIR
 10
1.0
 20
0.0
 30
0.0
  9
$PUCSYDIR
 10
0.0
 20
1.0
 30
0.0
  9
$PUCSORTHOREF
  2

  9
$PUCSORTHOVIEW
 70
     0
  9
$PUCSORGTOP
 10
0.0
 20
0.0
 30
0.0
  9
$PUCSORGBOTTOM
 10
0.0
 20
0.0
 30
0.0
  9
$PUCSORGLEFT
 10
0.0
 20
0.0
 30
0.0
  9
$PUCSORGRIGHT
 10
0.0
 20
0.0
 30
0.0
  9
$PUCSORGFRONT
 10
0.0
 20
0.0
 30
0.0
  9
$PUCSORGBACK
 10
0.0
 20
0.0
 30
0.0
  9
$USERI1
 70
     0
  9
$USERI2
 70
     0
  9
$USERI3
 70
     0
  9
$USERI4
 70
     0
  9
$USERI5
 70
     0
  9
$USERR1
 40
0.0
  9
$USERR2
 40
0.0
  9
$USERR3
 40
0.0
  9
$USERR4
 40
0.0
  9
$USERR5
 40
0.0
  9
$WORLDVIEW
 70
     1
  9
$SHADEDGE
 70
     3
  9
$SHADEDIF
 70
    70
  9
$TILEMODE
 70
     1
  9
$MAXACTVP
 70
    48
  9
$PINSBASE
 10
0.0
 20
0.0
 30
0.0
  9
$PLIMCHECK
 70
     0
  9
$PEXTMIN
 10
1.115538976765435
 20
0.7759699331880939
 30
-0.0015258207003583
  9
$PEXTMAX
 10
10.10899379860261
 20
7.044072313435662
 30
0.0000000349246037
  9
$PLIMMIN
 10
-5.873748779296875
 20
-5.873749732971191
  9
$PLIMMAX
 10
204.0995788574218
 20
291.1369009017943
  9
$UNITMODE
 70
     0
  9
$VISRETAIN
 70
     1
  9
$PLINEGEN
 70
     0
  9
$PSLTSCALE
 70
     1
  9
$TREEDEPTH
 70
  3020
  9
$CMLSTYLE
  2
STANDARD
  9
$CMLJUST
 70
     0
  9
$CMLSCALE
 40
1.0
  9
$PROXYGRAPHICS
 70
     1
  9
$MEASUREMENT
 70
     0
  9
$CELWEIGHT
370
    -1
  9
$ENDCAPS
280
     0
  9
$JOINSTYLE
280
     0
  9
$LWDISPLAY
290
     0
  9
$INSUNITS
 70
     0
  9
$HYPERLINKBASE
  1

  9
$STYLESHEET
  1
KIKI.CTB
  9
$XEDIT
290
     1
  9
$CEPSNTYPE
380
     0
  9
$PSTYLEMODE
290
     1
  9
$FINGERPRINTGUID
  2

  9
$VERSIONGUID
  2
{F70FC0C8-E1BB-44DA-8A69-4FC49B9907D2}
  9
$EXTNAMES
290
     1
  9
$PSVPSCALE
 40
0.0
  9
$OLESTARTUP
290
     0
  0
ENDSEC
  0
SECTION
  2
CLASSES
  0
CLASS
  1
ACDBDICTIONARYWDFLT
  2
AcDbDictionaryWithDefault
  3
AutoCAD 2000
 90
        0
280
     0
281
     0
  0
CLASS
  1
ACDBPLACEHOLDER
  2
AcDbPlaceHolder
  3
AutoCAD 2000
 90
        0
280
     0
281
     0
  0
CLASS
  1
LAYOUT
  2
AcDbLayout
  3
AutoCAD 2000
 90
        0
280
     0
281
     0
  0
CLASS
  1
LONG_TRANSACTION
  2
AcDbLongTransaction
  3
AutoCAD 2000
 90
    32768
280
     0
281
     0
  0
CLASS
  1
LWPOLYLINE
  2
AcDbPolyline
  3
AutoCAD 2000
 90
    32768
280
     0
281
     1
  0
CLASS
  1
HATCH
  2
AcDbHatch
  3
AutoCAD 2000
 90
    32768
280
     0
281
     1
  0
CLASS
  1
XRECORD
  2
AcDbXrecord
  3
AutoCAD 2000
 90
    32768
280
     0
281
     0
  0
CLASS
  1
LONG_TRANSACTION
  2
AcDbLongTransaction
  3
AutoCAD 2000
 90
    32768
280
     0
281
     0
  0
CLASS
  1
LWPOLYLINE
  2
AcDbPolyline
  3
AutoCAD 2000
 90
    32768
280
     0
281
     1
  0
CLASS
  1
HATCH
  2
AcDbHatch
  3
AutoCAD 2000
 90
    32768
280
     0
281
     1
  0
CLASS
  1
XRECORD
  2
AcDbXrecord
  3
AutoCAD 2000
 90
    32768
280
     0
281
     0
  0
CLASS
  1
LONG_TRANSACTION
  2
AcDbLongTransaction
  3
AutoCAD 2000
 90
    32768
280
     0
281
     0
  0
CLASS
  1
LWPOLYLINE
  2
AcDbPolyline
  3
AutoCAD 2000
 90
    32768
280
     0
281
     1
  0
CLASS
  1
HATCH
  2
AcDbHatch
  3
AutoCAD 2000
 90
    32768
280
     0
281
     1
  0
CLASS
  1
XRECORD
  2
AcDbXrecord
  3
AutoCAD 2000
 90
    32768
280
     0
281
     0
  0
CLASS
  1
LONG_TRANSACTION
  2
AcDbLongTransaction
  3
AutoCAD 2000
 90
    32768
280
     0
281
     0
  0
CLASS
  1
LWPOLYLINE
  2
AcDbPolyline
  3
AutoCAD 2000
 90
    32768
280
     0
281
     1
  0
CLASS
  1
HATCH
  2
AcDbHatch
  3
AutoCAD 2000
 90
    32768
280
     0
281
     1
  0
CLASS
  1
XRECORD
  2
AcDbXrecord
  3
AutoCAD 2000
 90
    32768
280
     0
281
     0
  0
CLASS
  1
LONG_TRANSACTION
  2
AcDbLongTransaction
  3
AutoCAD 2000
 90
    32768
280
     0
281
     0
  0
CLASS
  1
LWPOLYLINE
  2
AcDbPolyline
  3
AutoCAD 2000
 90
    32768
280
     0
281
     1
  0
CLASS
  1
HATCH
  2
AcDbHatch
  3
AutoCAD 2000
 90
    32768
280
     0
281
     1
  0
CLASS
  1
XRECORD
  2
AcDbXrecord
  3
AutoCAD 2000
 90
    32768
280
     0
281
     0
  0
CLASS
  1
LONG_TRANSACTION
  2
AcDbLongTransaction
  3
AutoCAD 2000
 90
    32768
280
     0
281
     0
  0
CLASS
  1
LWPOLYLINE
  2
AcDbPolyline
  3
AutoCAD 2000
 90
    32768
280
     0
281
     1
  0
CLASS
  1
HATCH
  2
AcDbHatch
  3
AutoCAD 2000
 90
    32768
280
     0
281
     1
  0
CLASS
  1
XRECORD
  2
AcDbXrecord
  3
AutoCAD 2000
 90
    32768
280
     0
281
     0
  0
CLASS
  1
LONG_TRANSACTION
  2
AcDbLongTransaction
  3
AutoCAD 2000
 90
    32768
280
     0
281
     0
  0
CLASS
  1
LWPOLYLINE
  2
AcDbPolyline
  3
AutoCAD 2000
 90
    32768
280
     0
281
     1
  0
CLASS
  1
HATCH
  2
AcDbHatch
  3
AutoCAD 2000
 90
    32768
280
     0
281
     1
  0
CLASS
  1
XRECORD
  2
AcDbXrecord
  3
AutoCAD 2000
 90
    32768
280
     0
281
     0
  0
CLASS
  1
LONG_TRANSACTION
  2
AcDbLongTransaction
  3
AutoCAD 2000
 90
    32768
280
     0
281
     0
  0
CLASS
  1
LWPOLYLINE
  2
AcDbPolyline
  3
AutoCAD 2000
 90
    32768
280
     0
281
     1
  0
CLASS
  1
HATCH
  2
AcDbHatch
  3
AutoCAD 2000
 90
    32768
280
     0
281
     1
  0
CLASS
  1
XRECORD
  2
AcDbXrecord
  3
AutoCAD 2000
 90
    32768
280
     0
281
     0
  0
CLASS
  1
LONG_TRANSACTION
  2
AcDbLongTransaction
  3
AutoCAD 2000
 90
    32768
280
     0
281
     0
  0
CLASS
  1
LWPOLYLINE
  2
AcDbPolyline
  3
AutoCAD 2000
 90
    32768
280
     0
281
     1
  0
CLASS
  1
HATCH
  2
AcDbHatch
  3
AutoCAD 2000
 90
    32768
280
     0
281
     1
  0
CLASS
  1
XRECORD
  2
AcDbXrecord
  3
AutoCAD 2000
 90
    32768
280
     0
281
     0
  0
CLASS
  1
LONG_TRANSACTION
  2
AcDbLongTransaction
  3
AutoCAD 2000
 90
    32768
280
     0
281
     0
  0
CLASS
  1
LWPOLYLINE
  2
AcDbPolyline
  3
AutoCAD 2000
 90
    32768
280
     0
281
     1
  0
CLASS
  1
HATCH
  2
AcDbHatch
  3
AutoCAD 2000
 90
    32768
280
     0
281
     1
  0
CLASS
  1
XRECORD
  2
AcDbXrecord
  3
AutoCAD 2000
 90
    32768
280
     0
281
     0
  0
CLASS
  1
LONG_TRANSACTION
  2
AcDbLongTransaction
  3
AutoCAD 2000
 90
    32768
280
     0
281
     0
  0
CLASS
  1
LWPOLYLINE
  2
AcDbPolyline
  3
AutoCAD 2000
 90
    32768
280
     0
281
     1
  0
CLASS
  1
HATCH
  2
AcDbHatch
  3
AutoCAD 2000
 90
    32768
280
     0
281
     1
  0
CLASS
  1
XRECORD
  2
AcDbXrecord
  3
AutoCAD 2000
 90
    32768
280
     0
281
     0
  0
CLASS
  1
LONG_TRANSACTION
  2
AcDbLongTransaction
  3
AutoCAD 2000
 90
    32768
280
     0
281
     0
  0
CLASS
  1
LWPOLYLINE
  2
AcDbPolyline
  3
AutoCAD 2000
 90
    32768
280
     0
281
     1
  0
CLASS
  1
HATCH
  2
AcDbHatch
  3
AutoCAD 2000
 90
    32768
280
     0
281
     1
  0
CLASS
  1
XRECORD
  2
AcDbXrecord
  3
AutoCAD 2000
 90
    32768
280
     0
281
     0
  0
CLASS
  1
LONG_TRANSACTION
  2
AcDbLongTransaction
  3
AutoCAD 2000
 90
    32768
280
     0
281
     0
  0
CLASS
  1
LWPOLYLINE
  2
AcDbPolyline
  3
AutoCAD 2000
 90
    32768
280
     0
281
     1
  0
CLASS
  1
HATCH
  2
AcDbHatch
  3
AutoCAD 2000
 90
    32768
280
     0
281
     1
  0
CLASS
  1
XRECORD
  2
AcDbXrecord
  3
AutoCAD 2000
 90
    32768
280
     0
281
     0
  0
CLASS
  1
LONG_TRANSACTION
  2
AcDbLongTransaction
  3
AutoCAD 2000
 90
    32768
280
     0
281
     0
  0
CLASS
  1
LWPOLYLINE
  2
AcDbPolyline
  3
AutoCAD 2000
 90
    32768
280
     0
281
     1
  0
CLASS
  1
HATCH
  2
AcDbHatch
  3
AutoCAD 2000
 90
    32768
280
     0
281
     1
  0
CLASS
  1
XRECORD
  2
AcDbXrecord
  3
AutoCAD 2000
 90
    32768
280
     0
281
     0
  0
CLASS
  1
LONG_TRANSACTION
  2
AcDbLongTransaction
  3
AutoCAD 2000
 90
    32768
280
     0
281
     0
  0
CLASS
  1
LWPOLYLINE
  2
AcDbPolyline
  3
AutoCAD 2000
 90
    32768
280
     0
281
     1
  0
CLASS
  1
HATCH
  2
AcDbHatch
  3
AutoCAD 2000
 90
    32768
280
     0
281
     1
  0
CLASS
  1
XRECORD
  2
AcDbXrecord
  3
AutoCAD 2000
 90
    32768
280
     0
281
     0
  0
CLASS
  1
LONG_TRANSACTION
  2
AcDbLongTransaction
  3
AutoCAD 2000
 90
    32768
280
     0
281
     0
  0
CLASS
  1
LWPOLYLINE
  2
AcDbPolyline
  3
AutoCAD 2000
 90
    32768
280
     0
281
     1
  0
CLASS
  1
HATCH
  2
AcDbHatch
  3
AutoCAD 2000
 90
    32768
280
     0
281
     1
  0
CLASS
  1
XRECORD
  2
AcDbXrecord
  3
AutoCAD 2000
 90
    32768
280
     0
281
     0
  0
CLASS
  1
LONG_TRANSACTION
  2
AcDbLongTransaction
  3
AutoCAD 2000
 90
    32768
280
     0
281
     0
  0
CLASS
  1
LWPOLYLINE
  2
AcDbPolyline
  3
AutoCAD 2000
 90
    32768
280
     0
281
     1
  0
CLASS
  1
HATCH
  2
AcDbHatch
  3
AutoCAD 2000
 90
    32768
280
     0
281
     1
  0
CLASS
  1
XRECORD
  2
AcDbXrecord
  3
AutoCAD 2000
 90
    32768
280
     0
281
     0
  0
CLASS
  1
LONG_TRANSACTION
  2
AcDbLongTransaction
  3
AutoCAD 2000
 90
    32768
280
     0
281
     0
  0
CLASS
  1
LWPOLYLINE
  2
AcDbPolyline
  3
AutoCAD 2000
 90
    32768
280
     0
281
     1
  0
CLASS
  1
HATCH
  2
AcDbHatch
  3
AutoCAD 2000
 90
    32768
280
     0
281
     1
  0
CLASS
  1
XRECORD
  2
AcDbXrecord
  3
AutoCAD 2000
 90
    32768
280
     0
281
     0
  0
CLASS
  1
LONG_TRANSACTION
  2
AcDbLongTransaction
  3
AutoCAD 2000
 90
    32768
280
     0
281
     0
  0
CLASS
  1
LWPOLYLINE
  2
AcDbPolyline
  3
AutoCAD 2000
 90
    32768
280
     0
281
     1
  0
CLASS
  1
HATCH
  2
AcDbHatch
  3
AutoCAD 2000
 90
    32768
280
     0
281
     1
  0
CLASS
  1
XRECORD
  2
AcDbXrecord
  3
AutoCAD 2000
 90
    32768
280
     0
281
     0
  0
CLASS
  1
LONG_TRANSACTION
  2
AcDbLongTransaction
  3
AutoCAD 2000
 90
    32768
280
     0
281
     0
  0
CLASS
  1
LWPOLYLINE
  2
AcDbPolyline
  3
AutoCAD 2000
 90
    32768
280
     0
281
     1
  0
CLASS
  1
HATCH
  2
AcDbHatch
  3
AutoCAD 2000
 90
    32768
280
     0
281
     1
  0
CLASS
  1
XRECORD
  2
AcDbXrecord
  3
AutoCAD 2000
 90
    32768
280
     0
281
     0
  0
CLASS
  1
LONG_TRANSACTION
  2
AcDbLongTransaction
  3
AutoCAD 2000
 90
    32768
280
     0
281
     0
  0
CLASS
  1
LWPOLYLINE
  2
AcDbPolyline
  3
AutoCAD 2000
 90
    32768
280
     0
281
     1
  0
CLASS
  1
HATCH
  2
AcDbHatch
  3
AutoCAD 2000
 90
    32768
280
     0
281
     1
  0
CLASS
  1
XRECORD
  2
AcDbXrecord
  3
AutoCAD 2000
 90
    32768
280
     0
281
     0
  0
CLASS
  1
LONG_TRANSACTION
  2
AcDbLongTransaction
  3
AutoCAD 2000
 90
    32768
280
     0
281
     0
  0
CLASS
  1
LWPOLYLINE
  2
AcDbPolyline
  3
AutoCAD 2000
 90
    32768
280
     0
281
     1
  0
CLASS
  1
HATCH
  2
AcDbHatch
  3
AutoCAD 2000
 90
    32768
280
     0
281
     1
  0
CLASS
  1
XRECORD
  2
AcDbXrecord
  3
AutoCAD 2000
 90
    32768
280
     0
281
     0
  0
CLASS
  1
LONG_TRANSACTION
  2
AcDbLongTransaction
  3
AutoCAD 2000
 90
    32768
280
     0
281
     0
  0
CLASS
  1
LWPOLYLINE
  2
AcDbPolyline
  3
AutoCAD 2000
 90
    32768
280
     0
281
     1
  0
CLASS
  1
HATCH
  2
AcDbHatch
  3
AutoCAD 2000
 90
    32768
280
     0
281
     1
  0
CLASS
  1
XRECORD
  2
AcDbXrecord
  3
AutoCAD 2000
 90
    32768
280
     0
281
     0
  0
CLASS
  1
LONG_TRANSACTION
  2
AcDbLongTransaction
  3
AutoCAD 2000
 90
    32768
280
     0
281
     0
  0
CLASS
  1
LWPOLYLINE
  2
AcDbPolyline
  3
AutoCAD 2000
 90
    32768
280
     0
281
     1
  0
CLASS
  1
HATCH
  2
AcDbHatch
  3
AutoCAD 2000
 90
    32768
280
     0
281
     1
  0
CLASS
  1
XRECORD
  2
AcDbXrecord
  3
AutoCAD 2000
 90
    32768
280
     0
281
     0
  0
CLASS
  1
LONG_TRANSACTION
  2
AcDbLongTransaction
  3
AutoCAD 2000
 90
    32768
280
     0
281
     0
  0
CLASS
  1
LWPOLYLINE
  2
AcDbPolyline
  3
AutoCAD 2000
 90
    32768
280
     0
281
     1
  0
CLASS
  1
HATCH
  2
AcDbHatch
  3
AutoCAD 2000
 90
    32768
280
     0
281
     1
  0
CLASS
  1
XRECORD
  2
AcDbXrecord
  3
AutoCAD 2000
 90
    32768
280
     0
281
     0
  0
CLASS
  1
LONG_TRANSACTION
  2
AcDbLongTransaction
  3
AutoCAD 2000
 90
    32768
280
     0
281
     0
  0
CLASS
  1
LWPOLYLINE
  2
AcDbPolyline
  3
AutoCAD 2000
 90
    32768
280
     0
281
     1
  0
CLASS
  1
HATCH
  2
AcDbHatch
  3
AutoCAD 2000
 90
    32768
280
     0
281
     1
  0
CLASS
  1
XRECORD
  2
AcDbXrecord
  3
AutoCAD 2000
 90
    32768
280
     0
281
     0
  0
CLASS
  1
LONG_TRANSACTION
  2
AcDbLongTransaction
  3
AutoCAD 2000
 90
    32768
280
     0
281
     0
  0
CLASS
  1
LWPOLYLINE
  2
AcDbPolyline
  3
AutoCAD 2000
 90
    32768
280
     0
281
     1
  0
CLASS
  1
HATCH
  2
AcDbHatch
  3
AutoCAD 2000
 90
    32768
280
     0
281
     1
  0
CLASS
  1
XRECORD
  2
AcDbXrecord
  3
AutoCAD 2000
 90
    32768
280
     0
281
     0
  0
CLASS
  1
LONG_TRANSACTION
  2
AcDbLongTransaction
  3
AutoCAD 2000
 90
    32768
280
     0
281
     0
  0
CLASS
  1
LWPOLYLINE
  2
AcDbPolyline
  3
AutoCAD 2000
 90
    32768
280
     0
281
     1
  0
CLASS
  1
HATCH
  2
AcDbHatch
  3
AutoCAD 2000
 90
    32768
280
     0
281
     1
  0
CLASS
  1
XRECORD
  2
AcDbXrecord
  3
AutoCAD 2000
 90
    32768
280
     0
281
     0
  0
CLASS
  1
LONG_TRANSACTION
  2
AcDbLongTransaction
  3
AutoCAD 2000
 90
    32768
280
     0
281
     0
  0
CLASS
  1
LWPOLYLINE
  2
AcDbPolyline
  3
AutoCAD 2000
 90
    32768
280
     0
281
     1
  0
CLASS
  1
HATCH
  2
AcDbHatch
  3
AutoCAD 2000
 90
    32768
280
     0
281
     1
  0
CLASS
  1
XRECORD
  2
AcDbXrecord
  3
AutoCAD 2000
 90
    32768
280
     0
281
     0
  0
CLASS
  1
LONG_TRANSACTION
  2
AcDbLongTransaction
  3
AutoCAD 2000
 90
    32768
280
     0
281
     0
  0
CLASS
  1
LWPOLYLINE
  2
AcDbPolyline
  3
AutoCAD 2000
 90
    32768
280
     0
281
     1
  0
CLASS
  1
HATCH
  2
AcDbHatch
  3
AutoCAD 2000
 90
    32768
280
     0
281
     1
  0
CLASS
  1
XRECORD
  2
AcDbXrecord
  3
AutoCAD 2000
 90
    32768
280
     0
281
     0
  0
CLASS
  1
LONG_TRANSACTION
  2
AcDbLongTransaction
  3
AutoCAD 2000
 90
    32768
280
     0
281
     0
  0
CLASS
  1
LWPOLYLINE
  2
AcDbPolyline
  3
AutoCAD 2000
 90
    32768
280
     0
281
     1
  0
CLASS
  1
HATCH
  2
AcDbHatch
  3
AutoCAD 2000
 90
    32768
280
     0
281
     1
  0
CLASS
  1
XRECORD
  2
AcDbXrecord
  3
AutoCAD 2000
 90
    32768
280
     0
281
     0
  0
CLASS
  1
LONG_TRANSACTION
  2
AcDbLongTransaction
  3
AutoCAD 2000
 90
    32768
280
     0
281
     0
  0
CLASS
  1
LWPOLYLINE
  2
AcDbPolyline
  3
AutoCAD 2000
 90
    32768
280
     0
281
     1
  0
CLASS
  1
HATCH
  2
AcDbHatch
  3
AutoCAD 2000
 90
    32768
280
     0
281
     1
  0
CLASS
  1
XRECORD
  2
AcDbXrecord
  3
AutoCAD 2000
 90
    32768
280
     0
281
     0
  0
CLASS
  1
LONG_TRANSACTION
  2
AcDbLongTransaction
  3
AutoCAD 2000
 90
    32768
280
     0
281
     0
  0
CLASS
  1
LWPOLYLINE
  2
AcDbPolyline
  3
AutoCAD 2000
 90
    32768
280
     0
281
     1
  0
CLASS
  1
HATCH
  2
AcDbHatch
  3
AutoCAD 2000
 90
    32768
280
     0
281
     1
  0
CLASS
  1
XRECORD
  2
AcDbXrecord
  3
AutoCAD 2000
 90
    32768
280
     0
281
     0
  0
CLASS
  1
DICTIONARYVAR
  2
AcDbDictionaryVar
  3
AutoCAD 2000
 90
        0
280
     0
281
     0
  0
CLASS
  1
LONG_TRANSACTION
  2
AcDbLongTransaction
  3
AutoCAD 2000
 90
    32768
280
     0
281
     0
  0
CLASS
  1
LWPOLYLINE
  2
AcDbPolyline
  3
AutoCAD 2000
 90
    32768
280
     0
281
     1
  0
CLASS
  1
HATCH
  2
AcDbHatch
  3
AutoCAD 2000
 90
    32768
280
     0
281
     1
  0
CLASS
  1
XRECORD
  2
AcDbXrecord
  3
AutoCAD 2000
 90
    32768
280
     0
281
     0
  0
CLASS
  1
LONG_TRANSACTION
  2
AcDbLongTransaction
  3
AutoCAD 2000
 90
    32768
280
     0
281
     0
  0
CLASS
  1
LWPOLYLINE
  2
AcDbPolyline
  3
AutoCAD 2000
 90
    32768
280
     0
281
     1
  0
CLASS
  1
HATCH
  2
AcDbHatch
  3
AutoCAD 2000
 90
    32768
280
     0
281
     1
  0
CLASS
  1
XRECORD
  2
AcDbXrecord
  3
AutoCAD 2000
 90
    32768
280
     0
281
     0
  0
ENDSEC
  0
SECTION
  2
TABLES
  0
TABLE
  2
VPORT
  5
8
330
0
100
AcDbSymbolTable
 70
     2
  0
VPORT
  5
7560
330
8
100
AcDbSymbolTableRecord
100
AcDbViewportTableRecord
  2
*Active
 70
     0
 10
0.0
 20
0.0
 11
1.0
 21
1.0
 12
142.3597210152768
 22
-105.3657817337263
 13
0.0
 23
0.0
 14
1.0
 24
1.0
 15
10.0
 25
10.0
 16
0.0
 26
0.0
 36
1.0
 17
0.0
 27
0.0
 37
0.0
 40
556.4802026499257
 41
1.700716845878136
 42
50.0
 43
0.0
 44
0.0
 50
0.0
 51
0.0
 71
     0
 72
   100
 73
     1
 74
     1
 75
     0
 76
     0
 77
     0
 78
     0
281
     0
 65
     1
110
0.0
120
0.0
130
0.0
111
1.0
121
0.0
131
0.0
112
0.0
122
1.0
132
0.0
 79
     0
146
0.0
  0
ENDTAB
  0
TABLE
  2
LTYPE
  5
5
330
0
100
AcDbSymbolTable
 70
     5
  0
LTYPE
  5
13
330
5
100
AcDbSymbolTableRecord
100
AcDbLinetypeTableRecord
  2
BYBLOCK
 70
     0
  3

 72
    65
 73
     0
 40
0.0
  0
LTYPE
  5
14
330
5
100
AcDbSymbolTableRecord
100
AcDbLinetypeTableRecord
  2
BYLAYER
 70
     0
  3

 72
    65
 73
     0
 40
0.0
  0
LTYPE
  5
15
330
5
100
AcDbSymbolTableRecord
100
AcDbLinetypeTableRecord
  2
CONTINUOUS
 70
     0
  3
Solid line
 72
    65
 73
     0
 40
0.0
  0
LTYPE
  5
22
330
5
100
AcDbSymbolTableRecord
100
AcDbLinetypeTableRecord
  2
CONTINOUS
 70
     0
  3
Solid line
 72
    65
 73
     0
 40
0.0
  0
LTYPE
  5
23
330
5
100
AcDbSymbolTableRecord
100
AcDbLinetypeTableRecord
  2
DASHED
 70
     0
  3
__ __ __ __ __ __ __ __ __ __ __ __ __ __ __
 72
    65
 73
     2
 40
0.75
 49
0.5
 74
     0
 49
-0.25
 74
     0
  0
LTYPE
  5
24
330
5
100
AcDbSymbolTableRecord
100
AcDbLinetypeTableRecord
  2
DASHDOT
 70
     0
  3
__ . __ . __ . __ . __ . __ . __ . __ . __ . __
 72
    65
 73
     4
 40
1.0
 49
0.5
 74
     0
 49
-0.25
 74
     0
 49
0.0
 74
     0
 49
-0.25
 74
     0
  0
LTYPE
  5
392A
330
5
100
AcDbSymbolTableRecord
100
AcDbLinetypeTableRecord
  2
DIVIDE
 70
     0
  3
Divide ____ . . ____ . . ____ . . ____ . . ____
 72
    65
 73
     6
 40
1.25
 49
0.5
 74
     0
 49
-0.25
 74
     0
 49
0.0
 74
     0
 49
-0.25
 74
     0
 49
0.0
 74
     0
 49
-0.25
 74
     0
  0
ENDTAB
  0
TABLE
  2
LAYER
  5
2
330
0
100
AcDbSymbolTable
 70
    14
  0
LAYER
  5
10
330
2
100
AcDbSymbolTableRecord
100
AcDbLayerTableRecord
  2
0
 70
     0
 62
     7
  6
CONTINOUS
370
    -3
390
F
  0
LAYER
  5
2F
330
2
100
AcDbSymbolTableRecord
100
AcDbLayerTableRecord
  2
10
 70
     0
 62
     4
  6
CONTINOUS
370
    -3
390
F
  0
LAYER
  5
31
330
2
100
AcDbSymbolTableRecord
100
AcDbLayerTableRecord
  2
12
 70
     0
 62
     3
  6
CONTINOUS
370
    -3
390
F
  0
LAYER
  5
35
330
2
100
AcDbSymbolTableRecord
100
AcDbLayerTableRecord
  2
16
 70
     4
 62
     6
  6
DASHDOT
370
    -3
390
F
  0
LAYER
  5
36
330
2
100
AcDbSymbolTableRecord
100
AcDbLayerTableRecord
  2
17
 70
     0
 62
     2
  6
DASHDOT
370
    -3
390
F
  0
LAYER
  5
38
330
2
100
AcDbSymbolTableRecord
100
AcDbLayerTableRecord
  2
19
 70
     0
 62
     7
  6
CONTINOUS
370
    -3
390
F
  0
LAYER
  5
3C
330
2
100
AcDbSymbolTableRecord
100
AcDbLayerTableRecord
  2
11
 70
     0
 62
     1
  6
CONTINOUS
370
    -3
390
F
  0
LAYER
  5
3D
330
2
100
AcDbSymbolTableRecord
100
AcDbLayerTableRecord
  2
24
 70
     0
 62
     2
  6
CONTINOUS
370
    -3
390
F
  0
LAYER
  5
3A2
330
2
100
AcDbSymbolTableRecord
100
AcDbLayerTableRecord
  2
30
 70
     0
 62
     9
  6
CONTINUOUS
370
    -3
390
F
  0
LAYER
  5
3A4
330
2
100
AcDbSymbolTableRecord
100
AcDbLayerTableRecord
  2
DEFPOINTS
 70
     0
 62
     7
  6
CONTINUOUS
290
     0
370
    -3
390
F
  0
LAYER
  5
4C43
330
2
100
AcDbSymbolTableRecord
100
AcDbLayerTableRecord
  2
18
 70
     0
 62
     5
  6
DIVIDE
370
    -3
390
F
  0
LAYER
  5
5E73
330
2
100
AcDbSymbolTableRecord
100
AcDbLayerTableRecord
  2
1
 70
     0
 62
     7
  6
CONTINUOUS
370
    -3
390
F
  0
LAYER
  5
5E74
330
2
100
AcDbSymbolTableRecord
100
AcDbLayerTableRecord
  2
TOP
 70
     0
 62
     7
  6
CONTINUOUS
370
    -3
390
F
  0
LAYER
  5
7124
330
2
100
AcDbSymbolTableRecord
100
AcDbLayerTableRecord
  2
3
 70
     0
 62
     7
  6
CONTINUOUS
370
    -3
390
F
  0
ENDTAB
  0
TABLE
  2
STYLE
  5
3
330
0
100
AcDbSymbolTable
 70
     3
  0
STYLE
  5
11
330
3
100
AcDbSymbolTableRecord
100
AcDbTextStyleTableRecord
  2
STANDARD
 70
     0
 40
0.0
 41
1.0
 50
0.0
 71
     0
 42
2.0
  3
txt.shx
  4
bigfont.shx
  0
STYLE
  5
42
330
3
100
AcDbSymbolTableRecord
100
AcDbTextStyleTableRecord
  2
STANDARD1
 70
     0
 40
0.0
 41
1.0
 50
0.0
 71
     0
 42
5.0
  3
MONOTXT
  4
BIGFONT
  0
STYLE
  5
5E75
330
3
100
AcDbSymbolTableRecord
100
AcDbTextStyleTableRecord
  2
UGMTXT
 70
     0
 40
0.0
 41
1.0
 50
0.0
 71
     0
 42
0.2
  3
ugmtxt
  4
bigfont
  0
ENDTAB
  0
TABLE
  2
VIEW
  5
6
330
0
100
AcDbSymbolTable
 70
     3
  0
VIEW
  5
230C
330
6
100
AcDbSymbolTableRecord
100
AcDbViewTableRecord
  2
OLE1
 70
     0
 40
148.9124878027714
 10
429.4976280407222
 20
2.560626997828478
 41
103.1458057716444
 11
0.0
 21
0.0
 31
1.0
 12
0.0
 22
0.0
 32
0.0
 42
50.0
 43
0.0
 44
0.0
 50
0.0
 71
     0
281
     0
 72
     0
  0
VIEW
  5
230E
330
6
100
AcDbSymbolTableRecord
100
AcDbViewTableRecord
  2
OLE2
 70
     0
 40
170.7786920545775
 10
322.664969958371
 20
-5.978304054290276
 41
102.4672152327465
 11
0.0
 21
0.0
 31
1.0
 12
0.0
 22
0.0
 32
0.0
 42
50.0
 43
0.0
 44
0.0
 50
0.0
 71
     0
281
     0
 72
     0
  0
VIEW
  5
23AA
330
6
100
AcDbSymbolTableRecord
100
AcDbViewTableRecord
  2
OLE3
 70
     0
 40
591.7897393182231
 10
84.79698158148218
 20
-46.09336010803995
 41
388.7920961799953
 11
0.0
 21
0.0
 31
1.0
 12
0.0
 22
0.0
 32
0.0
 42
50.0
 43
0.0
 44
0.0
 50
0.0
 71
     0
281
     0
 72
     0
  0
ENDTAB
  0
TABLE
  2
UCS
  5
7
330
0
100
AcDbSymbolTable
 70
     0
  0
ENDTAB
  0
TABLE
  2
APPID
  5
9
330
0
100
AcDbSymbolTable
 70
     2
  0
APPID
  5
12
330
9
100
AcDbSymbolTableRecord
100
AcDbRegAppTableRecord
  2
ACAD
 70
     0
  0
APPID
  5
ECD
330
9
100
AcDbSymbolTableRecord
100
AcDbRegAppTableRecord
  2
CONTENTBLOCKICON
 70
     0
  0
ENDTAB
  0
TABLE
  2
DIMSTYLE
  5
A
330
0
100
AcDbSymbolTable
 70
     1
100
AcDbDimStyleTable
 71
     1
340
175
  0
DIMSTYLE
105
175
102
{ACAD_REACTORS
330
C4F
330
BD8
330
608C
330
608B
330
6056
330
6116
330
65C7
330
65C8
330
65A1
330
65A4
330
65A0
330
65A3
330
65A5
330
65A2
330
65CD
330
65CC
330
6E43
330
71B5
330
71B6
330
71B7
330
7351
330
7452
330
7451
330
7531
330
753E
102
}
330
A
100
AcDbSymbolTableRecord
100
AcDbDimStyleTableRecord
  2
STANDARD
 70
     0
 41
2.0
 42
1.0
 43
0.5
 44
0.5
 73
     0
 74
     0
 77
     3
 78
    12
140
4.0
147
1.0
271
     1
272
     1
340
11
341
3B2
342
3B2
  0
ENDTAB
  0
TABLE
  2
BLOCK_RECORD
  5
1
330
0
100
AcDbSymbolTable
 70
    30
  0
BLOCK_RECORD
  5
1E
102
{ACAD_XDICTIONARY
360
178
102
}
330
1
100
AcDbSymbolTableRecord
100
AcDbBlockTableRecord
  2
*MODEL_SPACE
340
74FB
  0
BLOCK_RECORD
  5
1A
102
{ACAD_XDICTIONARY
360
17A
102
}
330
1
100
AcDbSymbolTableRecord
100
AcDbBlockTableRecord
  2
*PAPER_SPACE
340
74FC
  0
BLOCK_RECORD
  5
3B2
330
1
100
AcDbSymbolTableRecord
100
AcDbBlockTableRecord
  2
_OPEN
340
0
102
{BLKREFS
331
70BC
331
70BD
331
704F
331
7050
331
703D
331
703E
331
7046
331
7047
331
6BDE
331
6BDF
331
6C70
331
6C71
331
6C42
331
6C43
331
6C67
331
6C68
331
6C54
331
6C55
331
6C4B
331
6C4C
331
6C5E
331
6C5F
331
6BF9
331
6BFA
331
6C02
331
6C03
331
6C82
331
6C83
331
6C79
331
6C7A
331
70B3
331
70B4
331
724E
331
724F
331
7257
331
7258
331
7260
331
7261
331
74B5
331
74B6
331
749F
331
74A0
331
747B
331
747C
331
74BE
331
74BF
331
74C7
331
74C8
331
7518
331
7519
331
7536
331
7537
331
7543
331
7544
331
7550
102
}
  0
BLOCK_RECORD
  5
BD9
330
1
100
AcDbSymbolTableRecord
100
AcDbBlockTableRecord
  2
*D1
340
0
  0
BLOCK_RECORD
  5
622C
330
1
100
AcDbSymbolTableRecord
100
AcDbBlockTableRecord
  2
*D2
340
0
  0
BLOCK_RECORD
  5
6244
330
1
100
AcDbSymbolTableRecord
100
AcDbBlockTableRecord
  2
*D3
340
0
  0
BLOCK_RECORD
  5
6250
330
1
100
AcDbSymbolTableRecord
100
AcDbBlockTableRecord
  2
*D4
340
0
  0
BLOCK_RECORD
  5
6268
330
1
100
AcDbSymbolTableRecord
100
AcDbBlockTableRecord
  2
*D5
340
0
  0
BLOCK_RECORD
  5
6735
330
1
100
AcDbSymbolTableRecord
100
AcDbBlockTableRecord
  2
*D6
340
0
  0
BLOCK_RECORD
  5
6741
330
1
100
AcDbSymbolTableRecord
100
AcDbBlockTableRecord
  2
*D7
340
0
  0
BLOCK_RECORD
  5
674D
330
1
100
AcDbSymbolTableRecord
100
AcDbBlockTableRecord
  2
*D8
340
0
  0
BLOCK_RECORD
  5
6759
330
1
100
AcDbSymbolTableRecord
100
AcDbBlockTableRecord
  2
*D9
340
0
  0
BLOCK_RECORD
  5
6765
330
1
100
AcDbSymbolTableRecord
100
AcDbBlockTableRecord
  2
*D10
340
0
  0
BLOCK_RECORD
  5
6771
330
1
100
AcDbSymbolTableRecord
100
AcDbBlockTableRecord
  2
*D11
340
0
  0
BLOCK_RECORD
  5
678A
330
1
100
AcDbSymbolTableRecord
100
AcDbBlockTableRecord
  2
*D12
340
0
  0
BLOCK_RECORD
  5
6796
330
1
100
AcDbSymbolTableRecord
100
AcDbBlockTableRecord
  2
*D13
340
0
  0
BLOCK_RECORD
  5
67A2
330
1
100
AcDbSymbolTableRecord
100
AcDbBlockTableRecord
  2
*D14
340
0
  0
BLOCK_RECORD
  5
67AE
330
1
100
AcDbSymbolTableRecord
100
AcDbBlockTableRecord
  2
*D15
340
0
  0
BLOCK_RECORD
  5
6E79
330
1
100
AcDbSymbolTableRecord
100
AcDbBlockTableRecord
  2
*D16
340
0
  0
BLOCK_RECORD
  5
70F8
330
1
100
AcDbSymbolTableRecord
100
AcDbBlockTableRecord
  2
*U17
340
0
102
{BLKREFS
331
71F9
102
}
  0
BLOCK_RECORD
  5
7225
330
1
100
AcDbSymbolTableRecord
100
AcDbBlockTableRecord
  2
*D18
340
0
  0
BLOCK_RECORD
  5
7232
330
1
100
AcDbSymbolTableRecord
100
AcDbBlockTableRecord
  2
*D19
340
0
  0
BLOCK_RECORD
  5
723E
330
1
100
AcDbSymbolTableRecord
100
AcDbBlockTableRecord
  2
*D20
340
0
  0
BLOCK_RECORD
  5
73DD
330
1
100
AcDbSymbolTableRecord
100
AcDbBlockTableRecord
  2
*D21
340
0
  0
BLOCK_RECORD
  5
73EA
330
1
100
AcDbSymbolTableRecord
100
AcDbBlockTableRecord
  2
*D22
340
0
  0
BLOCK_RECORD
  5
7454
330
1
100
AcDbSymbolTableRecord
100
AcDbBlockTableRecord
  2
*D23
340
0
  0
BLOCK_RECORD
  5
7460
330
1
100
AcDbSymbolTableRecord
100
AcDbBlockTableRecord
  2
*D24
340
0
  0
BLOCK_RECORD
  5
746C
330
1
100
AcDbSymbolTableRecord
100
AcDbBlockTableRecord
  2
*D25
340
0
  0
BLOCK_RECORD
  5
7514
330
1
100
AcDbSymbolTableRecord
100
AcDbBlockTableRecord
  2
*D26
340
0
  0
BLOCK_RECORD
  5
7532
330
1
100
AcDbSymbolTableRecord
100
AcDbBlockTableRecord
  2
*D27
340
0
  0
BLOCK_RECORD
  5
753F
330
1
100
AcDbSymbolTableRecord
100
AcDbBlockTableRecord
  2
*D28
340
0
  0
BLOCK_RECORD
  5
754D
330
1
100
AcDbSymbolTableRecord
100
AcDbBlockTableRecord
  2
*D29
340
0
  0
ENDTAB
  0
ENDSEC
  0
SECTION
  2
BLOCKS
  0
BLOCK
  5
1F
330
1E
100
AcDbEntity
  8
0
100
AcDbBlockBegin
  2
*MODEL_SPACE
 70
     0
 10
0.0
 20
0.0
 30
0.0
  3
*MODEL_SPACE
  1

  0
ENDBLK
  5
20
330
1E
100
AcDbEntity
  8
0
100
AcDbBlockEnd
  0
BLOCK
  5
1B
330
1A
100
AcDbEntity
 67
     1
  8
0
100
AcDbBlockBegin
  2
*PAPER_SPACE
 70
     0
 10
0.0
 20
0.0
 30
0.0
  3
*PAPER_SPACE
  1

  0
ENDBLK
  5
1C
330
1A
100
AcDbEntity
 67
     1
  8
0
100
AcDbBlockEnd
  0
BLOCK
  5
3B6
330
3B2
100
AcDbEntity
  8
0
100
AcDbBlockBegin
  2
_OPEN
 70
     0
 10
0.0
 20
0.0
 30
0.0
  3
_OPEN
  1

  0
LINE
  5
3B3
330
3B2
100
AcDbEntity
  8
30
  6
Continuous
 62
     0
100
AcDbLine
 10
-1.0
 20
0.1666666666666666
 30
0.0
 11
0.0
 21
0.0
 31
0.0
  0
LINE
  5
3B4
330
3B2
100
AcDbEntity
  8
30
  6
Continuous
 62
     0
100
AcDbLine
 10
-1.0
 20
-0.1666666666666666
 30
0.0
 11
0.0
 21
0.0
 31
0.0
  0
LINE
  5
3B5
330
3B2
100
AcDbEntity
  8
30
  6
Continuous
 62
     0
100
AcDbLine
 10
0.0
 20
0.0
 30
0.0
 11
-1.0
 21
0.0
 31
0.0
  0
ENDBLK
  5
3B7
330
3B2
100
AcDbEntity
  8
0
100
AcDbBlockEnd
  0
BLOCK
  5
BE3
330
BD9
100
AcDbEntity
  8
0
100
AcDbBlockBegin
  2
*D1
 70
     1
 10
0.0
 20
0.0
 30
0.0
  3
*D1
  1

  0
LINE
  5
70B9
330
BD9
100
AcDbEntity
  8
30
  6
Continuous
 62
     0
100
AcDbLine
 10
315.1041177097285
 20
-294.8593533752837
 30
0.0
 11
323.7021826079416
 21
-294.8593533752837
 31
0.0
  0
LINE
  5
70BA
330
BD9
100
AcDbEntity
  8
30
  6
Continuous
 62
     0
100
AcDbLine
 10
316.1041177097286
 20
-284.8593533752837
 30
0.0
 11
323.7021826079416
 21
-284.8593533752837
 31
0.0
  0
LINE
  5
70BB
330
BD9
100
AcDbEntity
  8
30
  6
Continuous
 62
     0
100
AcDbLine
 10
323.2021826079416
 20
-292.8593533752837
 30
0.0
 11
323.2021826079416
 21
-286.8593533752837
 31
0.0
  0
INSERT
  5
70BC
330
BD9
100
AcDbEntity
  8
30
  6
Continuous
 62
     0
100
AcDbBlockReference
  2
_OPEN
 10
323.2021826079416
 20
-294.8593533752837
 30
0.0
 41
2.0
 42
2.0
 43
2.0
 50
270.0
  0
INSERT
  5
70BD
330
BD9
100
AcDbEntity
  8
30
  6
Continuous
 62
     0
100
AcDbBlockReference
  2
_OPEN
 10
323.2021826079416
 20
-284.8593533752837
 30
0.0
 41
2.0
 42
2.0
 43
2.0
 50
90.0
  0
MTEXT
  5
70BE
330
BD9
100
AcDbEntity
  8
30
  6
Continuous
 62
     0
100
AcDbMText
 10
320.2021826079417
 20
-284.8593533752837
 30
0.0
 40
4.0
 41
0.0
 71
     5
 72
     1
  1
\A1;max10
 11
0.0000000000000001
 21
1.0
 31
0.0
 73
     1
 44
1.0
1001
ACAD
1000
MTEXTBEGIN
1070
    73
1070
     1
1070
    44
1040
1.0
1070
    74
1070
     0
1000
MTEXTEND
  0
POINT
  5
70BF
330
BD9
100
AcDbEntity
  8
DEFPOINTS
  6
Continuous
 62
     0
100
AcDbPoint
 10
314.1041177097286
 20
-294.8593533752837
 30
0.0
  0
POINT
  5
70C0
330
BD9
100
AcDbEntity
  8
DEFPOINTS
  6
Continuous
 62
     0
100
AcDbPoint
 10
315.1041177097285
 20
-284.8593533752837
 30
0.0
  0
POINT
  5
70C1
330
BD9
100
AcDbEntity
  8
DEFPOINTS
  6
Continuous
 62
     0
100
AcDbPoint
 10
323.2021826079416
 20
-284.8593533752837
 30
0.0
  0
ENDBLK
  5
BE4
330
BD9
100
AcDbEntity
  8
0
100
AcDbBlockEnd
  0
BLOCK
  5
6236
330
622C
100
AcDbEntity
  8
0
100
AcDbBlockBegin
  2
*D2
 70
     1
 10
0.0
 20
0.0
 30
0.0
  3
*D2
  1

  0
LINE
  5
704C
330
622C
100
AcDbEntity
  8
30
  6
Continuous
 62
     0
100
AcDbLine
 10
-45.0
 20
-78.5
 30
0.0
 11
-45.0
 21
-110.4999999999999
 31
0.0
  0
LINE
  5
704D
330
622C
100
AcDbEntity
  8
30
  6
Continuous
 62
     0
100
AcDbLine
 10
45.0
 20
-78.5
 30
0.0
 11
45.0
 21
-110.4999999999999
 31
0.0
  0
LINE
  5
704E
330
622C
100
AcDbEntity
  8
30
  6
Continuous
 62
     0
100
AcDbLine
 10
-43.0
 20
-110.0
 30
0.0
 11
43.0
 21
-110.0
 31
0.0
  0
INSERT
  5
704F
330
622C
100
AcDbEntity
  8
30
  6
Continuous
 62
     0
100
AcDbBlockReference
  2
_OPEN
 10
-45.0
 20
-110.0
 30
0.0
 41
2.0
 42
2.0
 43
2.0
 50
180.0
  0
INSERT
  5
7050
330
622C
100
AcDbEntity
  8
30
  6
Continuous
 62
     0
100
AcDbBlockReference
  2
_OPEN
 10
45.0
 20
-110.0
 30
0.0
 41
2.0
 42
2.0
 43
2.0
  0
MTEXT
  5
7051
330
622C
100
AcDbEntity
  8
30
  6
Continuous
 62
     0
100
AcDbMText
 10
0.0000000000000002
 20
-107.0
 30
0.0
 40
4.0
 41
0.0
 71
     5
 72
     1
  1
\A1;90
 73
     1
 44
1.0
1001
ACAD
1000
MTEXTBEGIN
1070
    73
1070
     1
1070
    44
1040
1.0
1070
    74
1070
     0
1000
MTEXTEND
  0
POINT
  5
7052
330
622C
100
AcDbEntity
  8
DEFPOINTS
  6
Continuous
 62
     0
100
AcDbPoint
 10
-45.0
 20
-77.5
 30
0.0
  0
POINT
  5
7053
330
622C
100
AcDbEntity
  8
DEFPOINTS
  6
Continuous
 62
     0
100
AcDbPoint
 10
45.0
 20
-77.5
 30
0.0
  0
POINT
  5
7054
330
622C
100
AcDbEntity
  8
DEFPOINTS
  6
Continuous
 62
     0
100
AcDbPoint
 10
45.0
 20
-110.0
 30
0.0
  0
ENDBLK
  5
6237
330
622C
100
AcDbEntity
  8
0
100
AcDbBlockEnd
  0
BLOCK
  5
624E
330
6244
100
AcDbEntity
  8
0
100
AcDbBlockBegin
  2
*D3
 70
     1
 10
0.0
 20
0.0
 30
0.0
  3
*D3
  1

  0
LINE
  5
703A
330
6244
100
AcDbEntity
  8
30
  6
Continuous
 62
     0
100
AcDbLine
 10
42.24999143870809
 20
-84.99999488000776
 30
0.0
 11
77.29437799518198
 21
-84.99999488000776
 31
0.0
  0
LINE
  5
703B
330
6244
100
AcDbEntity
  8
30
  6
Continuous
 62
     0
100
AcDbLine
 10
42.24999143870809
 20
85.00000325826205
 30
0.0
 11
77.294377995182
 21
85.00000325826205
 31
0.0
  0
LINE
  5
703C
330
6244
100
AcDbEntity
  8
30
  6
Continuous
 62
     0
100
AcDbLine
 10
76.79437799518197
 20
-82.99999488000777
 30
0.0
 11
76.79437799518201
 21
83.00000325826204
 31
0.0
  0
INSERT
  5
703D
330
6244
100
AcDbEntity
  8
30
  6
Continuous
 62
     0
100
AcDbBlockReference
  2
_OPEN
 10
76.79437799518197
 20
-84.99999488000776
 30
0.0
 41
2.0
 42
2.0
 43
2.0
 50
270.0
  0
INSERT
  5
703E
330
6244
100
AcDbEntity
  8
30
  6
Continuous
 62
     0
100
AcDbBlockReference
  2
_OPEN
 10
76.79437799518201
 20
85.00000325826205
 30
0.0
 41
2.0
 42
2.0
 43
2.0
 50
90.0
  0
MTEXT
  5
703F
330
6244
100
AcDbEntity
  8
30
  6
Continuous
 62
     0
100
AcDbMText
 10
73.79437799518197
 20
0.0000041891271493
 30
0.0
 40
4.0
 41
0.0
 71
     5
 72
     1
  1
\A1;170
 11
0.0000000000000001
 21
1.0
 31
0.0
 73
     1
 44
1.0
1001
ACAD
1000
MTEXTBEGIN
1070
    73
1070
     1
1070
    44
1040
1.0
1070
    74
1070
     0
1000
MTEXTEND
  0
POINT
  5
7040
330
6244
100
AcDbEntity
  8
DEFPOINTS
  6
Continuous
 62
     0
100
AcDbPoint
 10
41.24999143870809
 20
-84.99999488000776
 30
0.0
  0
POINT
  5
7041
330
6244
100
AcDbEntity
  8
DEFPOINTS
  6
Continuous
 62
     0
100
AcDbPoint
 10
41.24999143870809
 20
85.00000325826205
 30
0.0
  0
POINT
  5
7042
330
6244
100
AcDbEntity
  8
DEFPOINTS
  6
Continuous
 62
     0
100
AcDbPoint
 10
76.79437799518201
 20
85.00000325826205
 30
0.0
  0
ENDBLK
  5
624F
330
6244
100
AcDbEntity
  8
0
100
AcDbBlockEnd
  0
BLOCK
  5
625A
330
6250
100
AcDbEntity
  8
0
100
AcDbBlockBegin
  2
*D4
 70
     1
 10
0.0
 20
0.0
 30
0.0
  3
*D4
  1

  0
LINE
  5
7043
330
6250
100
AcDbEntity
  8
30
  6
Continuous
 62
     0
100
AcDbLine
 10
46.0
 20
-77.5
 30
0.0
 11
64.79437799518198
 21
-77.5
 31
0.0
  0
LINE
  5
7044
330
6250
100
AcDbEntity
  8
30
  6
Continuous
 62
     0
100
AcDbLine
 10
46.0
 20
77.5
 30
0.0
 11
64.794377995182
 21
77.5
 31
0.0
  0
LINE
  5
7045
330
6250
100
AcDbEntity
  8
30
  6
Continuous
 62
     0
100
AcDbLine
 10
64.29437799518197
 20
-75.5
 30
0.0
 11
64.29437799518201
 21
75.5
 31
0.0
  0
INSERT
  5
7046
330
6250
100
AcDbEntity
  8
30
  6
Continuous
 62
     0
100
AcDbBlockReference
  2
_OPEN
 10
64.29437799518197
 20
-77.5
 30
0.0
 41
2.0
 42
2.0
 43
2.0
 50
270.0
  0
INSERT
  5
7047
330
6250
100
AcDbEntity
  8
30
  6
Continuous
 62
     0
100
AcDbBlockReference
  2
_OPEN
 10
64.29437799518201
 20
77.5
 30
0.0
 41
2.0
 42
2.0
 43
2.0
 50
90.0
  0
MTEXT
  5
7048
330
6250
100
AcDbEntity
  8
30
  6
Continuous
 62
     0
100
AcDbMText
 10
61.29437799518199
 20
0.0000000000000106
 30
0.0
 40
4.0
 41
0.0
 71
     5
 72
     1
  1
\A1;155
 11
0.0000000000000001
 21
1.0
 31
0.0
 73
     1
 44
1.0
1001
ACAD
1000
MTEXTBEGIN
1070
    73
1070
     1
1070
    44
1040
1.0
1070
    74
1070
     0
1000
MTEXTEND
  0
POINT
  5
7049
330
6250
100
AcDbEntity
  8
DEFPOINTS
  6
Continuous
 62
     0
100
AcDbPoint
 10
45.0
 20
-77.5
 30
0.0
  0
POINT
  5
704A
330
6250
100
AcDbEntity
  8
DEFPOINTS
  6
Continuous
 62
     0
100
AcDbPoint
 10
45.0
 20
77.5
 30
0.0
  0
POINT
  5
704B
330
6250
100
AcDbEntity
  8
DEFPOINTS
  6
Continuous
 62
     0
100
AcDbPoint
 10
64.29437799518201
 20
77.5
 30
0.0
  0
ENDBLK
  5
625B
330
6250
100
AcDbEntity
  8
0
100
AcDbBlockEnd
  0
BLOCK
  5
6272
330
6268
100
AcDbEntity
  8
0
100
AcDbBlockBegin
  2
*D5
 70
     1
 10
0.0
 20
0.0
 30
0.0
  3
*D5
  1

  0
LINE
  5
6BDB
330
6268
100
AcDbEntity
  8
30
  6
Continuous
 62
     0
100
AcDbLine
 10
-42.0
 20
26.0
 30
0.0
 11
-42.0
 21
33.09950840067995
 31
0.0
  0
LINE
  5
6BDC
330
6268
100
AcDbEntity
  8
30
  6
Continuous
 62
     0
100
AcDbLine
 10
42.0
 20
26.0
 30
0.0
 11
42.0
 21
33.09950840067995
 31
0.0
  0
LINE
  5
6BDD
330
6268
100
AcDbEntity
  8
30
  6
Continuous
 62
     0
100
AcDbLine
 10
-40.0
 20
32.59950840067995
 30
0.0
 11
40.0
 21
32.59950840067995
 31
0.0
  0
INSERT
  5
6BDE
330
6268
100
AcDbEntity
  8
30
  6
Continuous
 62
     0
100
AcDbBlockReference
  2
_OPEN
 10
-42.0
 20
32.59950840067995
 30
0.0
 41
2.0
 42
2.0
 43
2.0
 50
180.0
  0
INSERT
  5
6BDF
330
6268
100
AcDbEntity
  8
30
  6
Continuous
 62
     0
100
AcDbBlockReference
  2
_OPEN
 10
42.0
 20
32.59950840067995
 30
0.0
 41
2.0
 42
2.0
 43
2.0
  0
MTEXT
  5
6BE0
330
6268
100
AcDbEntity
  8
30
  6
Continuous
 62
     0
100
AcDbMText
 10
0.0000000000000002
 20
35.59950840067996
 30
0.0
 40
4.0
 41
0.0
 71
     5
 72
     1
  1
\A1;84
 73
     1
 44
1.0
1001
ACAD
1000
MTEXTBEGIN
1070
    73
1070
     1
1070
    44
1040
1.0
1070
    74
1070
     0
1000
MTEXTEND
  0
POINT
  5
6BE1
330
6268
100
AcDbEntity
  8
DEFPOINTS
  6
Continuous
 62
     0
100
AcDbPoint
 10
-42.0
 20
25.0
 30
0.0
  0
POINT
  5
6BE2
330
6268
100
AcDbEntity
  8
DEFPOINTS
  6
Continuous
 62
     0
100
AcDbPoint
 10
42.0
 20
25.0
 30
0.0
  0
POINT
  5
6BE3
330
6268
100
AcDbEntity
  8
DEFPOINTS
  6
Continuous
 62
     0
100
AcDbPoint
 10
42.0
 20
32.59950840067995
 30
0.0
  0
ENDBLK
  5
6273
330
6268
100
AcDbEntity
  8
0
100
AcDbBlockEnd
  0
BLOCK
  5
673F
330
6735
100
AcDbEntity
  8
0
100
AcDbBlockBegin
  2
*D6
 70
     1
 10
0.0
 20
0.0
 30
0.0
  3
*D6
  1

  0
LINE
  5
6C6D
330
6735
100
AcDbEntity
  8
30
  6
Continuous
 62
     0
100
AcDbLine
 10
311.000000614258
 20
-54.9999859042091
 30
0.0
 11
311.000000614258
 21
-110.4999999999999
 31
0.0
  0
LINE
  5
6C6E
330
6735
100
AcDbEntity
  8
30
  6
Continuous
 62
     0
100
AcDbLine
 10
337.9999994458191
 20
-78.99998621133725
 30
0.0
 11
337.9999994458191
 21
-110.4999999999999
 31
0.0
  0
LINE
  5
6C6F
330
6735
100
AcDbEntity
  8
30
  6
Continuous
 62
     0
100
AcDbLine
 10
313.0000006142581
 20
-110.0
 30
0.0
 11
335.9999994458191
 21
-110.0
 31
0.0
  0
INSERT
  5
6C70
330
6735
100
AcDbEntity
  8
30
  6
Continuous
 62
     0
100
AcDbBlockReference
  2
_OPEN
 10
311.000000614258
 20
-110.0
 30
0.0
 41
2.0
 42
2.0
 43
2.0
 50
180.0
  0
INSERT
  5
6C71
330
6735
100
AcDbEntity
  8
30
  6
Continuous
 62
     0
100
AcDbBlockReference
  2
_OPEN
 10
337.9999994458191
 20
-110.0
 30
0.0
 41
2.0
 42
2.0
 43
2.0
  0
MTEXT
  5
6C72
330
6735
100
AcDbEntity
  8
30
  6
Continuous
 62
     0
100
AcDbMText
 10
324.5000000300386
 20
-107.0
 30
0.0
 40
4.0
 41
0.0
 71
     5
 72
     1
  1
\A1;27
 73
     1
 44
1.0
1001
ACAD
1000
MTEXTBEGIN
1070
    73
1070
     1
1070
    44
1040
1.0
1070
    74
1070
     0
1000
MTEXTEND
  0
POINT
  5
6C73
330
6735
100
AcDbEntity
  8
DEFPOINTS
  6
Continuous
 62
     0
100
AcDbPoint
 10
311.000000614258
 20
-53.9999859042091
 30
0.0
  0
POINT
  5
6C74
330
6735
100
AcDbEntity
  8
DEFPOINTS
  6
Continuous
 62
     0
100
AcDbPoint
 10
337.9999994458191
 20
-77.99998621133726
 30
0.0
  0
POINT
  5
6C75
330
6735
100
AcDbEntity
  8
DEFPOINTS
  6
Continuous
 62
     0
100
AcDbPoint
 10
337.9999994458191
 20
-110.0
 30
0.0
  0
ENDBLK
  5
6740
330
6735
100
AcDbEntity
  8
0
100
AcDbBlockEnd
  0
BLOCK
  5
674B
330
6741
100
AcDbEntity
  8
0
100
AcDbBlockBegin
  2
*D7
 70
     1
 10
0.0
 20
0.0
 30
0.0
  3
*D7
  1

  0
LINE
  5
6C3F
330
6741
100
AcDbEntity
  8
30
  6
Continuous
 62
     0
100
AcDbLine
 10
202.0000000000071
 20
-78.5
 30
0.0
 11
202.0000000000071
 21
-100.5
 31
0.0
  0
LINE
  5
6C40
330
6741
100
AcDbEntity
  8
30
  6
Continuous
 62
     0
100
AcDbLine
 10
263.000000000007
 20
-83.49999005381867
 30
0.0
 11
263.000000000007
 21
-100.5
 31
0.0
  0
LINE
  5
6C41
330
6741
100
AcDbEntity
  8
30
  6
Continuous
 62
     0
100
AcDbLine
 10
204.0000000000071
 20
-100.0
 30
0.0
 11
261.000000000007
 21
-100.0
 31
0.0
  0
INSERT
  5
6C42
330
6741
100
AcDbEntity
  8
30
  6
Continuous
 62
     0
100
AcDbBlockReference
  2
_OPEN
 10
202.0000000000071
 20
-100.0
 30
0.0
 41
2.0
 42
2.0
 43
2.0
 50
180.0
  0
INSERT
  5
6C43
330
6741
100
AcDbEntity
  8
30
  6
Continuous
 62
     0
100
AcDbBlockReference
  2
_OPEN
 10
263.000000000007
 20
-100.0
 30
0.0
 41
2.0
 42
2.0
 43
2.0
  0
MTEXT
  5
6C44
330
6741
100
AcDbEntity
  8
30
  6
Continuous
 62
     0
100
AcDbMText
 10
232.5000000000073
 20
-97.0
 30
0.0
 40
4.0
 41
0.0
 71
     5
 72
     1
  1
\A1;61
 73
     1
 44
1.0
1001
ACAD
1000
MTEXTBEGIN
1070
    73
1070
     1
1070
    44
1040
1.0
1070
    74
1070
     0
1000
MTEXTEND
  0
POINT
  5
6C45
330
6741
100
AcDbEntity
  8
DEFPOINTS
  6
Continuous
 62
     0
100
AcDbPoint
 10
202.0000000000071
 20
-77.5
 30
0.0
  0
POINT
  5
6C46
330
6741
100
AcDbEntity
  8
DEFPOINTS
  6
Continuous
 62
     0
100
AcDbPoint
 10
263.000000000007
 20
-82.49999005381868
 30
0.0
  0
POINT
  5
6C47
330
6741
100
AcDbEntity
  8
DEFPOINTS
  6
Continuous
 62
     0
100
AcDbPoint
 10
263.000000000007
 20
-100.0
 30
0.0
  0
ENDBLK
  5
674C
330
6741
100
AcDbEntity
  8
0
100
AcDbBlockEnd
  0
BLOCK
  5
6757
330
674D
100
AcDbEntity
  8
0
100
AcDbBlockBegin
  2
*D8
 70
     1
 10
0.0
 20
0.0
 30
0.0
  3
*D8
  1

  0
LINE
  5
6C64
330
674D
100
AcDbEntity
  8
30
  6
Continuous
 62
     0
100
AcDbLine
 10
171.0000000000071
 20
-3.500000016500051
 30
0.0
 11
171.0000000000071
 21
-130.4999999999999
 31
0.0
  0
LINE
  5
6C65
330
674D
100
AcDbEntity
  8
30
  6
Continuous
 62
     0
100
AcDbLine
 10
311.000000614258
 20
-54.9999859042091
 30
0.0
 11
311.000000614258
 21
-130.4999999999999
 31
0.0
  0
LINE
  5
6C66
330
674D
100
AcDbEntity
  8
30
  6
Continuous
 62
     0
100
AcDbLine
 10
173.0000000000071
 20
-130.0
 30
0.0
 11
309.0000006142581
 21
-130.0
 31
0.0
  0
INSERT
  5
6C67
330
674D
100
AcDbEntity
  8
30
  6
Continuous
 62
     0
100
AcDbBlockReference
  2
_OPEN
 10
171.0000000000071
 20
-130.0
 30
0.0
 41
2.0
 42
2.0
 43
2.0
 50
180.0
  0
INSERT
  5
6C68
330
674D
100
AcDbEntity
  8
30
  6
Continuous
 62
     0
100
AcDbBlockReference
  2
_OPEN
 10
311.000000614258
 20
-130.0
 30
0.0
 41
2.0
 42
2.0
 43
2.0
  0
MTEXT
  5
6C69
330
674D
100
AcDbEntity
  8
30
  6
Continuous
 62
     0
100
AcDbMText
 10
241.0000003071326
 20
-127.0
 30
0.0
 40
4.0
 41
0.0
 71
     5
 72
     1
  1
\A1;140
 73
     1
 44
1.0
1001
ACAD
1000
MTEXTBEGIN
1070
    73
1070
     1
1070
    44
1040
1.0
1070
    74
1070
     0
1000
MTEXTEND
  0
POINT
  5
6C6A
330
674D
100
AcDbEntity
  8
DEFPOINTS
  6
Continuous
 62
     0
100
AcDbPoint
 10
171.0000000000071
 20
-2.500000016500048
 30
0.0
  0
POINT
  5
6C6B
330
674D
100
AcDbEntity
  8
DEFPOINTS
  6
Continuous
 62
     0
100
AcDbPoint
 10
311.000000614258
 20
-53.9999859042091
 30
0.0
  0
POINT
  5
6C6C
330
674D
100
AcDbEntity
  8
DEFPOINTS
  6
Continuous
 62
     0
100
AcDbPoint
 10
311.000000614258
 20
-130.0
 30
0.0
  0
ENDBLK
  5
6758
330
674D
100
AcDbEntity
  8
0
100
AcDbBlockEnd
  0
BLOCK
  5
6763
330
6759
100
AcDbEntity
  8
0
100
AcDbBlockBegin
  2
*D9
 70
     1
 10
0.0
 20
0.0
 30
0.0
  3
*D9
  1

  0
LINE
  5
6C51
330
6759
100
AcDbEntity
  8
30
  6
Continuous
 62
     0
100
AcDbLine
 10
191.0000000000071
 20
-26.0
 30
0.0
 11
191.0000000000071
 21
-120.5
 31
0.0
  0
LINE
  5
6C52
330
6759
100
AcDbEntity
  8
30
  6
Continuous
 62
     0
100
AcDbLine
 10
311.000000614258
 20
-54.9999859042091
 30
0.0
 11
311.000000614258
 21
-120.5
 31
0.0
  0
LINE
  5
6C53
330
6759
100
AcDbEntity
  8
30
  6
Continuous
 62
     0
100
AcDbLine
 10
193.000000000007
 20
-120.0
 30
0.0
 11
309.0000006142581
 21
-120.0
 31
0.0
  0
INSERT
  5
6C54
330
6759
100
AcDbEntity
  8
30
  6
Continuous
 62
     0
100
AcDbBlockReference
  2
_OPEN
 10
191.0000000000071
 20
-120.0
 30
0.0
 41
2.0
 42
2.0
 43
2.0
 50
180.0
  0
INSERT
  5
6C55
330
6759
100
AcDbEntity
  8
30
  6
Continuous
 62
     0
100
AcDbBlockReference
  2
_OPEN
 10
311.000000614258
 20
-120.0
 30
0.0
 41
2.0
 42
2.0
 43
2.0
  0
MTEXT
  5
6C56
330
6759
100
AcDbEntity
  8
30
  6
Continuous
 62
     0
100
AcDbMText
 10
251.0000003071326
 20
-117.0
 30
0.0
 40
4.0
 41
0.0
 71
     5
 72
     1
  1
\A1;120
 73
     1
 44
1.0
1001
ACAD
1000
MTEXTBEGIN
1070
    73
1070
     1
1070
    44
1040
1.0
1070
    74
1070
     0
1000
MTEXTEND
  0
POINT
  5
6C57
330
6759
100
AcDbEntity
  8
DEFPOINTS
  6
Continuous
 62
     0
100
AcDbPoint
 10
191.0000000000071
 20
-25.0
 30
0.0
  0
POINT
  5
6C58
330
6759
100
AcDbEntity
  8
DEFPOINTS
  6
Continuous
 62
     0
100
AcDbPoint
 10
311.000000614258
 20
-53.9999859042091
 30
0.0
  0
POINT
  5
6C59
330
6759
100
AcDbEntity
  8
DEFPOINTS
  6
Continuous
 62
     0
100
AcDbPoint
 10
311.000000614258
 20
-120.0
 30
0.0
  0
ENDBLK
  5
6764
330
6759
100
AcDbEntity
  8
0
100
AcDbBlockEnd
  0
BLOCK
  5
676F
330
6765
100
AcDbEntity
  8
0
100
AcDbBlockBegin
  2
*D10
 70
     1
 10
0.0
 20
0.0
 30
0.0
  3
*D10
  1

  0
LINE
  5
6C48
330
6765
100
AcDbEntity
  8
30
  6
Continuous
 62
     0
100
AcDbLine
 10
195.0000000000071
 20
-52.0
 30
0.0
 11
195.0000000000071
 21
-110.4999999999999
 31
0.0
  0
LINE
  5
6C49
330
6765
100
AcDbEntity
  8
30
  6
Continuous
 62
     0
100
AcDbLine
 10
311.000000614258
 20
-54.9999859042091
 30
0.0
 11
311.000000614258
 21
-110.4999999999999
 31
0.0
  0
LINE
  5
6C4A
330
6765
100
AcDbEntity
  8
30
  6
Continuous
 62
     0
100
AcDbLine
 10
197.000000000007
 20
-110.0
 30
0.0
 11
309.0000006142581
 21
-110.0
 31
0.0
  0
INSERT
  5
6C4B
330
6765
100
AcDbEntity
  8
30
  6
Continuous
 62
     0
100
AcDbBlockReference
  2
_OPEN
 10
195.0000000000071
 20
-110.0
 30
0.0
 41
2.0
 42
2.0
 43
2.0
 50
180.0
  0
INSERT
  5
6C4C
330
6765
100
AcDbEntity
  8
30
  6
Continuous
 62
     0
100
AcDbBlockReference
  2
_OPEN
 10
311.000000614258
 20
-110.0
 30
0.0
 41
2.0
 42
2.0
 43
2.0
  0
MTEXT
  5
6C4D
330
6765
100
AcDbEntity
  8
30
  6
Continuous
 62
     0
100
AcDbMText
 10
253.0000003071326
 20
-107.0
 30
0.0
 40
4.0
 41
0.0
 71
     5
 72
     1
  1
\A1;116
 73
     1
 44
1.0
1001
ACAD
1000
MTEXTBEGIN
1070
    73
1070
     1
1070
    44
1040
1.0
1070
    74
1070
     0
1000
MTEXTEND
  0
POINT
  5
6C4E
330
6765
100
AcDbEntity
  8
DEFPOINTS
  6
Continuous
 62
     0
100
AcDbPoint
 10
195.0000000000071
 20
-51.0
 30
0.0
  0
POINT
  5
6C4F
330
6765
100
AcDbEntity
  8
DEFPOINTS
  6
Continuous
 62
     0
100
AcDbPoint
 10
311.000000614258
 20
-53.9999859042091
 30
0.0
  0
POINT
  5
6C50
330
6765
100
AcDbEntity
  8
DEFPOINTS
  6
Continuous
 62
     0
100
AcDbPoint
 10
311.000000614258
 20
-110.0
 30
0.0
  0
ENDBLK
  5
6770
330
6765
100
AcDbEntity
  8
0
100
AcDbBlockEnd
  0
BLOCK
  5
677C
330
6771
100
AcDbEntity
  8
0
100
AcDbBlockBegin
  2
*D11
 70
     1
 10
0.0
 20
0.0
 30
0.0
  3
*D11
  1

  0
LINE
  5
6C5A
330
6771
100
AcDbEntity
  8
30
  6
Continuous
 62
     0
100
AcDbLine
 10
187.0000000000071
 20
-26.0
 30
0.0
 11
187.0000000000071
 21
-120.5
 31
0.0
  0
LINE
  5
6C5B
330
6771
100
AcDbEntity
  8
30
  6
Continuous
 62
     0
100
AcDbLine
 10
191.0000000000071
 20
-26.0
 30
0.0
 11
191.0000000000071
 21
-120.5
 31
0.0
  0
LINE
  5
6C5C
330
6771
100
AcDbEntity
  8
30
  6
Continuous
 62
     0
100
AcDbLine
 10
185.0000000000071
 20
-120.0
 30
0.0
 11
183.0000000000071
 21
-120.0
 31
0.0
  0
LINE
  5
6C5D
330
6771
100
AcDbEntity
  8
30
  6
Continuous
 62
     0
100
AcDbLine
 10
193.000000000007
 20
-120.0
 30
0.0
 11
199.6666666666738
 21
-120.0
 31
0.0
  0
INSERT
  5
6C5E
330
6771
100
AcDbEntity
  8
30
  6
Continuous
 62
     0
100
AcDbBlockReference
  2
_OPEN
 10
187.0000000000071
 20
-120.0
 30
0.0
 41
2.0
 42
2.0
 43
2.0
  0
INSERT
  5
6C5F
330
6771
100
AcDbEntity
  8
30
  6
Continuous
 62
     0
100
AcDbBlockReference
  2
_OPEN
 10
191.0000000000071
 20
-120.0
 30
0.0
 41
2.0
 42
2.0
 43
2.0
 50
180.0
  0
MTEXT
  5
6C60
330
6771
100
AcDbEntity
  8
30
  6
Continuous
 62
     0
100
AcDbMText
 10
197.3333333333406
 20
-117.0
 30
0.0
 40
4.0
 41
0.0
 71
     5
 72
     1
  1
\A1;4
 73
     1
 44
1.0
1001
ACAD
1000
MTEXTBEGIN
1070
    73
1070
     1
1070
    44
1040
1.0
1070
    74
1070
     0
1000
MTEXTEND
  0
POINT
  5
6C61
330
6771
100
AcDbEntity
  8
DEFPOINTS
  6
Continuous
 62
     0
100
AcDbPoint
 10
187.0000000000071
 20
-25.0
 30
0.0
  0
POINT
  5
6C62
330
6771
100
AcDbEntity
  8
DEFPOINTS
  6
Continuous
 62
     0
100
AcDbPoint
 10
191.0000000000071
 20
-25.0
 30
0.0
  0
POINT
  5
6C63
330
6771
100
AcDbEntity
  8
DEFPOINTS
  6
Continuous
 62
     0
100
AcDbPoint
 10
191.0000000000071
 20
-120.0
 30
0.0
  0
ENDBLK
  5
677D
330
6771
100
AcDbEntity
  8
0
100
AcDbBlockEnd
  0
BLOCK
  5
6794
330
678A
100
AcDbEntity
  8
0
100
AcDbBlockBegin
  2
*D12
 70
     1
 10
0.0
 20
0.0
 30
0.0
  3
*D12
  1

  0
LINE
  5
6BF6
330
678A
100
AcDbEntity
  8
30
  6
Continuous
 62
     0
100
AcDbLine
 10
194.000000000007
 20
51.0
 30
0.0
 11
139.0867219386125
 21
51.00000000000001
 31
0.0
  0
LINE
  5
6BF7
330
678A
100
AcDbEntity
  8
30
  6
Continuous
 62
     0
100
AcDbLine
 10
194.000000000007
 20
-51.0
 30
0.0
 11
139.0867219386125
 21
-50.99999999999997
 31
0.0
  0
LINE
  5
6BF8
330
678A
100
AcDbEntity
  8
30
  6
Continuous
 62
     0
100
AcDbLine
 10
139.5867219386127
 20
49.00000000000002
 30
0.0
 11
139.5867219386127
 21
-48.99999999999998
 31
0.0
  0
INSERT
  5
6BF9
330
678A
100
AcDbEntity
  8
30
  6
Continuous
 62
     0
100
AcDbBlockReference
  2
_OPEN
 10
139.5867219386127
 20
51.00000000000001
 30
0.0
 41
2.0
 42
2.0
 43
2.0
 50
90.0
  0
INSERT
  5
6BFA
330
678A
100
AcDbEntity
  8
30
  6
Continuous
 62
     0
100
AcDbBlockReference
  2
_OPEN
 10
139.5867219386127
 20
-50.99999999999997
 30
0.0
 41
2.0
 42
2.0
 43
2.0
 50
270.0
  0
MTEXT
  5
6BFB
330
678A
100
AcDbEntity
  8
30
  6
Continuous
 62
     0
100
AcDbMText
 10
136.5867219386124
 20
0.0000000000000345
 30
0.0
 40
4.0
 41
0.0
 71
     5
 72
     1
  1
\A1;102
 11
0.0000000000000001
 21
1.0
 31
0.0
 73
     1
 44
1.0
1001
ACAD
1000
MTEXTBEGIN
1070
    73
1070
     1
1070
    44
1040
1.0
1070
    74
1070
     0
1000
MTEXTEND
  0
POINT
  5
6BFC
330
678A
100
AcDbEntity
  8
DEFPOINTS
  6
Continuous
 62
     0
100
AcDbPoint
 10
195.0000000000071
 20
51.0
 30
0.0
  0
POINT
  5
6BFD
330
678A
100
AcDbEntity
  8
DEFPOINTS
  6
Continuous
 62
     0
100
AcDbPoint
 10
195.0000000000071
 20
-51.0
 30
0.0
  0
POINT
  5
6BFE
330
678A
100
AcDbEntity
  8
DEFPOINTS
  6
Continuous
 62
     0
100
AcDbPoint
 10
139.5867219386127
 20
-50.99999999999997
 30
0.0
  0
ENDBLK
  5
6795
330
678A
100
AcDbEntity
  8
0
100
AcDbBlockEnd
  0
BLOCK
  5
67A0
330
6796
100
AcDbEntity
  8
0
100
AcDbBlockBegin
  2
*D13
 70
     1
 10
0.0
 20
0.0
 30
0.0
  3
*D13
  1

  0
LINE
  5
6BFF
330
6796
100
AcDbEntity
  8
30
  6
Continuous
 62
     0
100
AcDbLine
 10
186.0000000000071
 20
-25.0
 30
0.0
 11
151.5867219386127
 21
-24.99999999999998
 31
0.0
  0
LINE
  5
6C00
330
6796
100
AcDbEntity
  8
30
  6
Continuous
 62
     0
100
AcDbLine
 10
186.0000000000071
 20
25.0
 30
0.0
 11
151.5867219386127
 21
25.00000000000001
 31
0.0
  0
LINE
  5
6C01
330
6796
100
AcDbEntity
  8
30
  6
Continuous
 62
     0
100
AcDbLine
 10
152.0867219386127
 20
-22.99999999999998
 30
0.0
 11
152.0867219386127
 21
23.00000000000001
 31
0.0
  0
INSERT
  5
6C02
330
6796
100
AcDbEntity
  8
30
  6
Continuous
 62
     0
100
AcDbBlockReference
  2
_OPEN
 10
152.0867219386127
 20
-24.99999999999999
 30
0.0
 41
2.0
 42
2.0
 43
2.0
 50
270.0
  0
INSERT
  5
6C03
330
6796
100
AcDbEntity
  8
30
  6
Continuous
 62
     0
100
AcDbBlockReference
  2
_OPEN
 10
152.0867219386127
 20
25.00000000000001
 30
0.0
 41
2.0
 42
2.0
 43
2.0
 50
90.0
  0
MTEXT
  5
6C04
330
6796
100
AcDbEntity
  8
30
  6
Continuous
 62
     0
100
AcDbMText
 10
149.0867219386124
 20
0.0000000000000372
 30
0.0
 40
4.0
 41
0.0
 71
     5
 72
     1
  1
\A1;50
 11
0.0000000000000001
 21
1.0
 31
0.0
 73
     1
 44
1.0
1001
ACAD
1000
MTEXTBEGIN
1070
    73
1070
     1
1070
    44
1040
1.0
1070
    74
1070
     0
1000
MTEXTEND
  0
POINT
  5
6C05
330
6796
100
AcDbEntity
  8
DEFPOINTS
  6
Continuous
 62
     0
100
AcDbPoint
 10
187.0000000000071
 20
-25.0
 30
0.0
  0
POINT
  5
6C06
330
6796
100
AcDbEntity
  8
DEFPOINTS
  6
Continuous
 62
     0
100
AcDbPoint
 10
187.0000000000071
 20
25.0
 30
0.0
  0
POINT
  5
6C07
330
6796
100
AcDbEntity
  8
DEFPOINTS
  6
Continuous
 62
     0
100
AcDbPoint
 10
152.0867219386127
 20
25.00000000000001
 30
0.0
  0
ENDBLK
  5
67A1
330
6796
100
AcDbEntity
  8
0
100
AcDbBlockEnd
  0
BLOCK
  5
67AC
330
67A2
100
AcDbEntity
  8
0
100
AcDbBlockBegin
  2
*D14
 70
     1
 10
0.0
 20
0.0
 30
0.0
  3
*D14
  1

  0
LINE
  5
6C7F
330
67A2
100
AcDbEntity
  8
30
  6
Continuous
 62
     0
100
AcDbLine
 10
338.5000057475845
 20
-79.99998522762599
 30
0.0
 11
358.8367219386126
 21
-79.999985227626
 31
0.0
  0
LINE
  5
6C80
330
67A2
100
AcDbEntity
  8
30
  6
Continuous
 62
     0
100
AcDbLine
 10
338.5000057475845
 20
80.0000208571164
 30
0.0
 11
358.8367219386126
 21
80.00002085711637
 31
0.0
  0
LINE
  5
6C81
330
67A2
100
AcDbEntity
  8
30
  6
Continuous
 62
     0
100
AcDbLine
 10
358.3367219386127
 20
-77.99998522762598
 30
0.0
 11
358.3367219386127
 21
78.00002085711637
 31
0.0
  0
INSERT
  5
6C82
330
67A2
100
AcDbEntity
  8
30
  6
Continuous
 62
     0
100
AcDbBlockReference
  2
_OPEN
 10
358.3367219386127
 20
-79.999985227626
 30
0.0
 41
2.0
 42
2.0
 43
2.0
 50
270.0
  0
INSERT
  5
6C83
330
67A2
100
AcDbEntity
  8
30
  6
Continuous
 62
     0
100
AcDbBlockReference
  2
_OPEN
 10
358.3367219386127
 20
80.00002085711637
 30
0.0
 41
2.0
 42
2.0
 43
2.0
 50
90.0
  0
MTEXT
  5
6C84
330
67A2
100
AcDbEntity
  8
30
  6
Continuous
 62
     0
100
AcDbMText
 10
355.3367219386127
 20
0.0000178147452556
 30
0.0
 40
4.0
 41
0.0
 71
     5
 72
     1
  1
\A1;160
 11
0.0000000000000001
 21
1.0
 31
0.0
 73
     1
 44
1.0
1001
ACAD
1000
MTEXTBEGIN
1070
    73
1070
     1
1070
    44
1040
1.0
1070
    74
1070
     0
1000
MTEXTEND
  0
POINT
  5
6C85
330
67A2
100
AcDbEntity
  8
DEFPOINTS
  6
Continuous
 62
     0
100
AcDbPoint
 10
337.5000057475844
 20
-79.99998522762599
 30
0.0
  0
POINT
  5
6C86
330
67A2
100
AcDbEntity
  8
DEFPOINTS
  6
Continuous
 62
     0
100
AcDbPoint
 10
337.5000057475844
 20
80.0000208571164
 30
0.0
  0
POINT
  5
6C87
330
67A2
100
AcDbEntity
  8
DEFPOINTS
  6
Continuous
 62
     0
100
AcDbPoint
 10
358.3367219386127
 20
80.00002085711637
 30
0.0
  0
ENDBLK
  5
67AD
330
67A2
100
AcDbEntity
  8
0
100
AcDbBlockEnd
  0
BLOCK
  5
67B8
330
67AE
100
AcDbEntity
  8
0
100
AcDbBlockBegin
  2
*D15
 70
     1
 10
0.0
 20
0.0
 30
0.0
  3
*D15
  1

  0
LINE
  5
6C76
330
67AE
100
AcDbEntity
  8
30
  6
Continuous
 62
     0
100
AcDbLine
 10
338.5000057475845
 20
-53.9999859042091
 30
0.0
 11
346.3367219386126
 21
-53.9999859042091
 31
0.0
  0
LINE
  5
6C77
330
67AE
100
AcDbEntity
  8
30
  6
Continuous
 62
     0
100
AcDbLine
 10
338.5000057475845
 20
54.00000942203586
 30
0.0
 11
346.3367219386126
 21
54.00000942203586
 31
0.0
  0
LINE
  5
6C78
330
67AE
100
AcDbEntity
  8
30
  6
Continuous
 62
     0
100
AcDbLine
 10
345.8367219386127
 20
-51.9999859042091
 30
0.0
 11
345.8367219386127
 21
52.00000942203587
 31
0.0
  0
INSERT
  5
6C79
330
67AE
100
AcDbEntity
  8
30
  6
Continuous
 62
     0
100
AcDbBlockReference
  2
_OPEN
 10
345.8367219386127
 20
-53.9999859042091
 30
0.0
 41
2.0
 42
2.0
 43
2.0
 50
270.0
  0
INSERT
  5
6C7A
330
67AE
100
AcDbEntity
  8
30
  6
Continuous
 62
     0
100
AcDbBlockReference
  2
_OPEN
 10
345.8367219386127
 20
54.00000942203586
 30
0.0
 41
2.0
 42
2.0
 43
2.0
 50
90.0
  0
MTEXT
  5
6C7B
330
67AE
100
AcDbEntity
  8
30
  6
Continuous
 62
     0
100
AcDbMText
 10
342.8367219386127
 20
0.0000117589134452
 30
0.0
 40
4.0
 41
0.0
 71
     5
 72
     1
  1
\A1;108
 11
0.0000000000000001
 21
1.0
 31
0.0
 73
     1
 44
1.0
1001
ACAD
1000
MTEXTBEGIN
1070
    73
1070
     1
1070
    44
1040
1.0
1070
    74
1070
     0
1000
MTEXTEND
  0
POINT
  5
6C7C
330
67AE
100
AcDbEntity
  8
DEFPOINTS
  6
Continuous
 62
     0
100
AcDbPoint
 10
337.5000057475844
 20
-53.9999859042091
 30
0.0
  0
POINT
  5
6C7D
330
67AE
100
AcDbEntity
  8
DEFPOINTS
  6
Continuous
 62
     0
100
AcDbPoint
 10
337.5000057475844
 20
54.00000942203586
 30
0.0
  0
POINT
  5
6C7E
330
67AE
100
AcDbEntity
  8
DEFPOINTS
  6
Continuous
 62
     0
100
AcDbPoint
 10
345.8367219386127
 20
54.00000942203586
 30
0.0
  0
ENDBLK
  5
67B9
330
67AE
100
AcDbEntity
  8
0
100
AcDbBlockEnd
  0
BLOCK
  5
6E83
330
6E79
100
AcDbEntity
  8
0
100
AcDbBlockBegin
  2
*D16
 70
     1
 10
0.0
 20
0.0
 30
0.0
  3
*D16
  1

  0
LINE
  5
70B0
330
6E79
100
AcDbEntity
  8
30
  6
Continuous
 62
     0
100
AcDbLine
 10
299.1041177097286
 20
-295.8593533752837
 30
0.0
 11
299.1041177097286
 21
-311.5
 31
0.0
  0
LINE
  5
70B1
330
6E79
100
AcDbEntity
  8
30
  6
Continuous
 62
     0
100
AcDbLine
 10
314.1041177097286
 20
-295.8593533752837
 30
0.0
 11
314.1041177097286
 21
-311.5
 31
0.0
  0
LINE
  5
70B2
330
6E79
100
AcDbEntity
  8
30
  6
Continuous
 62
     0
100
AcDbLine
 10
301.1041177097286
 20
-311.0
 30
0.0
 11
312.1041177097286
 21
-311.0
 31
0.0
  0
INSERT
  5
70B3
330
6E79
100
AcDbEntity
  8
30
  6
Continuous
 62
     0
100
AcDbBlockReference
  2
_OPEN
 10
299.1041177097286
 20
-311.0
 30
0.0
 41
2.0
 42
2.0
 43
2.0
 50
180.0
  0
INSERT
  5
70B4
330
6E79
100
AcDbEntity
  8
30
  6
Continuous
 62
     0
100
AcDbBlockReference
  2
_OPEN
 10
314.1041177097286
 20
-311.0
 30
0.0
 41
2.0
 42
2.0
 43
2.0
  0
MTEXT
  5
70B5
330
6E79
100
AcDbEntity
  8
30
  6
Continuous
 62
     0
100
AcDbMText
 10
306.6041177097285
 20
-308.0
 30
0.0
 40
4.0
 41
0.0
 71
     5
 72
     1
  1
\A1;15
 73
     1
 44
1.0
1001
ACAD
1000
MTEXTBEGIN
1070
    73
1070
     1
1070
    44
1040
1.0
1070
    74
1070
     0
1000
MTEXTEND
  0
POINT
  5
70B6
330
6E79
100
AcDbEntity
  8
DEFPOINTS
  6
Continuous
 62
     0
100
AcDbPoint
 10
299.1041177097286
 20
-294.8593533752837
 30
0.0
  0
POINT
  5
70B7
330
6E79
100
AcDbEntity
  8
DEFPOINTS
  6
Continuous
 62
     0
100
AcDbPoint
 10
314.1041177097286
 20
-294.8593533752837
 30
0.0
  0
POINT
  5
70B8
330
6E79
100
AcDbEntity
  8
DEFPOINTS
  6
Continuous
 62
     0
100
AcDbPoint
 10
314.1041177097286
 20
-311.0
 30
0.0
  0
ENDBLK
  5
6E84
330
6E79
100
AcDbEntity
  8
0
100
AcDbBlockEnd
  0
BLOCK
  5
70FD
330
70F8
100
AcDbEntity
  8
TOP
  6
Continuous
 62
     5
100
AcDbBlockBegin
  2
*U17
 70
     1
 10
0.0
 20
0.0
 30
0.0
  3
*U17
  1

  0
LINE
  5
70F9
330
70F8
100
AcDbEntity
  8
1
  6
ByBlock
 62
     0
100
AcDbLine
 10
254.3376338823787
 20
261.5236736210198
 30
0.0
 11
242.6970088823785
 21
261.5236736210198
 31
0.0
  0
LINE
  5
70FA
330
70F8
100
AcDbEntity
  8
1
  6
ByBlock
 62
     0
100
AcDbLine
 10
230.4050843973201
 20
276.8009320202328
 30
0.0
 11
242.6970088823785
 21
261.5236736210198
 31
0.0
  0
SOLID
  5
70FB
330
70F8
100
AcDbEntity
  8
1
  6
ByBlock
 62
     0
100
AcDbTrace
 10
230.4050843973201
 20
276.8009320202328
 30
0.0
 11
231.9185376475764
 21
275.4516468670254
 31
0.0
 12
231.399123368144
 22
275.0337314968454
 32
0.0
 13
231.399123368144
 23
275.0337314968454
 33
0.0
  0
TEXT
  5
70FC
330
70F8
100
AcDbEntity
  8
TOP
  6
ByBlock
 62
     0
100
AcDbText
 10
242.6970088823785
 20
261.7736736210198
 30
0.0
 40
2.5
  1
M6 nut
 41
0.8216911764705923
  7
UGMTXT
100
AcDbText
  0
ENDBLK
  5
70FE
330
70F8
100
AcDbEntity
  8
0
100
AcDbBlockEnd
  0
BLOCK
  5
7230
330
7225
100
AcDbEntity
  8
0
100
AcDbBlockBegin
  2
*D18
 70
     1
 10
0.0
 20
0.0
 30
0.0
  3
*D18
  1

  0
LINE
  5
724A
330
7225
100
AcDbEntity
  8
30
 62
     0
100
AcDbLine
 10
192.0
 20
-290.8495216319639
 30
0.0
 11
192.0
 21
-328.3560914193127
 31
0.0
  0
LINE
  5
724B
330
7225
100
AcDbEntity
  8
30
 62
     0
100
AcDbLine
 10
197.2000002250324
 20
-310.8495272313033
 30
0.0
 11
197.2000002250324
 21
-328.3560914193127
 31
0.0
  0
LINE
  5
724C
330
7225
100
AcDbEntity
  8
30
 62
     0
100
AcDbLine
 10
190.0
 20
-327.8560914193128
 30
0.0
 11
188.0
 21
-327.8560914193128
 31
0.0
  0
LINE
  5
724D
330
7225
100
AcDbEntity
  8
30
 62
     0
100
AcDbLine
 10
199.2000002250324
 20
-327.8560914193128
 30
0.0
 11
211.2000002250324
 21
-327.8560914193128
 31
0.0
  0
INSERT
  5
724E
330
7225
100
AcDbEntity
  8
30
 62
     0
100
AcDbBlockReference
  2
_OPEN
 10
192.0
 20
-327.8560914193128
 30
0.0
 41
2.0
 42
2.0
 43
2.0
  0
INSERT
  5
724F
330
7225
100
AcDbEntity
  8
30
 62
     0
100
AcDbBlockReference
  2
_OPEN
 10
197.2000002250324
 20
-327.8560914193128
 30
0.0
 41
2.0
 42
2.0
 43
2.0
 50
180.0
  0
MTEXT
  5
7250
330
7225
100
AcDbEntity
  8
30
 62
     0
100
AcDbMText
 10
206.2000002250324
 20
-324.8560914193128
 30
0.0
 40
4.0
 41
0.0
 71
     5
 72
     1
  1
\A1;5.2
 73
     1
 44
1.0
1001
ACAD
1000
MTEXTBEGIN
1070
    73
1070
     1
1070
    44
1040
1.0
1070
    74
1070
     0
1000
MTEXTEND
  0
POINT
  5
7251
330
7225
100
AcDbEntity
  8
DEFPOINTS
 62
     0
100
AcDbPoint
 10
192.0
 20
-289.8495216319639
 30
0.0
  0
POINT
  5
7252
330
7225
100
AcDbEntity
  8
DEFPOINTS
 62
     0
100
AcDbPoint
 10
197.2000002250324
 20
-309.8495272313033
 30
0.0
  0
POINT
  5
7253
330
7225
100
AcDbEntity
  8
DEFPOINTS
 62
     0
100
AcDbPoint
 10
197.2000002250324
 20
-327.8560914193128
 30
0.0
  0
ENDBLK
  5
7231
330
7225
100
AcDbEntity
  8
0
100
AcDbBlockEnd
  0
BLOCK
  5
723C
330
7232
100
AcDbEntity
  8
0
100
AcDbBlockBegin
  2
*D19
 70
     1
 10
0.0
 20
0.0
 30
0.0
  3
*D19
  1

  0
LINE
  5
7254
330
7232
100
AcDbEntity
  8
30
 62
     0
100
AcDbLine
 10
192.0
 20
-290.8495216319639
 30
0.0
 11
192.0
 21
-361.6894261951633
 31
0.0
  0
LINE
  5
7255
330
7232
100
AcDbEntity
  8
30
 62
     0
100
AcDbLine
 10
219.0
 20
-290.3495279120861
 30
0.0
 11
219.0
 21
-361.6894261951633
 31
0.0
  0
LINE
  5
7256
330
7232
100
AcDbEntity
  8
30
 62
     0
100
AcDbLine
 10
194.0
 20
-361.1894261951633
 30
0.0
 11
217.0
 21
-361.1894261951633
 31
0.0
  0
INSERT
  5
7257
330
7232
100
AcDbEntity
  8
30
 62
     0
100
AcDbBlockReference
  2
_OPEN
 10
192.0
 20
-361.1894261951633
 30
0.0
 41
2.0
 42
2.0
 43
2.0
 50
180.0
  0
INSERT
  5
7258
330
7232
100
AcDbEntity
  8
30
 62
     0
100
AcDbBlockReference
  2
_OPEN
 10
219.0
 20
-361.1894261951633
 30
0.0
 41
2.0
 42
2.0
 43
2.0
  0
MTEXT
  5
7259
330
7232
100
AcDbEntity
  8
30
 62
     0
100
AcDbMText
 10
205.5
 20
-358.1894261951633
 30
0.0
 40
4.0
 41
0.0
 71
     5
 72
     1
  1
\A1;27
 73
     1
 44
1.0
1001
ACAD
1000
MTEXTBEGIN
1070
    73
1070
     1
1070
    44
1040
1.0
1070
    74
1070
     0
1000
MTEXTEND
  0
POINT
  5
725A
330
7232
100
AcDbEntity
  8
DEFPOINTS
 62
     0
100
AcDbPoint
 10
192.0
 20
-289.8495216319639
 30
0.0
  0
POINT
  5
725B
330
7232
100
AcDbEntity
  8
DEFPOINTS
 62
     0
100
AcDbPoint
 10
219.0
 20
-289.3495279120861
 30
0.0
  0
POINT
  5
725C
330
7232
100
AcDbEntity
  8
DEFPOINTS
 62
     0
100
AcDbPoint
 10
219.0
 20
-361.1894261951633
 30
0.0
  0
ENDBLK
  5
723D
330
7232
100
AcDbEntity
  8
0
100
AcDbBlockEnd
  0
BLOCK
  5
7248
330
723E
100
AcDbEntity
  8
0
100
AcDbBlockBegin
  2
*D20
 70
     1
 10
0.0
 20
0.0
 30
0.0
  3
*D20
  1

  0
LINE
  5
725D
330
723E
100
AcDbEntity
  8
30
 62
     0
100
AcDbLine
 10
172.9999964113587
 20
-304.8495274635058
 30
0.0
 11
172.9999964113587
 21
-345.0227588072381
 31
0.0
  0
LINE
  5
725E
330
723E
100
AcDbEntity
  8
30
 62
     0
100
AcDbLine
 10
197.2000002250324
 20
-310.8495272313033
 30
0.0
 11
197.2000002250324
 21
-345.0227588072381
 31
0.0
  0
LINE
  5
725F
330
723E
100
AcDbEntity
  8
30
 62
     0
100
AcDbLine
 10
174.9999964113587
 20
-344.5227588072381
 30
0.0
 11
195.2000002250324
 21
-344.5227588072381
 31
0.0
  0
INSERT
  5
7260
330
723E
100
AcDbEntity
  8
30
 62
     0
100
AcDbBlockReference
  2
_OPEN
 10
172.9999964113587
 20
-344.5227588072381
 30
0.0
 41
2.0
 42
2.0
 43
2.0
 50
180.0
  0
INSERT
  5
7261
330
723E
100
AcDbEntity
  8
30
 62
     0
100
AcDbBlockReference
  2
_OPEN
 10
197.2000002250324
 20
-344.5227588072381
 30
0.0
 41
2.0
 42
2.0
 43
2.0
  0
MTEXT
  5
7262
330
723E
100
AcDbEntity
  8
30
 62
     0
100
AcDbMText
 10
185.0999983181956
 20
-341.5227588072381
 30
0.0
 40
4.0
 41
0.0
 71
     5
 72
     1
  1
\A1;24.2
 73
     1
 44
1.0
1001
ACAD
1000
MTEXTBEGIN
1070
    73
1070
     1
1070
    44
1040
1.0
1070
    74
1070
     0
1000
MTEXTEND
  0
POINT
  5
7263
330
723E
100
AcDbEntity
  8
DEFPOINTS
 62
     0
100
AcDbPoint
 10
172.9999964113587
 20
-303.8495274635057
 30
0.0
  0
POINT
  5
7264
330
723E
100
AcDbEntity
  8
DEFPOINTS
 62
     0
100
AcDbPoint
 10
197.2000002250324
 20
-309.8495272313033
 30
0.0
  0
POINT
  5
7265
330
723E
100
AcDbEntity
  8
DEFPOINTS
 62
     0
100
AcDbPoint
 10
197.2000002250324
 20
-344.5227588072381
 30
0.0
  0
ENDBLK
  5
7249
330
723E
100
AcDbEntity
  8
0
100
AcDbBlockEnd
  0
BLOCK
  5
73E8
330
73DD
100
AcDbEntity
  8
0
100
AcDbBlockBegin
  2
*D21
 70
     1
 10
0.0
 20
0.0
 30
0.0
  3
*D21
  1

  0
LINE
  5
74B2
330
73DD
100
AcDbEntity
  8
30
  6
Continuous
 62
     0
100
AcDbLine
 10
17.49999999999971
 20
-305.5
 30
0.0
 11
17.49999999999971
 21
-380.4994181439517
 31
0.0
  0
LINE
  5
74B3
330
73DD
100
AcDbEntity
  8
30
  6
Continuous
 62
     0
100
AcDbLine
 10
32.5
 20
-286.0
 30
0.0
 11
32.49999999999999
 21
-380.4994181439517
 31
0.0
  0
LINE
  5
74B4
330
73DD
100
AcDbEntity
  8
30
  6
Continuous
 62
     0
100
AcDbLine
 10
19.49999999999971
 20
-379.9994181439517
 30
0.0
 11
30.49999999999998
 21
-379.9994181439517
 31
0.0
  0
INSERT
  5
74B5
330
73DD
100
AcDbEntity
  8
30
  6
Continuous
 62
     0
100
AcDbBlockReference
  2
_OPEN
 10
17.49999999999971
 20
-379.9994181439517
 30
0.0
 41
2.0
 42
2.0
 43
2.0
 50
180.0
  0
INSERT
  5
74B6
330
73DD
100
AcDbEntity
  8
30
  6
Continuous
 62
     0
100
AcDbBlockReference
  2
_OPEN
 10
32.49999999999999
 20
-379.9994181439517
 30
0.0
 41
2.0
 42
2.0
 43
2.0
  0
MTEXT
  5
74B7
330
73DD
100
AcDbEntity
  8
30
  6
Continuous
 62
     0
100
AcDbMText
 10
24.99999999999985
 20
-376.9994181439517
 30
0.0
 40
4.0
 41
0.0
 71
     5
 72
     1
  1
\A1;15
 73
     1
 44
1.0
1001
ACAD
1000
MTEXTBEGIN
1070
    73
1070
     1
1070
    44
1040
1.0
1070
    74
1070
     0
1000
MTEXTEND
  0
POINT
  5
74B8
330
73DD
100
AcDbEntity
  8
DEFPOINTS
  6
Continuous
 62
     0
100
AcDbPoint
 10
17.49999999999971
 20
-304.4999999999999
 30
0.0
  0
POINT
  5
74B9
330
73DD
100
AcDbEntity
  8
DEFPOINTS
  6
Continuous
 62
     0
100
AcDbPoint
 10
32.5
 20
-285.0
 30
0.0
  0
POINT
  5
74BA
330
73DD
100
AcDbEntity
  8
DEFPOINTS
  6
Continuous
 62
     0
100
AcDbPoint
 10
32.49999999999999
 20
-379.9994181439517
 30
0.0
  0
ENDBLK
  5
73E9
330
73DD
100
AcDbEntity
  8
0
100
AcDbBlockEnd
  0
BLOCK
  5
73F4
330
73EA
100
AcDbEntity
  8
0
100
AcDbBlockBegin
  2
*D22
 70
     1
 10
0.0
 20
0.0
 30
0.0
  3
*D22
  1

  0
LINE
  5
749C
330
73EA
100
AcDbEntity
  8
30
  6
Continuous
 62
     0
100
AcDbLine
 10
-17.50000000000028
 20
-301.0000000164998
 30
0.0
 11
-17.50000000000028
 21
-380.4994181439517
 31
0.0
  0
LINE
  5
749D
330
73EA
100
AcDbEntity
  8
30
  6
Continuous
 62
     0
100
AcDbLine
 10
17.49999999999971
 20
-301.0000000164998
 30
0.0
 11
17.49999999999971
 21
-380.4994181439517
 31
0.0
  0
LINE
  5
749E
330
73EA
100
AcDbEntity
  8
30
  6
Continuous
 62
     0
100
AcDbLine
 10
-15.50000000000028
 20
-379.9994181439517
 30
0.0
 11
15.49999999999971
 21
-379.9994181439517
 31
0.0
  0
INSERT
  5
749F
330
73EA
100
AcDbEntity
  8
30
  6
Continuous
 62
     0
100
AcDbBlockReference
  2
_OPEN
 10
-17.50000000000028
 20
-379.9994181439517
 30
0.0
 41
2.0
 42
2.0
 43
2.0
 50
180.0
  0
INSERT
  5
74A0
330
73EA
100
AcDbEntity
  8
30
  6
Continuous
 62
     0
100
AcDbBlockReference
  2
_OPEN
 10
17.49999999999971
 20
-379.9994181439517
 30
0.0
 41
2.0
 42
2.0
 43
2.0
  0
MTEXT
  5
74A1
330
73EA
100
AcDbEntity
  8
30
  6
Continuous
 62
     0
100
AcDbMText
 10
-0.0000000000002876
 20
-376.9994181439517
 30
0.0
 40
4.0
 41
0.0
 71
     5
 72
     1
  1
\A1;35
 73
     1
 44
1.0
1001
ACAD
1000
MTEXTBEGIN
1070
    73
1070
     1
1070
    44
1040
1.0
1070
    74
1070
     0
1000
MTEXTEND
  0
POINT
  5
74A2
330
73EA
100
AcDbEntity
  8
DEFPOINTS
  6
Continuous
 62
     0
100
AcDbPoint
 10
-17.50000000000028
 20
-300.0000000164998
 30
0.0
  0
POINT
  5
74A3
330
73EA
100
AcDbEntity
  8
DEFPOINTS
  6
Continuous
 62
     0
100
AcDbPoint
 10
17.49999999999971
 20
-300.0000000164998
 30
0.0
  0
POINT
  5
74A4
330
73EA
100
AcDbEntity
  8
DEFPOINTS
  6
Continuous
 62
     0
100
AcDbPoint
 10
17.49999999999971
 20
-379.9994181439517
 30
0.0
  0
ENDBLK
  5
73F5
330
73EA
100
AcDbEntity
  8
0
100
AcDbBlockEnd
  0
BLOCK
  5
745E
330
7454
100
AcDbEntity
  8
0
100
AcDbBlockBegin
  2
*D23
 70
     1
 10
0.0
 20
0.0
 30
0.0
  3
*D23
  1

  0
LINE
  5
7478
330
7454
100
AcDbEntity
  8
30
  6
Continuous
 62
     0
100
AcDbLine
 10
33.5
 20
-285.0
 30
0.0
 11
43.99898166797354
 21
-285.0
 31
0.0
  0
LINE
  5
7479
330
7454
100
AcDbEntity
  8
30
  6
Continuous
 62
     0
100
AcDbLine
 10
33.5
 20
-235.0
 30
0.0
 11
43.99898166797356
 21
-235.0
 31
0.0
  0
LINE
  5
747A
330
7454
100
AcDbEntity
  8
30
  6
Continuous
 62
     0
100
AcDbLine
 10
43.49898166797355
 20
-283.0
 30
0.0
 11
43.49898166797356
 21
-237.0
 31
0.0
  0
INSERT
  5
747B
330
7454
100
AcDbEntity
  8
30
  6
Continuous
 62
     0
100
AcDbBlockReference
  2
_OPEN
 10
43.49898166797355
 20
-285.0
 30
0.0
 41
2.0
 42
2.0
 43
2.0
 50
270.0
  0
INSERT
  5
747C
330
7454
100
AcDbEntity
  8
30
  6
Continuous
 62
     0
100
AcDbBlockReference
  2
_OPEN
 10
43.49898166797356
 20
-235.0
 30
0.0
 41
2.0
 42
2.0
 43
2.0
 50
90.0
  0
MTEXT
  5
747D
330
7454
100
AcDbEntity
  8
30
  6
Continuous
 62
     0
100
AcDbMText
 10
40.4989816679736
 20
-260.0
 30
0.0
 40
4.0
 41
0.0
 71
     5
 72
     1
  1
\A1;50
 11
0.0000000000000001
 21
1.0
 31
0.0
 73
     1
 44
1.0
1001
ACAD
1000
MTEXTBEGIN
1070
    73
1070
     1
1070
    44
1040
1.0
1070
    74
1070
     0
1000
MTEXTEND
  0
POINT
  5
747E
330
7454
100
AcDbEntity
  8
DEFPOINTS
  6
Continuous
 62
     0
100
AcDbPoint
 10
32.5
 20
-285.0
 30
0.0
  0
POINT
  5
747F
330
7454
100
AcDbEntity
  8
DEFPOINTS
  6
Continuous
 62
     0
100
AcDbPoint
 10
32.5
 20
-235.0
 30
0.0
  0
POINT
  5
7480
330
7454
100
AcDbEntity
  8
DEFPOINTS
  6
Continuous
 62
     0
100
AcDbPoint
 10
43.49898166797356
 20
-235.0
 30
0.0
  0
ENDBLK
  5
745F
330
7454
100
AcDbEntity
  8
0
100
AcDbBlockEnd
  0
BLOCK
  5
746A
330
7460
100
AcDbEntity
  8
0
100
AcDbBlockBegin
  2
*D24
 70
     1
 10
0.0
 20
0.0
 30
0.0
  3
*D24
  1

  0
LINE
  5
74BB
330
7460
100
AcDbEntity
  8
30
  6
Continuous
 62
     0
100
AcDbLine
 10
25.49999999999974
 20
-297.5
 30
0.0
 11
74.58672249279331
 21
-297.5
 31
0.0
  0
LINE
  5
74BC
330
7460
100
AcDbEntity
  8
30
  6
Continuous
 62
     0
100
AcDbLine
 10
21.00000001650187
 20
-222.5
 30
0.0
 11
74.58672249279334
 21
-222.5
 31
0.0
  0
LINE
  5
74BD
330
7460
100
AcDbEntity
  8
30
  6
Continuous
 62
     0
100
AcDbLine
 10
74.08672249279331
 20
-295.5
 30
0.0
 11
74.08672249279333
 21
-224.5
 31
0.0
  0
INSERT
  5
74BE
330
7460
100
AcDbEntity
  8
30
  6
Continuous
 62
     0
100
AcDbBlockReference
  2
_OPEN
 10
74.08672249279331
 20
-297.5
 30
0.0
 41
2.0
 42
2.0
 43
2.0
 50
270.0
  0
INSERT
  5
74BF
330
7460
100
AcDbEntity
  8
30
  6
Continuous
 62
     0
100
AcDbBlockReference
  2
_OPEN
 10
74.08672249279334
 20
-222.5
 30
0.0
 41
2.0
 42
2.0
 43
2.0
 50
90.0
  0
MTEXT
  5
74C0
330
7460
100
AcDbEntity
  8
30
  6
Continuous
 62
     0
100
AcDbMText
 10
71.08672249279338
 20
-260.0
 30
0.0
 40
4.0
 41
0.0
 71
     5
 72
     1
  1
\A1;75
 11
0.0000000000000001
 21
1.0
 31
0.0
 73
     1
 44
1.0
1001
ACAD
1000
MTEXTBEGIN
1070
    73
1070
     1
1070
    44
1040
1.0
1070
    74
1070
     0
1000
MTEXTEND
  0
POINT
  5
74C1
330
7460
100
AcDbEntity
  8
DEFPOINTS
  6
Continuous
 62
     0
100
AcDbPoint
 10
24.49999999999972
 20
-297.5
 30
0.0
  0
POINT
  5
74C2
330
7460
100
AcDbEntity
  8
DEFPOINTS
  6
Continuous
 62
     0
100
AcDbPoint
 10
20.00000001650187
 20
-222.5
 30
0.0
  0
POINT
  5
74C3
330
7460
100
AcDbEntity
  8
DEFPOINTS
  6
Continuous
 62
     0
100
AcDbPoint
 10
74.08672249279334
 20
-222.5
 30
0.0
  0
ENDBLK
  5
746B
330
7460
100
AcDbEntity
  8
0
100
AcDbBlockEnd
  0
BLOCK
  5
7476
330
746C
100
AcDbEntity
  8
0
100
AcDbBlockBegin
  2
*D25
 70
     1
 10
0.0
 20
0.0
 30
0.0
  3
*D25
  1

  0
LINE
  5
74C4
330
746C
100
AcDbEntity
  8
30
  6
Continuous
 62
     0
100
AcDbLine
 10
25.49999999999974
 20
-297.5
 30
0.0
 11
62.08672249279334
 21
-297.5
 31
0.0
  0
LINE
  5
74C5
330
746C
100
AcDbEntity
  8
30
  6
Continuous
 62
     0
100
AcDbLine
 10
51.0
 20
-260.0
 30
0.0
 11
62.08672249279334
 21
-260.0
 31
0.0
  0
LINE
  5
74C6
330
746C
100
AcDbEntity
  8
30
  6
Continuous
 62
     0
100
AcDbLine
 10
61.58672249279334
 20
-295.5
 30
0.0
 11
61.58672249279334
 21
-262.0
 31
0.0
  0
INSERT
  5
74C7
330
746C
100
AcDbEntity
  8
30
  6
Continuous
 62
     0
100
AcDbBlockReference
  2
_OPEN
 10
61.58672249279334
 20
-297.5
 30
0.0
 41
2.0
 42
2.0
 43
2.0
 50
270.0
  0
INSERT
  5
74C8
330
746C
100
AcDbEntity
  8
30
  6
Continuous
 62
     0
100
AcDbBlockReference
  2
_OPEN
 10
61.58672249279334
 20
-260.0
 30
0.0
 41
2.0
 42
2.0
 43
2.0
 50
90.0
  0
MTEXT
  5
74C9
330
746C
100
AcDbEntity
  8
30
  6
Continuous
 62
     0
100
AcDbMText
 10
58.58672249279337
 20
-278.75
 30
0.0
 40
4.0
 41
0.0
 71
     5
 72
     1
  1
\A1;37.5
 11
0.0000000000000001
 21
1.0
 31
0.0
 73
     1
 44
1.0
1001
ACAD
1000
MTEXTBEGIN
1070
    73
1070
     1
1070
    44
1040
1.0
1070
    74
1070
     0
1000
MTEXTEND
  0
POINT
  5
74CA
330
746C
100
AcDbEntity
  8
DEFPOINTS
  6
Continuous
 62
     0
100
AcDbPoint
 10
24.49999999999972
 20
-297.5
 30
0.0
  0
POINT
  5
74CB
330
746C
100
AcDbEntity
  8
DEFPOINTS
  6
Continuous
 62
     0
100
AcDbPoint
 10
50.0
 20
-260.0
 30
0.0
  0
POINT
  5
74CC
330
746C
100
AcDbEntity
  8
DEFPOINTS
  6
Continuous
 62
     0
100
AcDbPoint
 10
61.58672249279334
 20
-260.0
 30
0.0
  0
ENDBLK
  5
7477
330
746C
100
AcDbEntity
  8
0
100
AcDbBlockEnd
  0
BLOCK
  5
751E
330
7514
100
AcDbEntity
  8
0
100
AcDbBlockBegin
  2
*D26
 70
     1
 10
0.0
 20
0.0
 30
0.0
  3
*D26
  1

  0
LINE
  5
7515
330
7514
100
AcDbEntity
  8
30
  6
Continuous
 62
     0
370
    -2
100
AcDbLine
 10
31.49999999999971
 20
-298.4999999999999
 30
0.0
 11
31.49999999999971
 21
-380.4718017965305
 31
0.0
  0
LINE
  5
7516
330
7514
100
AcDbEntity
  8
30
  6
Continuous
 62
     0
370
    -2
100
AcDbLine
 10
17.49999999999976
 20
-298.4999999999999
 30
0.0
 11
17.49999999999976
 21
-380.4718017965305
 31
0.0
  0
LINE
  5
7517
330
7514
100
AcDbEntity
  8
30
  6
Continuous
 62
     0
370
    -2
100
AcDbLine
 10
29.4999999999997
 20
-379.9718017965306
 30
0.0
 11
19.49999999999977
 21
-379.9718017965306
 31
0.0
  0
INSERT
  5
7518
330
7514
100
AcDbEntity
  8
30
  6
Continuous
 62
     0
370
    -2
100
AcDbBlockReference
  2
_OPEN
 10
31.49999999999971
 20
-379.9718017965306
 30
0.0
 41
2.0
 42
2.0
 43
2.0
  0
INSERT
  5
7519
330
7514
100
AcDbEntity
  8
30
  6
Continuous
 62
     0
370
    -2
100
AcDbBlockReference
  2
_OPEN
 10
17.49999999999976
 20
-379.9718017965306
 30
0.0
 41
2.0
 42
2.0
 43
2.0
 50
180.0
  0
MTEXT
  5
751A
330
7514
100
AcDbEntity
  8
30
  6
Continuous
 62
     0
100
AcDbMText
 10
24.49999999999973
 20
-376.9718017965306
 30
0.0
 40
4.0
 41
0.0
 71
     5
 72
     1
  1
\A1;14
 73
     1
 44
1.0
  0
POINT
  5
751B
330
7514
100
AcDbEntity
  8
DEFPOINTS
  6
Continuous
 62
     0
100
AcDbPoint
 10
31.49999999999971
 20
-297.5
 30
0.0
  0
POINT
  5
751C
330
7514
100
AcDbEntity
  8
DEFPOINTS
  6
Continuous
 62
     0
100
AcDbPoint
 10
17.49999999999976
 20
-297.5
 30
0.0
  0
POINT
  5
751D
330
7514
100
AcDbEntity
  8
DEFPOINTS
  6
Continuous
 62
     0
100
AcDbPoint
 10
17.49999999999976
 20
-379.9718017965306
 30
0.0
  0
ENDBLK
  5
751F
330
7514
100
AcDbEntity
  8
0
100
AcDbBlockEnd
  0
BLOCK
  5
753C
330
7532
100
AcDbEntity
  8
0
100
AcDbBlockBegin
  2
*D27
 70
     1
 10
0.0
 20
0.0
 30
0.0
  3
*D27
  1

  0
LINE
  5
7533
330
7532
100
AcDbEntity
  8
30
  6
Continuous
 62
     0
370
    -2
100
AcDbLine
 10
31.49999999999971
 20
-298.4999999999999
 30
0.0
 11
31.49999999999971
 21
-380.4996381230632
 31
0.0
  0
LINE
  5
7534
330
7532
100
AcDbEntity
  8
30
  6
Continuous
 62
     0
370
    -2
100
AcDbLine
 10
17.49999999999976
 20
-298.4999999999999
 30
0.0
 11
17.49999999999976
 21
-380.4996381230632
 31
0.0
  0
LINE
  5
7535
330
7532
100
AcDbEntity
  8
30
  6
Continuous
 62
     0
370
    -2
100
AcDbLine
 10
29.4999999999997
 20
-379.9996381230632
 30
0.0
 11
19.49999999999977
 21
-379.9996381230632
 31
0.0
  0
INSERT
  5
7536
330
7532
100
AcDbEntity
  8
30
  6
Continuous
 62
     0
370
    -2
100
AcDbBlockReference
  2
_OPEN
 10
31.49999999999971
 20
-379.9996381230632
 30
0.0
 41
2.0
 42
2.0
 43
2.0
  0
INSERT
  5
7537
330
7532
100
AcDbEntity
  8
30
  6
Continuous
 62
     0
370
    -2
100
AcDbBlockReference
  2
_OPEN
 10
17.49999999999976
 20
-379.9996381230632
 30
0.0
 41
2.0
 42
2.0
 43
2.0
 50
180.0
  0
MTEXT
  5
7538
330
7532
100
AcDbEntity
  8
30
  6
Continuous
 62
     0
100
AcDbMText
 10
24.49999999999973
 20
-376.9996381230632
 30
0.0
 40
4.0
 41
0.0
 71
     5
 72
     1
  1
\A1;14
 73
     1
 44
1.0
  0
POINT
  5
7539
330
7532
100
AcDbEntity
  8
DEFPOINTS
  6
Continuous
 62
     0
100
AcDbPoint
 10
31.49999999999971
 20
-297.5
 30
0.0
  0
POINT
  5
753A
330
7532
100
AcDbEntity
  8
DEFPOINTS
  6
Continuous
 62
     0
100
AcDbPoint
 10
17.49999999999976
 20
-297.5
 30
0.0
  0
POINT
  5
753B
330
7532
100
AcDbEntity
  8
DEFPOINTS
  6
Continuous
 62
     0
100
AcDbPoint
 10
17.49999999999976
 20
-379.9996381230632
 30
0.0
  0
ENDBLK
  5
753D
330
7532
100
AcDbEntity
  8
0
100
AcDbBlockEnd
  0
BLOCK
  5
7549
330
753F
100
AcDbEntity
  8
0
100
AcDbBlockBegin
  2
*D28
 70
     1
 10
0.0
 20
0.0
 30
0.0
  3
*D28
  1

  0
LINE
  5
7540
330
753F
100
AcDbEntity
  8
30
  6
Continuous
 62
     0
370
    -2
100
AcDbLine
 10
-31.50000000000035
 20
-298.4999999999999
 30
0.0
 11
-31.50000000000035
 21
-380.590370193653
 31
0.0
  0
LINE
  5
7541
330
753F
100
AcDbEntity
  8
30
  6
Continuous
 62
     0
370
    -2
100
AcDbLine
 10
-17.50000000000021
 20
-298.4999999999999
 30
0.0
 11
-17.50000000000021
 21
-380.590370193653
 31
0.0
  0
LINE
  5
7542
330
753F
100
AcDbEntity
  8
30
  6
Continuous
 62
     0
370
    -2
100
AcDbLine
 10
-29.50000000000035
 20
-380.0903701936531
 30
0.0
 11
-19.5000000000002
 21
-380.0903701936531
 31
0.0
  0
INSERT
  5
7543
330
753F
100
AcDbEntity
  8
30
  6
Continuous
 62
     0
370
    -2
100
AcDbBlockReference
  2
_OPEN
 10
-31.50000000000035
 20
-380.0903701936531
 30
0.0
 41
2.0
 42
2.0
 43
2.0
 50
180.0
  0
INSERT
  5
7544
330
753F
100
AcDbEntity
  8
30
  6
Continuous
 62
     0
370
    -2
100
AcDbBlockReference
  2
_OPEN
 10
-17.50000000000021
 20
-380.0903701936531
 30
0.0
 41
2.0
 42
2.0
 43
2.0
  0
MTEXT
  5
7545
330
753F
100
AcDbEntity
  8
30
  6
Continuous
 62
     0
100
AcDbMText
 10
-24.50000000000028
 20
-377.090370193653
 30
0.0
 40
4.0
 41
0.0
 71
     5
 72
     1
  1
\A1;14
 73
     1
 44
1.0
  0
POINT
  5
7546
330
753F
100
AcDbEntity
  8
DEFPOINTS
  6
Continuous
 62
     0
100
AcDbPoint
 10
-31.50000000000035
 20
-297.5
 30
0.0
  0
POINT
  5
7547
330
753F
100
AcDbEntity
  8
DEFPOINTS
  6
Continuous
 62
     0
100
AcDbPoint
 10
-17.50000000000021
 20
-297.5
 30
0.0
  0
POINT
  5
7548
330
753F
100
AcDbEntity
  8
DEFPOINTS
  6
Continuous
 62
     0
100
AcDbPoint
 10
-17.50000000000021
 20
-380.0903701936531
 30
0.0
  0
ENDBLK
  5
754A
330
753F
100
AcDbEntity
  8
0
100
AcDbBlockEnd
  0
BLOCK
  5
7555
330
754D
100
AcDbEntity
  8
0
100
AcDbBlockBegin
  2
*D29
 70
     1
 10
0.0
 20
0.0
 30
0.0
  3
*D29
  1

  0
LINE
  5
754E
330
754D
100
AcDbEntity
  8
30
  6
Continuous
 62
     0
370
    -2
100
AcDbLine
 10
-24.76159124903714
 20
-328.1266298548736
 30
0.0
 11
-29.13633631016012
 21
-308.2430486344113
 31
0.0
  0
MTEXT
  5
754F
330
754D
100
AcDbEntity
  8
30
  6
Continuous
 62
     0
100
AcDbMText
 10
-23.04931382532743
 20
-321.9476965217356
 30
0.0
 40
4.0
 41
0.0
 71
     5
 72
     1
  1
\A1;\U+220518
 11
0.2148785172582023
 21
-0.9766407849465004
 31
0.0
 73
     1
 44
1.0
  0
INSERT
  5
7550
330
754D
100
AcDbEntity
  8
30
  6
Continuous
 62
     0
370
    -2
100
AcDbBlockReference
  2
_OPEN
 10
-29.56609334467653
 20
-306.2897670645185
 30
0.0
 41
2.0
 42
2.0
 43
2.0
 50
102.4084002795351
  0
LINE
  5
7551
330
754D
100
AcDbEntity
  8
30
  6
Continuous
 62
     0
370
    -2
100
AcDbLine
 10
-31.59000000000036
 20
-297.5
 30
0.0
 11
-31.41000000000035
 21
-297.5
 31
0.0
  0
LINE
  5
7552
330
754D
100
AcDbEntity
  8
30
  6
Continuous
 62
     0
370
    -2
100
AcDbLine
 10
-31.50000000000035
 20
-297.5899999999998
 30
0.0
 11
-31.50000000000037
 21
-297.4099999999999
 31
0.0
  0
POINT
  5
7553
330
754D
100
AcDbEntity
  8
DEFPOINTS
  6
Continuous
 62
     0
100
AcDbPoint
 10
-29.56609334467653
 20
-306.2897670645185
 30
0.0
  0
POINT
  5
7554
330
754D
100
AcDbEntity
  8
DEFPOINTS
  6
Continuous
 62
     0
100
AcDbPoint
 10
-33.43390665532417
 20
-288.7102329354815
 30
0.0
  0
ENDBLK
  5
7556
330
754D
100
AcDbEntity
  8
0
100
AcDbBlockEnd
  0
ENDSEC
  0
SECTION
  2
ENTITIES
  0
DIMENSION
  5
BD8
330
1E
100
AcDbEntity
  8
30
  6
Continuous
100
AcDbDimension
  2
*D1
 10
323.2021826079416
 20
-284.8593533752837
 30
0.0
 11
323.2021826079417
 21
-284.8593533752837
 31
0.0
 70
   160
  1
max10
 71
     5
 42
-1.0
  3
STANDARD
100
AcDbAlignedDimension
 13
314.1041177097286
 23
-294.8593533752837
 33
0.0
 14
315.1041177097285
 24
-284.8593533752837
 34
0.0
 50
90.0
100
AcDbRotatedDimension
  0
MTEXT
  5
BF3
330
1E
100
AcDbEntity
  8
24
  6
Continuous
100
AcDbMText
 10
142.1181906098743
 20
177.5
 30
0.0
 40
3.0
 41
0.0
 71
     1
 72
     1
  1
\A1;
 73
     1
 44
1.0
1001
ACAD
1000
MTEXTBEGIN
1070
    73
1070
     1
1070
    44
1040
1.0
1070
    74
1070
     0
1000
MTEXTEND
  0
TEXT
  5
BF4
330
1E
100
AcDbEntity
  8
30
  6
Continuous
100
AcDbText
 10
320.0978220781312
 20
-306.3032880643961
 30
0.0
 40
4.0
  1
%%C6.5
100
AcDbText
  0
LEADER
  5
C4F
330
1E
100
AcDbEntity
  8
30
  6
Continuous
100
AcDbLeader
  3
STANDARD
 76
     3
 10
306.8541177097285
 20
-285.8593533752837
 30
0.0
 10
317.8541177097286
 20
-307.8593533752837
 30
0.0
 10
329.8541177097285
 20
-307.8593533752837
 30
0.0
1001
ACAD
1000
DSTYLE
1002
{
1070
     5
1000
OPEN
1070
   342
1005
3B2
1002
}
  0
LINE
  5
2260
330
1E
100
AcDbEntity
  8
16
100
AcDbLine
 10
92.26416272116694
 20
-260.0
 30
0.0
 11
-61.60868885537144
 21
-260.0
 31
0.0
  0
LINE
  5
2261
330
1E
100
AcDbEntity
  8
16
100
AcDbLine
 10
0.0
 20
-318.4411051697093
 30
0.0
 11
0.0
 21
-177.2499999999799
 31
0.0
  0
MTEXT
  5
4B2E
330
1E
100
AcDbEntity
  8
30
  6
Continuous
 62
     2
100
AcDbMText
 10
268.061460244221
 20
-10.61653703766022
 30
0.0
 40
4.0
 41
0.0
 71
     1
 72
     1
  1
 
 73
     1
 44
1.0
1001
ACAD
1000
MTEXTBEGIN
1070
    73
1070
     1
1070
    44
1040
1.0
1070
    74
1070
     0
1000
MTEXTEND
  0
LWPOLYLINE
  5
5803
330
1E
100
AcDbEntity
  8
16
100
AcDbPolyline
 90
        2
 70
     0
 43
0.001
 10
0.0
 20
109.9505615234199
 10
0.0
 20
-121.91400146485
  0
LINE
  5
5938
330
1E
100
AcDbEntity
  8
16
100
AcDbLine
 10
73.58329095406677
 20
0.0
 30
0.0
 11
-74.17658291715568
 21
0.0
 31
0.0
  0
LINE
  5
5E0A
330
1E
100
AcDbEntity
  8
16
100
AcDbLine
 10
304.5913216207948
 20
0.0
 30
0.0
 11
126.8314477495726
 21
0.0
 31
0.0
  0
DIMENSION
  5
6056
330
1E
100
AcDbEntity
  8
30
  6
Continuous
100
AcDbDimension
  2
*D2
 10
45.0
 20
-110.0
 30
0.0
 11
0.0000000000000002
 21
-107.0
 31
0.0
 70
    32
 71
     5
 42
-1.0
  3
STANDARD
100
AcDbAlignedDimension
 13
-45.0
 23
-77.5
 33
0.0
 14
45.0
 24
-77.5
 34
0.0
 50
180.0
100
AcDbRotatedDimension
  0
LINE
  5
605E
330
1E
100
AcDbEntity
  8
10
  6
Continuous
100
AcDbLine
 10
18.50000224451648
 20
-86.19999731769713
 30
0.0
 11
20.00000756256486
 21
-88.79807331226993
 31
0.0
  0
LINE
  5
605F
330
1E
100
AcDbEntity
  8
10
  6
Continuous
100
AcDbLine
 10
10.00000036945857
 20
-88.79807331226993
 30
0.0
 11
11.50000568750692
 21
-86.19999731769713
 31
0.0
  0
LINE
  5
6060
330
1E
100
AcDbEntity
  8
10
  6
Continuous
100
AcDbLine
 10
-11.4999951114805
 20
-86.19999731769713
 30
0.0
 11
-10.00000190509308
 21
-88.79807331226993
 31
0.0
  0
LINE
  5
6061
330
1E
100
AcDbEntity
  8
10
  6
Continuous
100
AcDbLine
 10
-19.99999698653844
 20
-88.79807331226993
 30
0.0
 11
-18.49999166849011
 21
-86.19999731769713
 31
0.0
  0
CIRCLE
  5
6062
330
1E
100
AcDbEntity
  8
10
  6
Continuous
100
AcDbCircle
 10
-15.00000208982235
 20
-89.9999954486457
 30
0.0
 40
2.250000028793264
  0
CIRCLE
  5
606C
330
1E
100
AcDbEntity
  8
10
  6
Continuous
100
AcDbCircle
 10
14.99999791017762
 20
-89.9999954486457
 30
0.0
 40
2.250000028793264
  0
ARC
  5
606D
330
1E
100
AcDbEntity
  8
10
  6
Continuous
100
AcDbCircle
 10
19.00000805441957
 20
-93.99999499518072
 30
0.0
 40
0.9999999812562155
100
AcDbArc
 50
270.0
 51
0.0
  0
ARC
  5
606E
330
1E
100
AcDbEntity
  8
10
  6
Continuous
100
AcDbCircle
 10
10.99999987759656
 20
-93.99999499518072
 30
0.0
 40
0.9999999812562155
100
AcDbArc
 50
180.0
 51
270.0
  0
ARC
  5
606F
330
1E
100
AcDbEntity
  8
10
  6
Continuous
100
AcDbCircle
 10
-11.00000141323832
 20
-93.99999499518072
 30
0.0
 40
0.9999999812562155
100
AcDbArc
 50
270.0
 51
0.0
  0
ARC
  5
6070
330
1E
100
AcDbEntity
  8
10
  6
Continuous
100
AcDbCircle
 10
-18.99999747839319
 20
-93.99999499518072
 30
0.0
 40
0.9999999812562155
100
AcDbArc
 50
180.0
 51
270.0
  0
LINE
  5
6073
330
1E
100
AcDbEntity
  8
10
  6
Continuous
100
AcDbLine
 10
11.75000999304756
 20
-89.9999954486457
 30
0.0
 11
18.25001005063676
 21
-89.9999954486457
 31
0.0
  0
LINE
  5
6074
330
1E
100
AcDbEntity
  8
10
  6
Continuous
100
AcDbLine
 10
15.00001002183853
 20
-86.74999541985242
 30
0.0
 11
15.00001002183853
 21
-93.24999547743892
 31
0.0
  0
LINE
  5
6075
330
1E
100
AcDbEntity
  8
10
  6
Continuous
100
AcDbLine
 10
-18.2499843350306
 20
-89.99998188807285
 30
0.0
 11
-11.74998427744138
 21
-89.99998188807285
 31
0.0
  0
LINE
  5
6076
330
1E
100
AcDbEntity
  8
10
  6
Continuous
100
AcDbLine
 10
-14.99998430623963
 20
-86.74998185927961
 30
0.0
 11
-14.99998430623963
 21
-93.24998191686608
 31
0.0
  0
LINE
  5
6081
330
1E
100
AcDbEntity
  8
10
  6
Continuous
100
AcDbLine
 10
19.00000805441957
 20
-94.99999601728314
 30
0.0
 11
10.99999987759656
 21
-94.99999601728314
 31
0.0
  0
LINE
  5
6085
330
1E
100
AcDbEntity
  8
10
  6
Continuous
100
AcDbLine
 10
20.00000756256486
 20
-88.79807331226993
 30
0.0
 11
20.00000756256486
 21
-93.99999499518072
 31
0.0
  0
LINE
  5
6086
330
1E
100
AcDbEntity
  8
10
  6
Continuous
100
AcDbLine
 10
10.00000036945857
 20
-93.99999499518072
 30
0.0
 11
10.00000036945857
 21
-88.79807331226993
 31
0.0
  0
LINE
  5
6087
330
1E
100
AcDbEntity
  8
10
  6
Continuous
100
AcDbLine
 10
10.0101862785741
 20
-88.8007984365886
 30
0.0
 11
10.00000036945857
 21
-88.79807331226993
 31
0.0
  0
LINE
  5
6088
330
1E
100
AcDbEntity
  8
10
  6
Continuous
100
AcDbLine
 10
-11.00000141323832
 20
-94.99999601728314
 30
0.0
 11
-18.99999747839319
 21
-94.99999601728314
 31
0.0
  0
LINE
  5
6089
330
1E
100
AcDbEntity
  8
10
  6
Continuous
100
AcDbLine
 10
-10.00000190509308
 20
-88.79807331226993
 30
0.0
 11
-10.00000190509308
 21
-93.99999499518072
 31
0.0
  0
LINE
  5
608A
330
1E
100
AcDbEntity
  8
10
  6
Continuous
100
AcDbLine
 10
-19.99999698653844
 20
-93.99999499518072
 30
0.0
 11
-19.99999698653844
 21
-88.79807331226993
 31
0.0
  0
DIMENSION
  5
608B
330
1E
100
AcDbEntity
  8
30
  6
Continuous
100
AcDbDimension
  2
*D3
 10
76.79437799518201
 20
85.00000325826205
 30
0.0
 11
73.79437799518197
 21
0.0000041891271493
 31
0.0
 70
    32
 71
     5
 42
-1.0
  3
STANDARD
100
AcDbAlignedDimension
 13
41.24999143870809
 23
-84.99999488000776
 33
0.0
 14
41.24999143870809
 24
85.00000325826205
 34
0.0
 50
270.0
100
AcDbRotatedDimension
  0
DIMENSION
  5
608C
330
1E
100
AcDbEntity
  8
30
  6
Continuous
100
AcDbDimension
  2
*D4
 10
64.29437799518201
 20
77.5
 30
0.0
 11
61.29437799518199
 21
0.0000000000000106
 31
0.0
 70
    32
 71
     5
 42
-1.0
  3
STANDARD
100
AcDbAlignedDimension
 13
45.0
 23
-77.5
 33
0.0
 14
45.0
 24
77.5
 34
0.0
 50
270.0
100
AcDbRotatedDimension
  0
LINE
  5
608D
330
1E
100
AcDbEntity
  8
10
  6
Continuous
100
AcDbLine
 10
42.0
 20
25.0
 30
0.0
 11
42.0
 21
-25.0
 31
0.0
  0
LINE
  5
608E
330
1E
100
AcDbEntity
  8
10
  6
Continuous
100
AcDbLine
 10
-42.0
 20
25.0
 30
0.0
 11
-42.0
 21
-25.0
 31
0.0
  0
LINE
  5
6090
330
1E
100
AcDbEntity
  8
10
  6
Continuous
100
AcDbLine
 10
7.0
 20
-18.5
 30
0.0
 11
7.0
 21
20.15486870581026
 31
0.0
  0
LINE
  5
6091
330
1E
100
AcDbEntity
  8
10
  6
Continuous
100
AcDbLine
 10
-7.0
 20
-18.5
 30
0.0
 11
-7.0
 21
20.15486870581026
 31
0.0
  0
LINE
  5
6094
330
1E
100
AcDbEntity
  8
10
  6
Continuous
100
AcDbLine
 10
-11.0
 20
25.0
 30
0.0
 11
-11.0
 21
-25.0
 31
0.0
  0
LINE
  5
6095
330
1E
100
AcDbEntity
  8
10
  6
Continuous
100
AcDbLine
 10
11.0
 20
25.0
 30
0.0
 11
11.0
 21
-25.0
 31
0.0
  0
LINE
  5
6099
330
1E
100
AcDbEntity
  8
10
  6
Continuous
100
AcDbLine
 10
45.0
 20
-77.5
 30
0.0
 11
45.0
 21
77.5
 31
0.0
  0
LINE
  5
609A
330
1E
100
AcDbEntity
  8
10
  6
Continuous
100
AcDbLine
 10
-45.0
 20
77.5
 30
0.0
 11
-45.0
 21
-77.5
 31
0.0
  0
ARC
  5
60A3
330
1E
100
AcDbEntity
  8
10
  6
Continuous
100
AcDbCircle
 10
-44.49999704773654
 20
-84.49999512593556
 30
0.0
 40
0.499999990628108
100
AcDbArc
 50
180.0
 51
270.0
  0
CIRCLE
  5
60A4
330
1E
100
AcDbEntity
  8
12
100
AcDbCircle
 10
-15.0
 20
-65.99999999999955
 30
0.0
 40
3.999999999999996
210
0.0
220
0.0
230
-1.0
  0
CIRCLE
  5
60A5
330
1E
100
AcDbEntity
  8
12
100
AcDbCircle
 10
15.0
 20
-65.99999999999955
 30
0.0
 40
3.999999999999996
210
0.0
220
0.0
230
-1.0
  0
ARC
  5
60AA
330
1E
100
AcDbEntity
  8
10
  6
Continuous
100
AcDbCircle
 10
-33.75
 20
-66.0
 30
0.0
 40
4.999999999999995
210
0.0
220
0.0
230
-1.0
100
AcDbArc
 50
90.0
 51
180.0
  0
ARC
  5
60AB
330
1E
100
AcDbEntity
  8
10
  6
Continuous
100
AcDbCircle
 10
-26.25
 20
-66.0
 30
0.0
 40
4.999999999999995
210
0.0
220
0.0
230
-1.0
100
AcDbArc
 50
0.0
 51
90.0
  0
CIRCLE
  5
60AC
330
1E
100
AcDbEntity
  8
24
  6
CONTINOUS
100
AcDbCircle
 10
30.0
 20
-67.0
 30
0.0
 40
4.999999999999995
  0
ARC
  5
60AD
330
1E
100
AcDbEntity
  8
10
  6
Continuous
100
AcDbCircle
 10
-33.75
 20
-66.0
 30
0.0
 40
4.999999999999995
100
AcDbArc
 50
90.0
 51
180.0
  0
ARC
  5
60AE
330
1E
100
AcDbEntity
  8
10
  6
Continuous
100
AcDbCircle
 10
-26.25
 20
-66.0
 30
0.0
 40
4.999999999999995
100
AcDbArc
 50
0.0
 51
90.0
  0
ARC
  5
60AF
330
1E
100
AcDbEntity
  8
10
  6
Continuous
100
AcDbCircle
 10
-3.75
 20
-66.0
 30
0.0
 40
4.999999999999995
210
0.0
220
0.0
230
-1.0
100
AcDbArc
 50
90.0
 51
180.0
  0
ARC
  5
60B0
330
1E
100
AcDbEntity
  8
10
  6
Continuous
100
AcDbCircle
 10
3.75
 20
-66.0
 30
0.0
 40
4.999999999999995
210
0.0
220
0.0
230
-1.0
100
AcDbArc
 50
0.0
 51
90.0
  0
CIRCLE
  5
60B1
330
1E
100
AcDbEntity
  8
24
  6
CONTINOUS
100
AcDbCircle
 10
0.0
 20
-67.0
 30
0.0
 40
4.999999999999995
  0
CIRCLE
  5
60B2
330
1E
100
AcDbEntity
  8
24
  6
CONTINOUS
100
AcDbCircle
 10
-30.0
 20
-67.0
 30
0.0
 40
4.999999999999995
  0
LINE
  5
60CB
330
1E
100
AcDbEntity
  8
10
  6
Continuous
100
AcDbLine
 10
-41.74999537242547
 20
-77.99999529508159
 30
0.0
 11
-41.74999537242547
 21
-77.50000035274661
 31
0.0
  0
LINE
  5
60CC
330
1E
100
AcDbEntity
  8
10
  6
Continuous
100
AcDbLine
 10
-12.49999461962579
 20
-84.99999488000776
 30
0.0
 11
12.5000051956449
 21
-84.99999488000776
 31
0.0
  0
LINE
  5
60D6
330
1E
100
AcDbEntity
  8
10
  6
Continuous
100
AcDbLine
 10
17.50000273637124
 20
-84.99999488000776
 30
0.0
 11
42.50000255164195
 21
-84.99999488000776
 31
0.0
  0
LINE
  5
60D9
330
1E
100
AcDbEntity
  8
10
  6
Continuous
100
AcDbLine
 10
18.48982844706188
 20
-86.20272244201533
 30
0.0
 11
18.50000224451648
 21
-86.19999731769713
 31
0.0
  0
LINE
  5
60DA
330
1E
100
AcDbEntity
  8
10
  6
Continuous
100
AcDbLine
 10
18.50000224451648
 20
-84.99999488000776
 30
0.0
 11
18.50000224451648
 21
-86.19999731769713
 31
0.0
  0
LINE
  5
60DB
330
1E
100
AcDbEntity
  8
10
  6
Continuous
100
AcDbLine
 10
11.51017948496155
 20
-86.20272244201533
 30
0.0
 11
11.50000568750692
 21
-86.19999731769713
 31
0.0
  0
LINE
  5
60DC
330
1E
100
AcDbEntity
  8
10
  6
Continuous
100
AcDbLine
 10
11.50000568750692
 20
-86.19999731769713
 30
0.0
 11
11.50000568750692
 21
-84.99999488000776
 31
0.0
  0
LINE
  5
60DD
330
1E
100
AcDbEntity
  8
10
  6
Continuous
100
AcDbLine
 10
-44.99999680180915
 20
-84.49950875583999
 30
0.0
 11
-44.99999680180915
 21
-77.99999529508159
 31
0.0
  0
LINE
  5
60DE
330
1E
100
AcDbEntity
  8
10
  6
Continuous
100
AcDbLine
 10
-11.4999951114805
 20
-84.99999488000776
 30
0.0
 11
-11.4999951114805
 21
-86.19999731769713
 31
0.0
  0
LINE
  5
60DF
330
1E
100
AcDbEntity
  8
10
  6
Continuous
100
AcDbLine
 10
-44.49999704773654
 20
-84.99999488000776
 30
0.0
 11
-17.49999216034482
 21
-84.99999488000776
 31
0.0
  0
LINE
  5
60E0
330
1E
100
AcDbEntity
  8
10
  6
Continuous
100
AcDbLine
 10
-18.49999166849011
 20
-86.19999731769713
 30
0.0
 11
-18.49999166849011
 21
-84.99999488000776
 31
0.0
  0
LINE
  5
60E1
330
1E
100
AcDbEntity
  8
10
  6
Continuous
100
AcDbLine
 10
-44.99999680180915
 20
-77.99999529508159
 30
0.0
 11
-41.74999537242547
 21
-77.99999529508159
 31
0.0
  0
LINE
  5
60E2
330
1E
100
AcDbEntity
  8
10
  6
Continuous
100
AcDbLine
 10
-42.0
 20
-25.0
 30
0.0
 11
42.0
 21
-25.0
 31
0.0
  0
LINE
  5
60E3
330
1E
100
AcDbEntity
  8
12
  6
DASHED
100
AcDbLine
 10
15.0
 20
-60.5
 30
0.0
 11
15.0
 21
-71.49999999999955
 31
0.0
  0
LINE
  5
60E5
330
1E
100
AcDbEntity
  8
10
  6
Continuous
100
AcDbLine
 10
7.0
 20
6.840789306861553
 30
0.0
 11
-7.0
 21
6.840789306861553
 31
0.0
  0
LINE
  5
60E6
330
1E
100
AcDbEntity
  8
10
  6
Continuous
100
AcDbLine
 10
-7.0
 20
-18.5
 30
0.0
 11
7.0
 21
-18.5
 31
0.0
  0
LINE
  5
60E8
330
1E
100
AcDbEntity
  8
12
  6
DASHED
100
AcDbLine
 10
9.5
 20
-65.99999999999955
 30
0.0
 11
20.5
 21
-65.99999999999955
 31
0.0
  0
LINE
  5
60E9
330
1E
100
AcDbEntity
  8
12
  6
DASHED
100
AcDbLine
 10
-15.0
 20
-60.5
 30
0.0
 11
-15.0
 21
-71.49999999999955
 31
0.0
  0
LINE
  5
60EA
330
1E
100
AcDbEntity
  8
12
  6
DASHED
100
AcDbLine
 10
-20.5
 20
-65.99999999999955
 30
0.0
 11
-9.5
 21
-65.99999999999955
 31
0.0
  0
LINE
  5
60F3
330
1E
100
AcDbEntity
  8
10
  6
Continuous
100
AcDbLine
 10
-45.0
 20
-51.0
 30
0.0
 11
45.0
 21
-51.0
 31
0.0
  0
LINE
  5
60F4
330
1E
100
AcDbEntity
  8
17
  6
DASHDOT
100
AcDbLine
 10
23.0
 20
-67.0
 30
0.0
 11
37.0
 21
-67.0
 31
0.0
  0
LINE
  5
60F5
330
1E
100
AcDbEntity
  8
17
  6
DASHDOT
100
AcDbLine
 10
30.0
 20
-74.0
 30
0.0
 11
30.0
 21
-60.0
 31
0.0
  0
LINE
  5
60F6
330
1E
100
AcDbEntity
  8
10
  6
Continuous
100
AcDbLine
 10
38.75
 20
-66.0
 30
0.0
 11
38.75
 21
-77.5
 31
0.0
  0
LINE
  5
60F7
330
1E
100
AcDbEntity
  8
10
  6
Continuous
100
AcDbLine
 10
33.75
 20
-61.0
 30
0.0
 11
26.25
 21
-61.0
 31
0.0
  0
LINE
  5
60F8
330
1E
100
AcDbEntity
  8
10
  6
Continuous
100
AcDbLine
 10
21.25
 20
-66.0
 30
0.0
 11
21.25
 21
-77.5
 31
0.0
  0
LINE
  5
60F9
330
1E
100
AcDbEntity
  8
10
  6
Continuous
100
AcDbLine
 10
-38.75
 20
-66.0
 30
0.0
 11
-38.75
 21
-77.5
 31
0.0
  0
LINE
  5
60FA
330
1E
100
AcDbEntity
  8
10
  6
Continuous
100
AcDbLine
 10
-33.75
 20
-61.0
 30
0.0
 11
-26.25
 21
-61.0
 31
0.0
  0
LINE
  5
60FB
330
1E
100
AcDbEntity
  8
10
  6
Continuous
100
AcDbLine
 10
-21.25
 20
-66.0
 30
0.0
 11
-21.25
 21
-77.5
 31
0.0
  0
LINE
  5
60FC
330
1E
100
AcDbEntity
  8
17
  6
DASHDOT
100
AcDbLine
 10
-30.0
 20
-74.0
 30
0.0
 11
-30.0
 21
-60.0
 31
0.0
  0
LINE
  5
60FD
330
1E
100
AcDbEntity
  8
17
  6
DASHDOT
100
AcDbLine
 10
-23.0
 20
-67.0
 30
0.0
 11
-37.0
 21
-67.0
 31
0.0
  0
LINE
  5
60FE
330
1E
100
AcDbEntity
  8
17
  6
DASHDOT
100
AcDbLine
 10
-7.0
 20
-67.0
 30
0.0
 11
7.0
 21
-67.0
 31
0.0
  0
LINE
  5
60FF
330
1E
100
AcDbEntity
  8
10
  6
Continuous
100
AcDbLine
 10
8.75
 20
-66.0
 30
0.0
 11
8.75
 21
-77.5
 31
0.0
  0
LINE
  5
6100
330
1E
100
AcDbEntity
  8
10
  6
Continuous
100
AcDbLine
 10
3.75
 20
-61.0
 30
0.0
 11
-3.75
 21
-61.0
 31
0.0
  0
LINE
  5
6101
330
1E
100
AcDbEntity
  8
10
  6
Continuous
100
AcDbLine
 10
-8.75
 20
-66.0
 30
0.0
 11
-8.75
 21
-77.5
 31
0.0
  0
LINE
  5
6115
330
1E
100
AcDbEntity
  8
10
  6
Continuous
100
AcDbLine
 10
-45.0
 20
-77.5
 30
0.0
 11
45.0
 21
-77.5
 31
0.0
  0
DIMENSION
  5
6116
330
1E
100
AcDbEntity
  8
30
  6
Continuous
100
AcDbDimension
  2
*D5
 10
42.0
 20
32.59950840067995
 30
0.0
 11
0.0000000000000002
 21
35.59950840067996
 31
0.0
 70
    32
 71
     5
 42
-1.0
  3
STANDARD
100
AcDbAlignedDimension
 13
-42.0
 23
25.0
 33
0.0
 14
42.0
 24
25.0
 34
0.0
100
AcDbRotatedDimension
  0
ARC
  5
6122
330
1E
100
AcDbEntity
  8
10
  6
Continuous
100
AcDbCircle
 10
44.50001103559043
 20
79.49999990763626
 30
0.0
 40
0.499999990628108
100
AcDbArc
 50
0.0
 51
90.0
  0
ARC
  5
6126
330
1E
100
AcDbEntity
  8
10
  6
Continuous
100
AcDbCircle
 10
19.00000805441957
 20
93.99999883156125
 30
0.0
 40
0.9999999812562155
100
AcDbArc
 50
0.0
 51
90.0
  0
CIRCLE
  5
6127
330
1E
100
AcDbEntity
  8
10
  6
Continuous
100
AcDbCircle
 10
14.99999791017762
 20
90.00000079898383
 30
0.0
 40
2.250000028793264
  0
CIRCLE
  5
6128
330
1E
100
AcDbEntity
  8
10
  6
Continuous
100
AcDbCircle
 10
-14.99999641790052
 20
89.99999474315155
 30
0.0
 40
2.175250057989682
  0
ARC
  5
6129
330
1E
100
AcDbEntity
  8
10
  6
Continuous
100
AcDbCircle
 10
10.99999987759656
 20
93.99999883156125
 30
0.0
 40
0.9999999812562155
100
AcDbArc
 50
90.0
 51
180.0
  0
ARC
  5
612A
330
1E
100
AcDbEntity
  8
10
  6
Continuous
100
AcDbCircle
 10
-11.00000141323832
 20
93.99999883156125
 30
0.0
 40
0.9999999812562155
100
AcDbArc
 50
0.0
 51
90.0
  0
ARC
  5
612B
330
1E
100
AcDbEntity
  8
10
  6
Continuous
100
AcDbCircle
 10
-18.99999747839319
 20
93.99999883156125
 30
0.0
 40
0.9999999812562155
100
AcDbArc
 50
90.0
 51
180.0
  0
ARC
  5
612C
330
1E
100
AcDbEntity
  8
10
  6
Continuous
100
AcDbCircle
 10
-44.49999704773654
 20
84.49999744835805
 30
0.0
 40
0.499999990628108
100
AcDbArc
 50
90.0
 51
180.0
  0
CIRCLE
  5
612E
330
1E
100
AcDbEntity
  8
12
100
AcDbCircle
 10
15.0
 20
66.0
 30
0.0
 40
3.999999999999996
  0
ARC
  5
6133
330
1E
100
AcDbEntity
  8
10
  6
Continuous
100
AcDbCircle
 10
33.75
 20
66.0
 30
0.0
 40
4.999999999999995
100
AcDbArc
 50
270.0
 51
0.0
  0
ARC
  5
6134
330
1E
100
AcDbEntity
  8
10
  6
Continuous
100
AcDbCircle
 10
26.25
 20
66.0
 30
0.0
 40
4.999999999999995
100
AcDbArc
 50
180.0
 51
270.0
  0
CIRCLE
  5
6135
330
1E
100
AcDbEntity
  8
24
  6
CONTINOUS
100
AcDbCircle
 10
30.0
 20
67.0
 30
0.0
 40
4.999999999999995
  0
ARC
  5
6136
330
1E
100
AcDbEntity
  8
10
  6
Continuous
100
AcDbCircle
 10
33.75
 20
66.0
 30
0.0
 40
4.999999999999995
210
0.0
220
0.0
230
-1.0
100
AcDbArc
 50
270.0
 51
0.0
  0
ARC
  5
6137
330
1E
100
AcDbEntity
  8
10
  6
Continuous
100
AcDbCircle
 10
26.25
 20
66.0
 30
0.0
 40
4.999999999999995
210
0.0
220
0.0
230
-1.0
100
AcDbArc
 50
180.0
 51
270.0
  0
ARC
  5
6138
330
1E
100
AcDbEntity
  8
10
  6
Continuous
100
AcDbCircle
 10
3.75
 20
66.0
 30
0.0
 40
4.999999999999995
100
AcDbArc
 50
270.0
 51
0.0
  0
ARC
  5
6139
330
1E
100
AcDbEntity
  8
10
  6
Continuous
100
AcDbCircle
 10
-3.75
 20
66.0
 30
0.0
 40
4.999999999999995
100
AcDbArc
 50
180.0
 51
270.0
  0
CIRCLE
  5
613A
330
1E
100
AcDbEntity
  8
24
  6
CONTINOUS
100
AcDbCircle
 10
0.0
 20
67.0
 30
0.0
 40
4.999999999999995
  0
CIRCLE
  5
613B
330
1E
100
AcDbEntity
  8
24
  6
CONTINOUS
100
AcDbCircle
 10
-30.0
 20
67.0
 30
0.0
 40
4.999999999999995
  0
CIRCLE
  5
6145
330
1E
100
AcDbEntity
  8
12
100
AcDbCircle
 10
-15.0
 20
66.0
 30
0.0
 40
3.999999999999996
  0
LINE
  5
6147
330
1E
100
AcDbEntity
  8
10
  6
Continuous
100
AcDbLine
 10
15.00001002183853
 20
93.25000082777659
 30
0.0
 11
15.00001002183853
 21
86.75000077019012
 31
0.0
  0
LINE
  5
6148
330
1E
100
AcDbEntity
  8
10
  6
Continuous
100
AcDbLine
 10
-14.99998430623963
 20
93.25001438834988
 30
0.0
 11
-14.99998430623963
 21
86.75001433076339
 31
0.0
  0
LINE
  5
614C
330
1E
100
AcDbEntity
  8
10
  6
Continuous
100
AcDbLine
 10
11.75000999304756
 20
90.00000079898383
 30
0.0
 11
18.25001005063676
 21
90.00000079898383
 31
0.0
  0
LINE
  5
614D
330
1E
100
AcDbEntity
  8
10
  6
Continuous
100
AcDbLine
 10
-18.2499843350306
 20
90.00001435955617
 30
0.0
 11
-11.74998427744138
 21
90.00001435955617
 31
0.0
  0
LINE
  5
6169
330
1E
100
AcDbEntity
  8
10
  6
Continuous
100
AcDbLine
 10
45.00000473383259
 20
79.49999990763626
 30
0.0
 11
45.00000473383259
 21
77.49999964725339
 31
0.0
  0
LINE
  5
616A
330
1E
100
AcDbEntity
  8
10
  6
Continuous
100
AcDbLine
 10
-41.74999537242547
 20
77.49999964725339
 30
0.0
 11
-41.74999537242547
 21
78.00000670125155
 31
0.0
  0
LINE
  5
616B
330
1E
100
AcDbEntity
  8
10
  6
Continuous
100
AcDbLine
 10
41.75000936027934
 20
81.61125666608951
 30
0.0
 11
41.75000936027934
 21
81.49999892392498
 31
0.0
  0
LINE
  5
616D
330
1E
100
AcDbEntity
  8
10
  6
Continuous
100
AcDbLine
 10
41.75000936027934
 20
80.00000571754027
 30
0.0
 11
44.50001103559043
 21
80.00000571754027
 31
0.0
  0
LINE
  5
616E
330
1E
100
AcDbEntity
  8
10
  6
Continuous
100
AcDbLine
 10
-44.99999680180915
 20
78.00000670125155
 30
0.0
 11
-41.74999537242547
 21
78.00000670125155
 31
0.0
  0
LINE
  5
616F
330
1E
100
AcDbEntity
  8
10
  6
Continuous
100
AcDbLine
 10
41.75000936027934
 20
81.95048014121949
 30
0.0
 11
41.75000936027934
 21
81.89091497945538
 31
0.0
  0
LINE
  5
6170
330
1E
100
AcDbEntity
  8
10
  6
Continuous
100
AcDbLine
 10
41.75000936027934
 20
81.71694304298126
 30
0.0
 11
41.75000936027934
 21
80.00000571754027
 31
0.0
  0
LINE
  5
6171
330
1E
100
AcDbEntity
  8
10
  6
Continuous
100
AcDbLine
 10
41.75000936027934
 20
81.81174103426384
 30
0.0
 11
41.75000936027934
 21
81.71694304298126
 31
0.0
  0
LINE
  5
6172
330
1E
100
AcDbEntity
  8
10
  6
Continuous
100
AcDbLine
 10
41.75000936027934
 20
84.49999744835805
 30
0.0
 11
41.75000936027934
 21
82.00000473382898
 31
0.0
  0
LINE
  5
6173
330
1E
100
AcDbEntity
  8
10
  6
Continuous
100
AcDbLine
 10
41.75000936027934
 20
81.89091497945538
 30
0.0
 11
41.75000936027934
 21
81.81174103426384
 31
0.0
  0
LINE
  5
6174
330
1E
100
AcDbEntity
  8
10
  6
Continuous
100
AcDbLine
 10
41.75000936027934
 20
82.00000473382898
 30
0.0
 11
41.75000936027934
 21
81.98746916196524
 31
0.0
  0
LINE
  5
6175
330
1E
100
AcDbEntity
  8
10
  6
Continuous
100
AcDbLine
 10
41.75000936027934
 20
81.98746916196524
 30
0.0
 11
41.75000936027934
 21
81.95048014121949
 31
0.0
  0
LINE
  5
6179
330
1E
100
AcDbEntity
  8
10
  6
Continuous
100
AcDbLine
 10
10.99999987759656
 20
95.00001045136924
 30
0.0
 11
19.00000805441957
 21
95.00001045136924
 31
0.0
  0
LINE
  5
617A
330
1E
100
AcDbEntity
  8
10
  6
Continuous
100
AcDbLine
 10
41.50000304349669
 20
85.00000325826205
 30
0.0
 11
18.50000224451648
 21
85.00000325826205
 31
0.0
  0
LINE
  5
617E
330
1E
100
AcDbEntity
  8
10
  6
Continuous
100
AcDbLine
 10
20.00000756256486
 20
93.99999883156125
 30
0.0
 11
20.00000756256486
 21
88.79808774635604
 31
0.0
  0
LINE
  5
617F
330
1E
100
AcDbEntity
  8
10
  6
Continuous
100
AcDbLine
 10
20.00000756256486
 20
88.79808774635604
 30
0.0
 11
18.50000224451648
 21
86.20000266803526
 31
0.0
  0
LINE
  5
6180
330
1E
100
AcDbEntity
  8
10
  6
Continuous
100
AcDbLine
 10
18.50000224451648
 20
86.20000266803526
 30
0.0
 11
18.50000224451648
 21
85.00000325826205
 31
0.0
  0
LINE
  5
6181
330
1E
100
AcDbEntity
  8
10
  6
Continuous
100
AcDbLine
 10
-18.99999747839319
 20
95.00001045136924
 30
0.0
 11
-11.00000141323832
 21
95.00001045136924
 31
0.0
  0
LINE
  5
6182
330
1E
100
AcDbEntity
  8
10
  6
Continuous
100
AcDbLine
 10
-11.4999951114805
 20
85.00000325826205
 30
0.0
 11
11.50000568750692
 21
85.00000325826205
 31
0.0
  0
LINE
  5
6183
330
1E
100
AcDbEntity
  8
10
  6
Continuous
100
AcDbLine
 10
10.00000036945857
 20
88.79808774635604
 30
0.0
 11
10.00000036945857
 21
93.99999883156125
 31
0.0
  0
LINE
  5
6184
330
1E
100
AcDbEntity
  8
10
  6
Continuous
100
AcDbLine
 10
11.50000568750692
 20
85.00000325826205
 30
0.0
 11
11.50000568750692
 21
86.20000266803526
 31
0.0
  0
LINE
  5
6185
330
1E
100
AcDbEntity
  8
10
  6
Continuous
100
AcDbLine
 10
11.50000568750692
 20
86.20000266803526
 30
0.0
 11
10.00000036945857
 21
88.79808774635604
 31
0.0
  0
LINE
  5
6186
330
1E
100
AcDbEntity
  8
10
  6
Continuous
100
AcDbLine
 10
-10.00000190509308
 20
93.99999883156125
 30
0.0
 11
-10.00000190509308
 21
88.79808774635604
 31
0.0
  0
LINE
  5
6187
330
1E
100
AcDbEntity
  8
10
  6
Continuous
100
AcDbLine
 10
-10.00000190509308
 20
88.79808774635604
 30
0.0
 11
-11.4999951114805
 21
86.20000266803526
 31
0.0
  0
LINE
  5
6188
330
1E
100
AcDbEntity
  8
10
  6
Continuous
100
AcDbLine
 10
-11.4999951114805
 20
86.20000266803526
 30
0.0
 11
-11.4999951114805
 21
85.00000325826205
 31
0.0
  0
LINE
  5
6189
330
1E
100
AcDbEntity
  8
10
  6
Continuous
100
AcDbLine
 10
-44.49999704773654
 20
85.00000325826205
 30
0.0
 11
-18.49999166849011
 21
85.00000325826205
 31
0.0
  0
LINE
  5
618A
330
1E
100
AcDbEntity
  8
10
  6
Continuous
100
AcDbLine
 10
-18.49999166849011
 20
86.20000266803526
 30
0.0
 11
-19.99999698653844
 21
88.79808774635604
 31
0.0
  0
LINE
  5
618B
330
1E
100
AcDbEntity
  8
10
  6
Continuous
100
AcDbLine
 10
-19.99999698653844
 20
88.79808774635604
 30
0.0
 11
-19.99999698653844
 21
93.99999883156125
 31
0.0
  0
LINE
  5
618C
330
1E
100
AcDbEntity
  8
10
  6
Continuous
100
AcDbLine
 10
-18.49999166849011
 20
85.00000325826205
 30
0.0
 11
-18.49999166849011
 21
86.20000266803526
 31
0.0
  0
LINE
  5
618D
330
1E
100
AcDbEntity
  8
10
  6
Continuous
100
AcDbLine
 10
-44.99999680180915
 20
84.49999744835805
 30
0.0
 11
-44.99999680180915
 21
78.00000670125155
 31
0.0
  0
LINE
  5
619B
330
1E
100
AcDbEntity
  8
12
  6
DASHED
100
AcDbLine
 10
15.0
 20
71.5
 30
0.0
 11
15.0
 21
60.5
 31
0.0
  0
LINE
  5
619E
330
1E
100
AcDbEntity
  8
10
  6
Continuous
100
AcDbLine
 10
7.0
 20
15.23995644007664
 30
0.0
 11
-7.0
 21
15.23995644007664
 31
0.0
  0
LINE
  5
619F
330
1E
100
AcDbEntity
  8
10
  6
Continuous
100
AcDbLine
 10
7.0
 20
20.15486870581026
 30
0.0
 11
-7.0
 21
20.15486870581026
 31
0.0
  0
LINE
  5
61F8
330
1E
100
AcDbEntity
  8
12
  6
DASHED
100
AcDbLine
 10
9.5
 20
66.0
 30
0.0
 11
20.5
 21
66.0
 31
0.0
  0
LINE
  5
61F9
330
1E
100
AcDbEntity
  8
12
  6
DASHED
100
AcDbLine
 10
-15.0
 20
60.5
 30
0.0
 11
-15.0
 21
71.5
 31
0.0
  0
LINE
  5
61FA
330
1E
100
AcDbEntity
  8
12
  6
DASHED
100
AcDbLine
 10
-20.5
 20
66.0
 30
0.0
 11
-9.5
 21
66.0
 31
0.0
  0
LINE
  5
6202
330
1E
100
AcDbEntity
  8
10
  6
Continuous
100
AcDbLine
 10
-45.0
 20
51.0
 30
0.0
 11
45.0
 21
51.0
 31
0.0
  0
LINE
  5
6203
330
1E
100
AcDbEntity
  8
10
  6
Continuous
100
AcDbLine
 10
38.75
 20
66.0
 30
0.0
 11
38.75
 21
77.5
 31
0.0
  0
LINE
  5
6204
330
1E
100
AcDbEntity
  8
10
  6
Continuous
100
AcDbLine
 10
21.25
 20
66.0
 30
0.0
 11
21.25
 21
77.5
 31
0.0
  0
LINE
  5
6205
330
1E
100
AcDbEntity
  8
10
  6
Continuous
100
AcDbLine
 10
33.75
 20
61.0
 30
0.0
 11
26.25
 21
61.0
 31
0.0
  0
LINE
  5
6206
330
1E
100
AcDbEntity
  8
17
  6
DASHDOT
100
AcDbLine
 10
23.0
 20
67.0
 30
0.0
 11
37.0
 21
67.0
 31
0.0
  0
LINE
  5
6207
330
1E
100
AcDbEntity
  8
17
  6
DASHDOT
100
AcDbLine
 10
30.0
 20
74.0
 30
0.0
 11
30.0
 21
60.0
 31
0.0
  0
LINE
  5
6208
330
1E
100
AcDbEntity
  8
10
  6
Continuous
100
AcDbLine
 10
-38.75
 20
66.0
 30
0.0
 11
-38.75
 21
77.5
 31
0.0
  0
LINE
  5
6209
330
1E
100
AcDbEntity
  8
10
  6
Continuous
100
AcDbLine
 10
-33.75
 20
61.0
 30
0.0
 11
-26.25
 21
61.0
 31
0.0
  0
LINE
  5
620A
330
1E
100
AcDbEntity
  8
10
  6
Continuous
100
AcDbLine
 10
-21.25
 20
66.0
 30
0.0
 11
-21.25
 21
77.5
 31
0.0
  0
LINE
  5
620B
330
1E
100
AcDbEntity
  8
17
  6
DASHDOT
100
AcDbLine
 10
-30.0
 20
74.0
 30
0.0
 11
-30.0
 21
60.0
 31
0.0
  0
LINE
  5
620C
330
1E
100
AcDbEntity
  8
17
  6
DASHDOT
100
AcDbLine
 10
-23.0
 20
67.0
 30
0.0
 11
-37.0
 21
67.0
 31
0.0
  0
LINE
  5
620D
330
1E
100
AcDbEntity
  8
10
  6
Continuous
100
AcDbLine
 10
8.75
 20
66.0
 30
0.0
 11
8.75
 21
77.5
 31
0.0
  0
LINE
  5
620E
330
1E
100
AcDbEntity
  8
10
  6
Continuous
100
AcDbLine
 10
-8.75
 20
66.0
 30
0.0
 11
-8.75
 21
77.5
 31
0.0
  0
LINE
  5
620F
330
1E
100
AcDbEntity
  8
10
  6
Continuous
100
AcDbLine
 10
3.75
 20
61.0
 30
0.0
 11
-3.75
 21
61.0
 31
0.0
  0
LINE
  5
6210
330
1E
100
AcDbEntity
  8
17
  6
DASHDOT
100
AcDbLine
 10
-7.0
 20
67.0
 30
0.0
 11
7.0
 21
67.0
 31
0.0
  0
LINE
  5
6222
330
1E
100
AcDbEntity
  8
10
  6
Continuous
100
AcDbLine
 10
-42.0
 20
25.0
 30
0.0
 11
42.0
 21
25.0
 31
0.0
  0
LINE
  5
6224
330
1E
100
AcDbEntity
  8
10
  6
Continuous
100
AcDbLine
 10
45.0
 20
77.5
 30
0.0
 11
-45.0
 21
77.5
 31
0.0
  0
DIMENSION
  5
65A0
330
1E
100
AcDbEntity
  8
30
  6
Continuous
100
AcDbDimension
  2
*D6
 10
337.9999994458191
 20
-110.0
 30
0.0
 11
324.5000000300386
 21
-107.0
 31
0.0
 70
    32
 71
     5
 42
-1.0
  3
STANDARD
100
AcDbAlignedDimension
 13
311.000000614258
 23
-53.9999859042091
 33
0.0
 14
337.9999994458191
 24
-77.99998621133726
 34
0.0
 50
180.0
100
AcDbRotatedDimension
  0
DIMENSION
  5
65A1
330
1E
100
AcDbEntity
  8
30
  6
Continuous
100
AcDbDimension
  2
*D7
 10
263.000000000007
 20
-100.0
 30
0.0
 11
232.5000000000073
 21
-97.0
 31
0.0
 70
    32
 71
     5
 42
-1.0
  3
STANDARD
100
AcDbAlignedDimension
 13
202.0000000000071
 23
-77.5
 33
0.0
 14
263.000000000007
 24
-82.49999005381868
 34
0.0
 50
180.0
100
AcDbRotatedDimension
  0
DIMENSION
  5
65A2
330
1E
100
AcDbEntity
  8
30
  6
Continuous
100
AcDbDimension
  2
*D8
 10
311.000000614258
 20
-130.0
 30
0.0
 11
241.0000003071326
 21
-127.0
 31
0.0
 70
    32
 71
     5
 42
-1.0
  3
STANDARD
100
AcDbAlignedDimension
 13
171.0000000000071
 23
-2.500000016500048
 33
0.0
 14
311.000000614258
 24
-53.9999859042091
 34
0.0
 50
180.0
100
AcDbRotatedDimension
  0
DIMENSION
  5
65A3
330
1E
100
AcDbEntity
  8
30
  6
Continuous
100
AcDbDimension
  2
*D9
 10
311.000000614258
 20
-120.0
 30
0.0
 11
251.0000003071326
 21
-117.0
 31
0.0
 70
    32
 71
     5
 42
-1.0
  3
STANDARD
100
AcDbAlignedDimension
 13
191.0000000000071
 23
-25.0
 33
0.0
 14
311.000000614258
 24
-53.9999859042091
 34
0.0
 50
180.0
100
AcDbRotatedDimension
  0
DIMENSION
  5
65A4
330
1E
100
AcDbEntity
  8
30
  6
Continuous
100
AcDbDimension
  2
*D10
 10
311.000000614258
 20
-110.0
 30
0.0
 11
253.0000003071326
 21
-107.0
 31
0.0
 70
    32
 71
     5
 42
-1.0
  3
STANDARD
100
AcDbAlignedDimension
 13
195.0000000000071
 23
-51.0
 33
0.0
 14
311.000000614258
 24
-53.9999859042091
 34
0.0
 50
180.0
100
AcDbRotatedDimension
  0
DIMENSION
  5
65A5
330
1E
100
AcDbEntity
  8
30
  6
Continuous
100
AcDbDimension
  2
*D11
 10
191.0000000000071
 20
-120.0
 30
0.0
 11
197.3333333333406
 21
-117.0
 31
0.0
 70
    32
 71
     5
 42
-1.0
  3
STANDARD
100
AcDbAlignedDimension
 13
187.0000000000071
 23
-25.0
 33
0.0
 14
191.0000000000071
 24
-25.0
 34
0.0
 50
180.0
100
AcDbRotatedDimension
  0
LINE
  5
65A7
330
1E
100
AcDbEntity
  8
10
  6
CONTINOUS
100
AcDbLine
 10
291.9999978478518
 20
-86.46794062441404
 30
0.0
 11
291.9999978478518
 21
-84.99998276834777
 31
0.0
  0
LINE
  5
65A8
330
1E
100
AcDbEntity
  8
10
  6
CONTINOUS
100
AcDbLine
 10
292.0101716453063
 20
-86.42980099562283
 30
0.0
 11
292.040499251052
 21
-86.39244862496797
 31
0.0
  0
LINE
  5
65A9
330
1E
100
AcDbEntity
  8
10
  6
CONTINOUS
100
AcDbLine
 10
301.9999929292971
 20
-86.19998217812097
 30
0.0
 11
301.9999929292971
 21
-88.79806725644177
 31
0.0
  0
ARC
  5
65AA
330
1E
100
AcDbEntity
  8
10
  6
CONTINOUS
100
AcDbCircle
 10
293.0000094676578
 20
-93.99999045331059
 30
0.0
 40
0.9999999812562155
100
AcDbArc
 50
180.0
 51
270.0
  0
LINE
  5
65AB
330
1E
100
AcDbEntity
  8
10
  6
CONTINOUS
100
AcDbLine
 10
291.9999978478518
 20
-86.46794062441404
 30
0.0
 11
292.0101716453063
 21
-86.42980099562283
 31
0.0
  0
LINE
  5
65AC
330
1E
100
AcDbEntity
  8
10
  6
CONTINOUS
100
AcDbLine
 10
291.9999978478518
 20
-89.06601359107117
 30
0.0
 11
292.0101716453063
 21
-89.02787396227996
 31
0.0
  0
LINE
  5
65AD
330
1E
100
AcDbEntity
  8
10
  6
CONTINOUS
100
AcDbLine
 10
292.4593690262554
 20
-88.84060341913302
 30
0.0
 11
292.584579404931
 21
-88.82227847205106
 31
0.0
  0
LINE
  5
65AE
330
1E
100
AcDbEntity
  8
10
  6
CONTINOUS
100
AcDbLine
 10
292.0101716453063
 20
-89.02787396227996
 30
0.0
 11
292.040499251052
 21
-88.99052159162513
 31
0.0
  0
LINE
  5
65AF
330
1E
100
AcDbEntity
  8
10
  6
CONTINOUS
100
AcDbLine
 10
301.9999929292971
 20
-94.54063089471492
 30
0.0
 11
301.9999929292971
 21
-94.65484388280676
 31
0.0
  0
LINE
  5
65B0
330
1E
100
AcDbEntity
  8
10
  6
CONTINOUS
100
AcDbLine
 10
301.9999929292971
 20
-94.14230250103901
 30
0.0
 11
301.9999929292971
 21
-94.28171986115831
 31
0.0
  0
LINE
  5
65B1
330
1E
100
AcDbEntity
  8
10
  6
CONTINOUS
100
AcDbLine
 10
292.8576731966021
 20
-88.80079238075994
 30
0.0
 11
293.0000094676578
 21
-88.79806725644177
 31
0.0
  0
LINE
  5
65B2
330
1E
100
AcDbEntity
  8
10
  6
CONTINOUS
100
AcDbLine
 10
292.040499251052
 20
-88.99052159162513
 30
0.0
 11
292.090375081905
 21
-88.9547074022521
 31
0.0
  0
LINE
  5
65B3
330
1E
100
AcDbEntity
  8
10
  6
CONTINOUS
100
AcDbLine
 10
301.9999929292971
 20
-94.84124238617187
 30
0.0
 11
301.9999929292971
 21
-94.90962483906333
 31
0.0
  0
LINE
  5
65B4
330
1E
100
AcDbEntity
  8
10
  6
CONTINOUS
100
AcDbLine
 10
292.584579404931
 20
-88.82227847205106
 30
0.0
 11
292.7182679481483
 21
-88.80891930706004
 31
0.0
  0
LINE
  5
65B5
330
1E
100
AcDbEntity
  8
10
  6
CONTINOUS
100
AcDbLine
 10
301.9999929292971
 20
-93.99999045331059
 30
0.0
 11
301.9999929292971
 21
-94.14230250103901
 31
0.0
  0
LINE
  5
65B6
330
1E
100
AcDbEntity
  8
10
  6
CONTINOUS
100
AcDbLine
 10
291.9999978478518
 20
-93.99999045331059
 30
0.0
 11
291.9999978478518
 21
-89.06601359107117
 31
0.0
  0
LINE
  5
65B7
330
1E
100
AcDbEntity
  8
10
  6
CONTINOUS
100
AcDbLine
 10
301.9999929292971
 20
-94.959476446591
 30
0.0
 11
301.9999929292971
 21
-94.98980405233671
 31
0.0
  0
LINE
  5
65B8
330
1E
100
AcDbEntity
  8
10
  6
CONTINOUS
100
AcDbLine
 10
292.1587333114728
 20
-88.92114598231547
 30
0.0
 11
292.2442416567428
 21
-88.8905398083061
 31
0.0
  0
LINE
  5
65B9
330
1E
100
AcDbEntity
  8
10
  6
CONTINOUS
100
AcDbLine
 10
301.9999929292971
 20
-94.65484388280676
 30
0.0
 11
301.9999929292971
 21
-94.75573404089846
 31
0.0
  0
LINE
  5
65BA
330
1E
100
AcDbEntity
  8
10
  6
CONTINOUS
100
AcDbLine
 10
301.9999929292971
 20
-94.99998996145494
 30
0.0
 11
293.0000094676578
 21
-94.99998996145494
 31
0.0
  0
LINE
  5
65BB
330
1E
100
AcDbEntity
  8
10
  6
CONTINOUS
100
AcDbLine
 10
301.9999929292971
 20
-94.28171986115831
 30
0.0
 11
301.9999929292971
 21
-94.41539629271392
 31
0.0
  0
LINE
  5
65BC
330
1E
100
AcDbEntity
  8
10
  6
CONTINOUS
100
AcDbLine
 10
292.7182679481483
 20
-88.80891930706004
 30
0.0
 11
292.8576731966021
 21
-88.80079238075994
 31
0.0
  0
LINE
  5
65BD
330
1E
100
AcDbEntity
  8
10
  6
CONTINOUS
100
AcDbLine
 10
292.2442416567428
 20
-88.8905398083061
 30
0.0
 11
292.3451318148361
 21
-88.86350657506952
 31
0.0
  0
LINE
  5
65BE
330
1E
100
AcDbEntity
  8
10
  6
CONTINOUS
100
AcDbLine
 10
301.9999929292971
 20
-94.90962483906333
 30
0.0
 11
301.9999929292971
 21
-94.959476446591
 31
0.0
  0
LINE
  5
65BF
330
1E
100
AcDbEntity
  8
10
  6
CONTINOUS
100
AcDbLine
 10
301.9999929292971
 20
-94.75573404089846
 30
0.0
 11
301.9999929292971
 21
-94.84124238617187
 31
0.0
  0
LINE
  5
65C0
330
1E
100
AcDbEntity
  8
10
  6
CONTINOUS
100
AcDbLine
 10
292.090375081905
 20
-88.9547074022521
 30
0.0
 11
292.1587333114728
 21
-88.92114598231547
 31
0.0
  0
LINE
  5
65C1
330
1E
100
AcDbEntity
  8
10
  6
CONTINOUS
100
AcDbLine
 10
301.9999929292971
 20
-88.79806725644177
 30
0.0
 11
293.0000094676578
 21
-88.79806725644177
 31
0.0
  0
LINE
  5
65C2
330
1E
100
AcDbEntity
  8
10
  6
CONTINOUS
100
AcDbLine
 10
292.3451318148361
 20
-88.86350657506952
 30
0.0
 11
292.4593690262554
 21
-88.84060341913302
 31
0.0
  0
LINE
  5
65C3
330
1E
100
AcDbEntity
  8
10
  6
CONTINOUS
100
AcDbLine
 10
291.9999978478518
 20
-89.06601359107117
 30
0.0
 11
291.9999978478518
 21
-86.46794062441404
 31
0.0
  0
LINE
  5
65C4
330
1E
100
AcDbEntity
  8
10
  6
CONTINOUS
100
AcDbLine
 10
301.9999929292971
 20
-93.99999045331059
 30
0.0
 11
301.9999929292971
 21
-88.79806725644177
 31
0.0
  0
LINE
  5
65C5
330
1E
100
AcDbEntity
  8
10
  6
CONTINOUS
100
AcDbLine
 10
301.9999929292971
 20
-94.98980405233671
 30
0.0
 11
301.9999929292971
 21
-94.99998996145494
 31
0.0
  0
LINE
  5
65C6
330
1E
100
AcDbEntity
  8
10
  6
CONTINOUS
100
AcDbLine
 10
301.9999929292971
 20
-94.41539629271392
 30
0.0
 11
301.9999929292971
 21
-94.54063089471492
 31
0.0
  0
DIMENSION
  5
65C7
330
1E
100
AcDbEntity
  8
30
  6
Continuous
100
AcDbDimension
  2
*D12
 10
139.5867219386127
 20
-50.99999999999997
 30
0.0
 11
136.5867219386124
 21
0.0000000000000345
 31
0.0
 70
    32
 71
     5
 42
-1.0
  3
STANDARD
100
AcDbAlignedDimension
 13
195.0000000000071
 23
51.0
 33
0.0
 14
195.0000000000071
 24
-51.0
 34
0.0
 50
90.0
100
AcDbRotatedDimension
  0
DIMENSION
  5
65C8
330
1E
100
AcDbEntity
  8
30
  6
Continuous
100
AcDbDimension
  2
*D13
 10
152.0867219386127
 20
25.00000000000001
 30
0.0
 11
149.0867219386124
 21
0.0000000000000372
 31
0.0
 70
    32
 71
     5
 42
-1.0
  3
STANDARD
100
AcDbAlignedDimension
 13
187.0000000000071
 23
-25.0
 33
0.0
 14
187.0000000000071
 24
25.0
 34
0.0
 50
90.0
100
AcDbRotatedDimension
  0
DIMENSION
  5
65CC
330
1E
100
AcDbEntity
  8
30
  6
Continuous
100
AcDbDimension
  2
*D14
 10
358.3367219386127
 20
80.00002085711637
 30
0.0
 11
355.3367219386127
 21
0.0000178147452556
 31
0.0
 70
    32
 71
     5
 42
-1.0
  3
STANDARD
100
AcDbAlignedDimension
 13
337.5000057475844
 23
-79.99998522762599
 33
0.0
 14
337.5000057475844
 24
80.0000208571164
 34
0.0
 50
270.0
100
AcDbRotatedDimension
  0
DIMENSION
  5
65CD
330
1E
100
AcDbEntity
  8
30
  6
Continuous
100
AcDbDimension
  2
*D15
 10
345.8367219386127
 20
54.00000942203586
 30
0.0
 11
342.8367219386127
 21
0.0000117589134452
 31
0.0
 70
    32
 71
     5
 42
-1.0
  3
STANDARD
100
AcDbAlignedDimension
 13
337.5000057475844
 23
-53.9999859042091
 33
0.0
 14
337.5000057475844
 24
54.00000942203586
 34
0.0
 50
270.0
100
AcDbRotatedDimension
  0
ARC
  5
65CE
330
1E
100
AcDbEntity
  8
0
100
AcDbCircle
 10
202.0000000000071
 20
-3.500000016500056
 30
0.0
 40
30.99999999999996
100
AcDbArc
 50
150.5534441957493
 51
180.0
  0
LINE
  5
65CF
330
1E
100
AcDbEntity
  8
18
100
AcDbLine
 10
313.5000006142581
 20
49.00000570308474
 30
0.0
 11
313.5000006142581
 21
-48.99999429691526
 31
0.0
  0
LINE
  5
65D0
330
1E
100
AcDbEntity
  8
10
  6
CONTINOUS
100
AcDbLine
 10
187.0
 20
6.840789306860642
 30
0.0
 11
175.0047462004076
 21
15.23995644007664
 31
0.0
  0
LINE
  5
65D1
330
1E
100
AcDbEntity
  8
10
  6
CONTINOUS
100
AcDbLine
 10
263.0
 20
77.5
 30
0.0
 11
263.0
 21
-77.5
 31
0.0
  0
LINE
  5
65D2
330
1E
100
AcDbEntity
  8
10
  6
CONTINOUS
100
AcDbLine
 10
291.5000041496096
 20
-45.49999614081388
 30
0.0
 11
291.5000041496096
 21
45.50001965864065
 31
0.0
  0
LINE
  5
65D3
330
1E
100
AcDbEntity
  8
10
  6
CONTINOUS
100
AcDbLine
 10
291.0000104513747
 20
45.76386013929732
 30
0.0
 11
291.0000104513747
 21
-45.76383662147054
 31
0.0
  0
LINE
  5
65D4
330
1E
100
AcDbEntity
  8
10
  6
CONTINOUS
100
AcDbLine
 10
263.0
 20
-9.999983322530168
 30
0.0
 11
263.0
 21
82.49999005381868
 31
0.0
  0
LINE
  5
65D5
330
1E
100
AcDbEntity
  8
10
  6
CONTINOUS
100
AcDbLine
 10
311.000000614258
 20
54.00000942203586
 30
0.0
 11
311.000000614258
 21
-53.9999859042091
 31
0.0
  0
LINE
  5
65D6
330
1E
100
AcDbEntity
  8
10
  6
CONTINOUS
100
AcDbLine
 10
191.0
 20
25.0
 30
0.0
 11
191.0
 21
-25.0
 31
0.0
  0
LINE
  5
65D7
330
1E
100
AcDbEntity
  8
10
  6
CONTINOUS
100
AcDbLine
 10
187.0
 20
25.0
 30
0.0
 11
187.0
 21
-25.0
 31
0.0
  0
LINE
  5
65D8
330
1E
100
AcDbEntity
  8
10
  6
CONTINOUS
100
AcDbLine
 10
195.0
 20
51.0
 30
0.0
 11
195.0
 21
-51.0
 31
0.0
  0
ARC
  5
65D9
330
1E
100
AcDbEntity
  8
18
100
AcDbCircle
 10
314.5000006142581
 20
-48.99999429691526
 30
0.0
 40
3.499999999999996
100
AcDbArc
 50
180.0
 51
270.0
  0
ARC
  5
65DA
330
1E
100
AcDbEntity
  8
18
100
AcDbCircle
 10
314.5000006142581
 20
-48.99999429691526
 30
0.0
 40
0.9999999999999992
100
AcDbArc
 50
180.0
 51
270.0
  0
ARC
  5
65DB
330
1E
100
AcDbEntity
  8
10
  6
CONTINOUS
100
AcDbCircle
 10
303.0000045491033
 20
-49.49998206172768
 30
0.0
 40
1.999999962512431
100
AcDbArc
 50
0.0
 51
90.0
  0
ARC
  5
65DC
330
1E
100
AcDbEntity
  8
10
  6
CONTINOUS
100
AcDbCircle
 10
337.5000057475771
 20
-79.49999152938563
 30
0.0
 40
0.499999990628108
100
AcDbArc
 50
270.0
 51
0.0
  0
ARC
  5
65DD
330
1E
100
AcDbEntity
  8
10
  6
CONTINOUS
100
AcDbCircle
 10
293.5000031659001
 20
-45.49999614081388
 30
0.0
 40
1.999999962512431
100
AcDbArc
 50
180.0
 51
270.0
  0
ARC
  5
65DE
330
1E
100
AcDbEntity
  8
10
  6
CONTINOUS
100
AcDbCircle
 10
268.5000033506294
 20
-81.9999842439147
 30
0.0
 40
0.499999990628108
100
AcDbArc
 50
180.0
 51
270.0
  0
ARC
  5
65DF
330
1E
100
AcDbEntity
  8
10
  6
CONTINOUS
100
AcDbCircle
 10
268.5000033506294
 20
-50.49999368153567
 30
0.0
 40
0.499999990628108
100
AcDbArc
 50
90.0
 51
180.0
  0
ARC
  5
65E0
330
1E
100
AcDbEntity
  8
10
  6
CONTINOUS
100
AcDbCircle
 10
288.999987211755
 20
-45.76383662147054
 30
0.0
 40
1.999999962512431
100
AcDbArc
 50
280.000000361147
 51
0.0
  0
ARC
  5
65E1
330
1E
100
AcDbEntity
  8
10
  6
CONTINOUS
100
AcDbCircle
 10
305.499997263636
 20
-79.49999152938563
 30
0.0
 40
0.499999990628108
100
AcDbArc
 50
180.0
 51
270.0
  0
ARC
  5
65E2
330
1E
100
AcDbEntity
  8
10
  6
CONTINOUS
100
AcDbCircle
 10
267.4999917308229
 20
-81.9999842439147
 30
0.0
 40
0.499999990628108
100
AcDbArc
 50
270.0
 51
0.0
  0
LINE
  5
65E3
330
1E
100
AcDbEntity
  8
12
  6
DASHED
100
AcDbLine
 10
315.800000614261
 20
-35.41439537367387
 30
0.0
 11
320.5000006142581
 21
-35.41439537367387
 31
0.0
  0
LINE
  5
65E4
330
1E
100
AcDbEntity
  8
12
  6
DASHED
100
AcDbLine
 10
313.5000006142581
 20
-42.49999429691523
 30
0.0
 11
314.5000006142581
 21
-42.49999429691523
 31
0.0
  0
LINE
  5
65E5
330
1E
100
AcDbEntity
  8
12
  6
DASHED
100
AcDbLine
 10
314.5000006142581
 20
-32.89999429691487
 30
0.0
 11
315.800000614261
 21
-32.89999429691487
 31
0.0
  0
LINE
  5
65E6
330
1E
100
AcDbEntity
  8
12
  6
DASHED
100
AcDbLine
 10
320.5000006142581
 20
-33.1049942969148
 30
0.0
 11
320.5000006142581
 21
-41.89499429691522
 31
0.0
  0
LINE
  5
65E7
330
1E
100
AcDbEntity
  8
12
  6
DASHED
100
AcDbLine
 10
326.0000006142581
 20
-34.99999429691523
 30
0.0
 11
326.0000006142581
 21
-39.99999429691522
 31
0.0
  0
LINE
  5
65E8
330
1E
100
AcDbEntity
  8
12
  6
DASHED
100
AcDbLine
 10
315.800000614261
 20
-39.58559322015661
 30
0.0
 11
320.5000006142581
 21
-39.58559322015661
 31
0.0
  0
LINE
  5
65E9
330
1E
100
AcDbEntity
  8
12
  6
DASHED
100
AcDbLine
 10
302.5000006142581
 20
-37.49999429691522
 30
0.0
 11
331.0000006142581
 21
-37.49999429691522
 31
0.0
  0
LINE
  5
65EA
330
1E
100
AcDbEntity
  8
12
  6
DASHED
100
AcDbLine
 10
314.5000006142581
 20
-32.49999429691523
 30
0.0
 11
314.5000006142581
 21
-42.49999429691523
 31
0.0
  0
LINE
  5
65EB
330
1E
100
AcDbEntity
  8
12
  6
DASHED
100
AcDbLine
 10
315.800000614261
 20
-41.89499429691522
 30
0.0
 11
320.5000006142581
 21
-41.89499429691522
 31
0.0
  0
LINE
  5
65EC
330
1E
100
AcDbEntity
  8
12
  6
DASHED
100
AcDbLine
 10
315.800000614261
 20
-33.1049942969148
 30
0.0
 11
320.5000006142581
 21
-33.1049942969148
 31
0.0
  0
LINE
  5
65ED
330
1E
100
AcDbEntity
  8
12
  6
DASHED
100
AcDbLine
 10
320.5000006142581
 20
-34.99999429691523
 30
0.0
 11
326.0000006142581
 21
-34.99999429691523
 31
0.0
  0
LINE
  5
65EE
330
1E
100
AcDbEntity
  8
12
  6
DASHED
100
AcDbLine
 10
313.5000006142581
 20
-32.49999429691523
 30
0.0
 11
314.5000006142581
 21
-32.49999429691523
 31
0.0
  0
LINE
  5
65EF
330
1E
100
AcDbEntity
  8
12
  6
DASHED
100
AcDbLine
 10
315.800000614261
 20
-32.89999429691487
 30
0.0
 11
315.800000614261
 21
-42.09999429691515
 31
0.0
  0
LINE
  5
65F0
330
1E
100
AcDbEntity
  8
12
  6
DASHED
100
AcDbLine
 10
314.5000006142581
 20
-42.09999429691515
 30
0.0
 11
315.800000614261
 21
-42.09999429691515
 31
0.0
  0
LINE
  5
65F1
330
1E
100
AcDbEntity
  8
18
100
AcDbLine
 10
326.0000006142581
 20
-52.49999429691524
 30
0.0
 11
326.0000006142581
 21
-49.99999429691524
 31
0.0
  0
LINE
  5
65F2
330
1E
100
AcDbEntity
  8
18
100
AcDbLine
 10
314.5000006142581
 20
-49.99999429691524
 30
0.0
 11
326.0000006142581
 21
-49.99999429691524
 31
0.0
  0
LINE
  5
65F3
330
1E
100
AcDbEntity
  8
18
100
AcDbLine
 10
314.5000006142581
 20
-52.49999429691524
 30
0.0
 11
326.0000006142581
 21
-52.49999429691524
 31
0.0
  0
LINE
  5
65F4
330
1E
100
AcDbEntity
  8
10
  6
CONTINOUS
100
AcDbLine
 10
195.0
 20
-51.0
 30
0.0
 11
202.0
 21
-51.0
 31
0.0
  0
LINE
  5
65F5
330
1E
100
AcDbEntity
  8
17
  6
DASHDOT
100
AcDbLine
 10
253.0
 20
-67.00000000000045
 30
0.0
 11
347.9999994458194
 21
-67.00000000000045
 31
0.0
  0
LINE
  5
65F6
330
1E
100
AcDbEntity
  8
10
  6
CONTINOUS
100
AcDbLine
 10
267.5868323590912
 20
-48.08681737195275
 30
0.0
 11
267.4999917308229
 21
-47.99998885534296
 31
0.0
  0
LINE
  5
65F7
330
1E
100
AcDbEntity
  8
10
  6
CONTINOUS
100
AcDbLine
 10
268.5974780195754
 20
-49.99998787163168
 30
0.0
 11
268.671819410978
 21
-49.99998787163168
 31
0.0
  0
LINE
  5
65F8
330
1E
100
AcDbEntity
  8
10
  6
CONTINOUS
100
AcDbLine
 10
269.790937130987
 20
-51.99998688792039
 30
0.0
 11
269.5841668093851
 21
-51.99998688792039
 31
0.0
  0
LINE
  5
65F9
330
1E
100
AcDbEntity
  8
10
  6
CONTINOUS
100
AcDbLine
 10
263.0
 20
-82.45627905975471
 30
0.0
 11
263.0
 21
-82.40210358830879
 31
0.0
  0
LINE
  5
65FA
330
1E
100
AcDbEntity
  8
10
  6
CONTINOUS
100
AcDbLine
 10
263.0
 20
-82.23204371918928
 30
0.0
 11
263.0
 21
-82.11802451771564
 31
0.0
  0
LINE
  5
65FB
330
1E
100
AcDbEntity
  8
10
  6
CONTINOUS
100
AcDbLine
 10
268.0000096523869
 20
-80.50000314919362
 30
0.0
 11
268.0000096523869
 21
-80.25940495105533
 31
0.0
  0
LINE
  5
65FC
330
1E
100
AcDbEntity
  8
10
  6
CONTINOUS
100
AcDbLine
 10
268.0000096523869
 20
-79.75673457515132
 30
0.0
 11
268.0000096523869
 21
-79.49999152938563
 31
0.0
  0
LINE
  5
65FD
330
1E
100
AcDbEntity
  8
10
  6
CONTINOUS
100
AcDbLine
 10
268.172915762465
 20
-51.99998688792039
 30
0.0
 11
268.0978961178989
 21
-51.99998688792039
 31
0.0
  0
LINE
  5
65FE
330
1E
100
AcDbEntity
  8
10
  6
CONTINOUS
100
AcDbLine
 10
268.049522133333
 20
-55.24998226147364
 30
0.0
 11
268.1090872950953
 21
-55.24998226147364
 31
0.0
  0
LINE
  5
65FF
330
1E
100
AcDbEntity
  8
10
  6
CONTINOUS
100
AcDbLine
 10
263.0
 20
-81.67556122174847
 30
0.0
 11
263.0
 21
-81.49999054567434
 31
0.0
  0
LINE
  5
6600
330
1E
100
AcDbEntity
  8
10
  6
CONTINOUS
100
AcDbLine
 10
337.6709982148021
 20
-54.03014394666389
 30
0.0
 11
337.5868221525233
 21
-54.00757991730916
 31
0.0
  0
LINE
  5
6601
330
1E
100
AcDbEntity
  8
10
  6
CONTINOUS
100
AcDbLine
 10
291.9999978478518
 20
-82.49999005381868
 30
0.0
 11
291.9999978478518
 21
-84.49998907010741
 31
0.0
  0
LINE
  5
6602
330
1E
100
AcDbEntity
  8
10
  6
CONTINOUS
100
AcDbLine
 10
268.0000096523869
 20
-81.49467352533793
 30
0.0
 11
268.0000096523869
 21
-81.6227543682935
 31
0.0
  0
LINE
  5
6603
330
1E
100
AcDbEntity
  8
10
  6
CONTINOUS
100
AcDbLine
 10
263.0
 20
-80.91580867349692
 30
0.0
 11
263.0
 21
-80.70903835189529
 31
0.0
  0
LINE
  5
6604
330
1E
100
AcDbEntity
  8
10
  6
CONTINOUS
100
AcDbLine
 10
269.1479046851964
 20
-49.99998787163168
 30
0.0
 11
269.3029097564139
 21
-49.99998787163168
 31
0.0
  0
LINE
  5
6605
330
1E
100
AcDbEntity
  8
10
  6
CONTINOUS
100
AcDbLine
 10
268.0000096523869
 20
-81.95639436648708
 30
0.0
 11
268.0000096523869
 21
-81.98904741165097
 31
0.0
  0
LINE
  5
6606
330
1E
100
AcDbEntity
  8
10
  6
CONTINOUS
100
AcDbLine
 10
270.0000086686776
 20
-51.99998688792039
 30
0.0
 11
269.790937130987
 21
-51.99998688792039
 31
0.0
  0
LINE
  5
6607
330
1E
100
AcDbEntity
  8
10
  6
CONTINOUS
100
AcDbLine
 10
303.9725953624365
 20
-47.75144540585913
 30
0.0
 11
303.9876622720039
 21
-47.83003799119613
 31
0.0
  0
LINE
  5
6608
330
1E
100
AcDbEntity
  8
10
  6
CONTINOUS
100
AcDbLine
 10
267.6710084213699
 20
-48.17099343422615
 30
0.0
 11
267.5868323590912
 21
-48.08681737195275
 31
0.0
  0
LINE
  5
6609
330
1E
100
AcDbEntity
  8
10
  6
CONTINOUS
100
AcDbLine
 10
292.040499251052
 20
-86.39244862496797
 30
0.0
 11
292.090375081905
 21
-86.35662232393135
 31
0.0
  0
LINE
  5
660A
330
1E
100
AcDbEntity
  8
10
  6
CONTINOUS
100
AcDbLine
 10
295.0000084839483
 20
-84.71693318916369
 30
0.0
 11
295.0000084839483
 21
-84.81173118044626
 31
0.0
  0
LINE
  5
660B
330
1E
100
AcDbEntity
  8
10
  6
CONTINOUS
100
AcDbLine
 10
291.9999978478518
 20
-84.71693318916369
 30
0.0
 11
291.9999978478518
 21
-84.61124681227195
 31
0.0
  0
LINE
  5
660C
330
1E
100
AcDbEntity
  8
10
  6
CONTINOUS
100
AcDbLine
 10
295.0000084839483
 20
-84.49998907010741
 30
0.0
 11
295.0000084839483
 21
-84.61124681227195
 31
0.0
  0
LINE
  5
660D
330
1E
100
AcDbEntity
  8
10
  6
CONTINOUS
100
AcDbLine
 10
295.0000084839483
 20
-84.99998276834777
 30
0.0
 11
291.9999978478518
 21
-84.99998276834777
 31
0.0
  0
LINE
  5
660E
330
1E
100
AcDbEntity
  8
10
  6
CONTINOUS
100
AcDbLine
 10
263.0
 20
-82.11802451771564
 30
0.0
 11
263.0
 21
-81.98627384067821
 31
0.0
  0
LINE
  5
660F
330
1E
100
AcDbEntity
  8
10
  6
CONTINOUS
100
AcDbLine
 10
263.0
 20
-82.3270839437446
 30
0.0
 11
263.0
 21
-82.23204371918928
 31
0.0
  0
LINE
  5
6610
330
1E
100
AcDbEntity
  8
10
  6
CONTINOUS
100
AcDbLine
 10
303.9842225595275
 20
-49.19132842561612
 30
0.0
 11
303.9650861309853
 21
-49.27776936898953
 31
0.0
  0
LINE
  5
6611
330
1E
100
AcDbEntity
  8
10
  6
CONTINOUS
100
AcDbLine
 10
269.8192057539125
 20
-49.99998787163168
 30
0.0
 11
270.0000086686776
 21
-49.99998787163168
 31
0.0
  0
LINE
  5
6612
330
1E
100
AcDbEntity
  8
10
  6
CONTINOUS
100
AcDbLine
 10
337.9999994458191
 20
-54.4999917141131
 30
0.0
 11
337.9999994458191
 21
-55.99998492049781
 31
0.0
  0
LINE
  5
6613
330
1E
100
AcDbEntity
  8
10
  6
CONTINOUS
100
AcDbLine
 10
269.641018958493
 20
-49.99998787163168
 30
0.0
 11
269.8192057539125
 21
-49.99998787163168
 31
0.0
  0
LINE
  5
6614
330
1E
100
AcDbEntity
  8
10
  6
CONTINOUS
100
AcDbLine
 10
305.0000035653938
 20
-51.99998688792039
 30
0.0
 11
270.0000086686776
 21
-51.99998688792039
 31
0.0
  0
LINE
  5
6615
330
1E
100
AcDbEntity
  8
10
  6
CONTINOUS
100
AcDbLine
 10
268.0000096523869
 20
-81.6227543682935
 30
0.0
 11
268.0000096523869
 21
-81.73446024201258
 31
0.0
  0
LINE
  5
6616
330
1E
100
AcDbEntity
  8
10
  6
CONTINOUS
100
AcDbLine
 10
337.9923933210593
 20
-54.41316319750331
 30
0.0
 11
337.9698414033628
 21
-54.32897502356627
 31
0.0
  0
LINE
  5
6617
330
1E
100
AcDbEntity
  8
10
  6
CONTINOUS
100
AcDbLine
 10
268.0109585963143
 20
-51.99998688792039
 30
0.0
 11
268.0000096523869
 21
-51.99998688792039
 31
0.0
  0
LINE
  5
6618
330
1E
100
AcDbEntity
  8
10
  6
CONTINOUS
100
AcDbLine
 10
268.6617425068325
 20
-51.99998688792039
 30
0.0
 11
268.5137137538621
 21
-51.99998688792039
 31
0.0
  0
LINE
  5
6619
330
1E
100
AcDbEntity
  8
10
  6
CONTINOUS
100
AcDbLine
 10
268.1882491286232
 20
-55.24998226147364
 30
0.0
 11
268.2830592315728
 21
-55.24998226147364
 31
0.0
  0
LINE
  5
661A
330
1E
100
AcDbEntity
  8
10
  6
CONTINOUS
100
AcDbLine
 10
337.9999994458191
 20
-77.99998621133726
 30
0.0
 11
337.9999994458191
 21
-79.49999152938563
 31
0.0
  0
LINE
  5
661B
330
1E
100
AcDbEntity
  8
10
  6
CONTINOUS
100
AcDbLine
 10
268.0000096523869
 20
-81.82816818356789
 30
0.0
 11
268.0000096523869
 21
-81.90250957496845
 31
0.0
  0
LINE
  5
661C
330
1E
100
AcDbEntity
  8
10
  6
CONTINOUS
100
AcDbLine
 10
303.8332870072918
 20
-49.49037751246397
 30
0.0
 11
303.7928824974005
 21
-49.49998206172768
 31
0.0
  0
LINE
  5
661D
330
1E
100
AcDbEntity
  8
10
  6
CONTINOUS
100
AcDbLine
 10
263.0
 20
-82.49999005381868
 30
0.0
 11
263.0
 21
-82.4890289982277
 31
0.0
  0
LINE
  5
661E
330
1E
100
AcDbEntity
  8
10
  6
CONTINOUS
100
AcDbLine
 10
269.3819746966328
 20
-51.99998688792039
 30
0.0
 11
269.1865166688728
 21
-51.99998688792039
 31
0.0
  0
LINE
  5
661F
330
1E
100
AcDbEntity
  8
10
  6
CONTINOUS
100
AcDbLine
 10
267.7500006916015
 20
-48.24998570446314
 30
0.0
 11
267.6710084213699
 21
-48.17099343422615
 31
0.0
  0
LINE
  5
6620
330
1E
100
AcDbEntity
  8
10
  6
CONTINOUS
100
AcDbLine
 10
268.8244263727974
 20
-51.99998688792039
 30
0.0
 11
268.6617425068325
 21
-51.99998688792039
 31
0.0
  0
LINE
  5
6621
330
1E
100
AcDbEntity
  8
10
  6
CONTINOUS
100
AcDbLine
 10
268.5109280712276
 20
-49.99998787163168
 30
0.0
 11
268.5435811163916
 21
-49.99998787163168
 31
0.0
  0
LINE
  5
6622
330
1E
100
AcDbEntity
  8
10
  6
CONTINOUS
100
AcDbLine
 10
268.1090872950953
 20
-55.24998226147364
 30
0.0
 11
268.1882491286232
 21
-55.24998226147364
 31
0.0
  0
LINE
  5
6623
330
1E
100
AcDbEntity
  8
10
  6
CONTINOUS
100
AcDbLine
 10
268.0978961178989
 20
-51.99998688792039
 30
0.0
 11
268.0437085347874
 21
-51.99998688792039
 31
0.0
  0
LINE
  5
6624
330
1E
100
AcDbEntity
  8
10
  6
CONTINOUS
100
AcDbLine
 10
303.9650861309853
 20
-49.27776936898953
 30
0.0
 11
303.9393367340961
 21
-49.35353993669924
 31
0.0
  0
LINE
  5
6625
330
1E
100
AcDbEntity
  8
10
  6
CONTINOUS
100
AcDbLine
 10
303.0000045491033
 20
-47.49998304543896
 30
0.0
 11
293.5000031659001
 21
-47.49998304543896
 31
0.0
  0
LINE
  5
6626
330
1E
100
AcDbEntity
  8
10
  6
CONTINOUS
100
AcDbLine
 10
292.4593690262554
 20
-86.24251834081222
 30
0.0
 11
292.584579404931
 21
-86.22420550539391
 31
0.0
  0
LINE
  5
6627
330
1E
100
AcDbEntity
  8
10
  6
CONTINOUS
100
AcDbLine
 10
301.9999929292971
 20
-86.19998217812097
 30
0.0
 11
293.0000094676578
 21
-86.19998217812097
 31
0.0
  0
LINE
  5
6628
330
1E
100
AcDbEntity
  8
10
  6
CONTINOUS
100
AcDbLine
 10
337.8830249984166
 20
-54.17859660785598
 30
0.0
 11
337.8214008538343
 21
-54.11696035161003
 31
0.0
  0
LINE
  5
6629
330
1E
100
AcDbEntity
  8
10
  6
CONTINOUS
100
AcDbLine
 10
263.0
 20
-82.40210358830879
 30
0.0
 11
263.0
 21
-82.3270839437446
 31
0.0
  0
LINE
  5
662A
330
1E
100
AcDbEntity
  8
10
  6
CONTINOUS
100
AcDbLine
 10
291.9999978478518
 20
-84.99998276834777
 30
0.0
 11
291.9999978478518
 21
-84.98744719648403
 31
0.0
  0
LINE
  5
662B
330
1E
100
AcDbEntity
  8
10
  6
CONTINOUS
100
AcDbLine
 10
291.9999978478518
 20
-84.8909051256378
 30
0.0
 11
291.9999978478518
 21
-84.81173118044626
 31
0.0
  0
LINE
  5
662C
330
1E
100
AcDbEntity
  8
10
  6
CONTINOUS
100
AcDbLine
 10
292.090375081905
 20
-86.35662232393135
 30
0.0
 11
292.1587333114728
 21
-86.32307301565834
 31
0.0
  0
LINE
  5
662D
330
1E
100
AcDbEntity
  8
10
  6
CONTINOUS
100
AcDbLine
 10
295.0000084839483
 20
-84.8909051256378
 30
0.0
 11
295.0000084839483
 21
-84.95047028740193
 31
0.0
  0
LINE
  5
662E
330
1E
100
AcDbEntity
  8
10
  6
CONTINOUS
100
AcDbLine
 10
268.0000096523869
 20
-80.49999103752998
 30
0.0
 11
268.0000096523869
 21
-80.68079395229506
 31
0.0
  0
LINE
  5
662F
330
1E
100
AcDbEntity
  8
10
  6
CONTINOUS
100
AcDbLine
 10
303.9968913596966
 20
-47.91371747526045
 30
0.0
 11
303.9999919455876
 21
-47.99998885534296
 31
0.0
  0
LINE
  5
6630
330
1E
100
AcDbEntity
  8
10
  6
CONTINOUS
100
AcDbLine
 10
269.4680886250935
 20
-49.99998787163168
 30
0.0
 11
269.641018958493
 21
-49.99998787163168
 31
0.0
  0
LINE
  5
6631
330
1E
100
AcDbEntity
  8
10
  6
CONTINOUS
100
AcDbLine
 10
292.2442416567428
 20
-86.292466841649
 30
0.0
 11
292.3451318148361
 21
-86.26543360841242
 31
0.0
  0
LINE
  5
6632
330
1E
100
AcDbEntity
  8
10
  6
CONTINOUS
100
AcDbLine
 10
263.0
 20
-80.70903835189529
 30
0.0
 11
263.0
 21
-77.5
 31
0.0
  0
LINE
  5
6633
330
1E
100
AcDbEntity
  8
10
  6
CONTINOUS
100
AcDbLine
 10
268.7655152408696
 20
-49.99998787163168
 30
0.0
 11
268.8772332262524
 21
-49.99998787163168
 31
0.0
  0
LINE
  5
6634
330
1E
100
AcDbEntity
  8
10
  6
CONTINOUS
100
AcDbLine
 10
291.9999978478518
 20
-84.95047028740193
 30
0.0
 11
291.9999978478518
 21
-84.8909051256378
 31
0.0
  0
LINE
  5
6635
330
1E
100
AcDbEntity
  8
10
  6
CONTINOUS
100
AcDbLine
 10
295.0000084839483
 20
-84.98744719648403
 30
0.0
 11
295.0000084839483
 21
-84.99998276834777
 31
0.0
  0
LINE
  5
6636
330
1E
100
AcDbEntity
  8
10
  6
CONTINOUS
100
AcDbLine
 10
295.0000084839483
 20
-84.95047028740193
 30
0.0
 11
295.0000084839483
 21
-84.98744719648403
 31
0.0
  0
LINE
  5
6637
330
1E
100
AcDbEntity
  8
10
  6
CONTINOUS
100
AcDbLine
 10
303.9079433019503
 20
-49.41572121780883
 30
0.0
 11
303.8721412242375
 21
-49.46192721458192
 31
0.0
  0
LINE
  5
6638
330
1E
100
AcDbEntity
  8
10
  6
CONTINOUS
100
AcDbLine
 10
292.7182679481483
 20
-86.21084634040292
 30
0.0
 11
292.8576731966021
 21
-86.20271941410281
 31
0.0
  0
LINE
  5
6639
330
1E
100
AcDbEntity
  8
10
  6
CONTINOUS
100
AcDbLine
 10
269.0053261808715
 20
-49.99998787163168
 30
0.0
 11
269.1479046851964
 21
-49.99998787163168
 31
0.0
  0
LINE
  5
663A
330
1E
100
AcDbEntity
  8
10
  6
CONTINOUS
100
AcDbLine
 10
268.0000096523869
 20
-81.19707783812645
 30
0.0
 11
268.0000096523869
 21
-81.35208290934588
 31
0.0
  0
LINE
  5
663B
330
1E
100
AcDbEntity
  8
10
  6
CONTINOUS
100
AcDbLine
 10
303.9999919455876
 20
-48.99998836348732
 30
0.0
 11
303.9999919455876
 21
-47.99998885534296
 31
0.0
  0
LINE
  5
663C
330
1E
100
AcDbEntity
  8
10
  6
CONTINOUS
100
AcDbLine
 10
268.2679438753548
 20
-51.99998688792039
 30
0.0
 11
268.172915762465
 21
-51.99998688792039
 31
0.0
  0
LINE
  5
663D
330
1E
100
AcDbEntity
  8
10
  6
CONTINOUS
100
AcDbLine
 10
268.0000096523869
 20
-81.35208290934588
 30
0.0
 11
268.0000096523869
 21
-81.49467352533793
 31
0.0
  0
LINE
  5
663E
330
1E
100
AcDbEntity
  8
10
  6
CONTINOUS
100
AcDbLine
 10
291.9999978478518
 20
-82.49999005381868
 30
0.0
 11
268.5000033506294
 21
-82.49999005381868
 31
0.0
  0
LINE
  5
663F
330
1E
100
AcDbEntity
  8
10
  6
CONTINOUS
100
AcDbLine
 10
268.3819630768265
 20
-51.99998688792039
 30
0.0
 11
268.2679438753548
 21
-51.99998688792039
 31
0.0
  0
LINE
  5
6640
330
1E
100
AcDbEntity
  8
10
  6
CONTINOUS
100
AcDbLine
 10
268.0000096523869
 20
-81.03189896945242
 30
0.0
 11
268.0000096523869
 21
-81.19707783812645
 31
0.0
  0
LINE
  5
6641
330
1E
100
AcDbEntity
  8
10
  6
CONTINOUS
100
AcDbLine
 10
268.0000096523869
 20
-80.25940495105533
 30
0.0
 11
268.0000096523869
 21
-80.01076460826244
 31
0.0
  0
LINE
  5
6642
330
1E
100
AcDbEntity
  8
10
  6
CONTINOUS
100
AcDbLine
 10
303.2679387720708
 20
-50.00004842994986
 30
0.0
 11
303.2679387720708
 21
-49.49998206172768
 31
0.0
  0
LINE
  5
6643
330
1E
100
AcDbEntity
  8
10
  6
CONTINOUS
100
AcDbLine
 10
337.5868221525233
 20
-54.00757991730916
 30
0.0
 11
337.5000057475771
 21
-53.9999859042091
 31
0.0
  0
LINE
  5
6644
330
1E
100
AcDbEntity
  8
10
  6
CONTINOUS
100
AcDbLine
 10
303.7928824974005
 20
-49.49998206172768
 30
0.0
 11
268.0000096523869
 21
-49.49998206172768
 31
0.0
  0
LINE
  5
6645
330
1E
100
AcDbEntity
  8
10
  6
CONTINOUS
100
AcDbLine
 10
337.9999994458191
 20
-54.4999917141131
 30
0.0
 11
337.9923933210593
 21
-54.41316319750331
 31
0.0
  0
LINE
  5
6646
330
1E
100
AcDbEntity
  8
10
  6
CONTINOUS
100
AcDbLine
 10
291.9999978478518
 20
-84.61124681227195
 30
0.0
 11
291.9999978478518
 21
-84.49998907010741
 31
0.0
  0
LINE
  5
6647
330
1E
100
AcDbEntity
  8
10
  6
CONTINOUS
100
AcDbLine
 10
289.9924896001101
 20
-47.49998304543896
 30
0.0
 11
293.4996398159928
 21
-47.49998304543896
 31
0.0
  0
LINE
  5
6648
330
1E
100
AcDbEntity
  8
10
  6
CONTINOUS
100
AcDbLine
 10
292.3451318148361
 20
-86.26543360841242
 30
0.0
 11
292.4593690262554
 21
-86.24251834081222
 31
0.0
  0
LINE
  5
6649
330
1E
100
AcDbEntity
  8
10
  6
CONTINOUS
100
AcDbLine
 10
263.0
 20
-82.4890289982277
 30
0.0
 11
263.0
 21
-82.45627905975471
 31
0.0
  0
LINE
  5
664A
330
1E
100
AcDbEntity
  8
10
  6
CONTINOUS
100
AcDbLine
 10
292.8576731966021
 20
-86.20271941410281
 30
0.0
 11
293.0000094676578
 21
-86.19998217812097
 31
0.0
  0
LINE
  5
664B
330
1E
100
AcDbEntity
  8
10
  6
CONTINOUS
100
AcDbLine
 10
267.9698516099306
 20
-48.46983662279217
 30
0.0
 11
267.9330079291539
 21
-48.4330050536737
 31
0.0
  0
LINE
  5
664C
330
1E
100
AcDbEntity
  8
10
  6
CONTINOUS
100
AcDbLine
 10
268.0000096523869
 20
-55.24998226147364
 30
0.0
 11
268.0125331125891
 21
-55.24998226147364
 31
0.0
  0
LINE
  5
664D
330
1E
100
AcDbEntity
  8
10
  6
CONTINOUS
100
AcDbLine
 10
270.0000086686776
 20
-49.99998787163168
 30
0.0
 11
305.0000035653938
 21
-49.99998787163168
 31
0.0
  0
LINE
  5
664E
330
1E
100
AcDbEntity
  8
10
  6
CONTINOUS
100
AcDbLine
 10
295.0000084839483
 20
-79.99998522762599
 30
0.0
 11
305.499997263636
 21
-79.99998522762599
 31
0.0
  0
LINE
  5
664F
330
1E
100
AcDbEntity
  8
10
  6
CONTINOUS
100
AcDbLine
 10
269.3029097564139
 20
-49.99998787163168
 30
0.0
 11
269.4680886250935
 21
-49.99998787163168
 31
0.0
  0
LINE
  5
6650
330
1E
100
AcDbEntity
  8
10
  6
CONTINOUS
100
AcDbLine
 10
268.5435811163916
 20
-49.99998787163168
 30
0.0
 11
268.5974780195754
 21
-49.99998787163168
 31
0.0
  0
LINE
  5
6651
330
1E
100
AcDbEntity
  8
10
  6
CONTINOUS
100
AcDbLine
 10
292.584579404931
 20
-86.22420550539391
 30
0.0
 11
292.7182679481483
 21
-86.21084634040292
 31
0.0
  0
LINE
  5
6652
330
1E
100
AcDbEntity
  8
10
  6
CONTINOUS
100
AcDbLine
 10
295.0000084839483
 20
-84.81173118044626
 30
0.0
 11
295.0000084839483
 21
-84.8909051256378
 31
0.0
  0
LINE
  5
6653
330
1E
100
AcDbEntity
  8
10
  6
CONTINOUS
100
AcDbLine
 10
305.0000035653938
 20
-49.49998206172768
 30
0.0
 11
303.7928824974005
 21
-49.49998206172768
 31
0.0
  0
LINE
  5
6654
330
1E
100
AcDbEntity
  8
10
  6
CONTINOUS
100
AcDbLine
 10
269.5841668093851
 20
-51.99998688792039
 30
0.0
 11
269.3819746966328
 21
-51.99998688792039
 31
0.0
  0
LINE
  5
6655
330
1E
100
AcDbEntity
  8
10
  6
CONTINOUS
100
AcDbLine
 10
268.0000096523869
 20
-80.85895652438741
 30
0.0
 11
268.0000096523869
 21
-81.03189896945242
 31
0.0
  0
LINE
  5
6656
330
1E
100
AcDbEntity
  8
10
  6
CONTINOUS
100
AcDbLine
 10
303.9999919455876
 20
-48.99998836348732
 30
0.0
 11
303.9960193199148
 21
-49.09753570241537
 31
0.0
  0
LINE
  5
6657
330
1E
100
AcDbEntity
  8
10
  6
CONTINOUS
100
AcDbLine
 10
268.2830592315728
 20
-55.24998226147364
 30
0.0
 11
268.3887456084629
 21
-55.24998226147364
 31
0.0
  0
LINE
  5
6658
330
1E
100
AcDbEntity
  8
10
  6
CONTINOUS
100
AcDbLine
 10
268.9999970488714
 20
-51.99998688792039
 30
0.0
 11
268.8244263727974
 21
-51.99998688792039
 31
0.0
  0
LINE
  5
6659
330
1E
100
AcDbEntity
  8
10
  6
CONTINOUS
100
AcDbLine
 10
268.8772332262524
 20
-49.99998787163168
 30
0.0
 11
269.0053261808715
 21
-49.99998787163168
 31
0.0
  0
LINE
  5
665A
330
1E
100
AcDbEntity
  8
10
  6
CONTINOUS
100
AcDbLine
 10
268.0000096523869
 20
-81.90250957496845
 30
0.0
 11
268.0000096523869
 21
-81.95639436648708
 31
0.0
  0
LINE
  5
665B
330
1E
100
AcDbEntity
  8
10
  6
CONTINOUS
100
AcDbLine
 10
268.0000096523869
 20
-81.73446024201258
 30
0.0
 11
268.0000096523869
 21
-81.82816818356789
 31
0.0
  0
LINE
  5
665C
330
1E
100
AcDbEntity
  8
10
  6
CONTINOUS
100
AcDbLine
 10
295.0000084839483
 20
-84.61124681227195
 30
0.0
 11
295.0000084839483
 21
-84.71693318916369
 31
0.0
  0
LINE
  5
665D
330
1E
100
AcDbEntity
  8
10
  6
CONTINOUS
100
AcDbLine
 10
337.8214008538343
 20
-54.11696035161003
 30
0.0
 11
337.7499904850338
 21
-54.06697551578235
 31
0.0
  0
LINE
  5
665E
330
1E
100
AcDbEntity
  8
10
  6
CONTINOUS
100
AcDbLine
 10
301.9999929292971
 20
-84.99998276834777
 30
0.0
 11
301.9999929292971
 21
-86.19998217812097
 31
0.0
  0
LINE
  5
665F
330
1E
100
AcDbEntity
  8
10
  6
CONTINOUS
100
AcDbLine
 10
268.0000096523869
 20
-48.49998255358332
 30
0.0
 11
267.9924035276271
 21
-48.49238854048325
 31
0.0
  0
LINE
  5
6660
330
1E
100
AcDbEntity
  8
10
  6
CONTINOUS
100
AcDbLine
 10
305.0000035653938
 20
-55.24998226147364
 30
0.0
 11
268.5000033506294
 21
-55.24998226147364
 31
0.0
  0
LINE
  5
6661
330
1E
100
AcDbEntity
  8
10
  6
CONTINOUS
100
AcDbLine
 10
337.7499904850338
 20
-54.06697551578235
 30
0.0
 11
337.6709982148021
 21
-54.03014394666389
 31
0.0
  0
LINE
  5
6662
330
1E
100
AcDbEntity
  8
10
  6
CONTINOUS
100
AcDbLine
 10
292.1587333114728
 20
-86.32307301565834
 30
0.0
 11
292.2442416567428
 21
-86.292466841649
 31
0.0
  0
LINE
  5
6663
330
1E
100
AcDbEntity
  8
10
  6
CONTINOUS
100
AcDbLine
 10
267.8213868370803
 20
-48.32138396160008
 30
0.0
 11
267.7500006916015
 21
-48.24998570446314
 31
0.0
  0
LINE
  5
6664
330
1E
100
AcDbEntity
  8
10
  6
CONTINOUS
100
AcDbLine
 10
284.999989179181
 20
-48.49998255358332
 30
0.0
 11
268.0000096523869
 21
-48.49998255358332
 31
0.0
  0
LINE
  5
6665
330
1E
100
AcDbEntity
  8
10
  6
CONTINOUS
100
AcDbLine
 10
269.1865166688728
 20
-51.99998688792039
 30
0.0
 11
268.9999970488714
 21
-51.99998688792039
 31
0.0
  0
LINE
  5
6666
330
1E
100
AcDbEntity
  8
10
  6
CONTINOUS
100
AcDbLine
 10
305.0000035653938
 20
-79.49999152938563
 30
0.0
 11
305.0000035653938
 21
-49.49998206172768
 31
0.0
  0
LINE
  5
6667
330
1E
100
AcDbEntity
  8
10
  6
CONTINOUS
100
AcDbLine
 10
268.0125331125891
 20
-55.24998226147364
 30
0.0
 11
268.049522133333
 21
-55.24998226147364
 31
0.0
  0
LINE
  5
6668
330
1E
100
AcDbEntity
  8
10
  6
CONTINOUS
100
AcDbLine
 10
268.5137137538621
 20
-51.99998688792039
 30
0.0
 11
268.3819630768265
 21
-51.99998688792039
 31
0.0
  0
LINE
  5
6669
330
1E
100
AcDbEntity
  8
10
  6
CONTINOUS
100
AcDbLine
 10
268.671819410978
 20
-49.99998787163168
 30
0.0
 11
268.7655152408696
 21
-49.99998787163168
 31
0.0
  0
LINE
  5
666A
330
1E
100
AcDbEntity
  8
10
  6
CONTINOUS
100
AcDbLine
 10
289.3473012781978
 20
-47.73344747369536
 30
0.0
 11
284.999989179181
 21
-48.49998255358332
 31
0.0
  0
LINE
  5
666B
330
1E
100
AcDbEntity
  8
10
  6
CONTINOUS
100
AcDbLine
 10
267.9924035276271
 20
-48.49238854048325
 30
0.0
 11
267.9698516099306
 21
-48.46983662279217
 31
0.0
  0
LINE
  5
666C
330
1E
100
AcDbEntity
  8
10
  6
CONTINOUS
100
AcDbLine
 10
303.9876622720039
 20
-47.83003799119613
 30
0.0
 11
303.9968913596966
 21
-47.91371747526045
 31
0.0
  0
LINE
  5
666D
330
1E
100
AcDbEntity
  8
10
  6
CONTINOUS
100
AcDbLine
 10
268.0000096523869
 20
-48.49998255358332
 30
0.0
 11
268.0000096523869
 21
-80.49999103752998
 31
0.0
  0
LINE
  5
666E
330
1E
100
AcDbEntity
  8
10
  6
CONTINOUS
100
AcDbLine
 10
337.9698414033628
 20
-54.32897502356627
 30
0.0
 11
337.9330219459077
 21
-54.24998275332928
 31
0.0
  0
LINE
  5
666F
330
1E
100
AcDbEntity
  8
10
  6
CONTINOUS
100
AcDbLine
 10
263.0
 20
-81.98627384067821
 30
0.0
 11
263.0
 21
-81.83824508771341
 31
0.0
  0
LINE
  5
6670
330
1E
100
AcDbEntity
  8
10
  6
CONTINOUS
100
AcDbLine
 10
263.0
 20
-81.31345881400919
 30
0.0
 11
263.0
 21
-81.1180250095713
 31
0.0
  0
LINE
  5
6671
330
1E
100
AcDbEntity
  8
10
  6
CONTINOUS
100
AcDbLine
 10
301.9999929292971
 20
-84.99998276834777
 30
0.0
 11
312.5000059323065
 21
-79.99998522762599
 31
0.0
  0
LINE
  5
6672
330
1E
100
AcDbEntity
  8
10
  6
CONTINOUS
100
AcDbLine
 10
267.9330079291539
 20
-48.4330050536737
 30
0.0
 11
267.8830109816626
 21
-48.38300810618239
 31
0.0
  0
LINE
  5
6673
330
1E
100
AcDbEntity
  8
10
  6
CONTINOUS
100
AcDbLine
 10
267.8830109816626
 20
-48.38300810618239
 30
0.0
 11
267.8213868370803
 21
-48.32138396160008
 31
0.0
  0
LINE
  5
6674
330
1E
100
AcDbEntity
  8
10
  6
CONTINOUS
100
AcDbLine
 10
337.9330219459077
 20
-54.24998275332928
 30
0.0
 11
337.8830249984166
 21
-54.17859660785598
 31
0.0
  0
LINE
  5
6675
330
1E
100
AcDbEntity
  8
10
  6
CONTINOUS
100
AcDbLine
 10
263.0
 20
-81.1180250095713
 30
0.0
 11
263.0
 21
-80.91580867349692
 31
0.0
  0
LINE
  5
6676
330
1E
100
AcDbEntity
  8
10
  6
CONTINOUS
100
AcDbLine
 10
268.0437085347874
 20
-51.99998688792039
 30
0.0
 11
268.0109585963143
 21
-51.99998688792039
 31
0.0
  0
LINE
  5
6677
330
1E
100
AcDbEntity
  8
10
  6
CONTINOUS
100
AcDbLine
 10
268.0000096523869
 20
-81.98904741165097
 30
0.0
 11
268.0000096523869
 21
-81.9999842439147
 31
0.0
  0
LINE
  5
6678
330
1E
100
AcDbEntity
  8
10
  6
CONTINOUS
100
AcDbLine
 10
303.9393367340961
 20
-49.35353993669924
 30
0.0
 11
303.9079433019503
 21
-49.41572121780883
 31
0.0
  0
LINE
  5
6679
330
1E
100
AcDbEntity
  8
10
  6
CONTINOUS
100
AcDbLine
 10
268.5000033506294
 20
-49.99998787163168
 30
0.0
 11
268.5109280712276
 21
-49.99998787163168
 31
0.0
  0
LINE
  5
667A
330
1E
100
AcDbEntity
  8
10
  6
CONTINOUS
100
AcDbLine
 10
291.9999978478518
 20
-84.81173118044626
 30
0.0
 11
291.9999978478518
 21
-84.71693318916369
 31
0.0
  0
LINE
  5
667B
330
1E
100
AcDbEntity
  8
10
  6
CONTINOUS
100
AcDbLine
 10
303.8721412242375
 20
-49.46192721458192
 30
0.0
 11
303.8332870072918
 21
-49.49037751246397
 31
0.0
  0
LINE
  5
667C
330
1E
100
AcDbEntity
  8
10
  6
CONTINOUS
100
AcDbLine
 10
303.9960193199148
 20
-49.09753570241537
 30
0.0
 11
303.9842225595275
 21
-49.19132842561612
 31
0.0
  0
LINE
  5
667D
330
1E
100
AcDbEntity
  8
10
  6
CONTINOUS
100
AcDbLine
 10
291.9999978478518
 20
-84.98744719648403
 30
0.0
 11
291.9999978478518
 21
-84.95047028740193
 31
0.0
  0
LINE
  5
667E
330
1E
100
AcDbEntity
  8
10
  6
CONTINOUS
100
AcDbLine
 10
268.0000096523869
 20
-80.68079395229506
 30
0.0
 11
268.0000096523869
 21
-80.85895652438741
 31
0.0
  0
LINE
  5
667F
330
1E
100
AcDbEntity
  8
10
  6
CONTINOUS
100
AcDbLine
 10
295.0000084839483
 20
-84.49998907010741
 30
0.0
 11
295.0000084839483
 21
-79.99998522762599
 31
0.0
  0
LINE
  5
6680
330
1E
100
AcDbEntity
  8
10
  6
CONTINOUS
100
AcDbLine
 10
263.0
 20
-81.49999054567434
 30
0.0
 11
263.0
 21
-81.31345881400919
 31
0.0
  0
LINE
  5
6681
330
1E
100
AcDbEntity
  8
10
  6
CONTINOUS
100
AcDbLine
 10
268.3887456084629
 20
-55.24998226147364
 30
0.0
 11
268.5000033506294
 21
-55.24998226147364
 31
0.0
  0
LINE
  5
6682
330
1E
100
AcDbEntity
  8
10
  6
CONTINOUS
100
AcDbLine
 10
263.0
 20
-81.83824508771341
 30
0.0
 11
263.0
 21
-81.67556122174847
 31
0.0
  0
LINE
  5
6683
330
1E
100
AcDbEntity
  8
12
  6
DASHED
100
AcDbLine
 10
320.5000006142581
 20
-39.99999429691522
 30
0.0
 11
326.0000006142581
 21
-39.99999429691522
 31
0.0
  0
LINE
  5
6684
330
1E
100
AcDbEntity
  8
10
  6
CONTINOUS
100
AcDbLine
 10
337.9999994458191
 20
-77.99998621133726
 30
0.0
 11
337.9999994458191
 21
-55.99998492049781
 31
0.0
  0
LINE
  5
6685
330
1E
100
AcDbEntity
  8
10
  6
CONTINOUS
100
AcDbLine
 10
337.5000057475771
 20
-79.99998522762599
 30
0.0
 11
305.499997263636
 21
-79.99998522762599
 31
0.0
  0
LINE
  5
6686
330
1E
100
AcDbEntity
  8
10
  6
CONTINOUS
100
AcDbLine
 10
311.000000614258
 20
-53.9999859042091
 30
0.0
 11
337.5000057475771
 21
-53.9999859042091
 31
0.0
  0
LINE
  5
6687
330
1E
100
AcDbEntity
  8
10
  6
CONTINOUS
100
AcDbLine
 10
267.4999917308229
 20
-82.49999005381868
 30
0.0
 11
263.0
 21
-82.49999005381868
 31
0.0
  0
LINE
  5
6688
330
1E
100
AcDbEntity
  8
10
  6
CONTINOUS
100
AcDbLine
 10
202.0
 20
-51.0
 30
0.0
 11
202.0
 21
-77.5
 31
0.0
  0
LINE
  5
6689
330
1E
100
AcDbEntity
  8
10
  6
CONTINOUS
100
AcDbLine
 10
202.0
 20
-77.5
 30
0.0
 11
263.0
 21
-77.5
 31
0.0
  0
LINE
  5
668A
330
1E
100
AcDbEntity
  8
10
  6
CONTINOUS
100
AcDbLine
 10
187.0
 20
-25.0
 30
0.0
 11
195.0
 21
-25.0
 31
0.0
  0
ARC
  5
668B
330
1E
100
AcDbEntity
  8
10
  6
CONTINOUS
100
AcDbCircle
 10
-267.4999917308229
 20
81.9999842439147
 30
0.0
 40
0.499999990628108
210
0.0
220
0.0
230
-1.0
100
AcDbArc
 50
90.0
 51
180.0
  0
ARC
  5
668C
330
1E
100
AcDbEntity
  8
18
100
AcDbCircle
 10
314.5000006142581
 20
49.00000570308474
 30
0.0
 40
3.499999999999996
100
AcDbArc
 50
90.0
 51
180.0
  0
ARC
  5
668D
330
1E
100
AcDbEntity
  8
18
100
AcDbCircle
 10
314.5000006142581
 20
49.00000570308474
 30
0.0
 40
0.9999999999999992
100
AcDbArc
 50
90.0
 51
180.0
  0
ARC
  5
668E
330
1E
100
AcDbEntity
  8
10
  6
CONTINOUS
100
AcDbCircle
 10
293.5000031659001
 20
45.50001965864065
 30
0.0
 40
1.999999962512431
100
AcDbArc
 50
90.0
 51
180.0
  0
ARC
  5
668F
330
1E
100
AcDbEntity
  8
0
100
AcDbCircle
 10
337.5000057475771
 20
79.50000293554876
 30
0.0
 40
0.499999990628108
100
AcDbArc
 50
0.0
 51
90.0
  0
ARC
  5
6690
330
1E
100
AcDbEntity
  8
10
  6
CONTINOUS
100
AcDbCircle
 10
268.5000033506294
 20
82.00001987340511
 30
0.0
 40
0.499999990628108
100
AcDbArc
 50
90.0
 51
180.0
  0
ARC
  5
6691
330
1E
100
AcDbEntity
  8
10
  6
CONTINOUS
100
AcDbCircle
 10
305.499997263636
 20
79.50000293554876
 30
0.0
 40
0.499999990628108
100
AcDbArc
 50
90.0
 51
180.0
  0
ARC
  5
6692
330
1E
100
AcDbEntity
  8
10
  6
CONTINOUS
100
AcDbCircle
 10
268.5000033506294
 20
50.50000508769881
 30
0.0
 40
0.499999990628108
100
AcDbArc
 50
180.0
 51
270.0
  0
ARC
  5
6693
330
1E
100
AcDbEntity
  8
10
  6
CONTINOUS
100
AcDbCircle
 10
293.0000094676578
 20
94.00001397113738
 30
0.0
 40
0.9999999812562155
100
AcDbArc
 50
90.0
 51
180.0
  0
ARC
  5
6694
330
1E
100
AcDbEntity
  8
10
  6
CONTINOUS
100
AcDbCircle
 10
270.0000086686776
 20
52.00001040574715
 30
0.0
 40
1.999999962512431
100
AcDbArc
 50
180.0
 51
270.0
  0
ARC
  5
6695
330
1E
100
AcDbEntity
  8
10
  6
CONTINOUS
100
AcDbCircle
 10
288.999987211755
 20
45.76386013929732
 30
0.0
 40
1.999999962512431
100
AcDbArc
 50
0.0
 51
79.99999963885284
  0
ARC
  5
6696
330
1E
100
AcDbEntity
  8
10
  6
CONTINOUS
100
AcDbCircle
 10
268.5000033506294
 20
55.74999947754077
 30
0.0
 40
0.499999990628108
100
AcDbArc
 50
180.0
 51
270.0
  0
ARC
  5
6697
330
1E
100
AcDbEntity
  8
10
  6
CONTINOUS
100
AcDbCircle
 10
303.0000045491033
 20
49.50001769121809
 30
0.0
 40
1.999999962512431
100
AcDbArc
 50
270.0
 51
0.0
  0
LINE
  5
6698
330
1E
100
AcDbEntity
  8
10
  6
CONTINOUS
100
AcDbLine
 10
267.4999917308229
 20
82.49999005381868
 30
0.0
 11
263.0
 21
82.49999005381868
 31
0.0
  0
LINE
  5
6699
330
1E
100
AcDbEntity
  8
10
  6
CONTINOUS
100
AcDbLine
 10
293.5000031659001
 20
47.50001867492938
 30
0.0
 11
289.9924896001101
 21
47.50001867492938
 31
0.0
  0
LINE
  5
669A
330
1E
100
AcDbEntity
  8
10
  6
CONTINOUS
100
AcDbLine
 10
268.0000096523869
 20
49.50001769121809
 30
0.0
 11
305.0000035653938
 21
49.50001769121809
 31
0.0
  0
LINE
  5
669B
330
1E
100
AcDbEntity
  8
10
  6
CONTINOUS
100
AcDbLine
 10
305.0000035653938
 20
50.00001138945846
 30
0.0
 11
270.0000086686776
 21
50.00001138945846
 31
0.0
  0
LINE
  5
669C
330
1E
100
AcDbEntity
  8
10
  6
CONTINOUS
100
AcDbLine
 10
305.0000035653938
 20
55.2500057793004
 30
0.0
 11
268.5000033506294
 21
55.2500057793004
 31
0.0
  0
LINE
  5
669D
330
1E
100
AcDbEntity
  8
10
  6
CONTINOUS
100
AcDbLine
 10
268.5000033506294
 20
82.50001357164547
 30
0.0
 11
291.9999978478518
 21
82.50001357164547
 31
0.0
  0
LINE
  5
669E
330
1E
100
AcDbEntity
  8
12
  6
DASHED
100
AcDbLine
 10
320.5000006142581
 20
40.00000570308475
 30
0.0
 11
326.0000006142581
 21
40.00000570308475
 31
0.0
  0
LINE
  5
669F
330
1E
100
AcDbEntity
  8
12
  6
DASHED
100
AcDbLine
 10
314.5000006142581
 20
42.50000570308475
 30
0.0
 11
314.5000006142581
 21
32.50000570308475
 31
0.0
  0
LINE
  5
66A0
330
1E
100
AcDbEntity
  8
12
  6
DASHED
100
AcDbLine
 10
326.0000006142581
 20
40.00000570308475
 30
0.0
 11
326.0000006142581
 21
35.00000570308475
 31
0.0
  0
LINE
  5
66A1
330
1E
100
AcDbEntity
  8
12
  6
DASHED
100
AcDbLine
 10
315.800000614261
 20
39.58560462632613
 30
0.0
 11
320.5000006142581
 21
39.58560462632613
 31
0.0
  0
LINE
  5
66A2
330
1E
100
AcDbEntity
  8
12
  6
DASHED
100
AcDbLine
 10
315.800000614261
 20
42.10000570308511
 30
0.0
 11
315.800000614261
 21
32.90000570308439
 31
0.0
  0
LINE
  5
66A3
330
1E
100
AcDbEntity
  8
12
  6
DASHED
100
AcDbLine
 10
313.5000006142581
 20
42.50000570308475
 30
0.0
 11
314.5000006142581
 21
42.50000570308475
 31
0.0
  0
LINE
  5
66A4
330
1E
100
AcDbEntity
  8
12
  6
DASHED
100
AcDbLine
 10
314.5000006142581
 20
32.90000570308439
 30
0.0
 11
315.800000614261
 21
32.90000570308439
 31
0.0
  0
LINE
  5
66A5
330
1E
100
AcDbEntity
  8
12
  6
DASHED
100
AcDbLine
 10
302.5000006142581
 20
37.50000570308475
 30
0.0
 11
331.0000006142581
 21
37.50000570308475
 31
0.0
  0
LINE
  5
66A6
330
1E
100
AcDbEntity
  8
12
  6
DASHED
100
AcDbLine
 10
315.800000614261
 20
33.10500570308521
 30
0.0
 11
320.5000006142581
 21
33.10500570308521
 31
0.0
  0
LINE
  5
66A7
330
1E
100
AcDbEntity
  8
12
  6
DASHED
100
AcDbLine
 10
313.5000006142581
 20
32.50000570308475
 30
0.0
 11
314.5000006142581
 21
32.50000570308475
 31
0.0
  0
LINE
  5
66A8
330
1E
100
AcDbEntity
  8
12
  6
DASHED
100
AcDbLine
 10
315.800000614261
 20
35.41440677984336
 30
0.0
 11
320.5000006142581
 21
35.41440677984336
 31
0.0
  0
LINE
  5
66A9
330
1E
100
AcDbEntity
  8
12
  6
DASHED
100
AcDbLine
 10
314.5000006142581
 20
42.10000570308511
 30
0.0
 11
315.800000614261
 21
42.10000570308511
 31
0.0
  0
LINE
  5
66AA
330
1E
100
AcDbEntity
  8
12
  6
DASHED
100
AcDbLine
 10
320.5000006142581
 20
41.89500570308519
 30
0.0
 11
320.5000006142581
 21
33.10500570308521
 31
0.0
  0
LINE
  5
66AB
330
1E
100
AcDbEntity
  8
12
  6
DASHED
100
AcDbLine
 10
315.800000614261
 20
41.89500570308519
 30
0.0
 11
320.5000006142581
 21
41.89500570308519
 31
0.0
  0
LINE
  5
66AC
330
1E
100
AcDbEntity
  8
12
  6
DASHED
100
AcDbLine
 10
320.5000006142581
 20
35.00000570308475
 30
0.0
 11
326.0000006142581
 21
35.00000570308475
 31
0.0
  0
LINE
  5
66AD
330
1E
100
AcDbEntity
  8
18
100
AcDbLine
 10
326.0000006142581
 20
50.00000570308476
 30
0.0
 11
326.0000006142581
 21
52.50000570308476
 31
0.0
  0
LINE
  5
66AE
330
1E
100
AcDbEntity
  8
18
100
AcDbLine
 10
314.5000006142581
 20
50.00000570308476
 30
0.0
 11
326.0000006142581
 21
50.00000570308476
 31
0.0
  0
LINE
  5
66AF
330
1E
100
AcDbEntity
  8
18
100
AcDbLine
 10
314.5000006142581
 20
52.50000570308476
 30
0.0
 11
326.0000006142581
 21
52.50000570308476
 31
0.0
  0
LINE
  5
66B0
330
1E
100
AcDbEntity
  8
10
  6
CONTINOUS
100
AcDbLine
 10
195.0
 20
51.0
 30
0.0
 11
202.0
 21
51.0
 31
0.0
  0
LINE
  5
66B1
330
1E
100
AcDbEntity
  8
10
  6
CONTINOUS
100
AcDbLine
 10
202.0
 20
77.5
 30
0.0
 11
263.0
 21
77.5
 31
0.0
  0
LINE
  5
66B2
330
1E
100
AcDbEntity
  8
10
  6
CONTINOUS
100
AcDbLine
 10
175.0047462004076
 20
15.23995644007664
 30
0.0
 11
178.4462048185158
 21
20.15486870581026
 31
0.0
  0
LINE
  5
66B3
330
1E
100
AcDbEntity
  8
10
  6
CONTINOUS
100
AcDbLine
 10
202.0
 20
77.5
 30
0.0
 11
202.0
 21
51.0
 31
0.0
  0
LINE
  5
66B4
330
1E
100
AcDbEntity
  8
10
  6
CONTINOUS
100
AcDbLine
 10
187.0
 20
14.16543683943018
 30
0.0
 11
178.4462048185158
 21
20.15486870581026
 31
0.0
  0
LINE
  5
66B6
330
1E
100
AcDbEntity
  8
10
  6
CONTINOUS
100
AcDbLine
 10
292.0173901968373
 20
90.73381319163855
 30
0.0
 11
292.0061021263243
 21
91.08095769478678
 31
0.0
  0
LINE
  5
66B7
330
1E
100
AcDbEntity
  8
10
  6
CONTINOUS
100
AcDbLine
 10
301.9999929292971
 20
94.14232601886579
 30
0.0
 11
301.9999929292971
 21
94.00001397113738
 31
0.0
  0
LINE
  5
66B8
330
1E
100
AcDbEntity
  8
10
  6
CONTINOUS
100
AcDbLine
 10
301.9999929292971
 20
86.20000569594777
 30
0.0
 11
293.0000094676578
 21
86.20000569594777
 31
0.0
  0
LINE
  5
66B9
330
1E
100
AcDbEntity
  8
10
  6
CONTINOUS
100
AcDbLine
 10
291.9999978478518
 20
86.46796414224082
 30
0.0
 11
291.9999978478518
 21
86.63561379029671
 31
0.0
  0
LINE
  5
66BA
330
1E
100
AcDbEntity
  8
10
  6
CONTINOUS
100
AcDbLine
 10
292.0516177582685
 20
87.78130450032405
 30
0.0
 11
292.0500674653228
 21
88.08121351529008
 31
0.0
  0
LINE
  5
66BB
330
1E
100
AcDbEntity
  8
10
  6
CONTINOUS
100
AcDbLine
 10
291.9999978478518
 20
86.63561379029671
 30
0.0
 11
292.0053269798518
 21
86.82593647268005
 31
0.0
  0
LINE
  5
66BC
330
1E
100
AcDbEntity
  8
10
  6
CONTINOUS
100
AcDbLine
 10
301.9999929292971
 20
88.7980786626049
 30
0.0
 11
293.0000094676578
 21
88.7980786626049
 31
0.0
  0
LINE
  5
66BD
330
1E
100
AcDbEntity
  8
10
  6
CONTINOUS
100
AcDbLine
 10
292.3451318148361
 20
86.2654571262392
 30
0.0
 11
292.4593690262554
 21
86.24254185863902
 31
0.0
  0
LINE
  5
66BE
330
1E
100
AcDbEntity
  8
10
  6
CONTINOUS
100
AcDbLine
 10
291.9999978478518
 20
84.50001258793419
 30
0.0
 11
291.9999978478518
 21
82.00001987340511
 31
0.0
  0
LINE
  5
66BF
330
1E
100
AcDbEntity
  8
10
  6
CONTINOUS
100
AcDbLine
 10
292.0053269798518
 20
86.82593647268005
 30
0.0
 11
292.0176808767646
 21
87.03171363786351
 31
0.0
  0
LINE
  5
66C0
330
1E
100
AcDbEntity
  8
10
  6
CONTINOUS
100
AcDbLine
 10
303.9393367340961
 20
49.353563454526
 30
0.0
 11
303.9650861309853
 21
49.27779288681631
 31
0.0
  0
LINE
  5
66C1
330
1E
100
AcDbEntity
  8
10
  6
CONTINOUS
100
AcDbLine
 10
292.0176808767646
 20
87.03171363786351
 30
0.0
 11
292.0321422031411
 21
87.25677257155622
 31
0.0
  0
LINE
  5
66C2
330
1E
100
AcDbEntity
  8
10
  6
CONTINOUS
100
AcDbLine
 10
337.9999994458191
 20
56.00000843832456
 30
0.0
 11
337.9999994458191
 21
54.50000312027622
 31
0.0
  0
LINE
  5
66C3
330
1E
100
AcDbEntity
  8
10
  6
CONTINOUS
100
AcDbLine
 10
292.0888005656379
 20
88.95565140651525
 30
0.0
 11
292.1569650085803
 21
88.92190831162407
 31
0.0
  0
LINE
  5
66C4
330
1E
100
AcDbEntity
  8
10
  6
CONTINOUS
100
AcDbLine
 10
301.9999929292971
 20
94.98982757016348
 30
0.0
 11
301.9999929292971
 21
94.95949996441778
 31
0.0
  0
LINE
  5
66C5
330
1E
100
AcDbEntity
  8
10
  6
CONTINOUS
100
AcDbLine
 10
301.9999929292971
 20
94.95949996441778
 30
0.0
 11
301.9999929292971
 21
94.90964835689013
 31
0.0
  0
LINE
  5
66C6
330
1E
100
AcDbEntity
  8
10
  6
CONTINOUS
100
AcDbLine
 10
292.0274913243047
 20
90.38153334310845
 30
0.0
 11
292.0173901968373
 21
90.73381319163855
 31
0.0
  0
LINE
  5
66C7
330
1E
100
AcDbEntity
  8
10
  6
CONTINOUS
100
AcDbLine
 10
303.2679387720708
 20
49.50001769121809
 30
0.0
 11
303.2679387720708
 21
50.00008405944027
 31
0.0
  0
LINE
  5
66C8
330
1E
100
AcDbEntity
  8
10
  6
CONTINOUS
100
AcDbLine
 10
291.9999978478518
 20
89.06603710889795
 30
0.0
 11
291.9999978478518
 21
91.14323586920546
 31
0.0
  0
LINE
  5
66C9
330
1E
100
AcDbEntity
  8
10
  6
CONTINOUS
100
AcDbLine
 10
292.0444476533957
 20
87.49590525839449
 30
0.0
 11
292.0516177582685
 21
87.78130450032405
 31
0.0
  0
LINE
  5
66CA
330
1E
100
AcDbEntity
  8
10
  6
CONTINOUS
100
AcDbLine
 10
292.7173474617156
 20
88.80900338320499
 30
0.0
 11
292.8572129533859
 21
88.80084012191401
 31
0.0
  0
LINE
  5
66CB
330
1E
100
AcDbEntity
  8
10
  6
CONTINOUS
100
AcDbLine
 10
291.9999978478518
 20
85.00000628617454
 30
0.0
 11
295.0000084839483
 21
85.00000628617454
 31
0.0
  0
LINE
  5
66CC
330
1E
100
AcDbEntity
  8
10
  6
CONTINOUS
100
AcDbLine
 10
292.5832955685836
 20
88.82244732984146
 30
0.0
 11
292.7173474617156
 21
88.80900338320499
 31
0.0
  0
LINE
  5
66CD
330
1E
100
AcDbEntity
  8
10
  6
CONTINOUS
100
AcDbLine
 10
292.0101716453063
 20
86.42983662511324
 30
0.0
 11
292.040499251052
 21
86.39246003113113
 31
0.0
  0
LINE
  5
66CE
330
1E
100
AcDbEntity
  8
10
  6
CONTINOUS
100
AcDbLine
 10
337.8830249984166
 20
54.17860801401912
 30
0.0
 11
337.9330219459077
 21
54.25001838281969
 31
0.0
  0
LINE
  5
66D0
330
1E
100
AcDbEntity
  8
10
  6
CONTINOUS
100
AcDbLine
 10
301.9999929292971
 20
94.75575755872524
 30
0.0
 11
301.9999929292971
 21
94.65486740063351
 31
0.0
  0
LINE
  5
66D1
330
1E
100
AcDbEntity
  8
10
  6
CONTINOUS
100
AcDbLine
 10
270.0000086686776
 20
50.00001138945846
 30
0.0
 11
269.8192057539125
 21
50.00001138945846
 31
0.0
  0
LINE
  5
66D2
330
1E
100
AcDbEntity
  8
10
  6
CONTINOUS
100
AcDbLine
 10
295.0000084839483
 20
85.00000628617454
 30
0.0
 11
295.0000084839483
 21
84.98748282597444
 31
0.0
  0
LINE
  5
66D3
330
1E
100
AcDbEntity
  8
10
  6
CONTINOUS
100
AcDbLine
 10
291.9999978478518
 20
84.50001258793419
 30
0.0
 11
291.9999978478518
 21
84.61127033009871
 31
0.0
  0
LINE
  5
66D4
330
1E
100
AcDbEntity
  8
10
  6
CONTINOUS
100
AcDbLine
 10
301.9999929292971
 20
94.28173126732144
 30
0.0
 11
301.9999929292971
 21
94.14232601886579
 31
0.0
  0
LINE
  5
66D5
330
1E
100
AcDbEntity
  8
10
  6
CONTINOUS
100
AcDbLine
 10
303.9842225595275
 20
49.19136405510653
 30
0.0
 11
303.9960193199148
 21
49.09754710857851
 31
0.0
  0
LINE
  5
66D6
330
1E
100
AcDbEntity
  8
10
  6
CONTINOUS
100
AcDbLine
 10
269.1479046851964
 20
50.00001138945846
 30
0.0
 11
269.0053261808715
 21
50.00001138945846
 31
0.0
  0
LINE
  5
66D7
330
1E
100
AcDbEntity
  8
10
  6
CONTINOUS
100
AcDbLine
 10
301.9999929292971
 20
94.5406544125417
 30
0.0
 11
301.9999929292971
 21
94.4154198105407
 31
0.0
  0
LINE
  5
66D8
330
1E
100
AcDbEntity
  8
10
  6
CONTINOUS
100
AcDbLine
 10
292.090375081905
 20
86.35665795342175
 30
0.0
 11
292.1587333114728
 21
86.32308442182148
 31
0.0
  0
LINE
  5
66D9
330
1E
100
AcDbEntity
  8
10
  6
CONTINOUS
100
AcDbLine
 10
284.999989179181
 20
48.5000060714101
 30
0.0
 11
289.3473012781978
 21
47.7334588798585
 31
0.0
  0
LINE
  5
66DA
330
1E
100
AcDbEntity
  8
10
  6
CONTINOUS
100
AcDbLine
 10
292.020418112741
 20
89.35700771610028
 30
0.0
 11
292.0289205006192
 21
89.69097472921205
 31
0.0
  0
LINE
  5
66DB
330
1E
100
AcDbEntity
  8
10
  6
CONTINOUS
100
AcDbLine
 10
291.9999978478518
 20
91.43614434258962
 30
0.0
 11
291.9999978478518
 21
94.00001397113738
 31
0.0
  0
LINE
  5
66DC
330
1E
100
AcDbEntity
  8
10
  6
CONTINOUS
100
AcDbLine
 10
292.2442416567428
 20
86.29249035947578
 30
0.0
 11
292.3451318148361
 21
86.2654571262392
 31
0.0
  0
LINE
  5
66DD
330
1E
100
AcDbEntity
  8
10
  6
CONTINOUS
100
AcDbLine
 10
303.7928824974005
 20
49.50001769121809
 30
0.0
 11
303.8332870072918
 21
49.49040103029075
 31
0.0
  0
LINE
  5
66DE
330
1E
100
AcDbEntity
  8
10
  6
CONTINOUS
100
AcDbLine
 10
305.499997263636
 20
80.0000208571164
 30
0.0
 11
295.0000084839483
 21
80.0000208571164
 31
0.0
  0
LINE
  5
66DF
330
1E
100
AcDbEntity
  8
10
  6
CONTINOUS
100
AcDbLine
 10
301.9999929292971
 20
95.0000013676181
 30
0.0
 11
301.9999929292971
 21
94.98982757016348
 31
0.0
  0
LINE
  5
66E0
330
1E
100
AcDbEntity
  8
10
  6
CONTINOUS
100
AcDbLine
 10
303.9969640296766
 20
47.91489160113266
 30
0.0
 11
303.9999919455876
 21
48.00001237316974
 31
0.0
  0
LINE
  5
66E1
330
1E
100
AcDbEntity
  8
10
  6
CONTINOUS
100
AcDbLine
 10
301.9999929292971
 20
85.00000628617454
 30
0.0
 11
301.9999929292971
 21
86.20000569594777
 31
0.0
  0
LINE
  5
66E2
330
1E
100
AcDbEntity
  8
10
  6
CONTINOUS
100
AcDbLine
 10
295.0000084839483
 20
84.89092864346458
 30
0.0
 11
295.0000084839483
 21
84.81176680993668
 31
0.0
  0
LINE
  5
66E3
330
1E
100
AcDbEntity
  8
10
  6
CONTINOUS
100
AcDbLine
 10
269.0053261808715
 20
50.00001138945846
 30
0.0
 11
268.8772332262524
 21
50.00001138945846
 31
0.0
  0
LINE
  5
66E4
330
1E
100
AcDbEntity
  8
10
  6
CONTINOUS
100
AcDbLine
 10
291.9999978478518
 20
84.98748282597444
 30
0.0
 11
291.9999978478518
 21
85.00000628617454
 31
0.0
  0
LINE
  5
66E5
330
1E
100
AcDbEntity
  8
10
  6
CONTINOUS
100
AcDbLine
 10
268.5109280712276
 20
50.00001138945846
 30
0.0
 11
268.5000033506294
 21
50.00001138945846
 31
0.0
  0
LINE
  5
66E6
330
1E
100
AcDbEntity
  8
10
  6
CONTINOUS
100
AcDbLine
 10
292.0500674653228
 20
88.08121351529008
 30
0.0
 11
292.0394092013228
 21
88.40294774812901
 31
0.0
  0
LINE
  5
66E7
330
1E
100
AcDbEntity
  8
10
  6
CONTINOUS
100
AcDbLine
 10
292.584579404931
 20
86.22422902322069
 30
0.0
 11
292.7182679481483
 21
86.21085774656604
 31
0.0
  0
LINE
  5
66E8
330
1E
100
AcDbEntity
  8
10
  6
CONTINOUS
100
AcDbLine
 10
268.5974780195754
 20
50.00001138945846
 30
0.0
 11
268.5435811163916
 21
50.00001138945846
 31
0.0
  0
LINE
  5
66E9
330
1E
100
AcDbEntity
  8
10
  6
CONTINOUS
100
AcDbLine
 10
303.9733220622583
 20
47.75450895125866
 30
0.0
 11
303.9880013985821
 21
47.83224160847749
 31
0.0
  0
LINE
  5
66EA
330
1E
100
AcDbEntity
  8
10
  6
CONTINOUS
100
AcDbLine
 10
337.9698414033628
 20
54.32901065305667
 30
0.0
 11
337.9923933210593
 21
54.41318671533006
 31
0.0
  0
LINE
  5
66EB
330
1E
100
AcDbEntity
  8
10
  6
CONTINOUS
100
AcDbLine
 10
295.0000084839483
 20
84.71695670699046
 30
0.0
 11
295.0000084839483
 21
84.61127033009871
 31
0.0
  0
LINE
  5
66EC
330
1E
100
AcDbEntity
  8
10
  6
CONTINOUS
100
AcDbLine
 10
291.9999978478518
 20
86.46796414224082
 30
0.0
 11
292.0101716453063
 21
86.42983662511324
 31
0.0
  0
LINE
  5
66ED
330
1E
100
AcDbEntity
  8
10
  6
CONTINOUS
100
AcDbLine
 10
291.9999978478518
 20
89.06603710889795
 30
0.0
 11
292.0056418831082
 21
89.03759892267954
 31
0.0
  0
LINE
  5
66EE
330
1E
100
AcDbEntity
  8
10
  6
CONTINOUS
100
AcDbLine
 10
337.9923933210593
 20
54.41318671533006
 30
0.0
 11
337.9999994458191
 21
54.50000312027622
 31
0.0
  0
LINE
  5
66EF
330
1E
100
AcDbEntity
  8
10
  6
CONTINOUS
100
AcDbLine
 10
301.9999929292971
 20
94.90964835689013
 30
0.0
 11
301.9999929292971
 21
94.84126590399865
 31
0.0
  0
LINE
  5
66F0
330
1E
100
AcDbEntity
  8
10
  6
CONTINOUS
100
AcDbLine
 10
292.0394092013228
 20
88.40294774812901
 30
0.0
 11
292.023397582001
 21
88.73555825491349
 31
0.0
  0
LINE
  5
66F1
330
1E
100
AcDbEntity
  8
10
  6
CONTINOUS
100
AcDbLine
 10
292.0095176154717
 20
89.02916920478856
 30
0.0
 11
292.020418112741
 21
89.35700771610028
 31
0.0
  0
LINE
  5
66F2
330
1E
100
AcDbEntity
  8
10
  6
CONTINOUS
100
AcDbLine
 10
303.9079433019503
 20
49.4157447356356
 30
0.0
 11
303.9393367340961
 21
49.353563454526
 31
0.0
  0
LINE
  5
66F3
330
1E
100
AcDbEntity
  8
10
  6
CONTINOUS
100
AcDbLine
 10
291.9999978478518
 20
85.00000628617454
 30
0.0
 11
291.9999978478518
 21
86.46796414224082
 31
0.0
  0
LINE
  5
66F4
330
1E
100
AcDbEntity
  8
10
  6
CONTINOUS
100
AcDbLine
 10
293.5000031659001
 20
47.50001867492938
 30
0.0
 11
303.0000045491033
 21
47.50001867492938
 31
0.0
  0
LINE
  5
66F5
330
1E
100
AcDbEntity
  8
10
  6
CONTINOUS
100
AcDbLine
 10
268.0000096523869
 20
48.5000060714101
 30
0.0
 11
284.999989179181
 21
48.5000060714101
 31
0.0
  0
LINE
  5
66F6
330
1E
100
AcDbEntity
  8
10
  6
CONTINOUS
100
AcDbLine
 10
337.9330219459077
 20
54.25001838281969
 30
0.0
 11
337.9698414033628
 21
54.32901065305667
 31
0.0
  0
LINE
  5
66F7
330
1E
100
AcDbEntity
  8
10
  6
CONTINOUS
100
AcDbLine
 10
312.5000059323065
 20
80.0000208571164
 30
0.0
 11
301.9999929292971
 21
85.00000628617454
 31
0.0
  0
LINE
  5
66F8
330
1E
100
AcDbEntity
  8
10
  6
CONTINOUS
100
AcDbLine
 10
303.9999919455876
 20
48.00001237316974
 30
0.0
 11
303.9999919455876
 21
48.99999976965045
 31
0.0
  0
LINE
  5
66F9
330
1E
100
AcDbEntity
  8
0
100
AcDbLine
 10
337.9999994458191
 20
79.50000293554876
 30
0.0
 11
337.9999994458191
 21
78.00002184082768
 31
0.0
  0
LINE
  5
66FA
330
1E
100
AcDbEntity
  8
10
  6
CONTINOUS
100
AcDbLine
 10
295.0000084839483
 20
84.95049380522869
 30
0.0
 11
295.0000084839483
 21
84.89092864346458
 31
0.0
  0
LINE
  5
66FB
330
1E
100
AcDbEntity
  8
10
  6
CONTINOUS
100
AcDbLine
 10
303.8721412242375
 20
49.46193862074506
 30
0.0
 11
303.9079433019503
 21
49.4157447356356
 31
0.0
  0
LINE
  5
66FC
330
1E
100
AcDbEntity
  8
10
  6
CONTINOUS
100
AcDbLine
 10
303.9650861309853
 20
49.27779288681631
 30
0.0
 11
303.9842225595275
 21
49.19136405510653
 31
0.0
  0
LINE
  5
66FD
330
1E
100
AcDbEntity
  8
10
  6
CONTINOUS
100
AcDbLine
 10
337.7499904850338
 20
54.06698692194549
 30
0.0
 11
337.8214008538343
 21
54.1169838694368
 31
0.0
  0
LINE
  5
66FE
330
1E
100
AcDbEntity
  8
10
  6
CONTINOUS
100
AcDbLine
 10
292.0095176154717
 20
89.02916920478856
 30
0.0
 11
292.0393123080139
 21
88.99164727084281
 31
0.0
  0
LINE
  5
66FF
330
1E
100
AcDbEntity
  8
10
  6
CONTINOUS
100
AcDbLine
 10
268.7655152408696
 20
50.00001138945846
 30
0.0
 11
268.671819410978
 21
50.00001138945846
 31
0.0
  0
LINE
  5
6700
330
1E
100
AcDbEntity
  8
10
  6
CONTINOUS
100
AcDbLine
 10
292.457770286659
 20
88.84090550522342
 30
0.0
 11
292.5832955685836
 21
88.82244732984146
 31
0.0
  0
LINE
  5
6701
330
1E
100
AcDbEntity
  8
10
  6
CONTINOUS
100
AcDbLine
 10
292.4593690262554
 20
86.24254185863902
 30
0.0
 11
292.584579404931
 21
86.22422902322069
 31
0.0
  0
LINE
  5
6702
330
1E
100
AcDbEntity
  8
10
  6
CONTINOUS
100
AcDbLine
 10
301.9999929292971
 20
86.20000569594777
 30
0.0
 11
301.9999929292971
 21
88.7980786626049
 31
0.0
  0
LINE
  5
6703
330
1E
100
AcDbEntity
  8
10
  6
CONTINOUS
100
AcDbLine
 10
269.3029097564139
 20
50.00001138945846
 30
0.0
 11
269.1479046851964
 21
50.00001138945846
 31
0.0
  0
LINE
  5
6704
330
1E
100
AcDbEntity
  8
10
  6
CONTINOUS
100
AcDbLine
 10
291.9999978478518
 20
84.95049380522869
 30
0.0
 11
291.9999978478518
 21
84.98748282597444
 31
0.0
  0
LINE
  5
6705
330
1E
100
AcDbEntity
  8
10
  6
CONTINOUS
100
AcDbLine
 10
295.0000084839483
 20
80.0000208571164
 30
0.0
 11
295.0000084839483
 21
84.50001258793419
 31
0.0
  0
LINE
  5
6706
330
1E
100
AcDbEntity
  8
10
  6
CONTINOUS
100
AcDbLine
 10
337.8214008538343
 20
54.1169838694368
 30
0.0
 11
337.8830249984166
 21
54.17860801401912
 31
0.0
  0
LINE
  5
6707
330
1E
100
AcDbEntity
  8
10
  6
CONTINOUS
100
AcDbLine
 10
269.4680886250935
 20
50.00001138945846
 30
0.0
 11
269.3029097564139
 21
50.00001138945846
 31
0.0
  0
LINE
  5
6708
330
1E
100
AcDbEntity
  8
10
  6
CONTINOUS
100
AcDbLine
 10
337.6709982148021
 20
54.03016746449065
 30
0.0
 11
337.7499904850338
 21
54.06698692194549
 31
0.0
  0
LINE
  5
6709
330
1E
100
AcDbEntity
  8
10
  6
CONTINOUS
100
AcDbLine
 10
292.0321422031411
 20
87.25677257155622
 30
0.0
 11
292.0444476533957
 21
87.49590525839449
 31
0.0
  0
LINE
  5
670A
330
1E
100
AcDbEntity
  8
10
  6
CONTINOUS
100
AcDbLine
 10
303.0815160453785
 20
49.50001769121809
 30
0.0
 11
303.7928824974005
 21
49.50001769121809
 31
0.0
  0
LINE
  5
670B
330
1E
100
AcDbEntity
  8
10
  6
CONTINOUS
100
AcDbLine
 10
292.3433392886216
 20
88.86394188945997
 30
0.0
 11
292.457770286659
 21
88.84090550522342
 31
0.0
  0
LINE
  5
670C
330
1E
100
AcDbEntity
  8
10
  6
CONTINOUS
100
AcDbLine
 10
303.8332870072918
 20
49.49040103029075
 30
0.0
 11
303.8721412242375
 21
49.46193862074506
 31
0.0
  0
LINE
  5
670D
330
1E
100
AcDbEntity
  8
10
  6
CONTINOUS
100
AcDbLine
 10
268.671819410978
 20
50.00001138945846
 30
0.0
 11
268.5974780195754
 21
50.00001138945846
 31
0.0
  0
LINE
  5
670E
330
1E
100
AcDbEntity
  8
10
  6
CONTINOUS
100
AcDbLine
 10
291.9999978478518
 20
86.79965416258893
 30
0.0
 11
291.9999978478518
 21
89.06603710889795
 31
0.0
  0
LINE
  5
670F
330
1E
100
AcDbEntity
  8
10
  6
CONTINOUS
100
AcDbLine
 10
301.9999929292971
 20
88.7980786626049
 30
0.0
 11
301.9999929292971
 21
94.00001397113738
 31
0.0
  0
LINE
  5
6710
330
1E
100
AcDbEntity
  8
10
  6
CONTINOUS
100
AcDbLine
 10
295.0000084839483
 20
84.98748282597444
 30
0.0
 11
295.0000084839483
 21
84.95049380522869
 31
0.0
  0
LINE
  5
6711
330
1E
100
AcDbEntity
  8
10
  6
CONTINOUS
100
AcDbLine
 10
292.8576731966021
 20
86.20274293192961
 30
0.0
 11
293.0000094676578
 21
86.20000569594777
 31
0.0
  0
LINE
  5
6712
330
1E
100
AcDbEntity
  8
10
  6
CONTINOUS
100
AcDbLine
 10
292.7182679481483
 20
86.21085774656604
 30
0.0
 11
292.8576731966021
 21
86.20274293192961
 31
0.0
  0
LINE
  5
6713
330
1E
100
AcDbEntity
  8
10
  6
CONTINOUS
100
AcDbLine
 10
268.5435811163916
 20
50.00001138945846
 30
0.0
 11
268.5109280712276
 21
50.00001138945846
 31
0.0
  0
LINE
  5
6714
330
1E
100
AcDbEntity
  8
10
  6
CONTINOUS
100
AcDbLine
 10
291.9999978478518
 20
84.71695670699046
 30
0.0
 11
291.9999978478518
 21
84.81176680993668
 31
0.0
  0
LINE
  5
6715
330
1E
100
AcDbEntity
  8
10
  6
CONTINOUS
100
AcDbLine
 10
291.9999978478518
 20
84.81176680993668
 30
0.0
 11
291.9999978478518
 21
84.89092864346458
 31
0.0
  0
LINE
  5
6716
330
1E
100
AcDbEntity
  8
10
  6
CONTINOUS
100
AcDbLine
 10
291.9999978478518
 20
84.61127033009871
 30
0.0
 11
291.9999978478518
 21
84.71695670699046
 31
0.0
  0
LINE
  5
6717
330
1E
100
AcDbEntity
  8
10
  6
CONTINOUS
100
AcDbLine
 10
337.5868221525233
 20
54.00761554679957
 30
0.0
 11
337.6709982148021
 21
54.03016746449065
 31
0.0
  0
LINE
  5
6718
330
1E
100
AcDbEntity
  8
10
  6
CONTINOUS
100
AcDbLine
 10
268.0000096523869
 20
81.9999842439147
 30
0.0
 11
268.0000096523869
 21
48.5000060714101
 31
0.0
  0
LINE
  5
6719
330
1E
100
AcDbEntity
  8
10
  6
CONTINOUS
100
AcDbLine
 10
292.023397582001
 20
88.73555825491349
 30
0.0
 11
292.0095176154717
 21
89.02916920478856
 31
0.0
  0
LINE
  5
671A
330
1E
100
AcDbEntity
  8
10
  6
CONTINOUS
100
AcDbLine
 10
305.0000035653938
 20
49.50001769121809
 30
0.0
 11
305.0000035653938
 21
79.50000293554876
 31
0.0
  0
LINE
  5
671B
330
1E
100
AcDbEntity
  8
10
  6
CONTINOUS
100
AcDbLine
 10
269.8192057539125
 20
50.00001138945846
 30
0.0
 11
269.641018958493
 21
50.00001138945846
 31
0.0
  0
LINE
  5
671C
330
1E
100
AcDbEntity
  8
10
  6
CONTINOUS
100
AcDbLine
 10
293.0000094676578
 20
95.0000013676181
 30
0.0
 11
301.9999929292971
 21
95.0000013676181
 31
0.0
  0
LINE
  5
671D
330
1E
100
AcDbEntity
  8
10
  6
CONTINOUS
100
AcDbLine
 10
303.9960193199148
 20
49.09754710857851
 30
0.0
 11
303.9999919455876
 21
48.99999976965045
 31
0.0
  0
LINE
  5
671E
330
1E
100
AcDbEntity
  8
10
  6
CONTINOUS
100
AcDbLine
 10
301.9999929292971
 20
94.65486740063351
 30
0.0
 11
301.9999929292971
 21
94.5406544125417
 31
0.0
  0
LINE
  5
671F
330
1E
100
AcDbEntity
  8
10
  6
CONTINOUS
100
AcDbLine
 10
337.5000057475771
 20
54.00000942203586
 30
0.0
 11
337.5868221525233
 21
54.00761554679957
 31
0.0
  0
LINE
  5
6720
330
1E
100
AcDbEntity
  8
10
  6
CONTINOUS
100
AcDbLine
 10
268.8772332262524
 20
50.00001138945846
 30
0.0
 11
268.7655152408696
 21
50.00001138945846
 31
0.0
  0
LINE
  5
6721
330
1E
100
AcDbEntity
  8
10
  6
CONTINOUS
100
AcDbLine
 10
292.040499251052
 20
86.39246003113113
 30
0.0
 11
292.090375081905
 21
86.35665795342175
 31
0.0
  0
LINE
  5
6722
330
1E
100
AcDbEntity
  8
10
  6
CONTINOUS
100
AcDbLine
 10
269.641018958493
 20
50.00001138945846
 30
0.0
 11
269.4680886250935
 21
50.00001138945846
 31
0.0
  0
LINE
  5
6723
330
1E
100
AcDbEntity
  8
10
  6
CONTINOUS
100
AcDbLine
 10
337.9999994458191
 20
56.00000843832456
 30
0.0
 11
337.9999994458191
 21
78.00002184082768
 31
0.0
  0
LINE
  5
6724
330
1E
100
AcDbEntity
  8
10
  6
CONTINOUS
100
AcDbLine
 10
292.0289205006192
 20
89.69097472921205
 30
0.0
 11
292.0316092899446
 21
90.03637515279661
 31
0.0
  0
LINE
  5
6725
330
1E
100
AcDbEntity
  8
10
  6
CONTINOUS
100
AcDbLine
 10
292.1569650085803
 20
88.92190831162407
 30
0.0
 11
292.24240068387
 21
88.89114468598746
 31
0.0
  0
LINE
  5
6726
330
1E
100
AcDbEntity
  8
10
  6
CONTINOUS
100
AcDbLine
 10
292.0061021263243
 20
91.08095769478678
 30
0.0
 11
291.9999978478518
 21
91.43614434258962
 31
0.0
  0
LINE
  5
6727
330
1E
100
AcDbEntity
  8
10
  6
CONTINOUS
100
AcDbLine
 10
292.0316092899446
 20
90.03637515279661
 30
0.0
 11
292.0274913243047
 21
90.38153334310845
 31
0.0
  0
LINE
  5
6728
330
1E
100
AcDbEntity
  8
10
  6
CONTINOUS
100
AcDbLine
 10
301.9999929292971
 20
94.4154198105407
 30
0.0
 11
301.9999929292971
 21
94.28173126732144
 31
0.0
  0
LINE
  5
6729
330
1E
100
AcDbEntity
  8
10
  6
CONTINOUS
100
AcDbLine
 10
292.0393123080139
 20
88.99164727084281
 30
0.0
 11
292.0888005656379
 21
88.95565140651525
 31
0.0
  0
LINE
  5
672A
330
1E
100
AcDbEntity
  8
10
  6
CONTINOUS
100
AcDbLine
 10
291.9999978478518
 20
84.89092864346458
 30
0.0
 11
291.9999978478518
 21
84.95049380522869
 31
0.0
  0
LINE
  5
672B
330
1E
100
AcDbEntity
  8
10
  6
CONTINOUS
100
AcDbLine
 10
292.8572129533859
 20
88.80084012191401
 30
0.0
 11
293.0000094676578
 21
88.7980786626049
 31
0.0
  0
LINE
  5
672C
330
1E
100
AcDbEntity
  8
10
  6
CONTINOUS
100
AcDbLine
 10
303.9880013985821
 20
47.83224160847749
 30
0.0
 11
303.9969640296766
 21
47.91489160113266
 31
0.0
  0
LINE
  5
672D
330
1E
100
AcDbEntity
  8
10
  6
CONTINOUS
100
AcDbLine
 10
295.0000084839483
 20
84.81176680993668
 30
0.0
 11
295.0000084839483
 21
84.71695670699046
 31
0.0
  0
LINE
  5
672E
330
1E
100
AcDbEntity
  8
10
  6
CONTINOUS
100
AcDbLine
 10
301.9999929292971
 20
94.84126590399865
 30
0.0
 11
301.9999929292971
 21
94.75575755872524
 31
0.0
  0
LINE
  5
672F
330
1E
100
AcDbEntity
  8
10
  6
CONTINOUS
100
AcDbLine
 10
295.0000084839483
 20
84.61127033009871
 30
0.0
 11
295.0000084839483
 21
84.50001258793419
 31
0.0
  0
LINE
  5
6730
330
1E
100
AcDbEntity
  8
10
  6
CONTINOUS
100
AcDbLine
 10
292.24240068387
 20
88.89114468598746
 30
0.0
 11
292.3433392886216
 21
88.86394188945997
 31
0.0
  0
LINE
  5
6731
330
1E
100
AcDbEntity
  8
10
  6
CONTINOUS
100
AcDbLine
 10
292.1587333114728
 20
86.32308442182148
 30
0.0
 11
292.2442416567428
 21
86.29249035947578
 31
0.0
  0
LINE
  5
6732
330
1E
100
AcDbEntity
  8
10
  6
CONTINOUS
100
AcDbLine
 10
305.499997263636
 20
80.0000208571164
 30
0.0
 11
337.5000057475771
 21
80.0000208571164
 31
0.0
  0
LINE
  5
6733
330
1E
100
AcDbEntity
  8
10
  6
CONTINOUS
100
AcDbLine
 10
337.5000057475771
 20
54.00000942203586
 30
0.0
 11
311.000000614258
 21
54.00000942203586
 31
0.0
  0
LINE
  5
6734
330
1E
100
AcDbEntity
  8
10
  6
CONTINOUS
100
AcDbLine
 10
187.0
 20
25.0
 30
0.0
 11
195.0
 21
25.0
 31
0.0
  0
LINE
  5
6C88
330
1E
100
AcDbEntity
  8
17
  6
DASHDOT
100
AcDbLine
 10
253.0
 20
67.00000000000045
 30
0.0
 11
347.9999994458194
 21
67.00000000000045
 31
0.0
  0
DIMENSION
  5
6E43
330
1E
100
AcDbEntity
  8
30
  6
Continuous
100
AcDbDimension
  2
*D16
 10
314.1041177097286
 20
-311.0
 30
0.0
 11
306.6041177097285
 21
-308.0
 31
0.0
 70
    32
 71
     5
 42
-1.0
  3
STANDARD
100
AcDbAlignedDimension
 13
299.1041177097286
 23
-294.8593533752837
 33
0.0
 14
314.1041177097286
 24
-294.8593533752837
 34
0.0
 50
180.0
100
AcDbRotatedDimension
  0
CIRCLE
  5
6E4D
330
1E
100
AcDbEntity
  8
24
  6
Continuous
100
AcDbCircle
 10
306.6041177097285
 20
-284.8593533752837
 30
0.0
 40
3.249999999999996
  0
LINE
  5
6E4E
330
1E
100
AcDbEntity
  8
17
  6
DASHDOT
100
AcDbLine
 10
306.6041177097285
 20
-278.6093533752837
 30
0.0
 11
306.6041177097285
 21
-291.1093533752837
 31
0.0
  0
LINE
  5
6E4F
330
1E
100
AcDbEntity
  8
17
  6
DASHDOT
100
AcDbLine
 10
300.3541177097285
 20
-284.8593533752837
 30
0.0
 11
312.8541177097285
 21
-284.8593533752837
 31
0.0
  0
LINE
  5
6E51
330
1E
100
AcDbEntity
  8
24
  6
Continuous
100
AcDbLine
 10
299.1041177097286
 20
-294.8593533752837
 30
0.0
 11
314.1041177097286
 21
-294.8593533752837
 31
0.0
  0
LINE
  5
6E52
330
1E
100
AcDbEntity
  8
24
  6
Continuous
100
AcDbLine
 10
299.1041177097286
 20
-260.3494691498834
 30
0.0
 11
299.1041177097286
 21
-294.8593533752837
 31
0.0
  0
LINE
  5
6E53
330
1E
100
AcDbEntity
  8
24
  6
Continuous
100
AcDbLine
 10
314.1041177097286
 20
-263.7959755142528
 30
0.0
 11
314.1041177097286
 21
-294.8593533752837
 31
0.0
  0
TEXT
  5
6EF7
330
1E
100
AcDbEntity
  8
30
  6
Continuous
100
AcDbText
 10
298.5025551324982
 20
-318.1348449698532
 30
0.0
 40
4.0
  1
(max.)
 41
0.8216911764705852
  7
UGMTXT
100
AcDbText
  0
SPLINE
  5
6F02
330
1E
100
AcDbEntity
  8
30
  6
Continuous
100
AcDbSpline
210
0.0
220
0.0
230
1.0
 70
     8
 71
     3
 72
    11
 73
     7
 74
     5
 42
0.0000000001
 43
0.0000000001
 44
0.0000000001
 40
0.0
 40
0.0
 40
0.0
 40
0.0
 40
7.615773105863908
 40
19.98508998271688
 40
38.58616522045516
 40
39.58616522045516
 40
39.58616522045516
 40
39.58616522045516
 40
39.58616522045516
 10
291.0
 20
-255.0
 30
0.0
 10
291.6686109302752
 20
-258.0741602048507
 30
0.0
 10
293.4231602608864
 20
-266.1412818826122
 30
0.0
 10
310.0288563545175
 20
-252.167522717557
 30
0.0
 10
315.0703768387907
 20
-270.2010342960015
 30
0.0
 10
321.6636280834256
 20
-270.0097584370563
 30
0.0
 10
322.0
 20
-270.0
 30
0.0
 11
291.0
 21
-255.0
 31
0.0
 11
294.0
 21
-262.0
 31
0.0
 11
306.0
 21
-259.0
 31
0.0
 11
321.0
 21
-270.0
 31
0.0
 11
322.0
 21
-270.0
 31
0.0
  0
LINE
  5
71A7
330
1E
100
AcDbEntity
  8
12
100
AcDbLine
 10
201.300000402462
 20
-283.0995361122288
 30
0.0
 11
201.300000402462
 21
-270.5995355712849
 31
0.0
  0
LINE
  5
71A8
330
1E
100
AcDbEntity
  8
12
100
AcDbLine
 10
202.8000004673752
 20
-282.9495361057376
 30
0.0
 11
202.8000004673752
 21
-270.7495355777761
 31
0.0
  0
LINE
  5
71A9
330
1E
100
AcDbEntity
  8
12
100
AcDbLine
 10
197.2000055430811
 20
-270.8495208097291
 30
0.0
 11
197.2000055430811
 21
-282.8495213290354
 31
0.0
  0
LINE
  5
71AA
330
1E
100
AcDbEntity
  8
12
100
AcDbLine
 10
192.1000053223759
 20
-276.849521069382
 30
0.0
 11
192.1000053223759
 21
-270.8495208097291
 31
0.0
  0
LINE
  5
71AB
330
1E
100
AcDbEntity
  8
12
100
AcDbLine
 10
193.2000053699793
 20
-276.8495210693811
 30
0.0
 11
193.2000053699793
 21
-270.849520812942
 31
0.0
  0
LINE
  5
71AC
330
1E
100
AcDbEntity
  8
18
100
AcDbLine
 10
197.2000002250324
 20
-270.8495355821038
 30
0.0
 11
197.2000002250324
 21
-309.8495272313033
 31
0.0
  0
LINE
  5
71AD
330
1E
100
AcDbEntity
  8
18
100
AcDbLine
 10
199.700000333221
 20
-270.8495355821038
 30
0.0
 11
199.700000333221
 21
-309.8495272313033
 31
0.0
  0
LINE
  5
71AE
330
1E
100
AcDbEntity
  8
10
100
AcDbLine
 10
192.0
 20
-261.0
 30
0.0
 11
192.0
 21
-289.8495216319639
 31
0.0
  0
LINE
  5
71AF
330
1E
100
AcDbEntity
  8
10
100
AcDbLine
 10
186.0000026914809
 20
-289.3495279120861
 30
0.0
 11
186.0000026914809
 21
-265.7428550153072
 31
0.0
  0
ARC
  5
71B0
330
1E
100
AcDbEntity
  8
10
100
AcDbCircle
 10
190.1427534477099
 20
-272.0283375812139
 30
0.0
 40
7.500000324566334
100
AcDbArc
 50
128.325530952893
 51
173.565260848972
  0
LINE
  5
71B1
330
1E
100
AcDbEntity
  8
10
100
AcDbLine
 10
219.0
 20
-287.8495225291241
 30
0.0
 11
219.0
 21
-265.8495202862234
 31
0.0
  0
LINE
  5
71B2
330
1E
100
AcDbEntity
  8
12
100
AcDbLine
 10
193.2000053699793
 20
-282.8495213290354
 30
0.0
 11
197.2000055430811
 21
-282.8495213290354
 31
0.0
  0
LINE
  5
71B3
330
1E
100
AcDbEntity
  8
10
100
AcDbLine
 10
197.2000002250324
 20
-289.8495216319639
 30
0.0
 11
186.4999964113587
 21
-289.8495216319639
 31
0.0
  0
LINE
  5
71B4
330
1E
100
AcDbEntity
  8
12
100
AcDbLine
 10
186.9999997836224
 20
-276.8495358417568
 30
0.0
 11
217.9999999567244
 21
-276.8495358417568
 31
0.0
  0
DIMENSION
  5
71B5
330
1E
100
AcDbEntity
  8
30
100
AcDbDimension
  2
*D18
 10
197.2000002250324
 20
-327.8560914193128
 30
0.0
 11
206.2000002250324
 21
-324.8560914193128
 31
0.0
 70
    32
 71
     5
 42
-1.0
  3
STANDARD
100
AcDbAlignedDimension
 13
192.0
 23
-289.8495216319639
 33
0.0
 14
197.2000002250324
 24
-309.8495272313033
 34
0.0
 50
180.0
100
AcDbRotatedDimension
  0
DIMENSION
  5
71B6
330
1E
100
AcDbEntity
  8
30
100
AcDbDimension
  2
*D19
 10
219.0
 20
-361.1894261951633
 30
0.0
 11
205.5
 21
-358.1894261951633
 31
0.0
 70
    32
 71
     5
 42
-1.0
  3
STANDARD
100
AcDbAlignedDimension
 13
192.0
 23
-289.8495216319639
 33
0.0
 14
219.0
 24
-289.3495279120861
 34
0.0
 50
180.0
100
AcDbRotatedDimension
  0
DIMENSION
  5
71B7
330
1E
100
AcDbEntity
  8
30
100
AcDbDimension
  2
*D20
 10
197.2000002250324
 20
-344.5227588072381
 30
0.0
 11
185.0999983181956
 21
-341.5227588072381
 31
0.0
 70
    32
 71
     5
 42
-1.0
  3
STANDARD
100
AcDbAlignedDimension
 13
172.9999964113587
 23
-303.8495274635057
 33
0.0
 14
197.2000002250324
 24
-309.8495272313033
 34
0.0
 50
180.0
100
AcDbRotatedDimension
  0
LINE
  5
71B8
330
1E
100
AcDbEntity
  8
10
100
AcDbLine
 10
182.9999919255571
 20
-303.8495274635057
 30
0.0
 11
182.9999919255571
 21
-303.9918395173931
 31
0.0
  0
ARC
  5
71B9
330
1E
100
AcDbEntity
  8
10
100
AcDbCircle
 10
174.0000080744428
 20
-303.8495274635057
 30
0.0
 40
1.000000024531727
100
AcDbArc
 50
180.0
 51
270.0
  0
LINE
  5
71BA
330
1E
100
AcDbEntity
  8
10
100
AcDbLine
 10
182.9999919255571
 20
-304.8495270149258
 30
0.0
 11
174.0000080744428
 21
-304.8495270149258
 31
0.0
  0
LINE
  5
71BB
330
1E
100
AcDbEntity
  8
10
100
AcDbLine
 10
182.9999919255571
 20
-304.2649333208862
 30
0.0
 11
182.9999919255571
 21
-304.3901679283068
 31
0.0
  0
LINE
  5
71BC
330
1E
100
AcDbEntity
  8
10
100
AcDbLine
 10
182.9999919255571
 20
-304.8393411053666
 30
0.0
 11
182.9999919255571
 21
-304.8495270149258
 31
0.0
  0
LINE
  5
71BD
330
1E
100
AcDbEntity
  8
10
100
AcDbLine
 10
182.9999919255571
 20
-304.605271083799
 30
0.0
 11
182.9999919255571
 21
-304.6907794327728
 31
0.0
  0
LINE
  5
71BE
330
1E
100
AcDbEntity
  8
10
100
AcDbLine
 10
182.9999919255571
 20
-304.7591618886235
 30
0.0
 11
182.9999919255571
 21
-304.8090134983086
 31
0.0
  0
LINE
  5
71BF
330
1E
100
AcDbEntity
  8
10
100
AcDbLine
 10
182.9999919255571
 20
-304.1312568835456
 30
0.0
 11
182.9999919255571
 21
-304.2649333208862
 31
0.0
  0
LINE
  5
71C0
330
1E
100
AcDbEntity
  8
10
100
AcDbLine
 10
182.9999919255571
 20
-304.5043809213412
 30
0.0
 11
182.9999919255571
 21
-304.605271083799
 31
0.0
  0
LINE
  5
71C1
330
1E
100
AcDbEntity
  8
10
100
AcDbLine
 10
182.9999919255571
 20
-304.8090134983086
 30
0.0
 11
182.9999919255571
 21
-304.8393411053666
 31
0.0
  0
LINE
  5
71C2
330
1E
100
AcDbEntity
  8
10
100
AcDbLine
 10
182.9999919255571
 20
-304.6907794327728
 30
0.0
 11
182.9999919255571
 21
-304.7591618886235
 31
0.0
  0
LINE
  5
71C3
330
1E
100
AcDbEntity
  8
10
100
AcDbLine
 10
182.9999919255571
 20
-303.9918395173931
 30
0.0
 11
182.9999919255571
 21
-304.1312568835456
 31
0.0
  0
LINE
  5
71C4
330
1E
100
AcDbEntity
  8
10
100
AcDbLine
 10
182.9999919255571
 20
-304.3901679283068
 30
0.0
 11
182.9999919255571
 21
-304.5043809213412
 31
0.0
  0
LINE
  5
71C5
330
1E
100
AcDbEntity
  8
10
100
AcDbLine
 10
176.0000071772824
 20
-294.8495193890631
 30
0.0
 11
172.9999964113587
 21
-294.8495193890631
 31
0.0
  0
LINE
  5
71C6
330
1E
100
AcDbEntity
  8
10
100
AcDbLine
 10
182.9999919255571
 20
-298.6476040415211
 30
0.0
 11
174.0000080744428
 21
-298.6476040415211
 31
0.0
  0
LINE
  5
71C7
330
1E
100
AcDbEntity
  8
10
100
AcDbLine
 10
182.9999919255571
 20
-296.0495188507668
 30
0.0
 11
174.0000080744428
 21
-296.0495188507668
 31
0.0
  0
LINE
  5
71C8
330
1E
100
AcDbEntity
  8
10
100
AcDbLine
 10
170.9224996858388
 20
-292.3693058481578
 30
0.0
 11
178.7675012212968
 21
-286.1680189201269
 31
0.0
  0
LINE
  5
71C9
330
1E
100
AcDbEntity
  8
10
100
AcDbLine
 10
172.9999964113587
 20
-292.3495265663456
 30
0.0
 11
172.9999964113587
 21
-294.3495256691853
 31
0.0
  0
LINE
  5
71CA
330
1E
100
AcDbEntity
  8
10
100
AcDbLine
 10
173.2442402308213
 20
-298.7400765973873
 30
0.0
 11
173.3451303932789
 21
-298.713043362981
 31
0.0
  0
LINE
  5
71CB
330
1E
100
AcDbEntity
  8
10
100
AcDbLine
 10
173.2442402308213
 20
-296.1420035182973
 30
0.0
 11
173.3451303932789
 21
-296.1149702838909
 31
0.0
  0
LINE
  5
71CC
330
1E
100
AcDbEntity
  8
10
100
AcDbLine
 10
172.9999964113587
 20
-298.9155503877463
 30
0.0
 11
172.9999964113587
 21
-296.317477308656
 31
0.0
  0
LINE
  5
71CD
330
1E
100
AcDbEntity
  8
10
100
AcDbLine
 10
173.1587318818474
 20
-296.1726096936313
 30
0.0
 11
173.2442402308213
 21
-296.1420035182973
 31
0.0
  0
LINE
  5
71CE
330
1E
100
AcDbEntity
  8
10
100
AcDbLine
 10
173.0903736493251
 20
-298.8042441941103
 30
0.0
 11
173.1587318818474
 21
-298.7706827727211
 31
0.0
  0
LINE
  5
71CF
330
1E
100
AcDbEntity
  8
10
100
AcDbLine
 10
173.0903736493251
 20
-296.206159003356
 30
0.0
 11
173.1587318818474
 21
-296.1726096936313
 31
0.0
  0
LINE
  5
71D0
330
1E
100
AcDbEntity
  8
10
100
AcDbLine
 10
173.1587318818474
 20
-298.7706827727211
 30
0.0
 11
173.2442402308213
 21
-298.7400765973873
 31
0.0
  0
LINE
  5
71D1
330
1E
100
AcDbEntity
  8
10
100
AcDbLine
 10
173.0101702092533
 20
-296.2793376782141
 30
0.0
 11
173.0404978163116
 21
-296.2419853059429
 31
0.0
  0
LINE
  5
71D2
330
1E
100
AcDbEntity
  8
10
100
AcDbLine
 10
173.0404978163116
 20
-298.8400583850331
 30
0.0
 11
173.0903736493251
 21
-298.8042441941103
 31
0.0
  0
LINE
  5
71D3
330
1E
100
AcDbEntity
  8
10
100
AcDbLine
 10
172.9999964113587
 20
-296.317477308656
 30
0.0
 11
172.9999964113587
 21
-294.8495193890631
 31
0.0
  0
LINE
  5
71D4
330
1E
100
AcDbEntity
  8
10
100
AcDbLine
 10
173.0404978163116
 20
-296.2419853059429
 30
0.0
 11
173.0903736493251
 21
-296.206159003356
 31
0.0
  0
LINE
  5
71D5
330
1E
100
AcDbEntity
  8
10
100
AcDbLine
 10
173.0101702092533
 20
-298.8774107573044
 30
0.0
 11
173.0404978163116
 21
-298.8400583850331
 31
0.0
  0
LINE
  5
71D6
330
1E
100
AcDbEntity
  8
10
100
AcDbLine
 10
172.9999964113587
 20
-298.9155503877463
 30
0.0
 11
173.0101702092533
 21
-298.8774107573044
 31
0.0
  0
LINE
  5
71D7
330
1E
100
AcDbEntity
  8
10
100
AcDbLine
 10
172.9999964113587
 20
-296.317477308656
 30
0.0
 11
173.0101702092533
 21
-296.2793376782141
 31
0.0
  0
LINE
  5
71D8
330
1E
100
AcDbEntity
  8
10
100
AcDbLine
 10
172.9999964113587
 20
-294.6612677930149
 30
0.0
 11
172.9999964113587
 21
-294.5664697976299
 31
0.0
  0
LINE
  5
71D9
330
1E
100
AcDbEntity
  8
10
100
AcDbLine
 10
172.9999964113587
 20
-294.4607834161646
 30
0.0
 11
172.9999964113587
 21
-294.3495256691853
 31
0.0
  0
LINE
  5
71DA
330
1E
100
AcDbEntity
  8
10
100
AcDbLine
 10
172.9999964113587
 20
-294.7404417416328
 30
0.0
 11
172.9999964113587
 21
-294.6612677930149
 31
0.0
  0
LINE
  5
71DB
330
1E
100
AcDbEntity
  8
10
100
AcDbLine
 10
172.9999964113587
 20
-294.8369838166568
 30
0.0
 11
172.9999964113587
 21
-294.8000069059746
 31
0.0
  0
LINE
  5
71DC
330
1E
100
AcDbEntity
  8
10
100
AcDbLine
 10
172.9999964113587
 20
-294.8000069059746
 30
0.0
 11
172.9999964113587
 21
-294.7404417416328
 31
0.0
  0
LINE
  5
71DD
330
1E
100
AcDbEntity
  8
10
100
AcDbLine
 10
172.9999964113587
 20
-294.8495193890631
 30
0.0
 11
172.9999964113587
 21
-294.8369838166568
 31
0.0
  0
LINE
  5
71DE
330
1E
100
AcDbEntity
  8
10
100
AcDbLine
 10
172.9999964113587
 20
-294.5664697976299
 30
0.0
 11
172.9999964113587
 21
-294.4607834161646
 31
0.0
  0
LINE
  5
71DF
330
1E
100
AcDbEntity
  8
10
100
AcDbLine
 10
173.3451303932789
 20
-298.713043362981
 30
0.0
 11
173.4593676096419
 21
-298.6901402060532
 31
0.0
  0
LINE
  5
71E0
330
1E
100
AcDbEntity
  8
10
100
AcDbLine
 10
173.7182665427389
 20
-298.6584560926091
 30
0.0
 11
173.8576717972273
 21
-298.6503291659571
 31
0.0
  0
LINE
  5
71E1
330
1E
100
AcDbEntity
  8
10
100
AcDbLine
 10
173.584577993734
 20
-296.0737421790881
 30
0.0
 11
173.7182665427389
 21
-296.0603830135188
 31
0.0
  0
LINE
  5
71E2
330
1E
100
AcDbEntity
  8
10
100
AcDbLine
 10
173.8576717972273
 20
-296.0522560868673
 30
0.0
 11
174.0000080744428
 21
-296.0495188507668
 31
0.0
  0
LINE
  5
71E3
330
1E
100
AcDbEntity
  8
10
100
AcDbLine
 10
173.3451303932789
 20
-296.1149702838909
 30
0.0
 11
173.4593676096419
 21
-296.0920550152987
 31
0.0
  0
LINE
  5
71E4
330
1E
100
AcDbEntity
  8
10
100
AcDbLine
 10
173.7182665427389
 20
-296.0603830135188
 30
0.0
 11
173.8576717972273
 21
-296.0522560868673
 31
0.0
  0
LINE
  5
71E5
330
1E
100
AcDbEntity
  8
10
100
AcDbLine
 10
173.4593676096419
 20
-296.0920550152987
 30
0.0
 11
173.584577993734
 21
-296.0737421790881
 31
0.0
  0
LINE
  5
71E6
330
1E
100
AcDbEntity
  8
10
100
AcDbLine
 10
173.584577993734
 20
-298.6718152581783
 30
0.0
 11
173.7182665427389
 21
-298.6584560926091
 31
0.0
  0
LINE
  5
71E7
330
1E
100
AcDbEntity
  8
10
100
AcDbLine
 10
173.8576717972273
 20
-298.6503291659571
 30
0.0
 11
174.0000080744428
 21
-298.6476040415211
 31
0.0
  0
LINE
  5
71E8
330
1E
100
AcDbEntity
  8
10
100
AcDbLine
 10
173.4593676096419
 20
-298.6901402060532
 30
0.0
 11
173.584577993734
 21
-298.6718152581783
 31
0.0
  0
LINE
  5
71E9
330
1E
100
AcDbEntity
  8
10
100
AcDbLine
 10
172.9999964113587
 20
-292.3495265663456
 30
0.0
 11
170.9476316282348
 21
-292.3495265663456
 31
0.0
  0
LINE
  5
71EA
330
1E
100
AcDbEntity
  8
10
100
AcDbLine
 10
172.9999964113587
 20
-303.8495274635057
 30
0.0
 11
172.9999964113587
 21
-298.9155503877463
 31
0.0
  0
LINE
  5
71EB
330
1E
100
AcDbEntity
  8
10
100
AcDbLine
 10
182.9999919255571
 20
-294.8495193890631
 30
0.0
 11
193.5000053829618
 21
-289.8495216319639
 31
0.0
  0
LINE
  5
71EC
330
1E
100
AcDbEntity
  8
10
100
AcDbLine
 10
176.0000071772824
 20
-289.8495216319639
 30
0.0
 11
186.4999964113587
 21
-289.8495216319639
 31
0.0
  0
LINE
  5
71ED
330
1E
100
AcDbEntity
  8
10
100
AcDbLine
 10
182.9999919255571
 20
-294.8495193890631
 30
0.0
 11
182.9999919255571
 21
-296.0495188507668
 31
0.0
  0
LINE
  5
71EE
330
1E
100
AcDbEntity
  8
10
100
AcDbLine
 10
182.9999919255571
 20
-296.0495188507668
 30
0.0
 11
182.9999919255571
 21
-298.6476040415211
 31
0.0
  0
LINE
  5
71EF
330
1E
100
AcDbEntity
  8
10
100
AcDbLine
 10
182.9999919255571
 20
-303.8495274635057
 30
0.0
 11
182.9999919255571
 21
-298.6476040415211
 31
0.0
  0
LINE
  5
71F0
330
1E
100
AcDbEntity
  8
10
100
AcDbLine
 10
176.0000071772824
 20
-294.8495193890631
 30
0.0
 11
176.0000071772824
 21
-289.8495216319639
 31
0.0
  0
ARC
  5
71F1
330
1E
100
AcDbEntity
  8
10
100
AcDbCircle
 10
186.4999964113587
 20
-289.3495279120861
 30
0.0
 40
0.5000000122658636
100
AcDbArc
 50
180.0
 51
270.0
  0
LINE
  5
71F2
330
1E
100
AcDbEntity
  8
10
100
AcDbLine
 10
181.5692874839598
 20
-281.1248036473314
 30
0.0
 11
182.6900019890233
 21
-271.1878017024165
 31
0.0
  0
ARC
  5
71F3
330
1E
100
AcDbEntity
  8
10
100
AcDbCircle
 10
174.1165360252745
 20
-280.2842677685329
 30
0.0
 40
7.500000324566334
100
AcDbArc
 50
308.3255309528932
 51
353.5652608489721
  0
LINE
  5
71F4
330
1E
100
AcDbEntity
  8
12
100
AcDbLine
 10
192.1000053223759
 20
-282.8495213290353
 30
0.0
 11
192.1000053223759
 21
-276.8495210693797
 31
0.0
  0
LINE
  5
71F5
330
1E
100
AcDbEntity
  8
12
100
AcDbLine
 10
193.2000053699793
 20
-282.8495213161843
 30
0.0
 11
193.2000053699793
 21
-276.8495210693811
 31
0.0
  0
LINE
  5
71F6
330
1E
100
AcDbEntity
  8
12
100
AcDbLine
 10
191.9998943805438
 20
-282.8495213290354
 30
0.0
 11
192.1000053223759
 21
-282.8495213290354
 31
0.0
  0
LINE
  5
71F7
330
1E
100
AcDbEntity
  8
12
100
AcDbLine
 10
192.1000053223759
 20
-282.5995213182165
 30
0.0
 11
193.2000053699793
 21
-282.5995213182165
 31
0.0
  0
LINE
  5
71F8
330
1E
100
AcDbEntity
  8
12
100
AcDbLine
 10
193.2000053699793
 20
-271.099520820548
 30
0.0
 11
192.1000053223759
 21
-271.099520820548
 31
0.0
  0
INSERT
  5
71F9
330
1E
100
AcDbEntity
  8
30
100
AcDbBlockReference
  2
*U17
 10
-176.0084899212884
 20
-742.4394426907852
 30
0.0
 41
1.666666738792514
 42
1.666666738792514
 43
1.666666738792518
  0
ARC
  5
71FA
330
1E
100
AcDbEntity
  8
3
100
AcDbCircle
 10
218.5000062801221
 20
-289.3495279120861
 30
0.0
 40
0.5000000122658636
100
AcDbArc
 50
270.0
 51
0.0
  0
LINE
  5
71FB
330
1E
100
AcDbEntity
  8
10
100
AcDbLine
 10
218.5000062801221
 20
-289.8495216319639
 30
0.0
 11
199.700000333221
 21
-289.8495216319639
 31
0.0
  0
LINE
  5
71FC
330
1E
100
AcDbEntity
  8
12
100
AcDbLine
 10
208.000000692408
 20
-279.7127846197174
 30
0.0
 11
202.8000004673752
 21
-279.7127846197174
 31
0.0
  0
LINE
  5
71FD
330
1E
100
AcDbEntity
  8
12
100
AcDbLine
 10
202.8000004673752
 20
-282.5995360905912
 30
0.0
 11
208.000000692408
 21
-282.5995360905912
 31
0.0
  0
LINE
  5
71FE
330
1E
100
AcDbEntity
  8
12
100
AcDbLine
 10
202.8000004673752
 20
-271.0995355929227
 30
0.0
 11
208.000000692408
 21
-271.0995355929227
 31
0.0
  0
LINE
  5
71FF
330
1E
100
AcDbEntity
  8
12
100
AcDbLine
 10
208.000000692408
 20
-273.9862870637965
 30
0.0
 11
202.8000004673752
 21
-273.9862870637965
 31
0.0
  0
LINE
  5
7200
330
1E
100
AcDbEntity
  8
12
100
AcDbLine
 10
201.300000402462
 20
-277.3495358633945
 30
0.0
 11
202.8000004673752
 21
-275.8495357984815
 31
0.0
  0
LINE
  5
7201
330
1E
100
AcDbEntity
  8
12
100
AcDbLine
 10
201.300000402462
 20
-277.8495358850324
 30
0.0
 11
202.8000004673752
 21
-276.3495358201191
 31
0.0
  0
LINE
  5
7202
330
1E
100
AcDbEntity
  8
12
100
AcDbLine
 10
201.300000402462
 20
-283.0995361122288
 30
0.0
 11
199.700000333221
 21
-283.0995361122288
 31
0.0
  0
LINE
  5
7203
330
1E
100
AcDbEntity
  8
12
100
AcDbLine
 10
202.8000004673752
 20
-282.9495361057376
 30
0.0
 11
201.300000402462
 21
-282.9495361057376
 31
0.0
  0
LINE
  5
7204
330
1E
100
AcDbEntity
  8
12
100
AcDbLine
 10
213.0000062268349
 20
-276.2495210434174
 30
0.0
 11
213.0000062268349
 21
-277.449521095348
 31
0.0
  0
LINE
  5
7205
330
1E
100
AcDbEntity
  8
12
100
AcDbLine
 10
213.0000062268346
 20
-277.4495210953478
 30
0.0
 11
216.0000063566611
 21
-277.4495210953478
 31
0.0
  0
LINE
  5
7206
330
1E
100
AcDbEntity
  8
12
100
AcDbLine
 10
216.0000063566617
 20
-277.449521095348
 30
0.0
 11
216.0000063566617
 21
-279.2495211732439
 31
0.0
  0
LINE
  5
7207
330
1E
100
AcDbEntity
  8
12
100
AcDbLine
 10
216.0000063566611
 20
-277.4495210953478
 30
0.0
 11
217.1393940973084
 21
-277.4495210953478
 31
0.0
  0
ARC
  5
7208
330
1E
100
AcDbEntity
  8
12
100
AcDbCircle
 10
214.2000062787653
 20
-276.8495210693823
 30
0.0
 40
3.000000129826533
100
AcDbArc
 50
306.8698976458446
 51
348.463040967185
  0
LINE
  5
7209
330
1E
100
AcDbEntity
  8
12
100
AcDbLine
 10
213.0000062268346
 20
-276.249521043417
 30
0.0
 11
216.0000063566611
 21
-276.249521043417
 31
0.0
  0
LINE
  5
720A
330
1E
100
AcDbEntity
  8
12
100
AcDbLine
 10
216.0000063566617
 20
-274.4495209655215
 30
0.0
 11
216.0000063566617
 21
-276.2495210434174
 31
0.0
  0
LINE
  5
720B
330
1E
100
AcDbEntity
  8
12
100
AcDbLine
 10
216.0000063566611
 20
-276.249521043417
 30
0.0
 11
217.1393940973084
 21
-276.249521043417
 31
0.0
  0
ARC
  5
720C
330
1E
100
AcDbEntity
  8
12
100
AcDbCircle
 10
214.2000062787653
 20
-276.8495210693823
 30
0.0
 40
3.000000129826533
100
AcDbArc
 50
11.53695903281491
 51
53.13010235415337
  0
LINE
  5
720D
330
1E
100
AcDbEntity
  8
12
100
AcDbLine
 10
208.000000692408
 20
-282.5995360905912
 30
0.0
 11
208.000000692408
 21
-271.0995355929227
 31
0.0
  0
LINE
  5
720E
330
1E
100
AcDbEntity
  8
12
100
AcDbLine
 10
207.9996763229429
 20
-279.2495211732433
 30
0.0
 11
216.0000063566611
 21
-279.2495211732433
 31
0.0
  0
LINE
  5
720F
330
1E
100
AcDbEntity
  8
12
100
AcDbLine
 10
216.0000063566611
 20
-274.449520965521
 30
0.0
 11
207.9996763229429
 21
-274.449520965521
 31
0.0
  0
LINE
  5
7210
330
1E
100
AcDbEntity
  8
3
100
AcDbLine
 10
219.0
 20
-287.8495225291241
 30
0.0
 11
219.0
 21
-289.3495279120861
 31
0.0
  0
LINE
  5
7211
330
1E
100
AcDbEntity
  8
10
100
AcDbLine
 10
192.0
 20
-263.8495211833839
 30
0.0
 11
218.5000062801221
 21
-263.8495211833839
 31
0.0
  0
LINE
  5
7212
330
1E
100
AcDbEntity
  8
10
100
AcDbLine
 10
192.0
 20
-265.1709246327123
 30
0.0
 11
218.9999999999994
 21
-265.1709246327123
 31
0.0
  0
LINE
  5
7213
330
1E
100
AcDbEntity
  8
12
100
AcDbLine
 10
197.2000055430811
 20
-270.8495208097291
 30
0.0
 11
193.2000053699793
 21
-270.8495208097291
 31
0.0
  0
LINE
  5
7214
330
1E
100
AcDbEntity
  8
10
100
AcDbLine
 10
185.4917882516865
 20
-266.1445864296209
 30
0.0
 11
192.0
 21
-261.0
 31
0.0
  0
LINE
  5
7215
330
1E
100
AcDbEntity
  8
12
100
AcDbLine
 10
192.1000053223759
 20
-270.8495208097291
 30
0.0
 11
191.9998943805438
 21
-270.8495208097291
 31
0.0
  0
LINE
  5
7216
330
1E
100
AcDbEntity
  8
10
100
AcDbLine
 10
218.7499910283968
 20
-263.916510797856
 30
0.0
 11
218.6709987547414
 21
-263.8796792271438
 31
0.0
  0
LINE
  5
7217
330
1E
100
AcDbEntity
  8
12
100
AcDbLine
 10
201.300000402462
 20
-270.5995355712849
 30
0.0
 11
199.700000333221
 21
-270.5995355712849
 31
0.0
  0
LINE
  5
7218
330
1E
100
AcDbEntity
  8
12
100
AcDbLine
 10
202.8000004673752
 20
-270.7495355777761
 30
0.0
 11
201.300000402462
 21
-270.7495355777761
 31
0.0
  0
LINE
  5
7219
330
1E
100
AcDbEntity
  8
12
100
AcDbLine
 10
199.700000333221
 20
-270.5995355712849
 30
0.0
 11
199.700000333221
 21
-270.8495355821038
 31
0.0
  0
LINE
  5
721A
330
1E
100
AcDbEntity
  8
12
100
AcDbLine
 10
196.5000001947396
 20
-270.5995355712849
 30
0.0
 11
196.5000001947396
 21
-270.8495355821038
 31
0.0
  0
LINE
  5
721B
330
1E
100
AcDbEntity
  8
12
100
AcDbLine
 10
197.2000002250324
 20
-270.8495355821038
 30
0.0
 11
199.700000333221
 21
-270.8495355821038
 31
0.0
  0
LINE
  5
721C
330
1E
100
AcDbEntity
  8
10
100
AcDbLine
 10
218.6709987547414
 20
-263.8796792271438
 30
0.0
 11
218.5868226888251
 21
-263.8571151968125
 31
0.0
  0
LINE
  5
721D
330
1E
100
AcDbEntity
  8
10
100
AcDbLine
 10
218.5868226888251
 20
-263.8571151968125
 30
0.0
 11
218.5000062801221
 21
-263.8495211833839
 31
0.0
  0
LINE
  5
721E
330
1E
100
AcDbEntity
  8
10
100
AcDbLine
 10
218.96984195624
 20
-264.1785103169782
 30
0.0
 11
218.9330224971917
 21
-264.0995180433224
 31
0.0
  0
LINE
  5
721F
330
1E
100
AcDbEntity
  8
10
100
AcDbLine
 10
218.9923938749071
 20
-264.2626984945584
 30
0.0
 11
218.96984195624
 21
-264.1785103169782
 31
0.0
  0
LINE
  5
7220
330
1E
100
AcDbEntity
  8
10
100
AcDbLine
 10
219.0
 20
-264.3495270149258
 30
0.0
 11
218.9923938749071
 21
-264.2626984945584
 31
0.0
  0
LINE
  5
7221
330
1E
100
AcDbEntity
  8
10
100
AcDbLine
 10
218.8830255475368
 20
-264.02813189476
 30
0.0
 11
218.8214014002878
 21
-263.9664956358468
 31
0.0
  0
LINE
  5
7222
330
1E
100
AcDbEntity
  8
10
100
AcDbLine
 10
219.0
 20
-264.3495270149258
 30
0.0
 11
219.0
 21
-265.8495202862234
 31
0.0
  0
LINE
  5
7223
330
1E
100
AcDbEntity
  8
10
100
AcDbLine
 10
218.9330224971917
 20
-264.0995180433224
 30
0.0
 11
218.8830255475368
 21
-264.02813189476
 31
0.0
  0
LINE
  5
7224
330
1E
100
AcDbEntity
  8
10
100
AcDbLine
 10
218.8214014002878
 20
-263.9664956358468
 30
0.0
 11
218.7499910283968
 21
-263.916510797856
 31
0.0
  0
LINE
  5
734B
330
1E
100
AcDbEntity
  8
18
 48
2.0
100
AcDbLine
 10
-44.99999471198846
 20
-310.5000069638871
 30
0.0
 11
-44.99999471198846
 21
-203.2500021850029
 31
0.0
  0
LINE
  5
734D
330
1E
100
AcDbEntity
  8
18
 48
2.0
100
AcDbLine
 10
-50.00000000000028
 20
-310.0
 30
0.0
 11
49.99999999999971
 21
-310.0
 31
0.0
  0
LINE
  5
734E
330
1E
100
AcDbEntity
  8
18
 48
2.0
100
AcDbLine
 10
-50.00000000000028
 20
-312.5
 30
0.0
 11
49.99999999999971
 21
-312.5
 31
0.0
  0
LINE
  5
734F
330
1E
100
AcDbEntity
  8
18
 48
2.0
100
AcDbLine
 10
41.24999352853136
 20
-345.0000051344471
 30
0.0
 11
18.5000077461633
 21
-345.0000051344471
 31
0.0
  0
DIMENSION
  5
7351
330
1E
100
AcDbEntity
  8
30
  6
Continuous
100
AcDbDimension
  2
*D22
 10
17.49999999999971
 20
-379.9994181439517
 30
0.0
 11
-0.0000000000002876
 21
-376.9994181439517
 31
0.0
 70
    32
 71
     5
 42
-1.0
  3
STANDARD
100
AcDbAlignedDimension
 13
-17.50000000000028
 23
-300.0000000164998
 33
0.0
 14
17.49999999999971
 24
-300.0000000164998
 34
0.0
 50
180.0
100
AcDbRotatedDimension
  0
LINE
  5
7352
330
1E
100
AcDbEntity
  8
18
 48
2.0
100
AcDbLine
 10
-44.99999471198846
 20
-344.4995190102793
 30
0.0
 11
-44.99999471198846
 21
-338.0000055495209
 31
0.0
  0
LINE
  5
7353
330
1E
100
AcDbEntity
  8
18
 48
2.0
100
AcDbLine
 10
-44.4999949579163
 20
-345.0000051344471
 30
0.0
 11
-18.49998957866787
 21
-345.0000051344471
 31
0.0
  0
ARC
  5
7354
330
1E
100
AcDbEntity
  8
18
 48
2.0
100
AcDbCircle
 10
-44.4999949579163
 20
-344.5000053803751
 30
0.0
 40
0.4999999906281082
100
AcDbArc
 50
180.0
 51
270.0
  0
LINE
  5
7355
330
1E
100
AcDbEntity
  8
18
 48
2.0
100
AcDbLine
 10
-11.49999869357898
 20
-345.0000051344471
 30
0.0
 11
11.50001118915284
 21
-345.0000051344471
 31
0.0
  0
CIRCLE
  5
7356
330
1E
100
AcDbEntity
  8
18
 48
2.0
100
AcDbCircle
 10
15.0
 20
-350.0000057030848
 30
0.0
 40
2.250000028793265
210
0.0
220
0.0
230
-1.0
  0
LINE
  5
7357
330
1E
100
AcDbEntity
  8
18
 48
2.0
100
AcDbLine
 10
-19.00000106049347
 20
-355.000021411302
 30
0.0
 11
-11.00000499533848
 21
-355.000021411302
 31
0.0
  0
ARC
  5
7358
330
1E
100
AcDbEntity
  8
18
 48
2.0
100
AcDbCircle
 10
19.00000106049347
 20
-354.0000097914941
 30
0.0
 40
0.9999999812562164
210
0.0
220
0.0
230
-1.0
100
AcDbArc
 50
270.0
 51
0.0
  0
LINE
  5
7359
330
1E
100
AcDbEntity
  8
18
 48
2.0
100
AcDbLine
 10
-20.00000056863767
 20
-348.7980987062889
 30
0.0
 11
-20.00000056863767
 21
-354.0000097914941
 31
0.0
  0
LINE
  5
735A
330
1E
100
AcDbEntity
  8
18
 48
2.0
100
AcDbLine
 10
-18.49999525058946
 20
-345.0000142181949
 30
0.0
 11
-18.49999525058946
 21
-346.2000136279681
 31
0.0
  0
LINE
  5
735B
330
1E
100
AcDbEntity
  8
18
 48
2.0
100
AcDbLine
 10
-18.49999525058946
 20
-346.2000136279681
 30
0.0
 11
-20.00000056863767
 21
-348.7980987062889
 31
0.0
  0
ARC
  5
735C
330
1E
100
AcDbEntity
  8
18
 48
2.0
100
AcDbCircle
 10
11.00000499533848
 20
-354.0000097914941
 30
0.0
 40
0.9999999812562164
210
0.0
220
0.0
230
-1.0
100
AcDbArc
 50
180.0
 51
270.0
  0
LINE
  5
735D
330
1E
100
AcDbEntity
  8
18
 48
2.0
100
AcDbLine
 10
-10.00000548719427
 20
-354.0000097914941
 30
0.0
 11
-10.00000548719427
 21
-348.7980987062889
 31
0.0
  0
LINE
  5
735E
330
1E
100
AcDbEntity
  8
18
 48
2.0
100
AcDbLine
 10
-11.49999869357898
 20
-346.2000136279681
 30
0.0
 11
-11.49999869357898
 21
-345.0000142181949
 31
0.0
  0
LINE
  5
735F
330
1E
100
AcDbEntity
  8
18
 48
2.0
100
AcDbLine
 10
-10.00000548719427
 20
-348.7980987062889
 30
0.0
 11
-11.49999869357898
 21
-346.2000136279681
 31
0.0
  0
CIRCLE
  5
7360
330
1E
100
AcDbEntity
  8
18
 48
2.0
100
AcDbCircle
 10
15.00000643974201
 20
-350.0000057030848
 30
0.0
 40
2.175250057989686
  0
LINE
  5
7361
330
1E
100
AcDbEntity
  8
18
 48
2.0
100
AcDbLine
 10
11.0000053792487
 20
-355.000021411302
 30
0.0
 11
19.00000144440355
 21
-355.000021411302
 31
0.0
  0
ARC
  5
7362
330
1E
100
AcDbEntity
  8
18
 48
2.0
100
AcDbCircle
 10
-11.0000053792487
 20
-354.0000097914941
 30
0.0
 40
0.9999999812562164
210
0.0
220
0.0
230
-1.0
100
AcDbArc
 50
270.0
 51
0.0
  0
LINE
  5
7363
330
1E
100
AcDbEntity
  8
18
 48
2.0
100
AcDbLine
 10
10.00000587110417
 20
-348.7980987062889
 30
0.0
 11
10.00000587110417
 21
-354.0000097914941
 31
0.0
  0
LINE
  5
7364
330
1E
100
AcDbEntity
  8
18
 48
2.0
100
AcDbLine
 10
11.50001118915284
 20
-345.0000142181949
 30
0.0
 11
11.50001118915284
 21
-346.2000136279681
 31
0.0
  0
LINE
  5
7365
330
1E
100
AcDbEntity
  8
18
 48
2.0
100
AcDbLine
 10
11.50001118915284
 20
-346.2000136279681
 30
0.0
 11
10.00000587110417
 21
-348.7980987062889
 31
0.0
  0
ARC
  5
7366
330
1E
100
AcDbEntity
  8
18
 48
2.0
100
AcDbCircle
 10
-19.00000144440355
 20
-354.0000097914941
 30
0.0
 40
0.9999999812562164
210
0.0
220
0.0
230
-1.0
100
AcDbArc
 50
180.0
 51
270.0
  0
LINE
  5
7367
330
1E
100
AcDbEntity
  8
18
 48
2.0
100
AcDbLine
 10
20.00000095254776
 20
-354.0000097914941
 30
0.0
 11
20.00000095254776
 21
-348.7980987062889
 31
0.0
  0
LINE
  5
7368
330
1E
100
AcDbEntity
  8
18
 48
2.0
100
AcDbLine
 10
18.5000077461633
 20
-346.2000136279681
 30
0.0
 11
18.5000077461633
 21
-345.0000142181949
 31
0.0
  0
LINE
  5
7369
330
1E
100
AcDbEntity
  8
18
 48
2.0
100
AcDbLine
 10
20.00000095254776
 20
-348.7980987062889
 30
0.0
 11
18.5000077461633
 21
-346.2000136279681
 31
0.0
  0
LINE
  5
736A
330
1E
100
AcDbEntity
  8
18
 48
2.0
100
AcDbLine
 10
-44.99999471198846
 20
-316.7500069177056
 30
0.0
 11
-44.99999471198846
 21
-310.5000069638871
 31
0.0
  0
LINE
  5
736B
330
1E
100
AcDbEntity
  8
18
 48
2.0
100
AcDbLine
 10
-41.74999328260354
 20
-338.0000055495209
 30
0.0
 11
-41.74999328260354
 21
-316.7500069177056
 31
0.0
  0
LINE
  5
736C
330
1E
100
AcDbEntity
  8
18
 48
2.0
100
AcDbLine
 10
-44.99999471198846
 20
-338.0000055495209
 30
0.0
 11
-41.74999328260354
 21
-338.0000055495209
 31
0.0
  0
LINE
  5
736D
330
1E
100
AcDbEntity
  8
18
 48
2.0
100
AcDbLine
 10
-44.98745914012488
 20
-316.7500069177056
 30
0.0
 11
-44.99999471198846
 21
-316.7500069177056
 31
0.0
  0
LINE
  5
736E
330
1E
100
AcDbEntity
  8
18
 48
2.0
100
AcDbLine
 10
-44.89091101344698
 20
-316.7500069177056
 30
0.0
 11
-44.95047617521095
 21
-316.7500069177056
 31
0.0
  0
LINE
  5
736F
330
1E
100
AcDbEntity
  8
18
 48
2.0
100
AcDbLine
 10
-44.81173706825514
 20
-316.7500069177056
 30
0.0
 11
-44.89091101344698
 21
-316.7500069177056
 31
0.0
  0
LINE
  5
7370
330
1E
100
AcDbEntity
  8
18
 48
2.0
100
AcDbLine
 10
-44.95047617521095
 20
-316.7500069177056
 30
0.0
 11
-44.98745914012488
 21
-316.7500069177056
 31
0.0
  0
LINE
  5
7371
330
1E
100
AcDbEntity
  8
18
 48
2.0
100
AcDbLine
 10
-44.61125270008095
 20
-316.7500069177056
 30
0.0
 11
-44.71693907697285
 21
-316.7500069177056
 31
0.0
  0
LINE
  5
7372
330
1E
100
AcDbEntity
  8
18
 48
2.0
100
AcDbLine
 10
-44.4999949579163
 20
-316.7500069177056
 30
0.0
 11
-41.74999328260354
 21
-316.7500069177056
 31
0.0
  0
LINE
  5
7373
330
1E
100
AcDbEntity
  8
18
 48
2.0
100
AcDbLine
 10
-44.4999949579163
 20
-316.7500069177056
 30
0.0
 11
-44.61125270008095
 21
-316.7500069177056
 31
0.0
  0
LINE
  5
7374
330
1E
100
AcDbEntity
  8
18
 48
2.0
100
AcDbLine
 10
-44.71693907697285
 20
-316.7500069177056
 30
0.0
 11
-44.81173706825514
 21
-316.7500069177056
 31
0.0
  0
LINE
  5
7394
330
1E
100
AcDbEntity
  8
12
  6
Continuous
 62
     3
100
AcDbLine
 10
17.49999999999971
 20
-290.5
 30
0.0
 11
17.49999999999971
 21
-304.4999999999999
 31
0.0
  0
LINE
  5
7395
330
1E
100
AcDbEntity
  8
12
  6
Continuous
 62
     3
100
AcDbLine
 10
-17.50000000000028
 20
-290.5
 30
0.0
 11
-17.50000000000028
 21
-304.4999999999999
 31
0.0
  0
LINE
  5
7396
330
1E
100
AcDbEntity
  8
12
  6
Continuous
 62
     3
100
AcDbLine
 10
-24.50000000000017
 20
-297.5
 30
0.0
 11
-10.50000000000025
 21
-297.5
 31
0.0
  0
CIRCLE
  5
7397
330
1E
100
AcDbEntity
  8
12
  6
Continuous
 62
     3
100
AcDbCircle
 10
-17.50000000000028
 20
-297.5
 30
0.0
 40
3.0
  0
LINE
  5
7398
330
1E
100
AcDbEntity
  8
12
  6
Continuous
 62
     3
100
AcDbLine
 10
10.49999999999982
 20
-297.5
 30
0.0
 11
24.49999999999972
 21
-297.5
 31
0.0
  0
CIRCLE
  5
7399
330
1E
100
AcDbEntity
  8
12
  6
Continuous
 62
     3
100
AcDbCircle
 10
17.49999999999971
 20
-297.5
 30
0.0
 40
3.0
  0
ARC
  5
739B
330
1E
100
AcDbEntity
  8
18
 48
2.0
100
AcDbCircle
 10
41.24999352853136
 20
-344.5000053803751
 30
0.0
 40
0.4999999906281082
100
AcDbArc
 50
270.0
 51
0.0
  0
LINE
  5
739C
330
1E
100
AcDbEntity
  8
18
 48
2.0
100
AcDbLine
 10
44.50001312541188
 20
-340.0000075937255
 30
0.0
 11
41.75001145009915
 21
-340.0000075937255
 31
0.0
  0
LINE
  5
739D
330
1E
100
AcDbEntity
  8
18
 48
2.0
100
AcDbLine
 10
41.75001145009915
 20
-340.0000075937255
 30
0.0
 11
41.75001145009915
 21
-344.5000053803751
 31
0.0
  0
LINE
  5
739E
330
1E
100
AcDbEntity
  8
18
 48
2.0
100
AcDbLine
 10
-50.00000000000028
 20
-210.0
 30
0.0
 11
49.99999999999971
 21
-210.0
 31
0.0
  0
LINE
  5
739F
330
1E
100
AcDbEntity
  8
18
 48
2.0
100
AcDbLine
 10
-50.00000000000028
 20
-207.5
 30
0.0
 11
49.99999999999971
 21
-207.5
 31
0.0
  0
LINE
  5
73A0
330
1E
100
AcDbEntity
  8
18
 48
2.0
100
AcDbLine
 10
41.24999352853136
 20
-175.0000069961771
 30
0.0
 11
18.49999563449969
 21
-175.0000069961771
 31
0.0
  0
LINE
  5
73A2
330
1E
100
AcDbEntity
  8
18
 48
2.0
100
AcDbLine
 10
-18.49999525058946
 20
-175.0000069961771
 30
0.0
 11
-44.49999471198849
 21
-175.0000069961771
 31
0.0
  0
LINE
  5
73A3
330
1E
100
AcDbEntity
  8
18
 48
2.0
100
AcDbLine
 10
-41.74999328260354
 20
-203.2500021850029
 30
0.0
 11
-41.74999328260354
 21
-182.0000035531876
 31
0.0
  0
LINE
  5
73A4
330
1E
100
AcDbEntity
  8
18
 48
2.0
100
AcDbLine
 10
-44.71693907697285
 20
-203.2500021850029
 30
0.0
 11
-44.61125270008095
 21
-203.2500021850029
 31
0.0
  0
LINE
  5
73A5
330
1E
100
AcDbEntity
  8
18
 48
2.0
100
AcDbLine
 10
-44.99999471198846
 20
-203.2500021850029
 30
0.0
 11
-44.98745914012488
 21
-203.2500021850029
 31
0.0
  0
LINE
  5
73A6
330
1E
100
AcDbEntity
  8
18
 48
2.0
100
AcDbLine
 10
-44.81173706825514
 20
-203.2500021850029
 30
0.0
 11
-44.71693907697285
 21
-203.2500021850029
 31
0.0
  0
LINE
  5
73A7
330
1E
100
AcDbEntity
  8
18
 48
2.0
100
AcDbLine
 10
-44.89091101344698
 20
-203.2500021850029
 30
0.0
 11
-44.81173706825514
 21
-203.2500021850029
 31
0.0
  0
LINE
  5
73A8
330
1E
100
AcDbEntity
  8
18
 48
2.0
100
AcDbLine
 10
-44.95047617521095
 20
-203.2500021850029
 30
0.0
 11
-44.89091101344698
 21
-203.2500021850029
 31
0.0
  0
LINE
  5
73A9
330
1E
100
AcDbEntity
  8
18
 48
2.0
100
AcDbLine
 10
-44.4999949579163
 20
-203.2500021850029
 30
0.0
 11
-41.74999328260354
 21
-203.2500021850029
 31
0.0
  0
LINE
  5
73AA
330
1E
100
AcDbEntity
  8
18
 48
2.0
100
AcDbLine
 10
-44.98745914012488
 20
-203.2500021850029
 30
0.0
 11
-44.95047617521095
 21
-203.2500021850029
 31
0.0
  0
LINE
  5
73AB
330
1E
100
AcDbEntity
  8
18
 48
2.0
100
AcDbLine
 10
-44.61125270008095
 20
-203.2500021850029
 30
0.0
 11
-44.4999949579163
 21
-203.2500021850029
 31
0.0
  0
ARC
  5
73AC
330
1E
100
AcDbEntity
  8
18
 48
2.0
100
AcDbCircle
 10
44.49999471198849
 20
-175.5000069961769
 30
0.0
 40
0.5
210
0.0
220
0.0
230
-1.0
100
AcDbArc
 50
0.0
 51
90.0
  0
LINE
  5
73AD
330
1E
100
AcDbEntity
  8
18
 48
2.0
100
AcDbLine
 10
-44.99999471198846
 20
-179.5000108386586
 30
0.0
 11
-44.99999471198846
 21
-178.5000113305143
 31
0.0
  0
LINE
  5
73AE
330
1E
100
AcDbEntity
  8
18
 48
2.0
100
AcDbLine
 10
-44.99999471198846
 20
-182.0000035531876
 30
0.0
 11
-44.99999471198846
 21
-179.5000108386586
 31
0.0
  0
LINE
  5
73AF
330
1E
100
AcDbEntity
  8
18
 48
2.0
100
AcDbLine
 10
-44.99999471198846
 20
-182.0000035531876
 30
0.0
 11
-41.74999328260354
 21
-182.0000035531876
 31
0.0
  0
LINE
  5
73B0
330
1E
100
AcDbEntity
  8
18
 48
2.0
100
AcDbLine
 10
-44.99999471198846
 20
-178.0495301132196
 30
0.0
 11
-44.99999471198846
 21
-178.0125410924739
 31
0.0
  0
LINE
  5
73B1
330
1E
100
AcDbEntity
  8
18
 48
2.0
100
AcDbLine
 10
-44.99999471198846
 20
-178.2830672114578
 30
0.0
 11
-44.99999471198846
 21
-178.1882692201754
 31
0.0
  0
LINE
  5
73B2
330
1E
100
AcDbEntity
  8
18
 48
2.0
100
AcDbLine
 10
-44.99999471198846
 20
-178.1882692201754
 30
0.0
 11
-44.99999471198846
 21
-178.1090952749839
 31
0.0
  0
LINE
  5
73B3
330
1E
100
AcDbEntity
  8
18
 48
2.0
100
AcDbLine
 10
-44.99999471198846
 20
-178.1090952749839
 30
0.0
 11
-44.99999471198846
 21
-178.0495301132196
 31
0.0
  0
LINE
  5
73B4
330
1E
100
AcDbEntity
  8
18
 48
2.0
100
AcDbLine
 10
-44.99999471198846
 20
-178.5000113305143
 30
0.0
 11
-44.99999471198846
 21
-178.3887535883494
 31
0.0
  0
LINE
  5
73B5
330
1E
100
AcDbEntity
  8
18
 48
2.0
100
AcDbLine
 10
-44.99999471198846
 20
-178.0125410924739
 30
0.0
 11
-44.99999471198846
 21
-178.0000055206103
 31
0.0
  0
LINE
  5
73B6
330
1E
100
AcDbEntity
  8
18
 48
2.0
100
AcDbLine
 10
-44.99999471198846
 20
-178.3887535883494
 30
0.0
 11
-44.99999471198846
 21
-178.2830672114578
 31
0.0
  0
LINE
  5
73B7
330
1E
100
AcDbEntity
  8
18
 48
2.0
100
AcDbLine
 10
-44.99999471198846
 20
-175.5000069961769
 30
0.0
 11
-44.99999471198846
 21
-178.0000055206103
 31
0.0
  0
LINE
  5
73B8
330
1E
100
AcDbEntity
  8
12
  6
Continuous
 62
     3
100
AcDbLine
 10
-17.50000000000028
 20
-215.4999999999999
 30
0.0
 11
-17.50000000000028
 21
-229.4999999999999
 31
0.0
  0
LINE
  5
73B9
330
1E
100
AcDbEntity
  8
12
  6
Continuous
 62
     3
100
AcDbLine
 10
-24.50000000000017
 20
-222.5
 30
0.0
 11
-10.50000000000025
 21
-222.5
 31
0.0
  0
CIRCLE
  5
73BA
330
1E
100
AcDbEntity
  8
12
  6
Continuous
 62
     3
100
AcDbCircle
 10
-17.50000000000028
 20
-222.5
 30
0.0
 40
3.0
  0
LINE
  5
73BB
330
1E
100
AcDbEntity
  8
12
  6
Continuous
 62
     3
100
AcDbLine
 10
17.49999999999971
 20
-215.4999999999999
 30
0.0
 11
17.49999999999971
 21
-229.4999999999999
 31
0.0
  0
LINE
  5
73BC
330
1E
100
AcDbEntity
  8
12
  6
Continuous
 62
     3
100
AcDbLine
 10
10.49999999999982
 20
-222.5
 30
0.0
 11
24.49999999999972
 21
-222.5
 31
0.0
  0
CIRCLE
  5
73BD
330
1E
100
AcDbEntity
  8
12
  6
Continuous
 62
     3
100
AcDbCircle
 10
17.49999999999971
 20
-222.5
 30
0.0
 40
3.0
  0
LINE
  5
73C1
330
1E
100
AcDbEntity
  8
18
 48
2.0
100
AcDbLine
 10
11.49999907748906
 20
-175.0000069961771
 30
0.0
 11
-11.49999869357898
 21
-175.0000069961771
 31
0.0
  0
CIRCLE
  5
73C2
330
1E
100
AcDbEntity
  8
18
 48
2.0
100
AcDbCircle
 10
-15.0
 20
-170.0000094554553
 30
0.0
 40
2.250000028793265
  0
LINE
  5
73C3
330
1E
100
AcDbEntity
  8
18
 48
2.0
100
AcDbLine
 10
-10.00000548719427
 20
-166.0000053670461
 30
0.0
 11
-10.00000548719427
 21
-171.2019164522514
 31
0.0
  0
LINE
  5
73C4
330
1E
100
AcDbEntity
  8
18
 48
2.0
100
AcDbLine
 10
-20.00000056863767
 20
-171.2019164522514
 30
0.0
 11
-20.00000056863767
 21
-166.0000053670461
 31
0.0
  0
LINE
  5
73C5
330
1E
100
AcDbEntity
  8
18
 48
2.0
100
AcDbLine
 10
-18.49999525058946
 20
-175.0000009403454
 30
0.0
 11
-18.49999525058946
 21
-173.8000015305722
 31
0.0
  0
LINE
  5
73C6
330
1E
100
AcDbEntity
  8
18
 48
2.0
100
AcDbLine
 10
-18.49999525058946
 20
-173.8000015305722
 30
0.0
 11
-20.00000056863767
 21
-171.2019164522514
 31
0.0
  0
LINE
  5
73C7
330
1E
100
AcDbEntity
  8
18
 48
2.0
100
AcDbLine
 10
-11.49999869357898
 20
-173.8000015305722
 30
0.0
 11
-11.49999869357898
 21
-175.0000009403454
 31
0.0
  0
LINE
  5
73C8
330
1E
100
AcDbEntity
  8
18
 48
2.0
100
AcDbLine
 10
-10.00000548719427
 20
-171.2019164522514
 30
0.0
 11
-11.49999869357898
 21
-173.8000015305722
 31
0.0
  0
LINE
  5
73C9
330
1E
100
AcDbEntity
  8
18
 48
2.0
100
AcDbLine
 10
-19.00000106049347
 20
-164.9999937472381
 30
0.0
 11
-11.00000499533848
 21
-164.9999937472381
 31
0.0
  0
ARC
  5
73CA
330
1E
100
AcDbEntity
  8
18
 48
2.0
100
AcDbCircle
 10
-19.00000106049347
 20
-166.0000053670461
 30
0.0
 40
0.9999999812562164
100
AcDbArc
 50
90.0
 51
180.0
  0
ARC
  5
73CB
330
1E
100
AcDbEntity
  8
18
 48
2.0
100
AcDbCircle
 10
-11.00000499533848
 20
-166.0000053670461
 30
0.0
 40
0.9999999812562164
100
AcDbArc
 50
0.0
 51
90.0
  0
CIRCLE
  5
73CC
330
1E
100
AcDbEntity
  8
18
 48
2.0
100
AcDbCircle
 10
-14.99999432807825
 20
-169.9999958948825
 30
0.0
 40
2.25
210
0.0
220
0.0
230
-1.0
  0
LINE
  5
73CD
330
1E
100
AcDbEntity
  8
18
 48
2.0
100
AcDbLine
 10
19.99998884088412
 20
-165.9999993112143
 30
0.0
 11
19.99998884088412
 21
-171.2019103964195
 31
0.0
  0
LINE
  5
73CE
330
1E
100
AcDbEntity
  8
18
 48
2.0
100
AcDbLine
 10
9.999993759440712
 20
-171.2019103964195
 30
0.0
 11
9.999993759440712
 21
-165.9999993112143
 31
0.0
  0
LINE
  5
73CF
330
1E
100
AcDbEntity
  8
18
 48
2.0
100
AcDbLine
 10
11.49999907748906
 20
-174.9999948845135
 30
0.0
 11
11.49999907748906
 21
-173.7999954747403
 31
0.0
  0
LINE
  5
73D0
330
1E
100
AcDbEntity
  8
18
 48
2.0
100
AcDbLine
 10
11.49999907748906
 20
-173.7999954747403
 30
0.0
 11
9.999993759440712
 21
-171.2019103964195
 31
0.0
  0
LINE
  5
73D1
330
1E
100
AcDbEntity
  8
18
 48
2.0
100
AcDbLine
 10
18.49999563449969
 20
-173.7999954747403
 30
0.0
 11
18.49999563449969
 21
-174.9999948845135
 31
0.0
  0
LINE
  5
73D2
330
1E
100
AcDbEntity
  8
18
 48
2.0
100
AcDbLine
 10
19.99998884088412
 20
-171.2019103964195
 30
0.0
 11
18.49999563449969
 21
-173.7999954747403
 31
0.0
  0
LINE
  5
73D3
330
1E
100
AcDbEntity
  8
18
 48
2.0
100
AcDbLine
 10
10.99999326758491
 20
-164.9999876914064
 30
0.0
 11
18.99998933273977
 21
-164.9999876914064
 31
0.0
  0
ARC
  5
73D4
330
1E
100
AcDbEntity
  8
18
 48
2.0
100
AcDbCircle
 10
10.99999326758491
 20
-165.9999993112143
 30
0.0
 40
0.9999999812562164
100
AcDbArc
 50
90.0
 51
180.0
  0
ARC
  5
73D5
330
1E
100
AcDbEntity
  8
18
 48
2.0
100
AcDbCircle
 10
18.99998933273977
 20
-165.9999993112143
 30
0.0
 40
0.9999999812562164
100
AcDbArc
 50
0.0
 51
90.0
  0
ARC
  5
73D6
330
1E
100
AcDbEntity
  8
18
 48
2.0
100
AcDbCircle
 10
41.24999352853136
 20
-175.5000128060812
 30
0.0
 40
0.4999999906281082
100
AcDbArc
 50
0.0
 51
90.0
  0
LINE
  5
73D7
330
1E
100
AcDbEntity
  8
18
 48
2.0
100
AcDbLine
 10
44.49999999999988
 20
-180.0000057030846
 30
0.0
 11
42.24999999999993
 21
-180.0000057030846
 31
0.0
  0
LINE
  5
73D8
330
1E
100
AcDbEntity
  8
18
 48
2.0
100
AcDbLine
 10
41.75001145009915
 20
-180.0000045368989
 30
0.0
 11
44.50001312541188
 21
-180.0000045368989
 31
0.0
  0
LINE
  5
73D9
330
1E
100
AcDbEntity
  8
18
 48
2.0
100
AcDbLine
 10
41.75001145009915
 20
-175.5000128060812
 30
0.0
 11
41.75001145009915
 21
-180.0000045368989
 31
0.0
  0
LINE
  5
73DA
330
1E
100
AcDbEntity
  8
18
 48
2.0
100
AcDbLine
 10
45.00000682365224
 20
-180.5000103468028
 30
0.0
 11
45.00000682365224
 21
-339.4974963564286
 31
0.0
  0
ARC
  5
73DB
330
1E
100
AcDbEntity
  8
18
 48
2.0
100
AcDbCircle
 10
44.50001312541188
 20
-339.5000048117373
 30
0.0
 40
0.4999999906281082
100
AcDbArc
 50
270.0
 51
0.0
  0
ARC
  5
73DC
330
1E
100
AcDbEntity
  8
18
 48
2.0
100
AcDbCircle
 10
44.50001312541188
 20
-180.5000103468028
 30
0.0
 40
0.4999999906281082
100
AcDbArc
 50
0.0
 51
90.0
  0
DIMENSION
  5
7451
330
1E
100
AcDbEntity
  8
30
  6
Continuous
100
AcDbDimension
  2
*D25
 10
61.58672249279334
 20
-260.0
 30
0.0
 11
58.58672249279337
 21
-278.75
 31
0.0
 70
    32
 71
     5
 42
-1.0
  3
STANDARD
100
AcDbAlignedDimension
 13
24.49999999999972
 23
-297.5
 33
0.0
 14
50.0
 24
-260.0
 34
0.0
 50
270.0
100
AcDbRotatedDimension
  0
DIMENSION
  5
7452
330
1E
100
AcDbEntity
  8
30
  6
Continuous
100
AcDbDimension
  2
*D24
 10
74.08672249279334
 20
-222.5
 30
0.0
 11
71.08672249279338
 21
-260.0
 31
0.0
 70
    32
 71
     5
 42
-1.0
  3
STANDARD
100
AcDbAlignedDimension
 13
24.49999999999972
 23
-297.5
 33
0.0
 14
20.00000001650187
 24
-222.5
 34
0.0
 50
270.0
100
AcDbRotatedDimension
  0
MTEXT
  5
74FD
330
1E
100
AcDbEntity
  8
30
  6
Continuous
100
AcDbMText
 10
192.2436146334228
 20
169.8917872166906
 30
0.0
 40
5.0
 41
124.0
 71
     1
 72
     5
  1
S50-GF 3P PM\PS100-NF 3P PM\PS100-GF 3P PM\PS100-NN 3P PM\PS125-NF 3P PM\PS125-GF 3P PM\PS125-NN 3P PM
  7
STANDARD1
 73
     1
 44
1.0
  0
LINE
  5
7509
330
1E
100
AcDbEntity
  8
30
  6
Continuous
100
AcDbLine
 10
31.49999999999971
 20
-287.0
 30
0.0
 11
31.49999999999971
 21
-308.0
 31
0.0
  0
CIRCLE
  5
750A
330
1E
100
AcDbEntity
  8
11
  6
DASHDOT
100
AcDbCircle
 10
31.49999999999971
 20
-297.5
 30
0.0
 40
9.0
  0
CIRCLE
  5
7510
330
1E
100
AcDbEntity
  8
11
  6
DASHDOT
100
AcDbCircle
 10
31.49999999999971
 20
-222.5
 30
0.0
 40
9.0
  0
LINE
  5
7512
330
1E
100
AcDbEntity
  8
30
  6
Continuous
100
AcDbLine
 10
31.49999999999971
 20
-233.0
 30
0.0
 11
31.49999999999971
 21
-212.0
 31
0.0
  0
LINE
  5
7523
330
1E
100
AcDbEntity
  8
30
  6
Continuous
100
AcDbLine
 10
-31.50000000000035
 20
-287.0
 30
0.0
 11
-31.50000000000034
 21
-307.9999999999998
 31
0.0
  0
LINE
  5
7526
330
1E
100
AcDbEntity
  8
30
  6
Continuous
100
AcDbLine
 10
-20.25423533105664
 20
-297.5
 30
0.0
 11
-42.74576466894404
 21
-297.5
 31
0.0
  0
CIRCLE
  5
7527
330
1E
100
AcDbEntity
  8
11
  6
DASHDOT
100
AcDbCircle
 10
-31.50000000000035
 20
-297.5
 30
0.0
 40
9.0
  0
LINE
  5
752A
330
1E
100
AcDbEntity
  8
30
  6
Continuous
100
AcDbLine
 10
42.7457646689434
 20
-297.5
 30
0.0
 11
20.254235331056
 21
-297.5
 31
0.0
  0
LINE
  5
752B
330
1E
100
AcDbEntity
  8
30
  6
Continuous
100
AcDbLine
 10
42.7457646689434
 20
-222.5
 30
0.0
 11
20.25423533105601
 21
-222.5
 31
0.0
  0
CIRCLE
  5
752E
330
1E
100
AcDbEntity
  8
11
  6
DASHDOT
100
AcDbCircle
 10
-31.50000000000035
 20
-222.5
 30
0.0
 40
9.0
  0
LINE
  5
752F
330
1E
100
AcDbEntity
  8
30
  6
Continuous
100
AcDbLine
 10
-20.25423533105656
 20
-222.5
 30
0.0
 11
-42.74576466894397
 21
-222.5
 31
0.0
  0
LINE
  5
7530
330
1E
100
AcDbEntity
  8
30
  6
Continuous
100
AcDbLine
 10
-31.50000000000042
 20
-211.9999999999999
 30
0.0
 11
-31.50000000000042
 21
-232.9999999999997
 31
0.0
  0
DIMENSION
  5
7531
330
1E
100
AcDbEntity
  8
30
  6
Continuous
100
AcDbDimension
  2
*D27
 10
17.49999999999976
 20
-379.9996381230632
 30
0.0
 11
24.49999999999973
 21
-376.9996381230632
 31
0.0
 70
    32
 71
     5
 42
13.99999999999994
  3
STANDARD
100
AcDbAlignedDimension
 13
31.49999999999971
 23
-297.5
 33
0.0
 14
17.49999999999976
 24
-297.5
 34
0.0
100
AcDbRotatedDimension
1001
ACAD
1000
DSTYLE
1002
{
1070
    79
1070
     3
1002
}
  0
DIMENSION
  5
753E
330
1E
100
AcDbEntity
  8
30
  6
Continuous
100
AcDbDimension
  2
*D28
 10
-17.50000000000021
 20
-380.0903701936531
 30
0.0
 11
-24.50000000000028
 21
-377.090370193653
 31
0.0
 70
    32
 71
     5
 42
14.00000000000014
  3
STANDARD
100
AcDbAlignedDimension
 13
-31.50000000000035
 23
-297.5
 33
0.0
 14
-17.50000000000021
 24
-297.5
 34
0.0
100
AcDbRotatedDimension
1001
ACAD
1000
DSTYLE
1002
{
1070
    79
1070
     3
1002
}
  0
VIEWPORT
  5
9AC
330
1A
100
AcDbEntity
 67
     1
  8
0
  6
Continuous
100
AcDbViewport
 10
171.9995348790992
 20
144.1384735538403
 30
0.0
 40
488.8676857773511
 41
292.3514905034161
 68
     1
 69
     1
 12
171.9995348790992
 22
144.1384735538403
 13
0.0
 23
0.0
 14
10.0
 24
10.0
 15
10.0
 25
10.0
 16
0.0
 26
0.0
 36
1.0
 17
0.0
 27
0.0
 37
0.0
 42
50.0
 43
0.0
 44
0.0
 45
292.3514905034161
 50
0.0
 51
0.0
 72
   100
 90
    32800
  1

281
     0
 71
     1
 74
     0
110
0.0
120
0.0
130
0.0
111
1.0
121
0.0
131
0.0
112
0.0
122
1.0
132
0.0
 79
     0
146
0.0
  0
ENDSEC
  0
SECTION
  2
OBJECTS
  0
DICTIONARY
  5
C
330
0
100
AcDbDictionary
281
     1
  3
ACAD_GROUP
350
D
  3
ACAD_LAYOUT
350
19
  3
ACAD_MLINESTYLE
350
16
  3
ACAD_PLOTSETTINGS
350
18
  3
ACAD_PLOTSTYLENAME
350
E
  3
ACDBVARIABLEDICTIONARY
350
5E0C
  0
DICTIONARY
  5
178
330
1E
100
AcDbDictionary
280
     1
281
     1
  3
ACAD_LAYOUTSELFREF
360
74F2
  0
DICTIONARY
  5
17A
330
1A
100
AcDbDictionary
280
     1
281
     1
  3
ACAD_LAYOUTSELFREF
360
74F1
  0
DICTIONARY
  5
D
102
{ACAD_REACTORS
330
C
102
}
330
C
100
AcDbDictionary
281
     1
  0
DICTIONARY
  5
19
102
{ACAD_REACTORS
330
C
102
}
330
C
100
AcDbDictionary
281
     1
  3
Model
350
74FB
  3
ﾚｲｱｳﾄ1
350
74FC
  0
DICTIONARY
  5
16
102
{ACAD_REACTORS
330
C
102
}
330
C
100
AcDbDictionary
281
     1
  3
STANDARD
350
17
  0
DICTIONARY
  5
18
102
{ACAD_REACTORS
330
C
102
}
330
C
100
AcDbDictionary
281
     1
  0
ACDBDICTIONARYWDFLT
  5
E
102
{ACAD_REACTORS
330
C
102
}
330
C
100
AcDbDictionary
281
     1
  3
Normal
350
F
100
AcDbDictionaryWithDefault
340
F
  0
DICTIONARY
  5
5E0C
102
{ACAD_REACTORS
330
C
102
}
330
C
100
AcDbDictionary
281
     1
  3
DIMASSOC
350
5E0D
  0
XRECORD
  5
74F2
102
{ACAD_REACTORS
330
178
102
}
330
178
100
AcDbXrecord
280
     1
340
1E
  0
XRECORD
  5
74F1
102
{ACAD_REACTORS
330
17A
102
}
330
17A
100
AcDbXrecord
280
     1
340
1A
  0
LAYOUT
  5
74FB
102
{ACAD_REACTORS
330
19
102
}
330
19
100
AcDbPlotSettings
  1

  2
Canon LBP3800 LIPSLX
  4

  6

 40
0.0
 41
0.0
 42
0.0
 43
0.0
 44
0.0
 45
0.0
 46
0.0
 47
0.0
 48
0.0
 49
0.0
140
0.0
141
0.0
142
1.0
143
1.0
 70
  1712
 72
     0
 73
     0
 74
     0
  7
monochrome.ctb
 75
     0
147
1.0
148
0.0
149
0.0
100
AcDbLayout
  1
Model
 70
     1
 71
     0
 10
0.0
 20
0.0
 11
12.0
 21
9.0
 12
0.0
 22
0.0
 32
0.0
 14
0.0
 24
0.0
 34
0.0
 15
0.0
 25
0.0
 35
0.0
146
0.0
 13
0.0
 23
0.0
 33
0.0
 16
1.0
 26
0.0
 36
0.0
 17
0.0
 27
1.0
 37
0.0
 76
     0
330
1E
  0
LAYOUT
  5
74FC
102
{ACAD_REACTORS
330
19
102
}
330
19
100
AcDbPlotSettings
  1

  2
Canon LBP3800 LIPSLX
  4

  6

 40
0.0
 41
0.0
 42
0.0
 43
0.0
 44
0.0
 45
0.0
 46
0.0
 47
0.0
 48
0.0
 49
0.0
140
0.0
141
0.0
142
1.0
143
1.0
 70
   688
 72
     0
 73
     0
 74
     5
  7
monochrome.ctb
 75
    16
147
1.0
148
0.0
149
0.0
100
AcDbLayout
  1
ﾚｲｱｳﾄ1
 70
     1
 71
     1
 10
-5.873748779296875
 20
-5.873749732971191
 11
204.0995788574218
 21
291.1369009017943
 12
0.0
 22
0.0
 32
0.0
 14
1.115538976765435
 24
0.7759699331880939
 34
-0.0015258207003583
 15
10.10899379860261
 25
7.044072313435662
 35
0.0000000349246037
146
0.0
 13
0.0
 23
0.0
 33
0.0
 16
1.0
 26
0.0
 36
0.0
 17
0.0
 27
1.0
 37
0.0
 76
     0
330
1A
331
9AC
  0
MLINESTYLE
  5
17
102
{ACAD_REACTORS
330
16
102
}
330
16
100
AcDbMlineStyle
  2
STANDARD
 70
     0
  3

 62
   256
 51
90.0
 52
90.0
 71
     2
 49
0.5
 62
   256
  6
BYLAYER
 49
-0.5
 62
   256
  6
BYLAYER
  0
ACDBPLACEHOLDER
  5
F
102
{ACAD_REACTORS
330
E
102
}
330
E
  0
DICTIONARYVAR
  5
5E0D
102
{ACAD_REACTORS
330
5E0C
102
}
330
5E0C
100
DictionaryVariables
280
     0
  1
1
  0
ENDSEC
  0
EOF
