  0
SECTION
  2
HEADER
  9
$ACADVER
  1
AC1015
  9
$ACADMAINTVER
 70
    20
  9
$DWGCODEPAGE
  3
ANSI_932
  9
$INSBASE
 10
0.0
 20
0.0
 30
0.0
  9
$EXTMIN
 10
-255.2084676988604
 20
-404.0636153436748
 30
0.0
  9
$EXTMAX
 10
680.5301520056215
 20
343.26592332726
 30
0.0
  9
$LIMMIN
 10
-296.316999476111
 20
-370.7034300441653
  9
$LIMMAX
 10
623.3128432133979
 20
328.6261559379898
  9
$ORTHOMODE
 70
     1
  9
$REGENMODE
 70
     1
  9
$FILLMODE
 70
     1
  9
$QTEXTMODE
 70
     0
  9
$MIRRTEXT
 70
     1
  9
$LTSCALE
 40
10.0
  9
$ATTMODE
 70
     1
  9
$TEXTSIZE
 40
5.0
  9
$TRACEWID
 40
0.05
  9
$TEXTSTYLE
  7
STANDARD1
  9
$CLAYER
  8
30
  9
$CELTYPE
  6
CONTINUOUS
  9
$CECOLOR
 62
   256
  9
$CELTSCALE
 40
1.0
  9
$DISPSILH
 70
     0
  9
$DIMSCALE
 40
1.0
  9
$DIMASZ
 40
2.0
  9
$DIMEXO
 40
1.0
  9
$DIMDLI
 40
0.5
  9
$DIMRND
 40
0.0
  9
$DIMDLE
 40
0.0
  9
$DIMEXE
 40
0.5
  9
$DIMTP
 40
0.0
  9
$DIMTM
 40
0.0
  9
$DIMTXT
 40
4.0
  9
$DIMCEN
 40
0.09
  9
$DIMTSZ
 40
0.0
  9
$DIMTOL
 70
     0
  9
$DIMLIM
 70
     0
  9
$DIMTIH
 70
     0
  9
$DIMTOH
 70
     1
  9
$DIMSE1
 70
     0
  9
$DIMSE2
 70
     0
  9
$DIMTAD
 70
     3
  9
$DIMZIN
 70
    12
  9
$DIMBLK
  1
OPEN
  9
$DIMASO
 70
     1
  9
$DIMSHO
 70
     1
  9
$DIMPOST
  1

  9
$DIMAPOST
  1

  9
$DIMALT
 70
     0
  9
$DIMALTD
 70
     2
  9
$DIMALTF
 40
25.4
  9
$DIMLFAC
 40
1.0
  9
$DIMTOFL
 70
     0
  9
$DIMTVP
 40
0.0
  9
$DIMTIX
 70
     0
  9
$DIMSOXD
 70
     0
  9
$DIMSAH
 70
     0
  9
$DIMBLK1
  1

  9
$DIMBLK2
  1

  9
$DIMSTYLE
  2
STANDARD
  9
$DIMCLRD
 70
     0
  9
$DIMCLRE
 70
     0
  9
$DIMCLRT
 70
     0
  9
$DIMTFAC
 40
1.0
  9
$DIMGAP
 40
1.0
  9
$DIMJUST
 70
     0
  9
$DIMSD1
 70
     0
  9
$DIMSD2
 70
     0
  9
$DIMTOLJ
 70
     1
  9
$DIMTZIN
 70
     0
  9
$DIMALTZ
 70
     0
  9
$DIMALTTZ
 70
     0
  9
$DIMUPT
 70
     0
  9
$DIMDEC
 70
     1
  9
$DIMTDEC
 70
     1
  9
$DIMALTU
 70
     2
  9
$DIMALTTD
 70
     2
  9
$DIMTXSTY
  7
STANDARD
  9
$DIMAUNIT
 70
     0
  9
$DIMADEC
 70
     0
  9
$DIMALTRND
 40
0.0
  9
$DIMAZIN
 70
     3
  9
$DIMDSEP
 70
    46
  9
$DIMATFIT
 70
     3
  9
$DIMFRAC
 70
     0
  9
$DIMLDRBLK
  1
OPEN
  9
$DIMLUNIT
 70
     2
  9
$DIMLWD
 70
    -2
  9
$DIMLWE
 70
    -2
  9
$DIMTMOVE
 70
     0
  9
$LUNITS
 70
     2
  9
$LUPREC
 70
     4
  9
$SKETCHINC
 40
0.1
  9
$FILLETRAD
 40
0.0
  9
$AUNITS
 70
     0
  9
$AUPREC
 70
     0
  9
$MENU
  1
.
  9
$ELEVATION
 40
0.0
  9
$PELEVATION
 40
0.0
  9
$THICKNESS
 40
0.0
  9
$LIMCHECK
 70
     0
  9
$CHAMFERA
 40
0.0
  9
$CHAMFERB
 40
0.0
  9
$CHAMFERC
 40
0.0
  9
$CHAMFERD
 40
0.0
  9
$SKPOLY
 70
     0
  9
$TDCREATE
 40
2452286.555658658
  9
$TDUCREATE
 40
2452286.180658658
  9
$TDUPDATE
 40
2457429.707650012
  9
$TDUUPDATE
 40
2457429.332650011
  9
$TDINDWG
 40
1.2753996644
  9
$TDUSRTIMER
 40
1.2753960301
  9
$USRTIMER
 70
     1
  9
$ANGBASE
 50
0.0
  9
$ANGDIR
 70
     0
  9
$PDMODE
 70
     0
  9
$PDSIZE
 40
0.0
  9
$PLINEWID
 40
0.0
  9
$SPLFRAME
 70
     0
  9
$SPLINETYPE
 70
     6
  9
$SPLINESEGS
 70
     8
  9
$HANDSEED
  5
6057
  9
$SURFTAB1
 70
     6
  9
$SURFTAB2
 70
     6
  9
$SURFTYPE
 70
     6
  9
$SURFU
 70
     6
  9
$SURFV
 70
     6
  9
$UCSBASE
  2

  9
$UCSNAME
  2

  9
$UCSORG
 10
0.0
 20
0.0
 30
0.0
  9
$UCSXDIR
 10
1.0
 20
0.0
 30
0.0
  9
$UCSYDIR
 10
0.0
 20
1.0
 30
0.0
  9
$UCSORTHOREF
  2

  9
$UCSORTHOVIEW
 70
     0
  9
$UCSORGTOP
 10
0.0
 20
0.0
 30
0.0
  9
$UCSORGBOTTOM
 10
0.0
 20
0.0
 30
0.0
  9
$UCSORGLEFT
 10
0.0
 20
0.0
 30
0.0
  9
$UCSORGRIGHT
 10
0.0
 20
0.0
 30
0.0
  9
$UCSORGFRONT
 10
0.0
 20
0.0
 30
0.0
  9
$UCSORGBACK
 10
0.0
 20
0.0
 30
0.0
  9
$PUCSBASE
  2

  9
$PUCSNAME
  2

  9
$PUCSORG
 10
0.0
 20
0.0
 30
0.0
  9
$PUCSXDIR
 10
1.0
 20
0.0
 30
0.0
  9
$PUCSYDIR
 10
0.0
 20
1.0
 30
0.0
  9
$PUCSORTHOREF
  2

  9
$PUCSORTHOVIEW
 70
     0
  9
$PUCSORGTOP
 10
0.0
 20
0.0
 30
0.0
  9
$PUCSORGBOTTOM
 10
0.0
 20
0.0
 30
0.0
  9
$PUCSORGLEFT
 10
0.0
 20
0.0
 30
0.0
  9
$PUCSORGRIGHT
 10
0.0
 20
0.0
 30
0.0
  9
$PUCSORGFRONT
 10
0.0
 20
0.0
 30
0.0
  9
$PUCSORGBACK
 10
0.0
 20
0.0
 30
0.0
  9
$USERI1
 70
     0
  9
$USERI2
 70
     0
  9
$USERI3
 70
     0
  9
$USERI4
 70
     0
  9
$USERI5
 70
     0
  9
$USERR1
 40
0.0
  9
$USERR2
 40
0.0
  9
$USERR3
 40
0.0
  9
$USERR4
 40
0.0
  9
$USERR5
 40
0.0
  9
$WORLDVIEW
 70
     1
  9
$SHADEDGE
 70
     3
  9
$SHADEDIF
 70
    70
  9
$TILEMODE
 70
     1
  9
$MAXACTVP
 70
    48
  9
$PINSBASE
 10
0.0
 20
0.0
 30
0.0
  9
$PLIMCHECK
 70
     0
  9
$PEXTMIN
 10
4.273573
 20
5.205245999999998
 30
0.0
  9
$PEXTMAX
 10
194.610095
 20
283.0697009999996
 30
0.0
  9
$PLIMMIN
 10
-5.873749
 20
-5.87375
  9
$PLIMMAX
 10
204.099579
 20
291.1369009999999
  9
$UNITMODE
 70
     0
  9
$VISRETAIN
 70
     1
  9
$PLINEGEN
 70
     0
  9
$PSLTSCALE
 70
     1
  9
$TREEDEPTH
 70
  3020
  9
$CMLSTYLE
  2
STANDARD
  9
$CMLJUST
 70
     0
  9
$CMLSCALE
 40
1.0
  9
$PROXYGRAPHICS
 70
     1
  9
$MEASUREMENT
 70
     0
  9
$CELWEIGHT
370
    -1
  9
$ENDCAPS
280
     0
  9
$JOINSTYLE
280
     0
  9
$LWDISPLAY
290
     0
  9
$INSUNITS
 70
     0
  9
$HYPERLINKBASE
  1

  9
$STYLESHEET
  1
KIKI.CTB
  9
$XEDIT
290
     1
  9
$CEPSNTYPE
380
     0
  9
$PSTYLEMODE
290
     1
  9
$FINGERPRINTGUID
  2

  9
$VERSIONGUID
  2
{C23023B6-62F3-4AFA-A99A-E896AAF762CE}
  9
$EXTNAMES
290
     1
  9
$PSVPSCALE
 40
0.0
  9
$OLESTARTUP
290
     0
  0
ENDSEC
  0
SECTION
  2
CLASSES
  0
CLASS
  1
ACDBDICTIONARYWDFLT
  2
AcDbDictionaryWithDefault
  3
ObjectDBX Classes
 90
        0
280
     0
281
     0
  0
CLASS
  1
ACDBPLACEHOLDER
  2
AcDbPlaceHolder
  3
ObjectDBX Classes
 90
        0
280
     0
281
     0
  0
CLASS
  1
LAYOUT
  2
AcDbLayout
  3
ObjectDBX Classes
 90
        0
280
     0
281
     0
  0
CLASS
  1
DICTIONARYVAR
  2
AcDbDictionaryVar
  3
ObjectDBX Classes
 90
        0
280
     0
281
     0
  0
CLASS
  1
MATERIAL
  2
AcDbMaterial
  3
ObjectDBX Classes
 90
     1153
280
     0
281
     0
  0
CLASS
  1
VISUALSTYLE
  2
AcDbVisualStyle
  3
ObjectDBX Classes
 90
     4095
280
     0
281
     0
  0
CLASS
  1
TABLESTYLE
  2
AcDbTableStyle
  3
ObjectDBX Classes
 90
     4095
280
     0
281
     0
  0
CLASS
  1
SCALE
  2
AcDbScale
  3
ObjectDBX Classes
 90
     1153
280
     0
281
     0
  0
CLASS
  1
MLEADERSTYLE
  2
AcDbMLeaderStyle
  3
ACDB_MLEADERSTYLE_CLASS
 90
     4095
280
     0
281
     0
  0
CLASS
  1
ACDBSECTIONVIEWSTYLE
  2
AcDbSectionViewStyle
  3
ObjectDBX Classes
 90
     1025
280
     0
281
     0
  0
CLASS
  1
ACDBDETAILVIEWSTYLE
  2
AcDbDetailViewStyle
  3
ObjectDBX Classes
 90
     1025
280
     0
281
     0
  0
CLASS
  1
CELLSTYLEMAP
  2
AcDbCellStyleMap
  3
ObjectDBX Classes
 90
     1152
280
     0
281
     0
  0
ENDSEC
  0
SECTION
  2
TABLES
  0
TABLE
  2
VPORT
  5
8
330
0
100
AcDbSymbolTable
 70
     1
  0
VPORT
  5
593E
330
8
100
AcDbSymbolTableRecord
100
AcDbViewportTableRecord
  2
*Active
 70
     0
 10
0.0
 20
0.0
 11
1.0
 21
1.0
 12
243.6887291994735
 22
-11.0356490125977
 13
0.0
 23
0.0
 14
1.0
 24
1.0
 15
10.0
 25
10.0
 16
0.0
 26
0.0
 36
1.0
 17
0.0
 27
0.0
 37
0.0
 40
386.8661247753181
 41
2.108991825613078
 42
50.0
 43
0.0
 44
0.0
 50
0.0
 51
0.0
 71
     0
 72
   100
 73
     1
 74
     1
 75
     0
 76
     0
 77
     0
 78
     0
281
     0
 65
     1
110
0.0
120
0.0
130
0.0
111
1.0
121
0.0
131
0.0
112
0.0
122
1.0
132
0.0
 79
     0
146
0.0
1001
ACAD_NAV_VCDISPLAY
1070
     3
  0
ENDTAB
  0
TABLE
  2
LTYPE
  5
5
330
0
100
AcDbSymbolTable
 70
     8
  0
LTYPE
  5
13
330
5
100
AcDbSymbolTableRecord
100
AcDbLinetypeTableRecord
  2
BYBLOCK
 70
     0
  3

 72
    65
 73
     0
 40
0.0
  0
LTYPE
  5
14
330
5
100
AcDbSymbolTableRecord
100
AcDbLinetypeTableRecord
  2
BYLAYER
 70
     0
  3

 72
    65
 73
     0
 40
0.0
  0
LTYPE
  5
15
330
5
100
AcDbSymbolTableRecord
100
AcDbLinetypeTableRecord
  2
CONTINUOUS
 70
     0
  3
Solid line
 72
    65
 73
     0
 40
0.0
  0
LTYPE
  5
22
330
5
100
AcDbSymbolTableRecord
100
AcDbLinetypeTableRecord
  2
CONTINOUS
 70
     0
  3
Solid line
 72
    65
 73
     0
 40
0.0
  0
LTYPE
  5
23
330
5
100
AcDbSymbolTableRecord
100
AcDbLinetypeTableRecord
  2
DASHED
 70
     0
  3
__ __ __ __ __ __ __ __ __ __ __ __ __ __ __
 72
    65
 73
     2
 40
0.75
 49
0.5
 74
     0
 49
-0.25
 74
     0
  0
LTYPE
  5
24
330
5
100
AcDbSymbolTableRecord
100
AcDbLinetypeTableRecord
  2
DASHDOT
 70
     0
  3
__ . __ . __ . __ . __ . __ . __ . __ . __ . __
 72
    65
 73
     4
 40
1.0
 49
0.5
 74
     0
 49
-0.25
 74
     0
 49
0.0
 74
     0
 49
-0.25
 74
     0
  0
LTYPE
  5
4C47
330
5
100
AcDbSymbolTableRecord
100
AcDbLinetypeTableRecord
  2
DIVIDE
 70
     0
  3
Divide ____ . . ____ . . ____ . . ____ . . ____
 72
    65
 73
     6
 40
1.25
 49
0.5
 74
     0
 49
-0.25
 74
     0
 49
0.0
 74
     0
 49
-0.25
 74
     0
 49
0.0
 74
     0
 49
-0.25
 74
     0
  0
LTYPE
  5
5015
330
5
100
AcDbSymbolTableRecord
100
AcDbLinetypeTableRecord
  2
HIDDEN
 70
     0
  3
_ _ _ _ _ _ _ _ _ _ _ _ _ _ _ _ _ _ _ _ _ _ _
 72
    65
 73
     2
 40
0.5
 49
0.25
 74
     0
 49
-0.25
 74
     0
  0
LTYPE
  5
5115
330
5
100
AcDbSymbolTableRecord
100
AcDbLinetypeTableRecord
  2
PHANTOM
 70
     0
  3
_____ _ _ _____ _ _ _____ _ _ _____ _ _ ____
 72
    65
 73
     6
 40
2.5
 49
1.25
 74
     0
 49
-0.25
 74
     0
 49
0.25
 74
     0
 49
-0.25
 74
     0
 49
0.25
 74
     0
 49
-0.25
 74
     0
  0
ENDTAB
  0
TABLE
  2
LAYER
  5
2
330
0
100
AcDbSymbolTable
 70
    16
  0
LAYER
  5
10
102
{ACAD_XDICTIONARY
360
5E45
102
}
330
2
100
AcDbSymbolTableRecord
100
AcDbLayerTableRecord
  2
0
 70
     0
 62
     7
  6
CONTINOUS
370
    -3
390
F
  0
LAYER
  5
2F
102
{ACAD_XDICTIONARY
360
5E47
102
}
330
2
100
AcDbSymbolTableRecord
100
AcDbLayerTableRecord
  2
10
 70
     0
 62
     4
  6
CONTINOUS
370
    -3
390
F
  0
LAYER
  5
31
102
{ACAD_XDICTIONARY
360
5E49
102
}
330
2
100
AcDbSymbolTableRecord
100
AcDbLayerTableRecord
  2
12
 70
     0
 62
     3
  6
CONTINOUS
370
    -3
390
F
  0
LAYER
  5
35
102
{ACAD_XDICTIONARY
360
5E4B
102
}
330
2
100
AcDbSymbolTableRecord
100
AcDbLayerTableRecord
  2
16
 70
     0
 62
     6
  6
DASHDOT
370
    -3
390
F
  0
LAYER
  5
38
102
{ACAD_XDICTIONARY
360
5E4D
102
}
330
2
100
AcDbSymbolTableRecord
100
AcDbLayerTableRecord
  2
19
 70
     0
 62
     7
  6
CONTINOUS
370
    -3
390
F
  0
LAYER
  5
3C
102
{ACAD_XDICTIONARY
360
5E4F
102
}
330
2
100
AcDbSymbolTableRecord
100
AcDbLayerTableRecord
  2
11
 70
     0
 62
     1
  6
CONTINOUS
370
    -3
390
F
  0
LAYER
  5
3D
102
{ACAD_XDICTIONARY
360
5E51
102
}
330
2
100
AcDbSymbolTableRecord
100
AcDbLayerTableRecord
  2
24
 70
     0
 62
     2
  6
CONTINOUS
370
    -3
390
F
  0
LAYER
  5
3A2
102
{ACAD_XDICTIONARY
360
5E53
102
}
330
2
100
AcDbSymbolTableRecord
100
AcDbLayerTableRecord
  2
30
 70
     0
 62
     9
  6
CONTINUOUS
370
    -3
390
F
  0
LAYER
  5
3A4
330
2
100
AcDbSymbolTableRecord
100
AcDbLayerTableRecord
  2
DEFPOINTS
 70
     0
 62
     7
  6
CONTINUOUS
290
     0
370
    -3
390
F
  0
LAYER
  5
3BBA
102
{ACAD_XDICTIONARY
360
5E55
102
}
330
2
100
AcDbSymbolTableRecord
100
AcDbLayerTableRecord
  2
18
 70
     0
 62
     5
  6
DIVIDE
370
    -3
390
F
  0
LAYER
  5
3BBB
102
{ACAD_XDICTIONARY
360
5E57
102
}
330
2
100
AcDbSymbolTableRecord
100
AcDbLayerTableRecord
  2
21
 70
     0
 62
     7
  6
CONTINUOUS
370
    -3
390
F
  0
LAYER
  5
5116
102
{ACAD_XDICTIONARY
360
5E59
102
}
330
2
100
AcDbSymbolTableRecord
100
AcDbLayerTableRecord
  2
1
 70
     0
 62
     7
  6
CONTINUOUS
370
    -3
390
F
  0
LAYER
  5
5117
102
{ACAD_XDICTIONARY
360
5E5B
102
}
330
2
100
AcDbSymbolTableRecord
100
AcDbLayerTableRecord
  2
TOP
 70
     0
 62
     7
  6
CONTINUOUS
370
    -3
390
F
  0
LAYER
  5
5B91
102
{ACAD_XDICTIONARY
360
5E5D
102
}
330
2
100
AcDbSymbolTableRecord
100
AcDbLayerTableRecord
  2
4
 70
     0
 62
     7
  6
CONTINUOUS
370
    -3
390
F
  0
LAYER
  5
5B92
102
{ACAD_XDICTIONARY
360
5E5F
102
}
330
2
100
AcDbSymbolTableRecord
100
AcDbLayerTableRecord
  2
7
 70
     0
 62
     7
  6
CONTINUOUS
370
    -3
390
F
  0
LAYER
  5
5B93
102
{ACAD_XDICTIONARY
360
5E61
102
}
330
2
100
AcDbSymbolTableRecord
100
AcDbLayerTableRecord
  2
5
 70
     0
 62
     7
  6
CONTINUOUS
370
    -3
390
F
  0
ENDTAB
  0
TABLE
  2
STYLE
  5
3
330
0
100
AcDbSymbolTable
 70
     5
  0
STYLE
  5
11
330
3
100
AcDbSymbolTableRecord
100
AcDbTextStyleTableRecord
  2
STANDARD
 70
     0
 40
0.0
 41
1.0
 50
0.0
 71
     0
 42
2.0
  3
txt.shx
  4
bigfont.shx
  0
STYLE
  5
42
330
3
100
AcDbSymbolTableRecord
100
AcDbTextStyleTableRecord
  2
STANDARD1
 70
     0
 40
0.0
 41
1.0
 50
0.0
 71
     0
 42
5.0
  3
MONOTXT
  4
BIGFONT
  0
STYLE
  5
4C46
330
3
100
AcDbSymbolTableRecord
100
AcDbTextStyleTableRecord
  2

 70
     1
 40
0.0
 41
1.0
 50
0.0
 71
     0
 42
5.0
  3
ltypeshp.shx
  4

  0
STYLE
  5
5016
330
3
100
AcDbSymbolTableRecord
100
AcDbTextStyleTableRecord
  2
UGMTXT
 70
     0
 40
0.0
 41
1.0
 50
0.0
 71
     0
 42
0.2
  3
ugmtxt
  4
bigfont
  0
STYLE
  5
5B94
330
3
100
AcDbSymbolTableRecord
100
AcDbTextStyleTableRecord
  2
blockfont
 70
     0
 40
0.0
 41
1.0
 50
0.0
 71
     0
 42
0.2
  3
simplex.shx
  4
bigfont
  0
ENDTAB
  0
TABLE
  2
VIEW
  5
6
330
0
100
AcDbSymbolTable
 70
     3
  0
VIEW
  5
230C
330
6
100
AcDbSymbolTableRecord
100
AcDbViewTableRecord
  2
OLE1
 70
     0
 40
148.912488
 10
429.497628
 20
2.560627
 41
103.145806
 11
0.0
 21
0.0
 31
1.0
 12
0.0
 22
0.0
 32
0.0
 42
50.0
 43
0.0
 44
0.0
 50
0.0
 71
     0
281
     0
 72
     0
  0
VIEW
  5
230E
330
6
100
AcDbSymbolTableRecord
100
AcDbViewTableRecord
  2
OLE2
 70
     0
 40
170.778692
 10
322.66497
 20
-5.978304
 41
102.467215
 11
0.0
 21
0.0
 31
1.0
 12
0.0
 22
0.0
 32
0.0
 42
50.0
 43
0.0
 44
0.0
 50
0.0
 71
     0
281
     0
 72
     0
  0
VIEW
  5
23AA
330
6
100
AcDbSymbolTableRecord
100
AcDbViewTableRecord
  2
OLE3
 70
     0
 40
591.7897389999998
 10
84.79698199999999
 20
-46.09335999999998
 41
388.792096
 11
0.0
 21
0.0
 31
1.0
 12
0.0
 22
0.0
 32
0.0
 42
50.0
 43
0.0
 44
0.0
 50
0.0
 71
     0
281
     0
 72
     0
  0
ENDTAB
  0
TABLE
  2
UCS
  5
7
330
0
100
AcDbSymbolTable
 70
     0
  0
ENDTAB
  0
TABLE
  2
APPID
  5
9
330
0
100
AcDbSymbolTable
 70
     4
  0
APPID
  5
12
330
9
100
AcDbSymbolTableRecord
100
AcDbRegAppTableRecord
  2
ACAD
 70
     0
  0
APPID
  5
ECD
330
9
100
AcDbSymbolTableRecord
100
AcDbRegAppTableRecord
  2
CONTENTBLOCKICON
 70
     0
  0
APPID
  5
5B95
330
9
100
AcDbSymbolTableRecord
100
AcDbRegAppTableRecord
  2
ACAD_NAV_VCDISPLAY
 70
     0
  0
APPID
  5
6052
330
9
100
AcDbSymbolTableRecord
100
AcDbRegAppTableRecord
  2
ACAD_MLEADERVER
 70
     0
  0
ENDTAB
  0
TABLE
  2
DIMSTYLE
  5
A
330
0
100
AcDbSymbolTable
 70
     2
100
AcDbDimStyleTable
 71
     1
340
175
  0
DIMSTYLE
105
175
102
{ACAD_REACTORS
330
51FF
330
5476
330
5483
330
53E3
330
53E2
330
54D8
330
51D9
330
51DA
330
51B2
330
51C5
330
51C6
330
51CC
330
51C8
330
51E8
330
55FE
330
5119
330
511D
330
512C
330
512D
330
512F
330
5133
330
5140
330
5141
330
514F
330
5166
330
5842
330
5DB3
330
5DCD
330
5DF4
330
5C6E
102
}
330
A
100
AcDbSymbolTableRecord
100
AcDbDimStyleTableRecord
  2
STANDARD
 70
     0
 41
2.0
 42
1.0
 43
0.5
 44
0.5
 73
     0
 77
     3
 78
    12
140
4.0
147
1.0
271
     1
272
     1
340
11
341
3B2
342
3B2
  0
ENDTAB
  0
TABLE
  2
BLOCK_RECORD
  5
1
330
0
100
AcDbSymbolTable
 70
    48
  0
BLOCK_RECORD
  5
1E
102
{ACAD_XDICTIONARY
360
178
102
}
330
1
100
AcDbSymbolTableRecord
100
AcDbBlockTableRecord
  2
*MODEL_SPACE
340
5924
  0
BLOCK_RECORD
  5
1A
102
{ACAD_XDICTIONARY
360
17A
102
}
330
1
100
AcDbSymbolTableRecord
100
AcDbBlockTableRecord
  2
*PAPER_SPACE
340
5925
  0
BLOCK_RECORD
  5
3B2
330
1
100
AcDbSymbolTableRecord
100
AcDbBlockTableRecord
  2
_OPEN
340
0
102
{BLKREFS
331
5C94
331
5C95
331
5DC7
331
5DC8
331
5DE1
331
5DE2
331
5DEE
331
5DEF
331
5E24
331
5E25
331
5E2D
331
5E2E
331
5E36
331
5E37
331
5E3F
331
5E40
331
588D
331
588E
331
5884
331
5885
331
58DA
331
57B1
331
57B2
331
579F
331
57A0
331
57BA
331
57BB
331
57C3
331
57C4
331
57A8
331
57A9
331
57CC
331
57CD
331
57DE
331
57DF
331
57D5
331
57D6
331
57E7
331
57E8
331
57F2
331
57F3
331
58EC
331
58ED
331
58E3
331
58E4
331
58A4
331
58A5
102
}
  0
BLOCK_RECORD
  5
506F
330
1
100
AcDbSymbolTableRecord
100
AcDbBlockTableRecord
  2
*U1
340
0
102
{BLKREFS
331
5126
102
}
  0
BLOCK_RECORD
  5
5078
330
1
100
AcDbSymbolTableRecord
100
AcDbBlockTableRecord
  2
*U2
340
0
102
{BLKREFS
331
5136
102
}
  0
BLOCK_RECORD
  5
507D
330
1
100
AcDbSymbolTableRecord
100
AcDbBlockTableRecord
  2
*U3
340
0
102
{BLKREFS
331
51C7
331
512E
102
}
  0
BLOCK_RECORD
  5
5085
330
1
100
AcDbSymbolTableRecord
100
AcDbBlockTableRecord
  2
*U4
340
0
102
{BLKREFS
331
5169
102
}
  0
BLOCK_RECORD
  5
508C
330
1
100
AcDbSymbolTableRecord
100
AcDbBlockTableRecord
  2
*U5
340
0
102
{BLKREFS
331
5152
102
}
  0
BLOCK_RECORD
  5
5093
330
1
100
AcDbSymbolTableRecord
100
AcDbBlockTableRecord
  2
*D6
340
0
  0
BLOCK_RECORD
  5
50A0
330
1
100
AcDbSymbolTableRecord
100
AcDbBlockTableRecord
  2
*D7
340
0
  0
BLOCK_RECORD
  5
50AD
330
1
100
AcDbSymbolTableRecord
100
AcDbBlockTableRecord
  2
*D8
340
0
  0
BLOCK_RECORD
  5
50BA
330
1
100
AcDbSymbolTableRecord
100
AcDbBlockTableRecord
  2
*D9
340
0
  0
BLOCK_RECORD
  5
50C7
330
1
100
AcDbSymbolTableRecord
100
AcDbBlockTableRecord
  2
*D10
340
0
  0
BLOCK_RECORD
  5
50D4
330
1
100
AcDbSymbolTableRecord
100
AcDbBlockTableRecord
  2
*D11
340
0
  0
BLOCK_RECORD
  5
50E1
330
1
100
AcDbSymbolTableRecord
100
AcDbBlockTableRecord
  2
*D12
340
0
  0
BLOCK_RECORD
  5
50EE
330
1
100
AcDbSymbolTableRecord
100
AcDbBlockTableRecord
  2
*D13
340
0
  0
BLOCK_RECORD
  5
50FB
330
1
100
AcDbSymbolTableRecord
100
AcDbBlockTableRecord
  2
*D14
340
0
  0
BLOCK_RECORD
  5
5108
330
1
100
AcDbSymbolTableRecord
100
AcDbBlockTableRecord
  2
*D15
340
0
  0
BLOCK_RECORD
  5
5118
330
1
100
AcDbSymbolTableRecord
100
AcDbBlockTableRecord
  2
A$C26E55131
340
0
  0
BLOCK_RECORD
  5
5209
330
1
100
AcDbSymbolTableRecord
100
AcDbBlockTableRecord
  2
*D17
340
0
  0
BLOCK_RECORD
  5
5221
330
1
100
AcDbSymbolTableRecord
100
AcDbBlockTableRecord
  2
*D18
340
0
  0
BLOCK_RECORD
  5
522D
330
1
100
AcDbSymbolTableRecord
100
AcDbBlockTableRecord
  2
*D19
340
0
  0
BLOCK_RECORD
  5
5239
330
1
100
AcDbSymbolTableRecord
100
AcDbBlockTableRecord
  2
*D20
340
0
  0
BLOCK_RECORD
  5
5245
330
1
100
AcDbSymbolTableRecord
100
AcDbBlockTableRecord
  2
*D21
340
0
  0
BLOCK_RECORD
  5
5251
330
1
100
AcDbSymbolTableRecord
100
AcDbBlockTableRecord
  2
*D22
340
0
  0
BLOCK_RECORD
  5
525D
330
1
100
AcDbSymbolTableRecord
100
AcDbBlockTableRecord
  2
*D23
340
0
  0
BLOCK_RECORD
  5
5269
330
1
100
AcDbSymbolTableRecord
100
AcDbBlockTableRecord
  2
*D24
340
0
  0
BLOCK_RECORD
  5
5275
330
1
100
AcDbSymbolTableRecord
100
AcDbBlockTableRecord
  2
*D25
340
0
  0
BLOCK_RECORD
  5
5407
330
1
100
AcDbSymbolTableRecord
100
AcDbBlockTableRecord
  2
*D26
340
0
  0
BLOCK_RECORD
  5
5413
330
1
100
AcDbSymbolTableRecord
100
AcDbBlockTableRecord
  2
*D27
340
0
  0
BLOCK_RECORD
  5
543F
330
1
100
AcDbSymbolTableRecord
100
AcDbBlockTableRecord
  2
*D28
340
0
  0
BLOCK_RECORD
  5
5477
330
1
100
AcDbSymbolTableRecord
100
AcDbBlockTableRecord
  2
*D29
340
0
  0
BLOCK_RECORD
  5
5484
330
1
100
AcDbSymbolTableRecord
100
AcDbBlockTableRecord
  2
*D30
340
0
  0
BLOCK_RECORD
  5
54D9
330
1
100
AcDbSymbolTableRecord
100
AcDbBlockTableRecord
  2
*D31
340
0
  0
BLOCK_RECORD
  5
55FF
330
1
100
AcDbSymbolTableRecord
100
AcDbBlockTableRecord
  2
*D32
340
0
  0
BLOCK_RECORD
  5
5827
330
1
100
AcDbSymbolTableRecord
100
AcDbBlockTableRecord
  2
*D33
340
0
  0
BLOCK_RECORD
  5
5834
330
1
100
AcDbSymbolTableRecord
100
AcDbBlockTableRecord
  2
A$C0A324879
340
0
  0
BLOCK_RECORD
  5
5B79
330
1
100
AcDbSymbolTableRecord
100
AcDbBlockTableRecord
  2
*D35
340
0
  0
BLOCK_RECORD
  5
5B85
330
1
100
AcDbSymbolTableRecord
100
AcDbBlockTableRecord
  2
*D36
340
0
  0
BLOCK_RECORD
  5
5C70
330
1
100
AcDbSymbolTableRecord
100
AcDbBlockTableRecord
  2
*D38
340
0
  0
BLOCK_RECORD
  5
5C7C
330
1
100
AcDbSymbolTableRecord
100
AcDbBlockTableRecord
  2
*D39
340
0
  0
BLOCK_RECORD
  5
5DB4
330
1
100
AcDbSymbolTableRecord
100
AcDbBlockTableRecord
  2
*D40
340
0
  0
BLOCK_RECORD
  5
5DC1
330
1
100
AcDbSymbolTableRecord
100
AcDbBlockTableRecord
  2
*D41
340
0
  0
BLOCK_RECORD
  5
5DCE
330
1
100
AcDbSymbolTableRecord
100
AcDbBlockTableRecord
  2
*D42
340
0
  0
BLOCK_RECORD
  5
5DDB
330
1
100
AcDbSymbolTableRecord
100
AcDbBlockTableRecord
  2
*D43
340
0
  0
BLOCK_RECORD
  5
5DE8
330
1
100
AcDbSymbolTableRecord
100
AcDbBlockTableRecord
  2
*D44
340
0
  0
BLOCK_RECORD
  5
5DF5
330
1
100
AcDbSymbolTableRecord
100
AcDbBlockTableRecord
  2
*D45
340
0
  0
ENDTAB
  0
ENDSEC
  0
SECTION
  2
BLOCKS
  0
BLOCK
  5
1F
330
1E
100
AcDbEntity
  8
0
100
AcDbBlockBegin
  2
*MODEL_SPACE
 70
     0
 10
0.0
 20
0.0
 30
0.0
  3
*MODEL_SPACE
  1

  0
ENDBLK
  5
20
330
1E
100
AcDbEntity
  8
0
100
AcDbBlockEnd
  0
BLOCK
  5
1B
330
1A
100
AcDbEntity
 67
     1
  8
0
100
AcDbBlockBegin
  2
*PAPER_SPACE
 70
     0
 10
0.0
 20
0.0
 30
0.0
  3
*PAPER_SPACE
  1

  0
ENDBLK
  5
1C
330
1A
100
AcDbEntity
 67
     1
  8
0
100
AcDbBlockEnd
  0
BLOCK
  5
3B6
330
3B2
100
AcDbEntity
  8
0
100
AcDbBlockBegin
  2
_OPEN
 70
     0
 10
0.0
 20
0.0
 30
0.0
  3
_OPEN
  1

  0
LINE
  5
3B3
330
3B2
100
AcDbEntity
  8
30
  6
Continuous
 62
     0
100
AcDbLine
 10
-1.0
 20
0.166667
 30
0.0
 11
0.0
 21
0.0
 31
0.0
  0
LINE
  5
3B4
330
3B2
100
AcDbEntity
  8
30
  6
Continuous
 62
     0
100
AcDbLine
 10
-1.0
 20
-0.166667
 30
0.0
 11
0.0
 21
0.0
 31
0.0
  0
LINE
  5
3B5
330
3B2
100
AcDbEntity
  8
30
  6
Continuous
 62
     0
100
AcDbLine
 10
0.0
 20
0.0
 30
0.0
 11
-1.0
 21
0.0
 31
0.0
  0
ENDBLK
  5
3B7
330
3B2
100
AcDbEntity
  8
0
100
AcDbBlockEnd
  0
BLOCK
  5
5076
330
506F
100
AcDbEntity
  8
TOP
  6
Continuous
 62
     4
100
AcDbBlockBegin
  2
*U1
 70
     1
 10
0.0
 20
0.0
 30
0.0
  3
*U1
  1

  0
LINE
  5
5070
330
506F
100
AcDbEntity
  8
1
  6
ByBlock
 62
     0
100
AcDbLine
 10
334.4153110047843
 20
95.91019663782793
 30
0.0
 11
337.2500000084996
 21
95.91019663782793
 31
0.0
  0
LINE
  5
5071
330
506F
100
AcDbEntity
  8
1
  6
ByBlock
 62
     0
100
AcDbLine
 10
334.4153110047843
 20
149.5101966378278
 30
0.0
 11
337.2500000084996
 21
149.5101966378278
 31
0.0
  0
LINE
  5
5072
330
506F
100
AcDbEntity
  8
1
  6
ByBlock
 62
     0
100
AcDbLine
 10
336.2500000019
 20
95.91019663782793
 30
0.0
 11
336.2500000019
 21
149.5101966378278
 31
0.0
  0
SOLID
  5
5073
330
506F
100
AcDbEntity
  8
1
  6
ByBlock
 62
     0
100
AcDbTrace
 10
336.2500000019
 20
95.91019663782793
 30
0.0
 11
335.9166666663666
 21
97.91019665102794
 31
0.0
 12
336.5833333374331
 22
97.91019665102794
 32
0.0
 13
336.5833333374331
 23
97.91019665102794
 33
0.0
  0
SOLID
  5
5074
330
506F
100
AcDbEntity
  8
1
  6
ByBlock
 62
     0
100
AcDbTrace
 10
336.2500000019
 20
149.5101966378278
 30
0.0
 11
336.5833333374331
 21
147.5101966246279
 31
0.0
 12
335.9166666663666
 22
147.5101966246279
 32
0.0
 13
335.9166666663666
 23
147.5101966246279
 33
0.0
  0
TEXT
  5
5075
330
506F
100
AcDbEntity
  8
TOP
  6
ByBlock
 62
     0
100
AcDbText
 10
335.0
 20
119.8625403834995
 30
0.0
 40
2.500000003799998
  1
134
 50
89.99999999999404
 41
0.8542968749999989
  7
UGMTXT
100
AcDbText
  0
ENDBLK
  5
5077
330
506F
100
AcDbEntity
  8
0
100
AcDbBlockEnd
  0
BLOCK
  5
507B
330
5078
100
AcDbEntity
  8
TOP
  6
Continuous
 62
     4
100
AcDbBlockBegin
  2
*U2
 70
     1
 10
0.0
 20
0.0
 30
0.0
  3
*U2
  1

  0
TEXT
  5
5079
330
5078
100
AcDbEntity
  8
TOP
  6
ByBlock
 62
     0
100
AcDbText
 10
280.562938070046
 20
75.47570270834146
 30
0.0
 40
2.500000003799998
  1
8.5
 41
0.8542968749999968
  7
UGMTXT
100
AcDbText
  0
TEXT
  5
507A
330
5078
100
AcDbEntity
  8
TOP
  6
ByBlock
 62
     0
100
AcDbText
 10
276.8697321605457
 20
74.22570270644145
 30
0.0
 40
2.500000003799998
  1
%%c
 41
1.519902056402514
  7
UGMTXT
100
AcDbText
  0
ENDBLK
  5
507C
330
5078
100
AcDbEntity
  8
0
100
AcDbBlockEnd
  0
BLOCK
  5
5083
330
507D
100
AcDbEntity
  8
TOP
  6
Continuous
 62
     4
100
AcDbBlockBegin
  2
*U3
 70
     1
 10
0.0
 20
0.0
 30
0.0
  3
*U3
  1

  0
LINE
  5
507E
330
507D
100
AcDbEntity
  8
1
  6
ByBlock
 62
     0
100
AcDbLine
 10
287.2057572385031
 20
73.79512687471603
 30
0.0
 11
276.2057572385031
 21
73.79512687471603
 31
0.0
  0
LINE
  5
507F
330
507D
100
AcDbEntity
  8
1
  6
ByBlock
 62
     0
100
AcDbLine
 10
296.8913158503363
 20
94.37207082491942
 30
0.0
 11
287.2057572385031
 21
73.79512687471603
 31
0.0
  0
SOLID
  5
5080
330
507D
100
AcDbEntity
  8
1
  6
ByBlock
 62
     0
100
AcDbTrace
 10
296.8913158503363
 20
94.37207082491942
 30
0.0
 11
296.3411501381206
 21
92.42055119794148
 31
0.0
 12
295.7379635408423
 22
92.7044708682264
 32
0.0
 13
295.7379635408423
 23
92.7044708682264
 33
0.0
  0
TEXT
  5
5081
330
507D
100
AcDbEntity
  8
TOP
  6
ByBlock
 62
     0
100
AcDbText
 10
274.4739864025374
 20
72.54512687281603
 30
0.0
 40
2.500000003799998
  1
 
 41
1.189062499999995
  7
UGMTXT
100
AcDbText
  0
TEXT
  5
5082
330
507D
100
AcDbEntity
  8
TOP
  6
ByBlock
 62
     0
100
AcDbText
 10
272.742215566572
 20
72.54512687281603
 30
0.0
 40
2.500000003799998
  1
 
 41
1.189062499999995
  7
UGMTXT
100
AcDbText
  0
ENDBLK
  5
5084
330
507D
100
AcDbEntity
  8
0
100
AcDbBlockEnd
  0
BLOCK
  5
508A
330
5085
100
AcDbEntity
  8
TOP
  6
Continuous
 62
     3
100
AcDbBlockBegin
  2
*U4
 70
     1
 10
0.0
 20
0.0
 30
0.0
  3
*U4
  1

  0
LINE
  5
5086
330
5085
100
AcDbEntity
  8
1
  6
ByBlock
 62
     0
100
AcDbLine
 10
356.0226384799982
 20
73.67938951191193
 30
0.0
 11
330.0226384799981
 21
73.67938951191193
 31
0.0
  0
LINE
  5
5087
330
5085
100
AcDbEntity
  8
1
  6
ByBlock
 62
     0
100
AcDbLine
 10
319.8164585567165
 20
92.71019663782793
 30
0.0
 11
330.0226384799981
 21
73.67938951191193
 31
0.0
  0
SOLID
  5
5088
330
5085
100
AcDbEntity
  8
1
  6
ByBlock
 62
     0
100
AcDbTrace
 10
319.8164585567165
 20
92.71019663782793
 30
0.0
 11
321.0554556869717
 21
91.10520527442524
 31
0.0
 12
320.4679451296377
 22
90.79012465722914
 32
0.0
 13
320.4679451296377
 23
90.79012465722914
 33
0.0
  0
TEXT
  5
5089
330
5085
100
AcDbEntity
  8
TOP
  6
ByBlock
 62
     0
100
AcDbText
 10
356.0226384799982
 20
72.42938951191193
 30
0.0
 40
2.5
  1
 
 41
1.189062499999988
  7
UGMTXT
100
AcDbText
  0
ENDBLK
  5
508B
330
5085
100
AcDbEntity
  8
0
100
AcDbBlockEnd
  0
BLOCK
  5
5091
330
508C
100
AcDbEntity
  8
TOP
  6
Continuous
 62
     3
100
AcDbBlockBegin
  2
*U5
 70
     1
 10
0.0
 20
0.0
 30
0.0
  3
*U5
  1

  0
LINE
  5
508D
330
508C
100
AcDbEntity
  8
1
  6
ByBlock
 62
     0
100
AcDbLine
 10
300.9609374931422
 20
171.5000000098999
 30
0.0
 11
271.9609374931422
 21
171.5000000098999
 31
0.0
  0
LINE
  5
508E
330
508C
100
AcDbEntity
  8
1
  6
ByBlock
 62
     0
100
AcDbLine
 10
262.4153110047846
 20
159.718196637828
 30
0.0
 11
271.9609374931422
 21
171.5000000098999
 31
0.0
  0
SOLID
  5
508F
330
508C
100
AcDbEntity
  8
1
  6
ByBlock
 62
     0
100
AcDbTrace
 10
262.4153110047846
 20
159.718196637828
 30
0.0
 11
263.4153470455668
 21
161.482010426898
 31
0.0
 12
263.9333387587366
 22
161.0623331277758
 32
0.0
 13
263.9333387587366
 23
161.0623331277758
 33
0.0
  0
TEXT
  5
5090
330
508C
100
AcDbEntity
  8
TOP
  6
ByBlock
 62
     0
100
AcDbText
 10
300.9609374931422
 20
170.0
 30
0.0
 40
3.000000019799997
  1
 
 41
1.189062499999995
  7
UGMTXT
100
AcDbText
  0
ENDBLK
  5
5092
330
508C
100
AcDbEntity
  8
0
100
AcDbBlockEnd
  0
BLOCK
  5
509E
330
5093
100
AcDbEntity
  8
0
100
AcDbBlockBegin
  2
*D6
 70
     1
 10
0.0
 20
0.0
 30
0.0
  3
*D6
  1

  0
LINE
  5
5094
330
5093
100
AcDbEntity
  8
0
  6
Continuous
 62
     0
100
AcDbLine
 10
638.5482368421052
 20
285.1567974937046
 30
0.0
 11
603.8575000048068
 21
285.1567974937046
 31
0.0
  0
LINE
  5
5095
330
5093
100
AcDbEntity
  8
0
  6
Continuous
 62
     0
100
AcDbLine
 10
638.5482368421052
 20
335.7567974937047
 30
0.0
 11
603.8575000048068
 21
335.7567974937047
 31
0.0
  0
LINE
  5
5096
330
5093
100
AcDbEntity
  8
0
  6
Continuous
 62
     0
100
AcDbLine
 10
604.0375000048069
 20
285.3367974937047
 30
0.0
 11
604.0375000048069
 21
310.2767974937043
 31
0.0
  0
LINE
  5
5097
330
5093
100
AcDbEntity
  8
0
  6
Continuous
 62
     0
100
AcDbLine
 10
604.0375000048069
 20
335.5767974937045
 30
0.0
 11
604.0375000048069
 21
310.6367974937043
 31
0.0
  0
SOLID
  5
5098
330
5093
100
AcDbEntity
  8
0
  6
Continuous
 62
     0
100
AcDbTrace
 10
604.0075000048067
 20
285.3367974937047
 30
0.0
 11
604.0675000048069
 21
285.3367974937047
 31
0.0
 12
604.0375000048069
 22
285.1567974937046
 32
0.0
 13
604.0375000048069
 23
285.1567974937046
 33
0.0
  0
SOLID
  5
5099
330
5093
100
AcDbEntity
  8
0
  6
Continuous
 62
     0
100
AcDbTrace
 10
604.0075000048067
 20
335.5767974937045
 30
0.0
 11
604.0675000048069
 21
335.5767974937045
 31
0.0
 12
604.0375000048069
 22
335.7567974937047
 32
0.0
 13
604.0375000048069
 23
335.7567974937047
 33
0.0
  0
MTEXT
  5
509A
330
5093
100
AcDbEntity
  8
0
  6
Continuous
 62
     0
100
AcDbMText
 10
604.0375000048067
 20
310.4567974937046
 30
0.0
 40
0.18
 41
0.0
 71
     5
 72
     1
  1
\A1;50.6000
 73
     1
 44
1.0
1001
ACAD
1000
MTEXTBEGIN
1070
    73
1070
     1
1070
    44
1040
1.0
1070
    74
1070
     0
1000
MTEXTEND
  0
POINT
  5
509B
330
5093
100
AcDbEntity
  8
DEFPOINTS
  6
Continuous
 62
     0
100
AcDbPoint
 10
638.610736842105
 20
285.1567974937046
 30
0.0
  0
POINT
  5
509C
330
5093
100
AcDbEntity
  8
DEFPOINTS
  6
Continuous
 62
     0
100
AcDbPoint
 10
638.610736842105
 20
335.7567974937047
 30
0.0
  0
POINT
  5
509D
330
5093
100
AcDbEntity
  8
DEFPOINTS
  6
Continuous
 62
     0
100
AcDbPoint
 10
604.0375000048069
 20
335.7567974937047
 30
0.0
  0
ENDBLK
  5
509F
330
5093
100
AcDbEntity
  8
0
100
AcDbBlockEnd
  0
BLOCK
  5
50AB
330
50A0
100
AcDbEntity
  8
0
100
AcDbBlockBegin
  2
*D7
 70
     1
 10
0.0
 20
0.0
 30
0.0
  3
*D7
  1

  0
LINE
  5
50A1
330
50A0
100
AcDbEntity
  8
0
  6
Continuous
 62
     0
100
AcDbLine
 10
803.5667368421052
 20
240.0602974770066
 30
0.0
 11
803.5667368421052
 21
186.4074999951929
 31
0.0
  0
LINE
  5
50A2
330
50A0
100
AcDbEntity
  8
0
  6
Continuous
 62
     0
100
AcDbLine
 10
818.7467368421049
 20
233.1917645962124
 30
0.0
 11
818.7467368421049
 21
186.4074999951929
 31
0.0
  0
LINE
  5
50A3
330
50A0
100
AcDbEntity
  8
0
  6
Continuous
 62
     0
100
AcDbLine
 10
803.7467368421051
 20
186.5874999951929
 30
0.0
 11
810.5695939849622
 21
186.5874999951929
 31
0.0
  0
LINE
  5
50A4
330
50A0
100
AcDbEntity
  8
0
  6
Continuous
 62
     0
100
AcDbLine
 10
818.566736842105
 20
186.5874999951929
 30
0.0
 11
811.743879699248
 21
186.5874999951929
 31
0.0
  0
SOLID
  5
50A5
330
50A0
100
AcDbEntity
  8
0
  6
Continuous
 62
     0
100
AcDbTrace
 10
803.7467368421051
 20
186.6174999951929
 30
0.0
 11
803.7467368421051
 21
186.5574999951929
 31
0.0
 12
803.5667368421052
 22
186.5874999951929
 32
0.0
 13
803.5667368421052
 23
186.5874999951929
 33
0.0
  0
SOLID
  5
50A6
330
50A0
100
AcDbEntity
  8
0
  6
Continuous
 62
     0
100
AcDbTrace
 10
818.566736842105
 20
186.6174999951929
 30
0.0
 11
818.566736842105
 21
186.5574999951929
 31
0.0
 12
818.7467368421049
 22
186.5874999951929
 32
0.0
 13
818.7467368421049
 23
186.5874999951929
 33
0.0
  0
MTEXT
  5
50A7
330
50A0
100
AcDbEntity
  8
0
  6
Continuous
 62
     0
100
AcDbMText
 10
811.1567368421049
 20
186.5874999951929
 30
0.0
 40
0.18
 41
0.0
 71
     5
 72
     1
  1
\A1;15.1800
 73
     1
 44
1.0
1001
ACAD
1000
MTEXTBEGIN
1070
    73
1070
     1
1070
    44
1040
1.0
1070
    74
1070
     0
1000
MTEXTEND
  0
POINT
  5
50A8
330
50A0
100
AcDbEntity
  8
DEFPOINTS
  6
Continuous
 62
     0
100
AcDbPoint
 10
803.5667368421052
 20
240.1227974770065
 30
0.0
  0
POINT
  5
50A9
330
50A0
100
AcDbEntity
  8
DEFPOINTS
  6
Continuous
 62
     0
100
AcDbPoint
 10
818.7467368421049
 20
233.2542645962124
 30
0.0
  0
POINT
  5
50AA
330
50A0
100
AcDbEntity
  8
DEFPOINTS
  6
Continuous
 62
     0
100
AcDbPoint
 10
818.7467368421049
 20
186.5874999951929
 30
0.0
  0
ENDBLK
  5
50AC
330
50A0
100
AcDbEntity
  8
0
100
AcDbBlockEnd
  0
BLOCK
  5
50B8
330
50AD
100
AcDbEntity
  8
0
100
AcDbBlockBegin
  2
*D8
 70
     1
 10
0.0
 20
0.0
 30
0.0
  3
*D8
  1

  0
LINE
  5
50AE
330
50AD
100
AcDbEntity
  8
0
  6
Continuous
 62
     0
100
AcDbLine
 10
659.862736842105
 20
203.1222974937048
 30
0.0
 11
659.862736842105
 21
135.8074999951929
 31
0.0
  0
LINE
  5
50AF
330
50AD
100
AcDbEntity
  8
0
  6
Continuous
 62
     0
100
AcDbLine
 10
818.7467368421049
 20
242.5902974937045
 30
0.0
 11
818.7467368421049
 21
135.8074999951929
 31
0.0
  0
LINE
  5
50B0
330
50AD
100
AcDbEntity
  8
0
  6
Continuous
 62
     0
100
AcDbLine
 10
660.0427368421051
 20
135.9874999951929
 30
0.0
 11
738.614736842105
 21
135.9874999951929
 31
0.0
  0
LINE
  5
50B1
330
50AD
100
AcDbEntity
  8
0
  6
Continuous
 62
     0
100
AcDbLine
 10
818.566736842105
 20
135.9874999951929
 30
0.0
 11
739.9947368421051
 21
135.9874999951929
 31
0.0
  0
SOLID
  5
50B2
330
50AD
100
AcDbEntity
  8
0
  6
Continuous
 62
     0
100
AcDbTrace
 10
660.0427368421051
 20
136.0174999951929
 30
0.0
 11
660.0427368421051
 21
135.9574999951929
 31
0.0
 12
659.862736842105
 22
135.9874999951929
 32
0.0
 13
659.862736842105
 23
135.9874999951929
 33
0.0
  0
SOLID
  5
50B3
330
50AD
100
AcDbEntity
  8
0
  6
Continuous
 62
     0
100
AcDbTrace
 10
818.566736842105
 20
136.0174999951929
 30
0.0
 11
818.566736842105
 21
135.9574999951929
 31
0.0
 12
818.7467368421049
 22
135.9874999951929
 32
0.0
 13
818.7467368421049
 23
135.9874999951929
 33
0.0
  0
MTEXT
  5
50B4
330
50AD
100
AcDbEntity
  8
0
  6
Continuous
 62
     0
100
AcDbMText
 10
739.3047368421051
 20
135.9874999951929
 30
0.0
 40
0.18
 41
0.0
 71
     5
 72
     1
  1
\A1;158.8840
 73
     1
 44
1.0
1001
ACAD
1000
MTEXTBEGIN
1070
    73
1070
     1
1070
    44
1040
1.0
1070
    74
1070
     0
1000
MTEXTEND
  0
POINT
  5
50B5
330
50AD
100
AcDbEntity
  8
DEFPOINTS
  6
Continuous
 62
     0
100
AcDbPoint
 10
659.862736842105
 20
203.1847974937046
 30
0.0
  0
POINT
  5
50B6
330
50AD
100
AcDbEntity
  8
DEFPOINTS
  6
Continuous
 62
     0
100
AcDbPoint
 10
818.7467368421049
 20
242.6527974937046
 30
0.0
  0
POINT
  5
50B7
330
50AD
100
AcDbEntity
  8
DEFPOINTS
  6
Continuous
 62
     0
100
AcDbPoint
 10
818.7467368421049
 20
135.9874999951929
 30
0.0
  0
ENDBLK
  5
50B9
330
50AD
100
AcDbEntity
  8
0
100
AcDbBlockEnd
  0
BLOCK
  5
50C5
330
50BA
100
AcDbEntity
  8
0
100
AcDbBlockBegin
  2
*D9
 70
     1
 10
0.0
 20
0.0
 30
0.0
  3
*D9
  1

  0
LINE
  5
50BB
330
50BA
100
AcDbEntity
  8
0
  6
Continuous
 62
     0
100
AcDbLine
 10
659.862736842105
 20
203.1222974937048
 30
0.0
 11
659.862736842105
 21
161.107499995193
 31
0.0
  0
LINE
  5
50BC
330
50BA
100
AcDbEntity
  8
0
  6
Continuous
 62
     0
100
AcDbLine
 10
768.1467368421049
 20
242.5902974937045
 30
0.0
 11
768.1467368421049
 21
161.107499995193
 31
0.0
  0
LINE
  5
50BD
330
50BA
100
AcDbEntity
  8
0
  6
Continuous
 62
     0
100
AcDbLine
 10
660.0427368421051
 20
161.287499995193
 30
0.0
 11
713.3147368421049
 21
161.287499995193
 31
0.0
  0
LINE
  5
50BE
330
50BA
100
AcDbEntity
  8
0
  6
Continuous
 62
     0
100
AcDbLine
 10
767.9667368421051
 20
161.287499995193
 30
0.0
 11
714.6947368421051
 21
161.287499995193
 31
0.0
  0
SOLID
  5
50BF
330
50BA
100
AcDbEntity
  8
0
  6
Continuous
 62
     0
100
AcDbTrace
 10
660.0427368421051
 20
161.317499995193
 30
0.0
 11
660.0427368421051
 21
161.257499995193
 31
0.0
 12
659.862736842105
 22
161.287499995193
 32
0.0
 13
659.862736842105
 23
161.287499995193
 33
0.0
  0
SOLID
  5
50C0
330
50BA
100
AcDbEntity
  8
0
  6
Continuous
 62
     0
100
AcDbTrace
 10
767.9667368421051
 20
161.317499995193
 30
0.0
 11
767.9667368421051
 21
161.257499995193
 31
0.0
 12
768.1467368421049
 22
161.287499995193
 32
0.0
 13
768.1467368421049
 23
161.287499995193
 33
0.0
  0
MTEXT
  5
50C1
330
50BA
100
AcDbEntity
  8
0
  6
Continuous
 62
     0
100
AcDbMText
 10
714.0047368421051
 20
161.287499995193
 30
0.0
 40
0.18
 41
0.0
 71
     5
 72
     1
  1
\A1;108.2840
 73
     1
 44
1.0
1001
ACAD
1000
MTEXTBEGIN
1070
    73
1070
     1
1070
    44
1040
1.0
1070
    74
1070
     0
1000
MTEXTEND
  0
POINT
  5
50C2
330
50BA
100
AcDbEntity
  8
DEFPOINTS
  6
Continuous
 62
     0
100
AcDbPoint
 10
659.862736842105
 20
203.1847974937046
 30
0.0
  0
POINT
  5
50C3
330
50BA
100
AcDbEntity
  8
DEFPOINTS
  6
Continuous
 62
     0
100
AcDbPoint
 10
768.1467368421049
 20
242.6527974937046
 30
0.0
  0
POINT
  5
50C4
330
50BA
100
AcDbEntity
  8
DEFPOINTS
  6
Continuous
 62
     0
100
AcDbPoint
 10
768.1467368421049
 20
161.287499995193
 30
0.0
  0
ENDBLK
  5
50C6
330
50BA
100
AcDbEntity
  8
0
100
AcDbBlockEnd
  0
BLOCK
  5
50D2
330
50C7
100
AcDbEntity
  8
0
100
AcDbBlockBegin
  2
*D10
 70
     1
 10
0.0
 20
0.0
 30
0.0
  3
*D10
  1

  0
LINE
  5
50C8
330
50C7
100
AcDbEntity
  8
0
  6
Continuous
 62
     0
100
AcDbLine
 10
622.4187368421052
 20
307.8642974770066
 30
0.0
 11
622.4187368421052
 21
135.8074999951929
 31
0.0
  0
LINE
  5
50C9
330
50C7
100
AcDbEntity
  8
0
  6
Continuous
 62
     0
100
AcDbLine
 10
659.862736842105
 20
203.1222974937048
 30
0.0
 11
659.862736842105
 21
135.8074999951929
 31
0.0
  0
LINE
  5
50CA
330
50C7
100
AcDbEntity
  8
0
  6
Continuous
 62
     0
100
AcDbLine
 10
622.5987368421051
 20
135.9874999951929
 30
0.0
 11
640.5193082706762
 21
135.9874999951929
 31
0.0
  0
LINE
  5
50CB
330
50C7
100
AcDbEntity
  8
0
  6
Continuous
 62
     0
100
AcDbLine
 10
659.6827368421052
 20
135.9874999951929
 30
0.0
 11
641.7621654135338
 21
135.9874999951929
 31
0.0
  0
SOLID
  5
50CC
330
50C7
100
AcDbEntity
  8
0
  6
Continuous
 62
     0
100
AcDbTrace
 10
622.5987368421051
 20
136.0174999951929
 30
0.0
 11
622.5987368421051
 21
135.9574999951929
 31
0.0
 12
622.4187368421052
 22
135.9874999951929
 32
0.0
 13
622.4187368421052
 23
135.9874999951929
 33
0.0
  0
SOLID
  5
50CD
330
50C7
100
AcDbEntity
  8
0
  6
Continuous
 62
     0
100
AcDbTrace
 10
659.6827368421052
 20
136.0174999951929
 30
0.0
 11
659.6827368421052
 21
135.9574999951929
 31
0.0
 12
659.862736842105
 22
135.9874999951929
 32
0.0
 13
659.862736842105
 23
135.9874999951929
 33
0.0
  0
MTEXT
  5
50CE
330
50C7
100
AcDbEntity
  8
0
  6
Continuous
 62
     0
100
AcDbMText
 10
641.1407368421053
 20
135.9874999951929
 30
0.0
 40
0.18
 41
0.0
 71
     5
 72
     1
  1
\A1;37.4440
 73
     1
 44
1.0
1001
ACAD
1000
MTEXTBEGIN
1070
    73
1070
     1
1070
    44
1040
1.0
1070
    74
1070
     0
1000
MTEXTEND
  0
POINT
  5
50CF
330
50C7
100
AcDbEntity
  8
DEFPOINTS
  6
Continuous
 62
     0
100
AcDbPoint
 10
622.4187368421052
 20
307.9267974770066
 30
0.0
  0
POINT
  5
50D0
330
50C7
100
AcDbEntity
  8
DEFPOINTS
  6
Continuous
 62
     0
100
AcDbPoint
 10
659.862736842105
 20
203.1847974937046
 30
0.0
  0
POINT
  5
50D1
330
50C7
100
AcDbEntity
  8
DEFPOINTS
  6
Continuous
 62
     0
100
AcDbPoint
 10
659.862736842105
 20
135.9874999951929
 30
0.0
  0
ENDBLK
  5
50D3
330
50C7
100
AcDbEntity
  8
0
100
AcDbBlockEnd
  0
BLOCK
  5
50DF
330
50D4
100
AcDbEntity
  8
0
100
AcDbBlockBegin
  2
*D11
 70
     1
 10
0.0
 20
0.0
 30
0.0
  3
*D11
  1

  0
LINE
  5
50D5
330
50D4
100
AcDbEntity
  8
0
  6
Continuous
 62
     0
100
AcDbLine
 10
644.6827368421052
 20
213.2422974937048
 30
0.0
 11
644.6827368421052
 21
161.107499995193
 31
0.0
  0
LINE
  5
50D6
330
50D4
100
AcDbEntity
  8
0
  6
Continuous
 62
     0
100
AcDbLine
 10
659.862736842105
 20
203.1222974937048
 30
0.0
 11
659.862736842105
 21
161.107499995193
 31
0.0
  0
LINE
  5
50D7
330
50D4
100
AcDbEntity
  8
0
  6
Continuous
 62
     0
100
AcDbLine
 10
644.862736842105
 20
161.287499995193
 30
0.0
 11
651.6855939849622
 21
161.287499995193
 31
0.0
  0
LINE
  5
50D8
330
50D4
100
AcDbEntity
  8
0
  6
Continuous
 62
     0
100
AcDbLine
 10
659.6827368421052
 20
161.287499995193
 30
0.0
 11
652.8598796992479
 21
161.287499995193
 31
0.0
  0
SOLID
  5
50D9
330
50D4
100
AcDbEntity
  8
0
  6
Continuous
 62
     0
100
AcDbTrace
 10
644.862736842105
 20
161.317499995193
 30
0.0
 11
644.862736842105
 21
161.257499995193
 31
0.0
 12
644.6827368421052
 22
161.287499995193
 32
0.0
 13
644.6827368421052
 23
161.287499995193
 33
0.0
  0
SOLID
  5
50DA
330
50D4
100
AcDbEntity
  8
0
  6
Continuous
 62
     0
100
AcDbTrace
 10
659.6827368421052
 20
161.317499995193
 30
0.0
 11
659.6827368421052
 21
161.257499995193
 31
0.0
 12
659.862736842105
 22
161.287499995193
 32
0.0
 13
659.862736842105
 23
161.287499995193
 33
0.0
  0
MTEXT
  5
50DB
330
50D4
100
AcDbEntity
  8
0
  6
Continuous
 62
     0
100
AcDbMText
 10
652.2727368421051
 20
161.287499995193
 30
0.0
 40
0.18
 41
0.0
 71
     5
 72
     1
  1
\A1;15.1800
 73
     1
 44
1.0
1001
ACAD
1000
MTEXTBEGIN
1070
    73
1070
     1
1070
    44
1040
1.0
1070
    74
1070
     0
1000
MTEXTEND
  0
POINT
  5
50DC
330
50D4
100
AcDbEntity
  8
DEFPOINTS
  6
Continuous
 62
     0
100
AcDbPoint
 10
644.6827368421052
 20
213.3047974937047
 30
0.0
  0
POINT
  5
50DD
330
50D4
100
AcDbEntity
  8
DEFPOINTS
  6
Continuous
 62
     0
100
AcDbPoint
 10
659.862736842105
 20
203.1847974937046
 30
0.0
  0
POINT
  5
50DE
330
50D4
100
AcDbEntity
  8
DEFPOINTS
  6
Continuous
 62
     0
100
AcDbPoint
 10
659.862736842105
 20
161.287499995193
 30
0.0
  0
ENDBLK
  5
50E0
330
50D4
100
AcDbEntity
  8
0
100
AcDbBlockEnd
  0
BLOCK
  5
50EC
330
50E1
100
AcDbEntity
  8
0
100
AcDbBlockBegin
  2
*D12
 70
     1
 10
0.0
 20
0.0
 30
0.0
  3
*D12
  1

  0
LINE
  5
50E2
330
50E1
100
AcDbEntity
  8
0
  6
Continuous
 62
     0
100
AcDbLine
 10
752.9667368421049
 20
240.0602974770066
 30
0.0
 11
752.9667368421049
 21
186.4074999951929
 31
0.0
  0
LINE
  5
50E3
330
50E1
100
AcDbEntity
  8
0
  6
Continuous
 62
     0
100
AcDbLine
 10
768.1467368421049
 20
233.1917645962124
 30
0.0
 11
768.1467368421049
 21
186.4074999951929
 31
0.0
  0
LINE
  5
50E4
330
50E1
100
AcDbEntity
  8
0
  6
Continuous
 62
     0
100
AcDbLine
 10
753.1467368421049
 20
186.5874999951929
 30
0.0
 11
759.9695939849619
 21
186.5874999951929
 31
0.0
  0
LINE
  5
50E5
330
50E1
100
AcDbEntity
  8
0
  6
Continuous
 62
     0
100
AcDbLine
 10
767.9667368421051
 20
186.5874999951929
 30
0.0
 11
761.1438796992479
 21
186.5874999951929
 31
0.0
  0
SOLID
  5
50E6
330
50E1
100
AcDbEntity
  8
0
  6
Continuous
 62
     0
100
AcDbTrace
 10
753.1467368421049
 20
186.6174999951929
 30
0.0
 11
753.1467368421049
 21
186.5574999951929
 31
0.0
 12
752.9667368421049
 22
186.5874999951929
 32
0.0
 13
752.9667368421049
 23
186.5874999951929
 33
0.0
  0
SOLID
  5
50E7
330
50E1
100
AcDbEntity
  8
0
  6
Continuous
 62
     0
100
AcDbTrace
 10
767.9667368421051
 20
186.6174999951929
 30
0.0
 11
767.9667368421051
 21
186.5574999951929
 31
0.0
 12
768.1467368421049
 22
186.5874999951929
 32
0.0
 13
768.1467368421049
 23
186.5874999951929
 33
0.0
  0
MTEXT
  5
50E8
330
50E1
100
AcDbEntity
  8
0
  6
Continuous
 62
     0
100
AcDbMText
 10
760.5567368421048
 20
186.5874999951929
 30
0.0
 40
0.18
 41
0.0
 71
     5
 72
     1
  1
\A1;15.1800
 73
     1
 44
1.0
1001
ACAD
1000
MTEXTBEGIN
1070
    73
1070
     1
1070
    44
1040
1.0
1070
    74
1070
     0
1000
MTEXTEND
  0
POINT
  5
50E9
330
50E1
100
AcDbEntity
  8
DEFPOINTS
  6
Continuous
 62
     0
100
AcDbPoint
 10
752.9667368421049
 20
240.1227974770065
 30
0.0
  0
POINT
  5
50EA
330
50E1
100
AcDbEntity
  8
DEFPOINTS
  6
Continuous
 62
     0
100
AcDbPoint
 10
768.1467368421049
 20
233.2542645962124
 30
0.0
  0
POINT
  5
50EB
330
50E1
100
AcDbEntity
  8
DEFPOINTS
  6
Continuous
 62
     0
100
AcDbPoint
 10
768.1467368421049
 20
186.5874999951929
 30
0.0
  0
ENDBLK
  5
50ED
330
50E1
100
AcDbEntity
  8
0
100
AcDbBlockEnd
  0
BLOCK
  5
50F9
330
50EE
100
AcDbEntity
  8
0
100
AcDbBlockBegin
  2
*D13
 70
     1
 10
0.0
 20
0.0
 30
0.0
  3
*D13
  1

  0
LINE
  5
50EF
330
50EE
100
AcDbEntity
  8
0
  6
Continuous
 62
     0
100
AcDbLine
 10
737.7867368421051
 20
249.7992975104025
 30
0.0
 11
737.7867368421051
 21
275.3174999951929
 31
0.0
  0
LINE
  5
50F0
330
50EE
100
AcDbEntity
  8
0
  6
Continuous
 62
     0
100
AcDbLine
 10
752.9667368421049
 20
245.2452975104026
 30
0.0
 11
752.9667368421049
 21
275.3174999951929
 31
0.0
  0
LINE
  5
50F1
330
50EE
100
AcDbEntity
  8
0
  6
Continuous
 62
     0
100
AcDbLine
 10
737.9667368421051
 20
275.1374999951929
 30
0.0
 11
744.7895939849622
 21
275.1374999951929
 31
0.0
  0
LINE
  5
50F2
330
50EE
100
AcDbEntity
  8
0
  6
Continuous
 62
     0
100
AcDbLine
 10
752.7867368421051
 20
275.1374999951929
 30
0.0
 11
745.963879699248
 21
275.1374999951929
 31
0.0
  0
SOLID
  5
50F3
330
50EE
100
AcDbEntity
  8
0
  6
Continuous
 62
     0
100
AcDbTrace
 10
737.9667368421051
 20
275.1674999951926
 30
0.0
 11
737.9667368421051
 21
275.107499995193
 31
0.0
 12
737.7867368421051
 22
275.1374999951929
 32
0.0
 13
737.7867368421051
 23
275.1374999951929
 33
0.0
  0
SOLID
  5
50F4
330
50EE
100
AcDbEntity
  8
0
  6
Continuous
 62
     0
100
AcDbTrace
 10
752.7867368421051
 20
275.1674999951926
 30
0.0
 11
752.7867368421051
 21
275.107499995193
 31
0.0
 12
752.9667368421049
 22
275.1374999951929
 32
0.0
 13
752.9667368421049
 23
275.1374999951929
 33
0.0
  0
MTEXT
  5
50F5
330
50EE
100
AcDbEntity
  8
0
  6
Continuous
 62
     0
100
AcDbMText
 10
745.3767368421051
 20
275.1374999951929
 30
0.0
 40
0.18
 41
0.0
 71
     5
 72
     1
  1
\A1;15.1800
 73
     1
 44
1.0
1001
ACAD
1000
MTEXTBEGIN
1070
    73
1070
     1
1070
    44
1040
1.0
1070
    74
1070
     0
1000
MTEXTEND
  0
POINT
  5
50F6
330
50EE
100
AcDbEntity
  8
DEFPOINTS
  6
Continuous
 62
     0
100
AcDbPoint
 10
737.7867368421051
 20
249.7367975104026
 30
0.0
  0
POINT
  5
50F7
330
50EE
100
AcDbEntity
  8
DEFPOINTS
  6
Continuous
 62
     0
100
AcDbPoint
 10
752.9667368421049
 20
245.1827975104026
 30
0.0
  0
POINT
  5
50F8
330
50EE
100
AcDbEntity
  8
DEFPOINTS
  6
Continuous
 62
     0
100
AcDbPoint
 10
752.9667368421049
 20
275.1374999951929
 30
0.0
  0
ENDBLK
  5
50FA
330
50EE
100
AcDbEntity
  8
0
100
AcDbBlockEnd
  0
BLOCK
  5
5106
330
50FB
100
AcDbEntity
  8
0
100
AcDbBlockBegin
  2
*D14
 70
     1
 10
0.0
 20
0.0
 30
0.0
  3
*D14
  1

  0
LINE
  5
50FC
330
50FB
100
AcDbEntity
  8
0
  6
Continuous
 62
     0
100
AcDbLine
 10
816.6399201801828
 20
234.5567974937046
 30
0.0
 11
843.3025000048068
 21
234.5567974937046
 31
0.0
  0
LINE
  5
50FD
330
50FB
100
AcDbEntity
  8
0
  6
Continuous
 62
     0
100
AcDbLine
 10
816.6399201801828
 20
250.7487974937046
 30
0.0
 11
843.3025000048068
 21
250.7487974937046
 31
0.0
  0
LINE
  5
50FE
330
50FB
100
AcDbEntity
  8
0
  6
Continuous
 62
     0
100
AcDbLine
 10
843.1225000048069
 20
234.7367974937046
 30
0.0
 11
843.1225000048069
 21
242.4727974937046
 31
0.0
  0
LINE
  5
50FF
330
50FB
100
AcDbEntity
  8
0
  6
Continuous
 62
     0
100
AcDbLine
 10
843.1225000048069
 20
250.5687974937046
 30
0.0
 11
843.1225000048069
 21
242.8327974937046
 31
0.0
  0
SOLID
  5
5100
330
50FB
100
AcDbEntity
  8
0
  6
Continuous
 62
     0
100
AcDbTrace
 10
843.092500004807
 20
234.7367974937046
 30
0.0
 11
843.1525000048068
 21
234.7367974937046
 31
0.0
 12
843.1225000048069
 22
234.5567974937046
 32
0.0
 13
843.1225000048069
 23
234.5567974937046
 33
0.0
  0
SOLID
  5
5101
330
50FB
100
AcDbEntity
  8
0
  6
Continuous
 62
     0
100
AcDbTrace
 10
843.092500004807
 20
250.5687974937046
 30
0.0
 11
843.1525000048068
 21
250.5687974937046
 31
0.0
 12
843.1225000048069
 22
250.7487974937046
 32
0.0
 13
843.1225000048069
 23
250.7487974937046
 33
0.0
  0
MTEXT
  5
5102
330
50FB
100
AcDbEntity
  8
0
  6
Continuous
 62
     0
100
AcDbMText
 10
843.1225000048069
 20
242.6527974937048
 30
0.0
 40
0.18
 41
0.0
 71
     5
 72
     1
  1
\A1;16.1920
 73
     1
 44
1.0
1001
ACAD
1000
MTEXTBEGIN
1070
    73
1070
     1
1070
    44
1040
1.0
1070
    74
1070
     0
1000
MTEXTEND
  0
POINT
  5
5103
330
50FB
100
AcDbEntity
  8
DEFPOINTS
  6
Continuous
 62
     0
100
AcDbPoint
 10
816.5774201801827
 20
234.5567974937046
 30
0.0
  0
POINT
  5
5104
330
50FB
100
AcDbEntity
  8
DEFPOINTS
  6
Continuous
 62
     0
100
AcDbPoint
 10
816.5774201801827
 20
250.7487974937046
 30
0.0
  0
POINT
  5
5105
330
50FB
100
AcDbEntity
  8
DEFPOINTS
  6
Continuous
 62
     0
100
AcDbPoint
 10
843.1225000048069
 20
250.7487974937046
 30
0.0
  0
ENDBLK
  5
5107
330
50FB
100
AcDbEntity
  8
0
100
AcDbBlockEnd
  0
BLOCK
  5
5113
330
5108
100
AcDbEntity
  8
0
100
AcDbBlockBegin
  2
*D15
 70
     1
 10
0.0
 20
0.0
 30
0.0
  3
*D15
  1

  0
LINE
  5
5109
330
5108
100
AcDbEntity
  8
0
  6
Continuous
 62
     0
100
AcDbLine
 10
818.8092368421051
 20
375.7307974937045
 30
0.0
 11
843.3025000048068
 21
375.7307974937045
 31
0.0
  0
LINE
  5
510A
330
5108
100
AcDbEntity
  8
0
  6
Continuous
 62
     0
100
AcDbLine
 10
818.8092368421051
 20
380.7907974937045
 30
0.0
 11
843.3025000048068
 21
380.7907974937045
 31
0.0
  0
LINE
  5
510B
330
5108
100
AcDbEntity
  8
0
  6
Continuous
 62
     0
100
AcDbLine
 10
843.1225000048069
 20
375.9107974937045
 30
0.0
 11
843.1225000048069
 21
378.0807974937046
 31
0.0
  0
LINE
  5
510C
330
5108
100
AcDbEntity
  8
0
  6
Continuous
 62
     0
100
AcDbLine
 10
843.1225000048069
 20
380.6107974937045
 30
0.0
 11
843.1225000048069
 21
378.4407974937046
 31
0.0
  0
SOLID
  5
510D
330
5108
100
AcDbEntity
  8
0
  6
Continuous
 62
     0
100
AcDbTrace
 10
843.092500004807
 20
375.9107974937045
 30
0.0
 11
843.1525000048068
 21
375.9107974937045
 31
0.0
 12
843.1225000048069
 22
375.7307974937045
 32
0.0
 13
843.1225000048069
 23
375.7307974937045
 33
0.0
  0
SOLID
  5
510E
330
5108
100
AcDbEntity
  8
0
  6
Continuous
 62
     0
100
AcDbTrace
 10
843.092500004807
 20
380.6107974937045
 30
0.0
 11
843.1525000048068
 21
380.6107974937045
 31
0.0
 12
843.1225000048069
 22
380.7907974937045
 32
0.0
 13
843.1225000048069
 23
380.7907974937045
 33
0.0
  0
MTEXT
  5
510F
330
5108
100
AcDbEntity
  8
0
  6
Continuous
 62
     0
100
AcDbMText
 10
843.1225000048069
 20
378.2607974937046
 30
0.0
 40
0.18
 41
0.0
 71
     5
 72
     1
  1
\A1;5.0600
 73
     1
 44
1.0
1001
ACAD
1000
MTEXTBEGIN
1070
    73
1070
     1
1070
    44
1040
1.0
1070
    74
1070
     0
1000
MTEXTEND
  0
POINT
  5
5110
330
5108
100
AcDbEntity
  8
DEFPOINTS
  6
Continuous
 62
     0
100
AcDbPoint
 10
818.7467368421049
 20
375.7307974937045
 30
0.0
  0
POINT
  5
5111
330
5108
100
AcDbEntity
  8
DEFPOINTS
  6
Continuous
 62
     0
100
AcDbPoint
 10
818.7467368421049
 20
380.7907974937045
 30
0.0
  0
POINT
  5
5112
330
5108
100
AcDbEntity
  8
DEFPOINTS
  6
Continuous
 62
     0
100
AcDbPoint
 10
843.1225000048069
 20
380.7907974937045
 30
0.0
  0
ENDBLK
  5
5114
330
5108
100
AcDbEntity
  8
0
100
AcDbBlockEnd
  0
BLOCK
  5
5170
330
5118
100
AcDbEntity
  8
0
100
AcDbBlockBegin
  2
A$C26E55131
 70
     0
 10
0.0
 20
0.0
 30
0.0
  3
A$C26E55131
  1

  0
DIMENSION
  5
5119
330
5118
100
AcDbEntity
  8
0
  6
Continuous
100
AcDbDimension
  2
*D10
 10
0.0
 20
-174.4692974985115
 30
0.0
 11
-18.72199999999996
 21
-174.4692974985115
 31
0.0
 12
-659.862736842105
 22
-310.4567974937046
 32
0.0
 71
     5
 42
-1.0
  3
STANDARD
100
AcDbAlignedDimension
 13
-37.44399999999996
 23
-2.530000016698009
 33
0.0
 14
0.0
 24
-107.2719999999997
 34
0.0
 50
180.0
100
AcDbRotatedDimension
1001
ACAD
1000
DSTYLE
1002
{
1070
   340
1005
11
1002
}
  0
LINE
  5
511A
330
5118
100
AcDbEntity
  8
0
  6
Continuous
100
AcDbLine
 10
-21.25199999999983
 20
-25.30000000000001
 30
0.0
 11
-15.17999999999995
 21
-25.30000000000001
 31
0.0
  0
LINE
  5
511B
330
5118
100
AcDbEntity
  8
0
  6
Continuous
100
AcDbLine
 10
-42.50399999999991
 20
0.0
 30
0.0
 11
60.72000000000002
 21
0.0
 31
0.0
  0
LINE
  5
511C
330
5118
100
AcDbEntity
  8
0
  6
Continuous
100
AcDbLine
 10
-21.25199999999983
 20
25.29999999999994
 30
0.0
 11
-15.17999999999995
 21
25.29999999999994
 31
0.0
  0
DIMENSION
  5
511D
330
5118
100
AcDbEntity
  8
0
  6
Continuous
100
AcDbDimension
  2
*D6
 10
-55.82523683729823
 20
25.29999999999994
 30
0.0
 11
-55.82523683729835
 21
0.0
 31
0.0
 12
-659.862736842105
 22
-310.4567974937046
 32
0.0
 71
     5
 42
-1.0
  3
STANDARD
100
AcDbAlignedDimension
 13
-21.25199999999983
 23
-25.30000000000001
 33
0.0
 14
-21.25199999999983
 24
25.29999999999994
 34
0.0
 50
90.0
100
AcDbRotatedDimension
1001
ACAD
1000
DSTYLE
1002
{
1070
   340
1005
11
1002
}
  0
LINE
  5
511E
330
5118
100
AcDbEntity
  8
0
  6
Continuous
100
AcDbLine
 10
-21.25199999999983
 20
25.29999999999994
 30
0.0
 11
-21.25199999999983
 21
-25.30000000000001
 31
0.0
  0
ARC
  5
511F
330
5118
100
AcDbEntity
  8
0
  6
Continuous
100
AcDbCircle
 10
-6.071999999999889
 20
0.0
 30
0.0
 40
31.37199999999999
100
AcDbArc
 50
150.5534441956571
 51
180.0
  0
LINE
  5
5120
330
5118
100
AcDbEntity
  8
0
  6
Continuous
100
AcDbLine
 10
-21.25199999999983
 20
6.922878778543577
 30
0.0
 11
-33.39119684519039
 21
15.42283591735752
 31
0.0
  0
TEXT
  5
5121
330
5118
100
AcDbEntity
  8
0
  6
Continuous
100
AcDbText
 10
-49.92642505154504
 20
-3.782110402524551
 30
0.0
 40
7.590000050093999
  1
C
 41
1.189062499999995
  7
UGMTXT
100
AcDbText
  0
TEXT
  5
5122
330
5118
100
AcDbEntity
  8
0
  6
Continuous
100
AcDbText
 10
-47.8338102629242
 20
-7.570906439385852
 30
0.0
 40
7.590000050093999
  1
L
 41
1.189062499999995
  7
UGMTXT
100
AcDbText
  0
LINE
  5
5123
330
5118
100
AcDbEntity
  8
0
  6
Continuous
100
AcDbLine
 10
-21.25199999999983
 20
14.33542208150315
 30
0.0
 11
-29.90844072366678
 21
20.39672713028032
 31
0.0
  0
LINE
  5
5124
330
5118
100
AcDbEntity
  8
0
  6
Continuous
100
AcDbLine
 10
-33.39119684519039
 20
15.42283591735752
 30
0.0
 11
-29.90844072366678
 21
20.39672713028032
 31
0.0
  0
TEXT
  5
5125
330
5118
100
AcDbEntity
  8
0
  6
Continuous
100
AcDbText
 10
30.93228585497161
 20
126.6277903531155
 30
0.0
 40
6.324999999999997
  1
Mounting plate
 41
0.8047256097560897
  7
UGMTXT
100
AcDbText
  0
INSERT
  5
5126
330
5118
100
AcDbEntity
  8
0
100
AcDbBlockReference
  2
*U1
 10
-659.862736842105
 20
-310.4567974937046
 30
0.0
 41
2.52999999999997
 42
2.52999999999997
 43
2.52999999999997
  0
LINE
  5
5127
330
5118
100
AcDbEntity
  8
0
  6
Continuous
100
AcDbLine
 10
0.0
 20
97.15200000000022
 30
0.0
 11
0.0
 21
-97.15199999999979
 31
0.0
  0
LINE
  5
5128
330
5118
100
AcDbEntity
  8
0
  6
Continuous
100
AcDbLine
 10
55.66000000000006
 20
78.43000000000012
 30
0.0
 11
55.66000000000006
 21
-78.42999999999998
 31
0.0
  0
LINE
  5
5129
330
5118
100
AcDbEntity
  8
0
  6
Continuous
100
AcDbLine
 10
-17.20399999999995
 20
25.29999999999994
 30
0.0
 11
-17.20399999999995
 21
-25.30000000000001
 31
0.0
  0
LINE
  5
512A
330
5118
100
AcDbEntity
  8
0
  6
PHANTOM
100
AcDbLine
 10
4.048000000000111
 20
102.2120000000002
 30
0.0
 11
4.048000000000111
 21
-112.3319999999995
 31
0.0
  0
LINE
  5
512B
330
5118
100
AcDbEntity
  8
0
  6
Continuous
100
AcDbLine
 10
-15.17999999999995
 20
97.15200000000022
 30
0.0
 11
-15.17999999999995
 21
-97.15199999999979
 31
0.0
  0
DIMENSION
  5
512C
330
5118
100
AcDbEntity
  8
0
  6
Continuous
100
AcDbDimension
  2
*D8
 10
158.8839999999999
 20
-174.4692974985115
 30
0.0
 11
79.44199999999989
 21
-174.4692974985115
 31
0.0
 12
-659.862736842105
 22
-310.4567974937046
 32
0.0
 71
     5
 42
-1.0
  3
STANDARD
100
AcDbAlignedDimension
 13
0.0
 23
-107.2719999999997
 33
0.0
 14
158.8839999999999
 24
-67.80399999999997
 34
0.0
 50
180.0
100
AcDbRotatedDimension
1001
ACAD
1000
DSTYLE
1002
{
1070
   340
1005
11
1002
}
  0
DIMENSION
  5
512D
330
5118
100
AcDbEntity
  8
0
  6
Continuous
100
AcDbDimension
  2
*D9
 10
108.2839999999998
 20
-149.1692974985116
 30
0.0
 11
54.14199999999993
 21
-149.1692974985116
 31
0.0
 12
-659.862736842105
 22
-310.4567974937046
 32
0.0
 71
     5
 42
-1.0
  3
STANDARD
100
AcDbAlignedDimension
 13
0.0
 23
-107.2719999999997
 33
0.0
 14
108.2839999999998
 24
-67.80399999999997
 34
0.0
 50
180.0
100
AcDbRotatedDimension
1001
ACAD
1000
DSTYLE
1002
{
1070
   340
1005
11
1002
}
  0
INSERT
  5
512E
330
5118
100
AcDbEntity
  8
0
100
AcDbBlockReference
  2
*U3
 10
-659.862736842105
 20
-310.4567974937046
 30
0.0
 41
2.52999999999997
 42
2.52999999999997
 43
2.52999999999997
  0
DIMENSION
  5
512F
330
5118
100
AcDbEntity
  8
0
  6
Continuous
100
AcDbDimension
  2
*D13
 10
93.10399999999992
 20
-35.31929749851168
 30
0.0
 11
85.51400000000002
 21
-35.31929749851168
 31
0.0
 12
-659.862736842105
 22
-310.4567974937046
 32
0.0
 71
     5
 42
-1.0
  3
STANDARD
100
AcDbAlignedDimension
 13
77.92399999999997
 23
-60.71999998330202
 33
0.0
 14
93.10399999999992
 24
-65.27399998330202
 34
0.0
100
AcDbRotatedDimension
1001
ACAD
1000
DSTYLE
1002
{
1070
   340
1005
11
1002
}
  0
LINE
  5
5130
330
5118
100
AcDbEntity
  8
0
  6
Continuous
100
AcDbLine
 10
79.53689751061313
 20
-75.89999999999998
 30
0.0
 11
106.1146833380776
 21
-75.89999999999998
 31
0.0
  0
LINE
  5
5131
330
5118
100
AcDbEntity
  8
0
  6
Continuous
100
AcDbLine
 10
79.53689751061313
 20
-59.708
 30
0.0
 11
106.1146833380776
 21
-59.708
 31
0.0
  0
LINE
  5
5132
330
5118
100
AcDbEntity
  8
0
  6
Continuous
100
AcDbLine
 10
50.59999999999989
 20
-67.80399999999997
 30
0.0
 11
169.0039999999999
 21
-67.80399999999997
 31
0.0
  0
DIMENSION
  5
5133
330
5118
100
AcDbEntity
  8
0
  6
Continuous
100
AcDbDimension
  2
*D11
 10
0.0
 20
-149.1692974985116
 30
0.0
 11
-7.59000000000003
 21
-149.1692974985116
 31
0.0
 12
-659.862736842105
 22
-310.4567974937046
 32
0.0
 71
     5
 42
-1.0
  3
STANDARD
100
AcDbAlignedDimension
 13
-15.17999999999995
 23
-97.15199999999979
 33
0.0
 14
0.0
 24
-107.2719999999997
 34
0.0
 50
180.0
100
AcDbRotatedDimension
1001
ACAD
1000
DSTYLE
1002
{
1070
   340
1005
11
1002
}
  0
LINE
  5
5134
330
5118
100
AcDbEntity
  8
0
  6
PHANTOM
100
AcDbLine
 10
0.0
 20
-97.15199999999979
 30
0.0
 11
0.0
 21
-107.2719999999997
 31
0.0
  0
LINE
  5
5135
330
5118
100
AcDbEntity
  8
0
  6
PHANTOM
100
AcDbLine
 10
0.0
 20
-107.2719999999997
 30
0.0
 11
4.048000000000111
 21
-112.3319999999995
 31
0.0
  0
INSERT
  5
5136
330
5118
100
AcDbEntity
  8
0
100
AcDbBlockReference
  2
*U2
 10
-659.862736842105
 20
-310.4567974937046
 30
0.0
 41
2.52999999999997
 42
2.52999999999997
 43
2.52999999999997
  0
LINE
  5
5137
330
5118
100
AcDbEntity
  8
0
  6
Continuous
100
AcDbLine
 10
0.0
 20
-78.42999999999998
 30
0.0
 11
55.66000000000006
 21
-78.42999999999998
 31
0.0
  0
LINE
  5
5138
330
5118
100
AcDbEntity
  8
0
  6
Continuous
100
AcDbLine
 10
-15.17999999999995
 20
-97.15199999999979
 30
0.0
 11
0.0
 21
-97.15199999999979
 31
0.0
  0
LINE
  5
5139
330
5118
100
AcDbEntity
  8
0
  6
Continuous
100
AcDbLine
 10
72.35799999999983
 20
-60.59350000000002
 30
0.0
 11
72.35799999999983
 21
-75.0145
 31
0.0
  0
LINE
  5
513A
330
5118
100
AcDbEntity
  8
0
  6
Continuous
100
AcDbLine
 10
55.65999999999984
 20
-75.0145
 30
0.0
 11
79.05465453181079
 21
-75.0145
 31
0.0
  0
LINE
  5
513B
330
5118
100
AcDbEntity
  8
0
  6
Continuous
100
AcDbLine
 10
72.35799999999983
 20
-72.35800000000002
 30
0.0
 11
77.92399999999997
 21
-72.35800000000002
 31
0.0
  0
ARC
  5
513C
330
5118
100
AcDbEntity
  8
0
  6
Continuous
100
AcDbCircle
 10
97.06525168321023
 20
-65.77999999999997
 30
0.0
 40
20.24
100
AcDbArc
 50
198.9655749888484
 51
210.0000000000004
  0
LINE
  5
513D
330
5118
100
AcDbEntity
  8
0
  6
Continuous
100
AcDbLine
 10
55.65999999999984
 20
-60.59350000000002
 30
0.0
 11
79.05465453181079
 21
-60.59350000000002
 31
0.0
  0
LINE
  5
513E
330
5118
100
AcDbEntity
  8
0
  6
Continuous
100
AcDbLine
 10
72.35799999999983
 20
-63.25
 30
0.0
 11
77.92399999999997
 21
-63.25
 31
0.0
  0
ARC
  5
513F
330
5118
100
AcDbEntity
  8
0
  6
Continuous
100
AcDbCircle
 10
-97.06525168321023
 20
-69.82800000000001
 30
0.0
 40
20.24
210
0.0
220
0.0
230
-1.0
100
AcDbArc
 50
18.96557498884845
 51
30.00000000000054
  0
DIMENSION
  5
5140
330
5118
100
AcDbEntity
  8
0
  6
Continuous
100
AcDbDimension
  2
*D7
 10
158.8839999999999
 20
-123.8692974985116
 30
0.0
 11
151.2939999999999
 21
-123.8692974985116
 31
0.0
 12
-659.862736842105
 22
-310.4567974937046
 32
0.0
 71
     5
 42
-1.0
  3
STANDARD
100
AcDbAlignedDimension
 13
143.7039999999998
 23
-70.33400001669801
 33
0.0
 14
158.8839999999999
 24
-77.20253289749209
 34
0.0
 50
180.0
100
AcDbRotatedDimension
1001
ACAD
1000
DSTYLE
1002
{
1070
   340
1005
11
1002
}
  0
DIMENSION
  5
5141
330
5118
100
AcDbEntity
  8
0
  6
Continuous
100
AcDbDimension
  2
*D12
 10
108.2839999999998
 20
-123.8692974985116
 30
0.0
 11
100.6939999999996
 21
-123.8692974985116
 31
0.0
 12
-659.862736842105
 22
-310.4567974937046
 32
0.0
 71
     5
 42
-1.0
  3
STANDARD
100
AcDbAlignedDimension
 13
93.10399999999992
 23
-70.33400001669801
 33
0.0
 14
108.2839999999998
 24
-77.20253289749209
 34
0.0
 50
180.0
100
AcDbRotatedDimension
1001
ACAD
1000
DSTYLE
1002
{
1070
   340
1005
11
1002
}
  0
CIRCLE
  5
5142
330
5118
100
AcDbEntity
  8
0
  6
Continuous
100
AcDbCircle
 10
143.7039999999998
 20
-67.80399999999997
 30
0.0
 40
4.301
  0
LINE
  5
5143
330
5118
100
AcDbEntity
  8
0
  6
Continuous
100
AcDbLine
 10
130.1368975106131
 20
-59.708
 30
0.0
 11
156.7146833380776
 21
-59.708
 31
0.0
  0
LINE
  5
5144
330
5118
100
AcDbEntity
  8
0
  6
Continuous
100
AcDbLine
 10
130.1368975106131
 20
-75.89999999999998
 30
0.0
 11
156.7146833380776
 21
-75.89999999999998
 31
0.0
  0
ARC
  5
5145
330
5118
100
AcDbEntity
  8
0
  6
Continuous
100
AcDbCircle
 10
92.09200000000008
 20
-67.80399999999997
 30
0.0
 40
16.192
100
AcDbArc
 50
329.9999999999993
 51
30.00000000000054
  0
CIRCLE
  5
5146
330
5118
100
AcDbEntity
  8
0
  6
Continuous
100
AcDbCircle
 10
93.10399999999992
 20
-67.80399999999997
 30
0.0
 40
4.301
  0
LINE
  5
5147
330
5118
100
AcDbEntity
  8
0
  6
Continuous
100
AcDbLine
 10
93.10399999999992
 20
-54.648
 30
0.0
 11
93.10399999999992
 21
-80.95999999999998
 31
0.0
  0
LINE
  5
5148
330
5118
100
AcDbEntity
  8
0
  6
Continuous
100
AcDbLine
 10
122.9579999999997
 20
-60.59350000000002
 30
0.0
 11
122.9579999999997
 21
-75.0145
 31
0.0
  0
LINE
  5
5149
330
5118
100
AcDbEntity
  8
0
  6
Continuous
100
AcDbLine
 10
106.5899154967187
 20
-75.0145
 30
0.0
 11
122.958
 21
-75.0145
 31
0.0
  0
LINE
  5
514A
330
5118
100
AcDbEntity
  8
0
  6
Continuous
100
AcDbLine
 10
122.9579999999997
 20
-72.35800000000002
 30
0.0
 11
128.5239999999996
 21
-72.35800000000002
 31
0.0
  0
ARC
  5
514B
330
5118
100
AcDbEntity
  8
0
  6
Continuous
100
AcDbCircle
 10
147.66525168321
 20
-65.77999999999997
 30
0.0
 40
20.24
100
AcDbArc
 50
198.9655749888484
 51
210.0000000000004
  0
LINE
  5
514C
330
5118
100
AcDbEntity
  8
0
  6
Continuous
100
AcDbLine
 10
106.5899154967187
 20
-60.59350000000002
 30
0.0
 11
122.958
 21
-60.59350000000002
 31
0.0
  0
LINE
  5
514D
330
5118
100
AcDbEntity
  8
0
  6
Continuous
100
AcDbLine
 10
122.9579999999997
 20
-63.25
 30
0.0
 11
128.5239999999996
 21
-63.25
 31
0.0
  0
ARC
  5
514E
330
5118
100
AcDbEntity
  8
0
  6
Continuous
100
AcDbCircle
 10
-147.66525168321
 20
-69.82800000000001
 30
0.0
 40
20.24
210
0.0
220
0.0
230
-1.0
100
AcDbArc
 50
18.96557498884845
 51
30.00000000000054
  0
DIMENSION
  5
514F
330
5118
100
AcDbEntity
  8
0
  6
Continuous
100
AcDbDimension
  2
*D14
 10
183.2597631627018
 20
-59.70800000000003
 30
0.0
 11
183.2597631627018
 21
-67.80399999999985
 31
0.0
 12
-659.862736842105
 22
-310.4567974937046
 32
0.0
 71
     5
 42
-1.0
  3
STANDARD
100
AcDbAlignedDimension
 13
156.7146833380776
 23
-75.89999999999998
 33
0.0
 14
156.7146833380776
 24
-59.708
 34
0.0
 50
270.0
100
AcDbRotatedDimension
1001
ACAD
1000
DSTYLE
1002
{
1070
   340
1005
11
1002
}
  0
ARC
  5
5150
330
5118
100
AcDbEntity
  8
0
  6
Continuous
100
AcDbCircle
 10
142.692
 20
-67.80399999999997
 30
0.0
 40
16.192
100
AcDbArc
 50
329.9999999999993
 51
30.00000000000054
  0
LINE
  5
5151
330
5118
100
AcDbEntity
  8
0
  6
Continuous
100
AcDbLine
 10
143.7039999999998
 20
-54.648
 30
0.0
 11
143.7039999999998
 21
-80.95999999999998
 31
0.0
  0
INSERT
  5
5152
330
5118
100
AcDbEntity
  8
0
100
AcDbBlockReference
  2
*U5
 10
-659.862736842105
 20
-310.4567974937046
 30
0.0
 41
2.52999999999997
 42
2.52999999999997
 43
2.52999999999997
  0
TEXT
  5
5153
330
5118
100
AcDbEntity
  8
0
  6
Continuous
100
AcDbText
 10
73.44199308533291
 20
-20.05104921046847
 30
0.0
 40
6.324999999999997
  1
Conductor overlap max.
 41
0.8002884615384539
  7
UGMTXT
100
AcDbText
  0
LINE
  5
5154
330
5118
100
AcDbEntity
  8
0
  6
Continuous
100
AcDbLine
 10
72.35799999999983
 20
65.27399999999992
 30
0.0
 11
108.2839999999998
 21
65.27399999999992
 31
0.0
  0
LINE
  5
5155
330
5118
100
AcDbEntity
  8
0
  6
Continuous
100
AcDbLine
 10
72.35799999999983
 20
70.33399999999993
 30
0.0
 11
108.2839999999998
 21
70.33399999999993
 31
0.0
  0
LINE
  5
5156
330
5118
100
AcDbEntity
  8
0
  6
Continuous
100
AcDbLine
 10
50.59999999999989
 20
67.80399999999992
 30
0.0
 11
169.0039999999999
 21
67.80399999999992
 31
0.0
  0
LINE
  5
5157
330
5118
100
AcDbEntity
  8
0
  6
Continuous
100
AcDbLine
 10
55.65999999999984
 20
60.59350000000002
 30
0.0
 11
122.9579999999995
 21
60.59350000000002
 31
0.0
  0
LINE
  5
5158
330
5118
100
AcDbEntity
  8
0
  6
Continuous
100
AcDbLine
 10
55.65999999999984
 20
75.01449999999987
 30
0.0
 11
122.9579999999995
 21
75.01449999999987
 31
0.0
  0
TEXT
  5
5159
330
5118
100
AcDbEntity
  8
0
  6
Continuous
100
AcDbText
 10
30.93228585497161
 20
113.9777903531155
 30
0.0
 40
6.324999999999997
  1
(max. t4)
 41
0.8116586538461458
  7
UGMTXT
100
AcDbText
  0
LINE
  5
515A
330
5118
100
AcDbEntity
  8
0
  6
Continuous
100
AcDbLine
 10
0.0
 20
78.43000000000012
 30
0.0
 11
55.66000000000006
 21
78.43000000000012
 31
0.0
  0
LINE
  5
515B
330
5118
100
AcDbEntity
  8
0
  6
Continuous
100
AcDbLine
 10
-15.17999999999995
 20
97.15200000000022
 30
0.0
 11
0.0
 21
97.15200000000022
 31
0.0
  0
LINE
  5
515C
330
5118
100
AcDbEntity
  8
0
  6
PHANTOM
100
AcDbLine
 10
0.0
 20
107.2720000000002
 30
0.0
 11
0.0
 21
97.15200000000022
 31
0.0
  0
LINE
  5
515D
330
5118
100
AcDbEntity
  8
0
  6
PHANTOM
100
AcDbLine
 10
0.0
 20
107.2720000000002
 30
0.0
 11
4.048000000000111
 21
102.2120000000002
 31
0.0
  0
LINE
  5
515E
330
5118
100
AcDbEntity
  8
0
  6
Continuous
100
AcDbLine
 10
72.35799999999983
 20
75.01449999999987
 30
0.0
 11
72.35799999999983
 21
60.59349999999994
 31
0.0
  0
LINE
  5
515F
330
5118
100
AcDbEntity
  8
0
  6
Continuous
100
AcDbLine
 10
77.92399999999997
 20
70.33399999999993
 30
0.0
 11
77.92399999999997
 21
65.27399999999992
 31
0.0
  0
LINE
  5
5160
330
5118
100
AcDbEntity
  8
0
  6
Continuous
100
AcDbLine
 10
122.9579999999997
 20
70.33399999999993
 30
0.0
 11
158.8839999999999
 21
70.33399999999993
 31
0.0
  0
LINE
  5
5161
330
5118
100
AcDbEntity
  8
0
  6
Continuous
100
AcDbLine
 10
122.9579999999997
 20
65.27399999999992
 30
0.0
 11
158.8839999999999
 21
65.27399999999992
 31
0.0
  0
LINE
  5
5162
330
5118
100
AcDbEntity
  8
0
  6
Continuous
100
AcDbLine
 10
93.10399999999992
 20
74.1289999999999
 30
0.0
 11
93.10399999999992
 21
61.47899999999992
 31
0.0
  0
LINE
  5
5163
330
5118
100
AcDbEntity
  8
0
  6
Continuous
100
AcDbLine
 10
108.2839999999998
 20
70.33399999999993
 30
0.0
 11
108.2839999999998
 21
65.27399999999992
 31
0.0
  0
LINE
  5
5164
330
5118
100
AcDbEntity
  8
0
  6
Continuous
100
AcDbLine
 10
122.9579999999997
 20
75.01449999999987
 30
0.0
 11
122.9579999999997
 21
60.59350000000002
 31
0.0
  0
LINE
  5
5165
330
5118
100
AcDbEntity
  8
0
  6
Continuous
100
AcDbLine
 10
128.5239999999996
 20
70.33399999999993
 30
0.0
 11
128.5239999999996
 21
65.27399999999992
 31
0.0
  0
DIMENSION
  5
5166
330
5118
100
AcDbEntity
  8
0
  6
Continuous
100
AcDbDimension
  2
*D15
 10
183.2597631627018
 20
70.33399999999993
 30
0.0
 11
183.2597631627016
 21
67.8040000000001
 31
0.0
 12
-659.862736842105
 22
-310.4567974937046
 32
0.0
 71
     5
 42
-1.0
  3
STANDARD
100
AcDbAlignedDimension
 13
158.8839999999999
 23
65.27399999999992
 33
0.0
 14
158.8839999999999
 24
70.33399999999993
 34
0.0
 50
270.0
100
AcDbRotatedDimension
1001
ACAD
1000
DSTYLE
1002
{
1070
   340
1005
11
1002
}
  0
LINE
  5
5167
330
5118
100
AcDbEntity
  8
0
  6
Continuous
100
AcDbLine
 10
143.7039999999998
 20
74.1289999999999
 30
0.0
 11
143.7039999999998
 21
61.47899999999992
 31
0.0
  0
LINE
  5
5168
330
5118
100
AcDbEntity
  8
0
  6
Continuous
100
AcDbLine
 10
158.8839999999999
 20
70.33399999999993
 30
0.0
 11
158.8839999999999
 21
65.27399999999992
 31
0.0
  0
INSERT
  5
5169
330
5118
100
AcDbEntity
  8
0
100
AcDbBlockReference
  2
*U4
 10
-659.862736842105
 20
-310.4567974937046
 30
0.0
 41
2.52999999999997
 42
2.52999999999997
 43
2.52999999999997
  0
TEXT
  5
516A
330
5118
100
AcDbEntity
  8
0
  6
Continuous
100
AcDbText
 10
176.5656152757899
 20
-120.3935488900433
 30
0.0
 40
6.324999999999997
  1
turned 45
 41
0.8116586538461458
  7
UGMTXT
100
AcDbText
  0
TEXT
  5
516B
330
5118
100
AcDbEntity
  8
0
  6
Continuous
100
AcDbText
 10
176.5656152757899
 20
-110.9060488900432
 30
0.0
 40
6.324999999999997
  1
Stud can be
 41
0.8081054687499921
  7
UGMTXT
100
AcDbText
  0
TEXT
  5
516C
330
5118
100
AcDbEntity
  8
0
  6
Continuous
100
AcDbText
 10
228.5821517341229
 20
-120.3935488900433
 30
0.0
 40
6.324999999999997
  1
90
 41
0.8912499999999909
  7
UGMTXT
100
AcDbText
  0
TEXT
  5
516D
330
5118
100
AcDbEntity
  8
0
  6
Continuous
100
AcDbText
 10
223.3834426804115
 20
-120.8705475662156
 30
0.0
 40
6.324999999999997
  1
,
 41
1.189062499999988
  7
UGMTXT
100
AcDbText
  0
TEXT
  5
516E
330
5118
100
AcDbEntity
  8
0
  6
Continuous
100
AcDbText
 10
221.6905371507897
 20
-120.3935488900433
 30
0.0
 40
6.324999999999997
  1
%%d
 41
1.484374999999988
  7
UGMTXT
100
AcDbText
  0
TEXT
  5
516F
330
5118
100
AcDbEntity
  8
0
  6
Continuous
100
AcDbText
 10
238.6099121507894
 20
-120.3935488900433
 30
0.0
 40
6.324999999999997
  1
%%d
 41
1.484374999999988
  7
UGMTXT
100
AcDbText
  0
ENDBLK
  5
5171
330
5118
100
AcDbEntity
  8
0
100
AcDbBlockEnd
  0
BLOCK
  5
5213
330
5209
100
AcDbEntity
  8
0
100
AcDbBlockBegin
  2
*D17
 70
     1
 10
0.0
 20
0.0
 30
0.0
  3
*D17
  1

  0
LINE
  5
579C
330
5209
100
AcDbEntity
  8
30
  6
Continuous
 62
     0
100
AcDbLine
 10
158.0001089354263
 20
-3.499987637474178
 30
0.0
 11
158.0001089354263
 21
-172.8996379392699
 31
0.0
  0
LINE
  5
579D
330
5209
100
AcDbEntity
  8
30
  6
Continuous
 62
     0
100
AcDbLine
 10
194.9999257258451
 20
-106.9994751293082
 30
0.0
 11
194.9999257258451
 21
-172.8996379392699
 31
0.0
  0
LINE
  5
579E
330
5209
100
AcDbEntity
  8
30
  6
Continuous
 62
     0
100
AcDbLine
 10
160.0001089354264
 20
-172.3996379392698
 30
0.0
 11
192.9999257258453
 21
-172.3996379392698
 31
0.0
  0
INSERT
  5
579F
330
5209
100
AcDbEntity
  8
30
  6
Continuous
 62
     0
100
AcDbBlockReference
  2
_OPEN
 10
158.0001089354263
 20
-172.3996379392698
 30
0.0
 41
2.0
 42
2.0
 43
2.0
 50
180.0
  0
INSERT
  5
57A0
330
5209
100
AcDbEntity
  8
30
  6
Continuous
 62
     0
100
AcDbBlockReference
  2
_OPEN
 10
194.9999257258451
 20
-172.3996379392698
 30
0.0
 41
2.0
 42
2.0
 43
2.0
  0
MTEXT
  5
57A1
330
5209
100
AcDbEntity
  8
30
  6
Continuous
 62
     0
100
AcDbMText
 10
176.5000173306356
 20
-169.39963793927
 30
0.0
 40
4.0
 41
0.0
 71
     5
 72
     1
  1
\A1;37
 73
     1
 44
1.0
1001
ACAD
1000
MTEXTBEGIN
1070
    73
1070
     1
1070
    44
1040
1.0
1070
    74
1070
     0
1000
MTEXTEND
  0
POINT
  5
57A2
330
5209
100
AcDbEntity
  8
DEFPOINTS
  6
Continuous
 62
     0
100
AcDbPoint
 10
158.0001089354263
 20
-2.499987637474178
 30
0.0
  0
POINT
  5
57A3
330
5209
100
AcDbEntity
  8
DEFPOINTS
  6
Continuous
 62
     0
100
AcDbPoint
 10
194.9999257258451
 20
-105.9994751293082
 30
0.0
  0
POINT
  5
57A4
330
5209
100
AcDbEntity
  8
DEFPOINTS
  6
Continuous
 62
     0
100
AcDbPoint
 10
194.9999257258451
 20
-172.3996379392698
 30
0.0
  0
ENDBLK
  5
5214
330
5209
100
AcDbEntity
  8
0
100
AcDbBlockEnd
  0
BLOCK
  5
522B
330
5221
100
AcDbEntity
  8
0
100
AcDbBlockBegin
  2
*D18
 70
     1
 10
0.0
 20
0.0
 30
0.0
  3
*D18
  1

  0
LINE
  5
57B7
330
5221
100
AcDbEntity
  8
30
  6
Continuous
 62
     0
100
AcDbLine
 10
194.9999257258451
 20
-106.9994751293082
 30
0.0
 11
194.9999257258451
 21
-172.8996379392699
 31
0.0
  0
LINE
  5
57B8
330
5221
100
AcDbEntity
  8
30
  6
Continuous
 62
     0
100
AcDbLine
 10
351.9991483230286
 20
-67.99966824211003
 30
0.0
 11
351.9991483230286
 21
-172.8996379392699
 31
0.0
  0
LINE
  5
57B9
330
5221
100
AcDbEntity
  8
30
  6
Continuous
 62
     0
100
AcDbLine
 10
196.9999257258451
 20
-172.3996379392698
 30
0.0
 11
349.9991483230286
 21
-172.3996379392698
 31
0.0
  0
INSERT
  5
57BA
330
5221
100
AcDbEntity
  8
30
  6
Continuous
 62
     0
100
AcDbBlockReference
  2
_OPEN
 10
194.9999257258451
 20
-172.3996379392698
 30
0.0
 41
2.0
 42
2.0
 43
2.0
 50
180.0
  0
INSERT
  5
57BB
330
5221
100
AcDbEntity
  8
30
  6
Continuous
 62
     0
100
AcDbBlockReference
  2
_OPEN
 10
351.9991483230286
 20
-172.3996379392698
 30
0.0
 41
2.0
 42
2.0
 43
2.0
  0
MTEXT
  5
57BC
330
5221
100
AcDbEntity
  8
30
  6
Continuous
 62
     0
100
AcDbMText
 10
273.4995370244369
 20
-169.39963793927
 30
0.0
 40
4.0
 41
0.0
 71
     5
 72
     1
  1
\A1;157
 73
     1
 44
1.0
1001
ACAD
1000
MTEXTBEGIN
1070
    73
1070
     1
1070
    44
1040
1.0
1070
    74
1070
     0
1000
MTEXTEND
  0
POINT
  5
57BD
330
5221
100
AcDbEntity
  8
DEFPOINTS
  6
Continuous
 62
     0
100
AcDbPoint
 10
194.9999257258451
 20
-105.9994751293082
 30
0.0
  0
POINT
  5
57BE
330
5221
100
AcDbEntity
  8
DEFPOINTS
  6
Continuous
 62
     0
100
AcDbPoint
 10
351.9991483230286
 20
-66.99966824211003
 30
0.0
  0
POINT
  5
57BF
330
5221
100
AcDbEntity
  8
DEFPOINTS
  6
Continuous
 62
     0
100
AcDbPoint
 10
351.9991483230286
 20
-172.3996379392698
 30
0.0
  0
ENDBLK
  5
522C
330
5221
100
AcDbEntity
  8
0
100
AcDbBlockEnd
  0
BLOCK
  5
5237
330
522D
100
AcDbEntity
  8
0
100
AcDbBlockBegin
  2
*D19
 70
     1
 10
0.0
 20
0.0
 30
0.0
  3
*D19
  1

  0
LINE
  5
57C0
330
522D
100
AcDbEntity
  8
30
  6
Continuous
 62
     0
100
AcDbLine
 10
194.9999257258451
 20
-106.9994751293082
 30
0.0
 11
194.9999257258451
 21
-147.8997617295273
 31
0.0
  0
LINE
  5
57C1
330
522D
100
AcDbEntity
  8
30
  6
Continuous
 62
     0
100
AcDbLine
 10
301.9993959035433
 20
-67.99966824211003
 30
0.0
 11
301.9993959035433
 21
-147.8997617295273
 31
0.0
  0
LINE
  5
57C2
330
522D
100
AcDbEntity
  8
30
  6
Continuous
 62
     0
100
AcDbLine
 10
196.9999257258451
 20
-147.3997617295276
 30
0.0
 11
299.9993959035433
 21
-147.3997617295276
 31
0.0
  0
INSERT
  5
57C3
330
522D
100
AcDbEntity
  8
30
  6
Continuous
 62
     0
100
AcDbBlockReference
  2
_OPEN
 10
194.9999257258451
 20
-147.3997617295276
 30
0.0
 41
2.0
 42
2.0
 43
2.0
 50
180.0
  0
INSERT
  5
57C4
330
522D
100
AcDbEntity
  8
30
  6
Continuous
 62
     0
100
AcDbBlockReference
  2
_OPEN
 10
301.9993959035433
 20
-147.3997617295276
 30
0.0
 41
2.0
 42
2.0
 43
2.0
  0
MTEXT
  5
57C5
330
522D
100
AcDbEntity
  8
30
  6
Continuous
 62
     0
100
AcDbMText
 10
248.4996608146944
 20
-144.3997617295273
 30
0.0
 40
4.0
 41
0.0
 71
     5
 72
     1
  1
\A1;107
 73
     1
 44
1.0
1001
ACAD
1000
MTEXTBEGIN
1070
    73
1070
     1
1070
    44
1040
1.0
1070
    74
1070
     0
1000
MTEXTEND
  0
POINT
  5
57C6
330
522D
100
AcDbEntity
  8
DEFPOINTS
  6
Continuous
 62
     0
100
AcDbPoint
 10
194.9999257258451
 20
-105.9994751293082
 30
0.0
  0
POINT
  5
57C7
330
522D
100
AcDbEntity
  8
DEFPOINTS
  6
Continuous
 62
     0
100
AcDbPoint
 10
301.9993959035433
 20
-66.99966824211003
 30
0.0
  0
POINT
  5
57C8
330
522D
100
AcDbEntity
  8
DEFPOINTS
  6
Continuous
 62
     0
100
AcDbPoint
 10
301.9993959035433
 20
-147.3997617295276
 30
0.0
  0
ENDBLK
  5
5238
330
522D
100
AcDbEntity
  8
0
100
AcDbBlockEnd
  0
BLOCK
  5
5243
330
5239
100
AcDbEntity
  8
0
100
AcDbBlockBegin
  2
*D20
 70
     1
 10
0.0
 20
0.0
 30
0.0
  3
*D20
  1

  0
LINE
  5
57A5
330
5239
100
AcDbEntity
  8
30
  6
Continuous
 62
     0
100
AcDbLine
 10
271.9995444518525
 20
-58.99970288688223
 30
0.0
 11
271.9995444518525
 21
-34.40031878568621
 31
0.0
  0
LINE
  5
57A6
330
5239
100
AcDbEntity
  8
30
  6
Continuous
 62
     0
100
AcDbLine
 10
286.9994701776981
 20
-63.49968060463591
 30
0.0
 11
286.9994701776981
 21
-34.40031878568621
 31
0.0
  0
LINE
  5
57A7
330
5239
100
AcDbEntity
  8
30
  6
Continuous
 62
     0
100
AcDbLine
 10
273.9995444518525
 20
-34.90031878568621
 30
0.0
 11
284.9994701776981
 21
-34.90031878568621
 31
0.0
  0
INSERT
  5
57A8
330
5239
100
AcDbEntity
  8
30
  6
Continuous
 62
     0
100
AcDbBlockReference
  2
_OPEN
 10
271.9995444518525
 20
-34.90031878568621
 30
0.0
 41
2.0
 42
2.0
 43
2.0
 50
180.0
  0
INSERT
  5
57A9
330
5239
100
AcDbEntity
  8
30
  6
Continuous
 62
     0
100
AcDbBlockReference
  2
_OPEN
 10
286.9994701776981
 20
-34.90031878568621
 30
0.0
 41
2.0
 42
2.0
 43
2.0
  0
MTEXT
  5
57AA
330
5239
100
AcDbEntity
  8
30
  6
Continuous
 62
     0
100
AcDbMText
 10
279.4995073147753
 20
-31.90031878568621
 30
0.0
 40
4.0
 41
0.0
 71
     5
 72
     1
  1
\A1;15
 73
     1
 44
1.0
1001
ACAD
1000
MTEXTBEGIN
1070
    73
1070
     1
1070
    44
1040
1.0
1070
    74
1070
     0
1000
MTEXTEND
  0
POINT
  5
57AB
330
5239
100
AcDbEntity
  8
DEFPOINTS
  6
Continuous
 62
     0
100
AcDbPoint
 10
271.9995444518525
 20
-59.99970288688222
 30
0.0
  0
POINT
  5
57AC
330
5239
100
AcDbEntity
  8
DEFPOINTS
  6
Continuous
 62
     0
100
AcDbPoint
 10
286.9994701776981
 20
-64.49968060463591
 30
0.0
  0
POINT
  5
57AD
330
5239
100
AcDbEntity
  8
DEFPOINTS
  6
Continuous
 62
     0
100
AcDbPoint
 10
286.9994701776981
 20
-34.90031878568621
 30
0.0
  0
ENDBLK
  5
5244
330
5239
100
AcDbEntity
  8
0
100
AcDbBlockEnd
  0
BLOCK
  5
524F
330
5245
100
AcDbEntity
  8
0
100
AcDbBlockBegin
  2
*D21
 70
     1
 10
0.0
 20
0.0
 30
0.0
  3
*D21
  1

  0
LINE
  5
57C9
330
5245
100
AcDbEntity
  8
30
  6
Continuous
 62
     0
100
AcDbLine
 10
180.0
 20
-96.99952464541119
 30
0.0
 11
180.0
 21
-147.8997617295273
 31
0.0
  0
LINE
  5
57CA
330
5245
100
AcDbEntity
  8
30
  6
Continuous
 62
     0
100
AcDbLine
 10
194.9999257258451
 20
-106.9994751293082
 30
0.0
 11
194.9999257258451
 21
-147.8997617295273
 31
0.0
  0
LINE
  5
57CB
330
5245
100
AcDbEntity
  8
30
  6
Continuous
 62
     0
100
AcDbLine
 10
182.0
 20
-147.3997617295276
 30
0.0
 11
192.9999257258453
 21
-147.3997617295276
 31
0.0
  0
INSERT
  5
57CC
330
5245
100
AcDbEntity
  8
30
  6
Continuous
 62
     0
100
AcDbBlockReference
  2
_OPEN
 10
180.0
 20
-147.3997617295276
 30
0.0
 41
2.0
 42
2.0
 43
2.0
 50
180.0
  0
INSERT
  5
57CD
330
5245
100
AcDbEntity
  8
30
  6
Continuous
 62
     0
100
AcDbBlockReference
  2
_OPEN
 10
194.9999257258451
 20
-147.3997617295276
 30
0.0
 41
2.0
 42
2.0
 43
2.0
  0
MTEXT
  5
57CE
330
5245
100
AcDbEntity
  8
30
  6
Continuous
 62
     0
100
AcDbMText
 10
187.4999628629225
 20
-144.3997617295273
 30
0.0
 40
4.0
 41
0.0
 71
     5
 72
     1
  1
\A1;15
 73
     1
 44
1.0
1001
ACAD
1000
MTEXTBEGIN
1070
    73
1070
     1
1070
    44
1040
1.0
1070
    74
1070
     0
1000
MTEXTEND
  0
POINT
  5
57CF
330
5245
100
AcDbEntity
  8
DEFPOINTS
  6
Continuous
 62
     0
100
AcDbPoint
 10
180.0
 20
-95.99952464541123
 30
0.0
  0
POINT
  5
57D0
330
5245
100
AcDbEntity
  8
DEFPOINTS
  6
Continuous
 62
     0
100
AcDbPoint
 10
194.9999257258451
 20
-105.9994751293082
 30
0.0
  0
POINT
  5
57D1
330
5245
100
AcDbEntity
  8
DEFPOINTS
  6
Continuous
 62
     0
100
AcDbPoint
 10
194.9999257258451
 20
-147.3997617295276
 30
0.0
  0
ENDBLK
  5
5250
330
5245
100
AcDbEntity
  8
0
100
AcDbBlockEnd
  0
BLOCK
  5
525B
330
5251
100
AcDbEntity
  8
0
100
AcDbBlockBegin
  2
*D22
 70
     1
 10
0.0
 20
0.0
 30
0.0
  3
*D22
  1

  0
LINE
  5
57DB
330
5251
100
AcDbEntity
  8
30
  6
Continuous
 62
     0
100
AcDbLine
 10
336.9992225971831
 20
-70.49965587958424
 30
0.0
 11
336.9992225971831
 21
-122.8998855197852
 31
0.0
  0
LINE
  5
57DC
330
5251
100
AcDbEntity
  8
30
  6
Continuous
 62
     0
100
AcDbLine
 10
351.9991483230286
 20
-77.28671009944187
 30
0.0
 11
351.9991483230286
 21
-122.8998855197852
 31
0.0
  0
LINE
  5
57DD
330
5251
100
AcDbEntity
  8
30
  6
Continuous
 62
     0
100
AcDbLine
 10
338.9992225971831
 20
-122.3998855197852
 30
0.0
 11
349.9991483230286
 21
-122.3998855197852
 31
0.0
  0
INSERT
  5
57DE
330
5251
100
AcDbEntity
  8
30
  6
Continuous
 62
     0
100
AcDbBlockReference
  2
_OPEN
 10
336.9992225971831
 20
-122.3998855197852
 30
0.0
 41
2.0
 42
2.0
 43
2.0
 50
180.0
  0
INSERT
  5
57DF
330
5251
100
AcDbEntity
  8
30
  6
Continuous
 62
     0
100
AcDbBlockReference
  2
_OPEN
 10
351.9991483230286
 20
-122.3998855197852
 30
0.0
 41
2.0
 42
2.0
 43
2.0
  0
MTEXT
  5
57E0
330
5251
100
AcDbEntity
  8
30
  6
Continuous
 62
     0
100
AcDbMText
 10
344.4991854601058
 20
-119.3998855197851
 30
0.0
 40
4.0
 41
0.0
 71
     5
 72
     1
  1
\A1;15
 73
     1
 44
1.0
1001
ACAD
1000
MTEXTBEGIN
1070
    73
1070
     1
1070
    44
1040
1.0
1070
    74
1070
     0
1000
MTEXTEND
  0
POINT
  5
57E1
330
5251
100
AcDbEntity
  8
DEFPOINTS
  6
Continuous
 62
     0
100
AcDbPoint
 10
336.9992225971831
 20
-69.49965587958423
 30
0.0
  0
POINT
  5
57E2
330
5251
100
AcDbEntity
  8
DEFPOINTS
  6
Continuous
 62
     0
100
AcDbPoint
 10
351.9991483230286
 20
-76.28671009944188
 30
0.0
  0
POINT
  5
57E3
330
5251
100
AcDbEntity
  8
DEFPOINTS
  6
Continuous
 62
     0
100
AcDbPoint
 10
351.9991483230286
 20
-122.3998855197852
 30
0.0
  0
ENDBLK
  5
525C
330
5251
100
AcDbEntity
  8
0
100
AcDbBlockEnd
  0
BLOCK
  5
5267
330
525D
100
AcDbEntity
  8
0
100
AcDbBlockBegin
  2
*D23
 70
     1
 10
0.0
 20
0.0
 30
0.0
  3
*D23
  1

  0
LINE
  5
57D2
330
525D
100
AcDbEntity
  8
30
  6
Continuous
 62
     0
100
AcDbLine
 10
286.9994701776981
 20
-70.49965587958424
 30
0.0
 11
286.9994701776981
 21
-122.8998855197852
 31
0.0
  0
LINE
  5
57D3
330
525D
100
AcDbEntity
  8
30
  6
Continuous
 62
     0
100
AcDbLine
 10
301.9993959035433
 20
-77.28671009944187
 30
0.0
 11
301.9993959035433
 21
-122.8998855197852
 31
0.0
  0
LINE
  5
57D4
330
525D
100
AcDbEntity
  8
30
  6
Continuous
 62
     0
100
AcDbLine
 10
288.9994701776982
 20
-122.3998855197852
 30
0.0
 11
299.9993959035433
 21
-122.3998855197852
 31
0.0
  0
INSERT
  5
57D5
330
525D
100
AcDbEntity
  8
30
  6
Continuous
 62
     0
100
AcDbBlockReference
  2
_OPEN
 10
286.9994701776981
 20
-122.3998855197852
 30
0.0
 41
2.0
 42
2.0
 43
2.0
 50
180.0
  0
INSERT
  5
57D6
330
525D
100
AcDbEntity
  8
30
  6
Continuous
 62
     0
100
AcDbBlockReference
  2
_OPEN
 10
301.9993959035433
 20
-122.3998855197852
 30
0.0
 41
2.0
 42
2.0
 43
2.0
  0
MTEXT
  5
57D7
330
525D
100
AcDbEntity
  8
30
  6
Continuous
 62
     0
100
AcDbMText
 10
294.4994330406208
 20
-119.3998855197851
 30
0.0
 40
4.0
 41
0.0
 71
     5
 72
     1
  1
\A1;15
 73
     1
 44
1.0
1001
ACAD
1000
MTEXTBEGIN
1070
    73
1070
     1
1070
    44
1040
1.0
1070
    74
1070
     0
1000
MTEXTEND
  0
POINT
  5
57D8
330
525D
100
AcDbEntity
  8
DEFPOINTS
  6
Continuous
 62
     0
100
AcDbPoint
 10
286.9994701776981
 20
-69.49965587958423
 30
0.0
  0
POINT
  5
57D9
330
525D
100
AcDbEntity
  8
DEFPOINTS
  6
Continuous
 62
     0
100
AcDbPoint
 10
301.9993959035433
 20
-76.28671009944188
 30
0.0
  0
POINT
  5
57DA
330
525D
100
AcDbEntity
  8
DEFPOINTS
  6
Continuous
 62
     0
100
AcDbPoint
 10
301.9993959035433
 20
-122.3998855197852
 30
0.0
  0
ENDBLK
  5
5268
330
525D
100
AcDbEntity
  8
0
100
AcDbBlockEnd
  0
BLOCK
  5
5273
330
5269
100
AcDbEntity
  8
0
100
AcDbBlockBegin
  2
*D24
 70
     1
 10
0.0
 20
0.0
 30
0.0
  3
*D24
  1

  0
LINE
  5
57E4
330
5269
100
AcDbEntity
  8
30
  6
Continuous
 62
     0
100
AcDbLine
 10
350.8555653978195
 20
-74.99962862922766
 30
0.0
 11
376.585751547754
 21
-74.99962862922767
 31
0.0
  0
LINE
  5
57E5
330
5269
100
AcDbEntity
  8
30
  6
Continuous
 62
     0
100
AcDbLine
 10
350.8555653978195
 20
-58.99970785499242
 30
0.0
 11
376.585751547754
 21
-58.99970785499243
 31
0.0
  0
LINE
  5
57E6
330
5269
100
AcDbEntity
  8
30
  6
Continuous
 62
     0
100
AcDbLine
 10
376.0857515477538
 20
-72.99962862922767
 30
0.0
 11
376.0857515477538
 21
-60.99970785499243
 31
0.0
  0
INSERT
  5
57E7
330
5269
100
AcDbEntity
  8
30
  6
Continuous
 62
     0
100
AcDbBlockReference
  2
_OPEN
 10
376.0857515477538
 20
-74.99962862922767
 30
0.0
 41
2.0
 42
2.0
 43
2.0
 50
270.0
  0
INSERT
  5
57E8
330
5269
100
AcDbEntity
  8
30
  6
Continuous
 62
     0
100
AcDbBlockReference
  2
_OPEN
 10
376.0857515477538
 20
-58.99970785499243
 30
0.0
 41
2.0
 42
2.0
 43
2.0
 50
90.0
  0
MTEXT
  5
57E9
330
5269
100
AcDbEntity
  8
30
  6
Continuous
 62
     0
100
AcDbMText
 10
373.085751547754
 20
-66.99966824210999
 30
0.0
 40
4.0
 41
0.0
 71
     5
 72
     1
  1
\A1;16
 11
0.0000000000000001
 21
1.0
 31
0.0
 73
     1
 44
1.0
1001
ACAD
1000
MTEXTBEGIN
1070
    73
1070
     1
1070
    44
1040
1.0
1070
    74
1070
     0
1000
MTEXTEND
  0
POINT
  5
57EA
330
5269
100
AcDbEntity
  8
DEFPOINTS
  6
Continuous
 62
     0
100
AcDbPoint
 10
349.8555653978196
 20
-74.99962862922766
 30
0.0
  0
POINT
  5
57EB
330
5269
100
AcDbEntity
  8
DEFPOINTS
  6
Continuous
 62
     0
100
AcDbPoint
 10
349.8555653978196
 20
-58.99970785499242
 30
0.0
  0
POINT
  5
57EC
330
5269
100
AcDbEntity
  8
DEFPOINTS
  6
Continuous
 62
     0
100
AcDbPoint
 10
376.0857515477538
 20
-58.99970785499243
 30
0.0
  0
ENDBLK
  5
5274
330
5269
100
AcDbEntity
  8
0
100
AcDbBlockEnd
  0
BLOCK
  5
5281
330
5275
100
AcDbEntity
  8
0
100
AcDbBlockBegin
  2
*D25
 70
     1
 10
0.0
 20
0.0
 30
0.0
  3
*D25
  1

  0
LINE
  5
57ED
330
5275
100
AcDbEntity
  8
30
  6
Continuous
 62
     0
100
AcDbLine
 10
352.9991483230286
 20
64.49968062113573
 30
0.0
 11
374.2524182144206
 21
64.49968062113573
 31
0.0
  0
LINE
  5
57EE
330
5275
100
AcDbEntity
  8
30
  6
Continuous
 62
     0
100
AcDbLine
 10
352.9991483230286
 20
69.49965586308421
 30
0.0
 11
374.2524182144206
 21
69.49965586308421
 31
0.0
  0
LINE
  5
57EF
330
5275
100
AcDbEntity
  8
30
  6
Continuous
 62
     0
100
AcDbLine
 10
373.7524182144206
 20
62.49968062113573
 30
0.0
 11
373.7524182144206
 21
60.49968062113574
 31
0.0
  0
LINE
  5
57F0
330
5275
100
AcDbEntity
  8
30
  6
Continuous
 62
     0
100
AcDbLine
 10
373.7524182144206
 20
71.49965586308423
 30
0.0
 11
373.7524182144206
 21
73.49965586308425
 31
0.0
  0
LINE
  5
57F1
330
5275
100
AcDbEntity
  8
30
  6
Continuous
 62
     0
100
AcDbLine
 10
373.7524182144206
 20
73.49965586308425
 30
0.0
 11
377.4190848810873
 21
73.49965586308425
 31
0.0
  0
INSERT
  5
57F2
330
5275
100
AcDbEntity
  8
30
  6
Continuous
 62
     0
100
AcDbBlockReference
  2
_OPEN
 10
373.7524182144206
 20
64.49968062113573
 30
0.0
 41
2.0
 42
2.0
 43
2.0
 50
90.0
  0
INSERT
  5
57F3
330
5275
100
AcDbEntity
  8
30
  6
Continuous
 62
     0
100
AcDbBlockReference
  2
_OPEN
 10
373.7524182144206
 20
69.49965586308421
 30
0.0
 41
2.0
 42
2.0
 43
2.0
 50
270.0
  0
MTEXT
  5
57F4
330
5275
100
AcDbEntity
  8
30
  6
Continuous
 62
     0
100
AcDbMText
 10
376.0857515477538
 20
76.4996558630843
 30
0.0
 40
4.0
 41
0.0
 71
     5
 72
     1
  1
\A1;5
 73
     1
 44
1.0
1001
ACAD
1000
MTEXTBEGIN
1070
    73
1070
     1
1070
    44
1040
1.0
1070
    74
1070
     0
1000
MTEXTEND
  0
POINT
  5
57F5
330
5275
100
AcDbEntity
  8
DEFPOINTS
  6
Continuous
 62
     0
100
AcDbPoint
 10
351.9991483230286
 20
64.49968062113575
 30
0.0
  0
POINT
  5
57F6
330
5275
100
AcDbEntity
  8
DEFPOINTS
  6
Continuous
 62
     0
100
AcDbPoint
 10
351.9991483230286
 20
69.49965586308424
 30
0.0
  0
POINT
  5
57F7
330
5275
100
AcDbEntity
  8
DEFPOINTS
  6
Continuous
 62
     0
100
AcDbPoint
 10
373.7524182144206
 20
69.49965586308421
 30
0.0
  0
ENDBLK
  5
5282
330
5275
100
AcDbEntity
  8
0
100
AcDbBlockEnd
  0
BLOCK
  5
5411
330
5407
100
AcDbEntity
  8
0
100
AcDbBlockBegin
  2
*D26
 70
     1
 10
0.0
 20
0.0
 30
0.0
  3
*D26
  1

  0
LINE
  5
58E9
330
5407
100
AcDbEntity
  8
30
  6
Continuous
 62
     0
100
AcDbLine
 10
-35.49984769919289
 20
-289.163123760855
 30
0.0
 11
-35.49984769919289
 21
-404.0636153436748
 31
0.0
  0
LINE
  5
58EA
330
5407
100
AcDbEntity
  8
30
  6
Continuous
 62
     0
100
AcDbLine
 10
65.50000000000003
 20
-289.163123760855
 30
0.0
 11
65.50000000000003
 21
-404.0636153436748
 31
0.0
  0
LINE
  5
58EB
330
5407
100
AcDbEntity
  8
30
  6
Continuous
 62
     0
100
AcDbLine
 10
-33.49984769919291
 20
-403.5636153436747
 30
0.0
 11
63.50000000000003
 21
-403.5636153436747
 31
0.0
  0
INSERT
  5
58EC
330
5407
100
AcDbEntity
  8
30
  6
Continuous
 62
     0
100
AcDbBlockReference
  2
_OPEN
 10
-35.49984769919289
 20
-403.5636153436747
 30
0.0
 41
2.0
 42
2.0
 43
2.0
 50
180.0
  0
INSERT
  5
58ED
330
5407
100
AcDbEntity
  8
30
  6
Continuous
 62
     0
100
AcDbBlockReference
  2
_OPEN
 10
65.50000000000003
 20
-403.5636153436747
 30
0.0
 41
2.0
 42
2.0
 43
2.0
  0
MTEXT
  5
58EE
330
5407
100
AcDbEntity
  8
30
  6
Continuous
 62
     0
100
AcDbMText
 10
15.00007615040354
 20
-400.5636153436748
 30
0.0
 40
4.0
 41
0.0
 71
     5
 72
     1
  1
\A1;101
 73
     1
 44
1.0
1001
ACAD
1000
MTEXTBEGIN
1070
    73
1070
     1
1070
    44
1040
1.0
1070
    74
1070
     0
1000
MTEXTEND
  0
POINT
  5
58EF
330
5407
100
AcDbEntity
  8
DEFPOINTS
  6
Continuous
 62
     0
100
AcDbPoint
 10
-35.49984769919289
 20
-288.163123760855
 30
0.0
  0
POINT
  5
58F0
330
5407
100
AcDbEntity
  8
DEFPOINTS
  6
Continuous
 62
     0
100
AcDbPoint
 10
65.50000000000003
 20
-288.163123760855
 30
0.0
  0
POINT
  5
58F1
330
5407
100
AcDbEntity
  8
DEFPOINTS
  6
Continuous
 62
     0
100
AcDbPoint
 10
65.50000000000003
 20
-403.5636153436747
 30
0.0
  0
ENDBLK
  5
5412
330
5407
100
AcDbEntity
  8
0
100
AcDbBlockEnd
  0
BLOCK
  5
541D
330
5413
100
AcDbEntity
  8
0
100
AcDbBlockBegin
  2
*D27
 70
     1
 10
0.0
 20
0.0
 30
0.0
  3
*D27
  1

  0
LINE
  5
58E0
330
5413
100
AcDbEntity
  8
30
  6
Continuous
 62
     0
100
AcDbLine
 10
-30.49984769919272
 20
-344.1631237443548
 30
0.0
 11
-30.49984769919272
 21
-379.0636153436746
 31
0.0
  0
LINE
  5
58E1
330
5413
100
AcDbEntity
  8
30
  6
Continuous
 62
     0
100
AcDbLine
 10
60.50000000000032
 20
-344.1631237443548
 30
0.0
 11
60.50000000000032
 21
-379.0636153436746
 31
0.0
  0
LINE
  5
58E2
330
5413
100
AcDbEntity
  8
30
  6
Continuous
 62
     0
100
AcDbLine
 10
-28.49984769919272
 20
-378.5636153436747
 30
0.0
 11
58.50000000000033
 21
-378.5636153436747
 31
0.0
  0
INSERT
  5
58E3
330
5413
100
AcDbEntity
  8
30
  6
Continuous
 62
     0
100
AcDbBlockReference
  2
_OPEN
 10
-30.49984769919272
 20
-378.5636153436747
 30
0.0
 41
2.0
 42
2.0
 43
2.0
 50
180.0
  0
INSERT
  5
58E4
330
5413
100
AcDbEntity
  8
30
  6
Continuous
 62
     0
100
AcDbBlockReference
  2
_OPEN
 10
60.50000000000032
 20
-378.5636153436747
 30
0.0
 41
2.0
 42
2.0
 43
2.0
  0
MTEXT
  5
58E5
330
5413
100
AcDbEntity
  8
30
  6
Continuous
 62
     0
100
AcDbMText
 10
15.0000761504038
 20
-375.5636153436747
 30
0.0
 40
4.0
 41
0.0
 71
     5
 72
     1
  1
\A1;91
 73
     1
 44
1.0
1001
ACAD
1000
MTEXTBEGIN
1070
    73
1070
     1
1070
    44
1040
1.0
1070
    74
1070
     0
1000
MTEXTEND
  0
POINT
  5
58E6
330
5413
100
AcDbEntity
  8
DEFPOINTS
  6
Continuous
 62
     0
100
AcDbPoint
 10
-30.49984769919272
 20
-343.1631237443548
 30
0.0
  0
POINT
  5
58E7
330
5413
100
AcDbEntity
  8
DEFPOINTS
  6
Continuous
 62
     0
100
AcDbPoint
 10
60.50000000000032
 20
-343.1631237443548
 30
0.0
  0
POINT
  5
58E8
330
5413
100
AcDbEntity
  8
DEFPOINTS
  6
Continuous
 62
     0
100
AcDbPoint
 10
60.50000000000032
 20
-378.5636153436747
 30
0.0
  0
ENDBLK
  5
541E
330
5413
100
AcDbEntity
  8
0
100
AcDbBlockEnd
  0
BLOCK
  5
5448
330
543F
100
AcDbEntity
  8
0
100
AcDbBlockBegin
  2
*D28
 70
     1
 10
0.0
 20
0.0
 30
0.0
  3
*D28
  1

  0
LINE
  5
58A2
330
543F
100
AcDbEntity
  8
30
  6
Continuous
 62
     0
100
AcDbLine
 10
29.95999999999989
 20
271.7953751724501
 30
0.0
 11
29.9599999999999
 21
326.6448107631839
 31
0.0
  0
LINE
  5
58A3
330
543F
100
AcDbEntity
  8
30
  6
Continuous
 62
     0
100
AcDbLine
 10
2.0
 20
326.1448107631839
 30
0.0
 11
27.9599999999999
 21
326.1448107631839
 31
0.0
  0
INSERT
  5
58A4
330
543F
100
AcDbEntity
  8
30
  6
Continuous
 62
     0
100
AcDbBlockReference
  2
_OPEN
 10
0.0
 20
326.1448107631839
 30
0.0
 41
2.0
 42
2.0
 43
2.0
 50
180.0
  0
INSERT
  5
58A5
330
543F
100
AcDbEntity
  8
30
  6
Continuous
 62
     0
100
AcDbBlockReference
  2
_OPEN
 10
29.9599999999999
 20
326.1448107631839
 30
0.0
 41
2.0
 42
2.0
 43
2.0
  0
MTEXT
  5
58A6
330
543F
100
AcDbEntity
  8
30
  6
Continuous
 62
     0
100
AcDbMText
 10
14.97999999999995
 20
329.1448107631838
 30
0.0
 40
4.0
 41
0.0
 71
     5
 72
     1
  1
\A1;30
 73
     1
 44
1.0
1001
ACAD
1000
MTEXTBEGIN
1070
    73
1070
     1
1070
    44
1040
1.0
1070
    74
1070
     0
1000
MTEXTEND
  0
POINT
  5
58A7
330
543F
100
AcDbEntity
  8
DEFPOINTS
  6
Continuous
 62
     0
100
AcDbPoint
 10
0.0
 20
326.6448107631839
 30
0.0
  0
POINT
  5
58A8
330
543F
100
AcDbEntity
  8
DEFPOINTS
  6
Continuous
 62
     0
100
AcDbPoint
 10
29.95999999999989
 20
270.7953751724502
 30
0.0
  0
POINT
  5
58A9
330
543F
100
AcDbEntity
  8
DEFPOINTS
  6
Continuous
 62
     0
100
AcDbPoint
 10
29.9599999999999
 20
326.1448107631839
 30
0.0
  0
ENDBLK
  5
5449
330
543F
100
AcDbEntity
  8
0
100
AcDbBlockEnd
  0
BLOCK
  5
5481
330
5477
100
AcDbEntity
  8
0
100
AcDbBlockBegin
  2
*D29
 70
     1
 10
0.0
 20
0.0
 30
0.0
  3
*D29
  1

  0
LINE
  5
588A
330
5477
100
AcDbEntity
  8
30
  6
Continuous
 62
     0
100
AcDbLine
 10
-45.99984769919273
 20
-96.2647216513492
 30
0.0
 11
-45.99984769919273
 21
-124.781538972208
 31
0.0
  0
LINE
  5
588B
330
5477
100
AcDbEntity
  8
30
  6
Continuous
 62
     0
100
AcDbLine
 10
75.99974009536143
 20
-96.2647216513492
 30
0.0
 11
75.99974009536143
 21
-124.781538972208
 31
0.0
  0
LINE
  5
588C
330
5477
100
AcDbEntity
  8
30
  6
Continuous
 62
     0
100
AcDbLine
 10
-43.99984769919274
 20
-124.2815389722079
 30
0.0
 11
73.99974009536143
 21
-124.2815389722079
 31
0.0
  0
INSERT
  5
588D
330
5477
100
AcDbEntity
  8
30
  6
Continuous
 62
     0
100
AcDbBlockReference
  2
_OPEN
 10
-45.99984769919273
 20
-124.2815389722079
 30
0.0
 41
2.0
 42
2.0
 43
2.0
 50
180.0
  0
INSERT
  5
588E
330
5477
100
AcDbEntity
  8
30
  6
Continuous
 62
     0
100
AcDbBlockReference
  2
_OPEN
 10
75.99974009536143
 20
-124.2815389722079
 30
0.0
 41
2.0
 42
2.0
 43
2.0
  0
MTEXT
  5
588F
330
5477
100
AcDbEntity
  8
30
  6
Continuous
 62
     0
100
AcDbMText
 10
14.99994619808433
 20
-121.2815389722079
 30
0.0
 40
4.0
 41
0.0
 71
     5
 72
     1
  1
\A1;122
 73
     1
 44
1.0
1001
ACAD
1000
MTEXTBEGIN
1070
    73
1070
     1
1070
    44
1040
1.0
1070
    74
1070
     0
1000
MTEXTEND
  0
POINT
  5
5890
330
5477
100
AcDbEntity
  8
DEFPOINTS
  6
Continuous
 62
     0
100
AcDbPoint
 10
-45.99984769919273
 20
-95.2647216513492
 30
0.0
  0
POINT
  5
5891
330
5477
100
AcDbEntity
  8
DEFPOINTS
  6
Continuous
 62
     0
100
AcDbPoint
 10
75.99974009536143
 20
-95.2647216513492
 30
0.0
  0
POINT
  5
5892
330
5477
100
AcDbEntity
  8
DEFPOINTS
  6
Continuous
 62
     0
100
AcDbPoint
 10
75.99974009536143
 20
-124.2815389722079
 30
0.0
  0
ENDBLK
  5
5482
330
5477
100
AcDbEntity
  8
0
100
AcDbBlockEnd
  0
BLOCK
  5
548E
330
5484
100
AcDbEntity
  8
0
100
AcDbBlockBegin
  2
*D30
 70
     1
 10
0.0
 20
0.0
 30
0.0
  3
*D30
  1

  0
LINE
  5
5881
330
5484
100
AcDbEntity
  8
30
  6
Continuous
 62
     0
100
AcDbLine
 10
76.26910358814867
 20
95.99968215483697
 30
0.0
 11
96.42339446619708
 21
95.99968215483697
 31
0.0
  0
LINE
  5
5882
330
5484
100
AcDbEntity
  8
30
  6
Continuous
 62
     0
100
AcDbLine
 10
76.26910358814867
 20
-95.9996821548369
 30
0.0
 11
96.423394466197
 21
-95.99968215483691
 31
0.0
  0
LINE
  5
5883
330
5484
100
AcDbEntity
  8
30
  6
Continuous
 62
     0
100
AcDbLine
 10
95.92339446619705
 20
93.99968215483696
 30
0.0
 11
95.92339446619702
 21
-93.9996821548369
 31
0.0
  0
INSERT
  5
5884
330
5484
100
AcDbEntity
  8
30
  6
Continuous
 62
     0
100
AcDbBlockReference
  2
_OPEN
 10
95.92339446619705
 20
95.99968215483697
 30
0.0
 41
2.0
 42
2.0
 43
2.0
 50
90.0
  0
INSERT
  5
5885
330
5484
100
AcDbEntity
  8
30
  6
Continuous
 62
     0
100
AcDbBlockReference
  2
_OPEN
 10
95.92339446619702
 20
-95.9996821548369
 30
0.0
 41
2.0
 42
2.0
 43
2.0
 50
270.0
  0
MTEXT
  5
5886
330
5484
100
AcDbEntity
  8
30
  6
Continuous
 62
     0
100
AcDbMText
 10
92.92339446619704
 20
0.0000000000000371
 30
0.0
 40
4.0
 41
0.0
 71
     5
 72
     1
  1
\A1;192
 11
0.0000000000000001
 21
1.0
 31
0.0
 73
     1
 44
1.0
1001
ACAD
1000
MTEXTBEGIN
1070
    73
1070
     1
1070
    44
1040
1.0
1070
    74
1070
     0
1000
MTEXTEND
  0
POINT
  5
5887
330
5484
100
AcDbEntity
  8
DEFPOINTS
  6
Continuous
 62
     0
100
AcDbPoint
 10
75.26910358814866
 20
95.99968215483697
 30
0.0
  0
POINT
  5
5888
330
5484
100
AcDbEntity
  8
DEFPOINTS
  6
Continuous
 62
     0
100
AcDbPoint
 10
75.26910358814866
 20
-95.9996821548369
 30
0.0
  0
POINT
  5
5889
330
5484
100
AcDbEntity
  8
DEFPOINTS
  6
Continuous
 62
     0
100
AcDbPoint
 10
95.92339446619702
 20
-95.9996821548369
 30
0.0
  0
ENDBLK
  5
548F
330
5484
100
AcDbEntity
  8
0
100
AcDbBlockEnd
  0
BLOCK
  5
54E2
330
54D9
100
AcDbEntity
  8
0
100
AcDbBlockBegin
  2
*D31
 70
     1
 10
0.0
 20
0.0
 30
0.0
  3
*D31
  1

  0
LINE
  5
58D7
330
54D9
100
AcDbEntity
  8
30
  6
Continuous
 62
     0
100
AcDbLine
 10
98.53114918727975
 20
-204.873116845163
 30
0.0
 11
90.8644731905103
 21
-204.873116845163
 31
0.0
  0
LINE
  5
58D8
330
54D9
100
AcDbEntity
  8
30
  6
Continuous
 62
     0
100
AcDbLine
 10
90.8644731905103
 20
-204.873116845163
 30
0.0
 11
68.25754169495424
 21
-215.9520029230797
 31
0.0
  0
MTEXT
  5
58D9
102
{ACAD_XDICTIONARY
360
6018
102
}
330
54D9
100
AcDbEntity
  8
30
  6
Continuous
 62
     0
100
AcDbMText
 10
95.19781585394639
 20
-201.8731168451628
 30
0.0
 40
4.0
 41
0.0
 71
     5
 72
     1
  1
\A1;\U+22056
 73
     1
 44
1.0
1001
ACAD
1000
MTEXTBEGIN
1070
    73
1070
     1
1070
    44
1040
1.0
1070
    74
1070
     0
1000
MTEXTEND
  0
INSERT
  5
58DA
330
54D9
100
AcDbEntity
  8
30
  6
Continuous
 62
     0
100
AcDbBlockReference
  2
_OPEN
 10
66.46160785394646
 20
-216.8321288451628
 30
0.0
 41
2.0
 42
2.0
 43
2.0
 50
206.1078983677151
  0
LINE
  5
58DB
330
54D9
100
AcDbEntity
  8
30
  6
Continuous
 62
     0
100
AcDbLine
 10
63.67770685394638
 20
-218.152317845163
 30
0.0
 11
63.85770685394639
 21
-218.152317845163
 31
0.0
  0
LINE
  5
58DC
330
54D9
100
AcDbEntity
  8
30
  6
Continuous
 62
     0
100
AcDbLine
 10
63.76770685394641
 20
-218.2423178451629
 30
0.0
 11
63.7677068539464
 21
-218.0623178451631
 31
0.0
  0
POINT
  5
58DD
330
54D9
100
AcDbEntity
  8
DEFPOINTS
  6
Continuous
 62
     0
100
AcDbPoint
 10
66.46160785394646
 20
-216.8321288451628
 30
0.0
  0
POINT
  5
58DE
330
54D9
100
AcDbEntity
  8
DEFPOINTS
  6
Continuous
 62
     0
100
AcDbPoint
 10
61.07380585394633
 20
-219.4725068451631
 30
0.0
  0
ENDBLK
  5
54E3
330
54D9
100
AcDbEntity
  8
0
100
AcDbBlockEnd
  0
BLOCK
  5
5609
330
55FF
100
AcDbEntity
  8
0
100
AcDbBlockBegin
  2
*D32
 70
     1
 10
0.0
 20
0.0
 30
0.0
  3
*D32
  1

  0
LINE
  5
57AE
330
55FF
100
AcDbEntity
  8
30
  6
Continuous
 62
     0
100
AcDbLine
 10
362.9990988069256
 20
66.99966824210996
 30
0.0
 11
388.2367141808032
 21
66.99966824210996
 31
0.0
  0
LINE
  5
57AF
330
55FF
100
AcDbEntity
  8
30
  6
Continuous
 62
     0
100
AcDbLine
 10
377.085751547754
 20
-66.99966824211003
 30
0.0
 11
388.2367141808032
 21
-66.99966824211003
 31
0.0
  0
LINE
  5
57B0
330
55FF
100
AcDbEntity
  8
30
  6
Continuous
 62
     0
100
AcDbLine
 10
387.7367141808032
 20
64.99966824210996
 30
0.0
 11
387.7367141808032
 21
-64.99966824211004
 31
0.0
  0
INSERT
  5
57B1
330
55FF
100
AcDbEntity
  8
30
  6
Continuous
 62
     0
100
AcDbBlockReference
  2
_OPEN
 10
387.7367141808032
 20
66.99966824210996
 30
0.0
 41
2.0
 42
2.0
 43
2.0
 50
90.0
  0
INSERT
  5
57B2
330
55FF
100
AcDbEntity
  8
30
  6
Continuous
 62
     0
100
AcDbBlockReference
  2
_OPEN
 10
387.7367141808032
 20
-66.99966824211003
 30
0.0
 41
2.0
 42
2.0
 43
2.0
 50
270.0
  0
MTEXT
  5
57B3
330
55FF
100
AcDbEntity
  8
30
  6
Continuous
 62
     0
100
AcDbMText
 10
384.7367141808033
 20
0.0000000000000335
 30
0.0
 40
4.0
 41
0.0
 71
     5
 72
     1
  1
\A1;134
 11
0.0000000000000001
 21
1.0
 31
0.0
 73
     1
 44
1.0
1001
ACAD
1000
MTEXTBEGIN
1070
    73
1070
     1
1070
    44
1040
1.0
1070
    74
1070
     0
1000
MTEXTEND
  0
POINT
  5
57B4
330
55FF
100
AcDbEntity
  8
DEFPOINTS
  6
Continuous
 62
     0
100
AcDbPoint
 10
361.9990988069257
 20
66.99966824210996
 30
0.0
  0
POINT
  5
57B5
330
55FF
100
AcDbEntity
  8
DEFPOINTS
  6
Continuous
 62
     0
100
AcDbPoint
 10
376.0857515477538
 20
-66.99966824211003
 30
0.0
  0
POINT
  5
57B6
330
55FF
100
AcDbEntity
  8
DEFPOINTS
  6
Continuous
 62
     0
100
AcDbPoint
 10
387.7367141808032
 20
-66.99966824211003
 30
0.0
  0
ENDBLK
  5
560A
330
55FF
100
AcDbEntity
  8
0
100
AcDbBlockEnd
  0
BLOCK
  5
5832
330
5827
100
AcDbEntity
  8
0
100
AcDbBlockBegin
  2
*D33
 70
     1
 10
0.0
 20
0.0
 30
0.0
  3
*D33
  1

  0
LINE
  5
5828
330
5827
100
AcDbEntity
  8
0
 62
     0
100
AcDbLine
 10
22.01531100478467
 20
86.24769663782798
 30
0.0
 11
22.01531100478467
 21
73.56999999809996
 31
0.0
  0
LINE
  5
5829
330
5827
100
AcDbEntity
  8
0
 62
     0
100
AcDbLine
 10
70.81531100478469
 20
86.24769663782798
 30
0.0
 11
70.81531100478469
 21
73.56999999809996
 31
0.0
  0
LINE
  5
582A
330
5827
100
AcDbEntity
  8
0
 62
     0
100
AcDbLine
 10
22.19531100478467
 20
73.74999999809998
 30
0.0
 11
45.79388243335611
 21
73.74999999809998
 31
0.0
  0
LINE
  5
582B
330
5827
100
AcDbEntity
  8
0
 62
     0
100
AcDbLine
 10
70.63531100478468
 20
73.74999999809998
 30
0.0
 11
47.03673957621324
 21
73.74999999809998
 31
0.0
  0
SOLID
  5
582C
330
5827
100
AcDbEntity
  8
0
 62
     0
100
AcDbTrace
 10
22.19531100478467
 20
73.77999999809998
 30
0.0
 11
22.19531100478467
 21
73.71999999809998
 31
0.0
 12
22.01531100478467
 22
73.74999999809998
 32
0.0
 13
22.01531100478467
 23
73.74999999809998
 33
0.0
  0
SOLID
  5
582D
330
5827
100
AcDbEntity
  8
0
 62
     0
100
AcDbTrace
 10
70.63531100478468
 20
73.77999999809998
 30
0.0
 11
70.63531100478468
 21
73.71999999809998
 31
0.0
 12
70.81531100478469
 22
73.74999999809998
 32
0.0
 13
70.81531100478469
 23
73.74999999809998
 33
0.0
  0
MTEXT
  5
582E
330
5827
100
AcDbEntity
  8
0
 62
     0
100
AcDbMText
 10
46.41531100478466
 20
73.74999999809998
 30
0.0
 40
0.18
 41
0.0
 71
     5
 72
     1
  1
\A1;48.8000
 73
     1
 44
1.0
1001
ACAD
1000
MTEXTBEGIN
1070
    73
1070
     1
1070
    44
1040
1.0
1070
    74
1070
     0
1000
MTEXTEND
  0
POINT
  5
582F
330
5827
100
AcDbEntity
  8
DEFPOINTS
 62
     0
100
AcDbPoint
 10
22.01531100478467
 20
86.31019663782799
 30
0.0
  0
POINT
  5
5830
330
5827
100
AcDbEntity
  8
DEFPOINTS
 62
     0
100
AcDbPoint
 10
70.81531100478469
 20
86.31019663782799
 30
0.0
  0
POINT
  5
5831
330
5827
100
AcDbEntity
  8
DEFPOINTS
 62
     0
100
AcDbPoint
 10
70.81531100478469
 20
73.74999999809998
 30
0.0
  0
ENDBLK
  5
5833
330
5827
100
AcDbEntity
  8
0
100
AcDbBlockEnd
  0
BLOCK
  5
5860
330
5834
100
AcDbEntity
  8
0
100
AcDbBlockBegin
  2
A$C0A324879
 70
     0
 10
0.0
 20
0.0
 30
0.0
  3
A$C0A324879
  1

  0
LINE
  5
5835
330
5834
100
AcDbEntity
  8
0
100
AcDbLine
 10
17.0
 20
10.0
 30
0.0
 11
17.0
 21
-10.0
 31
0.0
  0
LINE
  5
5836
330
5834
100
AcDbEntity
  8
0
100
AcDbLine
 10
-5.0
 20
10.0
 30
0.0
 11
-5.0
 21
-10.0
 31
0.0
  0
LINE
  5
5837
330
5834
100
AcDbEntity
  8
0
100
AcDbLine
 10
-2.800000000000011
 20
-7.400000000000002
 30
0.0
 11
-2.79999999999999
 21
8.061947482324113
 31
0.0
  0
LINE
  5
5838
330
5834
100
AcDbEntity
  8
0
100
AcDbLine
 10
2.79999999999999
 20
-7.400000000000002
 30
0.0
 11
2.800000000000004
 21
8.061947482324113
 31
0.0
  0
LINE
  5
5839
330
5834
100
AcDbEntity
  8
0
100
AcDbLine
 10
-4.400000000000011
 20
10.0
 30
0.0
 11
-4.400000000000011
 21
-10.0
 31
0.0
  0
LINE
  5
583A
330
5834
100
AcDbEntity
  8
0
100
AcDbLine
 10
4.399999999999991
 20
10.0
 30
0.0
 11
4.399999999999991
 21
-10.0
 31
0.0
  0
LINE
  5
583B
330
5834
100
AcDbEntity
  8
0
100
AcDbLine
 10
-6.000000000000007
 20
31.0
 30
0.0
 11
-6.000000000000007
 21
-31.0
 31
0.0
  0
LINE
  5
583C
330
5834
100
AcDbEntity
  8
0
100
AcDbLine
 10
18.0
 20
-31.0
 30
0.0
 11
18.0
 21
31.0
 31
0.0
  0
LINE
  5
583D
330
5834
100
AcDbEntity
  8
0
100
AcDbLine
 10
30.4
 20
36.4
 30
0.0
 11
30.4
 21
-36.4
 31
0.0
  0
LINE
  5
583E
330
5834
100
AcDbEntity
  8
0
100
AcDbLine
 10
-18.40000000000001
 20
36.4
 30
0.0
 11
-18.40000000000001
 21
-36.4
 31
0.0
  0
LINE
  5
583F
330
5834
100
AcDbEntity
  8
0
100
AcDbLine
 10
-16.40000000000001
 20
-38.39999999999999
 30
0.0
 11
28.39999999999999
 21
-38.39999999999999
 31
0.0
  0
LINE
  5
5840
330
5834
100
AcDbEntity
  8
0
100
AcDbLine
 10
-5.0
 20
-10.0
 30
0.0
 11
17.0
 21
-10.0
 31
0.0
  0
LINE
  5
5841
330
5834
100
AcDbEntity
  8
0
100
AcDbLine
 10
-6.000000000000007
 20
-31.0
 30
0.0
 11
18.0
 21
-31.0
 31
0.0
  0
DIMENSION
  5
5842
330
5834
100
AcDbEntity
  8
0
100
AcDbDimension
  2
*D33
 10
30.4
 20
-48.96019663972802
 30
0.0
 11
5.999999999999992
 21
-48.96019663972802
 31
0.0
 12
-40.41531100478469
 22
-122.710196637828
 32
0.0
 71
     5
 42
-1.0
  3
STANDARD
100
AcDbAlignedDimension
 13
-18.40000000000001
 23
-36.4
 33
0.0
 14
30.4
 24
-36.4
 34
0.0
 50
180.0
100
AcDbRotatedDimension
1001
ACAD
1000
DSTYLE
1002
{
1070
   340
1005
11
1002
}
  0
ARC
  5
5843
330
5834
100
AcDbEntity
  8
0
100
AcDbCircle
 10
-16.40000000000001
 20
-36.4
 30
0.0
 40
2.0
100
AcDbArc
 50
180.0
 51
270.0
  0
LINE
  5
5844
330
5834
100
AcDbEntity
  8
0
100
AcDbLine
 10
-14.20000000000005
 20
-14.60000000000025
 30
0.0
 11
-14.20000000000005
 21
-11.80000000000026
 31
0.0
  0
CIRCLE
  5
5845
330
5834
100
AcDbEntity
  8
0
100
AcDbCircle
 10
-14.19999999999999
 20
-13.2
 30
0.0
 40
1.0
  0
LINE
  5
5846
330
5834
100
AcDbEntity
  8
0
100
AcDbLine
 10
-15.60000000000001
 20
-13.2
 30
0.0
 11
-12.80000000000001
 21
-13.2
 31
0.0
  0
LINE
  5
5847
330
5834
100
AcDbEntity
  8
0
100
AcDbLine
 10
2.79999999999999
 20
6.095982576030677
 30
0.0
 11
-2.800000000000011
 21
6.095982576030677
 31
0.0
  0
LINE
  5
5848
330
5834
100
AcDbEntity
  8
0
100
AcDbLine
 10
2.79999999999999
 20
2.736315722744634
 30
0.0
 11
-2.799999999999654
 21
2.736315722744634
 31
0.0
  0
LINE
  5
5849
330
5834
100
AcDbEntity
  8
0
100
AcDbLine
 10
-2.800000000000011
 20
-7.400000000000002
 30
0.0
 11
2.79999999999999
 21
-7.400000000000002
 31
0.0
  0
LINE
  5
584A
330
5834
100
AcDbEntity
  8
0
100
AcDbLine
 10
-14.20000000000005
 20
-1.400000000000261
 30
0.0
 11
-14.20000000000005
 21
1.399999999999735
 31
0.0
  0
LINE
  5
584B
330
5834
100
AcDbEntity
  8
0
100
AcDbLine
 10
-15.60000000000001
 20
0.0
 30
0.0
 11
-12.80000000000001
 21
0.0
 31
0.0
  0
CIRCLE
  5
584C
330
5834
100
AcDbEntity
  8
0
100
AcDbCircle
 10
-14.19999999999999
 20
0.0
 30
0.0
 40
1.0
  0
ARC
  5
584D
330
5834
100
AcDbEntity
  8
0
100
AcDbCircle
 10
28.39999999999999
 20
-36.4
 30
0.0
 40
2.0
100
AcDbArc
 50
270.0
 51
0.0
  0
LINE
  5
584E
330
5834
100
AcDbEntity
  8
0
100
AcDbLine
 10
26.19999999999994
 20
-14.60000000000025
 30
0.0
 11
26.19999999999994
 21
-11.80000000000026
 31
0.0
  0
CIRCLE
  5
584F
330
5834
100
AcDbEntity
  8
0
100
AcDbCircle
 10
26.19999999999999
 20
-13.2
 30
0.0
 40
1.0
  0
LINE
  5
5850
330
5834
100
AcDbEntity
  8
0
100
AcDbLine
 10
24.79999999999999
 20
-13.2
 30
0.0
 11
27.59999999999998
 21
-13.2
 31
0.0
  0
LINE
  5
5851
330
5834
100
AcDbEntity
  8
0
100
AcDbLine
 10
26.19999999999994
 20
-1.400000000000261
 30
0.0
 11
26.19999999999994
 21
1.399999999999735
 31
0.0
  0
LINE
  5
5852
330
5834
100
AcDbEntity
  8
0
100
AcDbLine
 10
24.79999999999999
 20
0.0
 30
0.0
 11
27.59999999999998
 21
0.0
 31
0.0
  0
CIRCLE
  5
5853
330
5834
100
AcDbEntity
  8
0
100
AcDbCircle
 10
26.19999999999999
 20
0.0
 30
0.0
 40
1.0
  0
LINE
  5
5854
330
5834
100
AcDbEntity
  8
0
100
AcDbLine
 10
28.39999999999999
 20
38.39999999999999
 30
0.0
 11
-16.40000000000001
 21
38.39999999999999
 31
0.0
  0
LINE
  5
5855
330
5834
100
AcDbEntity
  8
0
100
AcDbLine
 10
-5.0
 20
10.0
 30
0.0
 11
17.0
 21
10.0
 31
0.0
  0
LINE
  5
5856
330
5834
100
AcDbEntity
  8
0
100
AcDbLine
 10
18.0
 20
31.0
 30
0.0
 11
-6.000000000000007
 21
31.0
 31
0.0
  0
ARC
  5
5857
330
5834
100
AcDbEntity
  8
0
100
AcDbCircle
 10
-16.40000000000001
 20
36.4
 30
0.0
 40
2.0
100
AcDbArc
 50
90.0
 51
180.0
  0
LINE
  5
5858
330
5834
100
AcDbEntity
  8
0
100
AcDbLine
 10
2.79999999999999
 20
8.061947482324113
 30
0.0
 11
-2.800000000000365
 21
8.061947482324113
 31
0.0
  0
CIRCLE
  5
5859
330
5834
100
AcDbEntity
  8
0
100
AcDbCircle
 10
-14.19999999999999
 20
13.19999999999998
 30
0.0
 40
1.0
  0
LINE
  5
585A
330
5834
100
AcDbEntity
  8
0
100
AcDbLine
 10
-14.20000000000005
 20
11.79999999999972
 30
0.0
 11
-14.20000000000005
 21
14.59999999999974
 31
0.0
  0
LINE
  5
585B
330
5834
100
AcDbEntity
  8
0
100
AcDbLine
 10
-15.60000000000001
 20
13.19999999999998
 30
0.0
 11
-12.80000000000001
 21
13.19999999999998
 31
0.0
  0
CIRCLE
  5
585C
330
5834
100
AcDbEntity
  8
0
100
AcDbCircle
 10
26.19999999999999
 20
13.19999999999998
 30
0.0
 40
1.0
  0
LINE
  5
585D
330
5834
100
AcDbEntity
  8
0
100
AcDbLine
 10
26.19999999999994
 20
11.79999999999972
 30
0.0
 11
26.19999999999994
 21
14.59999999999974
 31
0.0
  0
LINE
  5
585E
330
5834
100
AcDbEntity
  8
0
100
AcDbLine
 10
24.79999999999999
 20
13.19999999999998
 30
0.0
 11
27.59999999999998
 21
13.19999999999998
 31
0.0
  0
ARC
  5
585F
330
5834
100
AcDbEntity
  8
0
100
AcDbCircle
 10
28.39999999999999
 20
36.4
 30
0.0
 40
2.0
100
AcDbArc
 50
0.0
 51
90.0
  0
ENDBLK
  5
5861
330
5834
100
AcDbEntity
  8
0
100
AcDbBlockEnd
  0
BLOCK
  5
5B7A
330
5B79
100
AcDbEntity
  8
0
370
     0
100
AcDbBlockBegin
  2
*D35
 70
     1
 10
0.0
 20
0.0
 30
0.0
  3
*D35
  1

  0
LINE
  5
5B7B
330
5B79
100
AcDbEntity
  8
1
  6
Continuous
 62
     4
370
    -2
100
AcDbLine
 10
825.3610446032602
 20
397.4143726553807
 30
0.0
 11
825.3610446032602
 21
449.5648651553806
 31
0.0
  0
LINE
  5
5B7C
330
5B79
100
AcDbEntity
  8
1
  6
Continuous
 62
     4
370
    -2
100
AcDbLine
 10
855.3610446032603
 20
356.9168726553806
 30
0.0
 11
855.3610446032603
 21
449.5648651553806
 31
0.0
  0
LINE
  5
5B7D
330
5B79
100
AcDbEntity
  8
1
  6
Continuous
 62
     4
370
    -2
100
AcDbLine
 10
827.3610446032602
 20
448.5648651553806
 30
0.0
 11
853.3610446032604
 21
448.5648651553806
 31
0.0
  0
SOLID
  5
5B7E
330
5B79
100
AcDbEntity
  8
1
  6
Continuous
 62
     4
370
     0
100
AcDbTrace
 10
827.3610446032602
 20
448.8981984887139
 30
0.0
 11
827.3610446032602
 21
448.2315318220472
 31
0.0
 12
825.3610446032602
 22
448.5648651553806
 32
0.0
 13
825.3610446032602
 23
448.5648651553806
 33
0.0
  0
SOLID
  5
5B7F
330
5B79
100
AcDbEntity
  8
1
  6
Continuous
 62
     4
370
     0
100
AcDbTrace
 10
853.3610446032604
 20
448.8981984887139
 30
0.0
 11
853.3610446032604
 21
448.2315318220472
 31
0.0
 12
855.3610446032603
 22
448.5648651553806
 32
0.0
 13
855.3610446032603
 23
448.5648651553806
 33
0.0
  0
MTEXT
  5
5B80
330
5B79
100
AcDbEntity
  8
1
  6
Continuous
 62
     4
100
AcDbMText
 10
840.3610446032603
 20
449.8148651553806
 30
0.0
 40
2.5
 41
0.0
 71
     5
 72
     1
  1
\A1; 30 
 73
     1
 44
1.0
1001
ACAD
1000
MTEXTBEGIN
1070
    73
1070
     1
1070
    44
1040
1.0
1070
    74
1070
     0
1000
MTEXTEND
  0
POINT
  5
5B81
330
5B79
100
AcDbEntity
  8
DEFPOINTS
  6
Continuous
 62
     0
370
     0
100
AcDbPoint
 10
825.3610446032602
 20
396.4143726553807
 30
0.0
  0
POINT
  5
5B82
330
5B79
100
AcDbEntity
  8
DEFPOINTS
  6
Continuous
 62
     0
370
     0
100
AcDbPoint
 10
855.3610446032603
 20
355.9168726553807
 30
0.0
  0
POINT
  5
5B83
330
5B79
100
AcDbEntity
  8
DEFPOINTS
  6
Continuous
 62
     0
370
     0
100
AcDbPoint
 10
855.3610446032603
 20
448.5648651553806
 30
0.0
  0
ENDBLK
  5
5B84
330
5B79
100
AcDbEntity
  8
0
370
     0
100
AcDbBlockEnd
  0
BLOCK
  5
5B86
330
5B85
100
AcDbEntity
  8
0
370
     0
100
AcDbBlockBegin
  2
*D36
 70
     1
 10
0.0
 20
0.0
 30
0.0
  3
*D36
  1

  0
LINE
  5
5B87
330
5B85
100
AcDbEntity
  8
1
  6
Continuous
 62
     4
370
    -2
100
AcDbLine
 10
825.3610446032602
 20
207.4143726553807
 30
0.0
 11
825.3610446032602
 21
227.6898651553806
 31
0.0
  0
LINE
  5
5B88
330
5B85
100
AcDbEntity
  8
1
  6
Continuous
 62
     4
370
    -2
100
AcDbLine
 10
840.3610446032603
 20
341.4143726553807
 30
0.0
 11
840.3610446032603
 21
225.6898651553806
 31
0.0
  0
LINE
  5
5B89
330
5B85
100
AcDbEntity
  8
1
  6
Continuous
 62
     4
370
    -2
100
AcDbLine
 10
827.3610446032602
 20
226.6898651553806
 30
0.0
 11
838.3610446032603
 21
226.6898651553806
 31
0.0
  0
SOLID
  5
5B8A
330
5B85
100
AcDbEntity
  8
1
  6
Continuous
 62
     4
370
     0
100
AcDbTrace
 10
827.3610446032602
 20
227.023198488714
 30
0.0
 11
827.3610446032602
 21
226.3565318220473
 31
0.0
 12
825.3610446032602
 22
226.6898651553806
 32
0.0
 13
825.3610446032602
 23
226.6898651553806
 33
0.0
  0
SOLID
  5
5B8B
330
5B85
100
AcDbEntity
  8
1
  6
Continuous
 62
     4
370
     0
100
AcDbTrace
 10
838.3610446032603
 20
227.023198488714
 30
0.0
 11
838.3610446032603
 21
226.3565318220473
 31
0.0
 12
840.3610446032603
 22
226.6898651553806
 32
0.0
 13
840.3610446032603
 23
226.6898651553806
 33
0.0
  0
MTEXT
  5
5B8C
330
5B85
100
AcDbEntity
  8
1
  6
Continuous
 62
     4
100
AcDbMText
 10
832.8610446032604
 20
227.9398651553806
 30
0.0
 40
2.5
 41
0.0
 71
     5
 72
     1
  1
\A1; 15 
 73
     1
 44
1.0
1001
ACAD
1000
MTEXTBEGIN
1070
    73
1070
     1
1070
    44
1040
1.0
1070
    74
1070
     0
1000
MTEXTEND
  0
POINT
  5
5B8D
330
5B85
100
AcDbEntity
  8
DEFPOINTS
  6
Continuous
 62
     0
370
     0
100
AcDbPoint
 10
825.3610446032602
 20
206.4143726553807
 30
0.0
  0
POINT
  5
5B8E
330
5B85
100
AcDbEntity
  8
DEFPOINTS
  6
Continuous
 62
     0
370
     0
100
AcDbPoint
 10
840.3610446032603
 20
342.4143726553807
 30
0.0
  0
POINT
  5
5B8F
330
5B85
100
AcDbEntity
  8
DEFPOINTS
  6
Continuous
 62
     0
370
     0
100
AcDbPoint
 10
840.3610446032603
 20
226.6898651553806
 30
0.0
  0
ENDBLK
  5
5B90
330
5B85
100
AcDbEntity
  8
0
370
     0
100
AcDbBlockEnd
  0
BLOCK
  5
5C71
330
5C70
100
AcDbEntity
  8
0
100
AcDbBlockBegin
  2
*D38
 70
     1
 10
0.0
 20
0.0
 30
0.0
  3
*D38
  1

  0
LINE
  5
5E3C
330
5C70
100
AcDbEntity
  8
30
  6
Continuous
 62
     0
370
    -2
100
AcDbLine
 10
0.0840000000000601
 20
287.11543082726
 30
0.0
 11
0.0840000000000633
 21
338.76592332726
 31
0.0
  0
LINE
  5
5E3D
330
5C70
100
AcDbEntity
  8
30
  6
Continuous
 62
     0
370
    -2
100
AcDbLine
 10
30.08400000000006
 20
246.61793082726
 30
0.0
 11
30.08400000000007
 21
338.76592332726
 31
0.0
  0
LINE
  5
5E3E
330
5C70
100
AcDbEntity
  8
30
  6
Continuous
 62
     0
370
    -2
100
AcDbLine
 10
2.084000000000063
 20
338.2659233272599
 30
0.0
 11
28.08400000000007
 21
338.2659233272599
 31
0.0
  0
INSERT
  5
5E3F
330
5C70
100
AcDbEntity
  8
30
  6
Continuous
 62
     0
370
    -2
100
AcDbBlockReference
  2
_OPEN
 10
0.0840000000000632
 20
338.2659233272599
 30
0.0
 41
2.0
 42
2.0
 43
2.0
 50
180.0
  0
INSERT
  5
5E40
330
5C70
100
AcDbEntity
  8
30
  6
Continuous
 62
     0
370
    -2
100
AcDbBlockReference
  2
_OPEN
 10
30.08400000000007
 20
338.2659233272599
 30
0.0
 41
2.0
 42
2.0
 43
2.0
  0
MTEXT
  5
5E41
330
5C70
100
AcDbEntity
  8
30
  6
Continuous
 62
     0
100
AcDbMText
 10
15.08400000000006
 20
341.26592332726
 30
0.0
 40
4.0
 41
0.0
 71
     5
 72
     1
  1
\A1; 30 
 73
     1
 44
1.0
1001
ACAD
1000
MTEXTBEGIN
1070
    73
1070
     1
1070
    44
1040
1.0
1070
    74
1070
     0
1000
MTEXTEND
  0
POINT
  5
5E42
330
5C70
100
AcDbEntity
  8
DEFPOINTS
  6
Continuous
 62
     0
100
AcDbPoint
 10
0.08400000000006
 20
286.11543082726
 30
0.0
  0
POINT
  5
5E43
330
5C70
100
AcDbEntity
  8
DEFPOINTS
  6
Continuous
 62
     0
100
AcDbPoint
 10
30.08400000000006
 20
245.61793082726
 30
0.0
  0
POINT
  5
5E44
330
5C70
100
AcDbEntity
  8
DEFPOINTS
  6
Continuous
 62
     0
100
AcDbPoint
 10
30.08400000000007
 20
338.2659233272599
 30
0.0
  0
ENDBLK
  5
5C72
330
5C70
100
AcDbEntity
  8
0
100
AcDbBlockEnd
  0
BLOCK
  5
5C7D
330
5C7C
100
AcDbEntity
  8
0
100
AcDbBlockBegin
  2
*D39
 70
     1
 10
0.0
 20
0.0
 30
0.0
  3
*D39
  1

  0
LINE
  5
5C91
330
5C7C
100
AcDbEntity
  8
1
  6
Continuous
 62
     4
370
    -2
100
AcDbLine
 10
-189.0378144133874
 20
83.68550031827544
 30
0.0
 11
-189.0378144133874
 21
103.9609928182753
 31
0.0
  0
LINE
  5
5C92
330
5C7C
100
AcDbEntity
  8
1
  6
Continuous
 62
     4
370
    -2
100
AcDbLine
 10
-174.0378144133874
 20
217.6855003182755
 30
0.0
 11
-174.0378144133874
 21
101.9609928182753
 31
0.0
  0
LINE
  5
5C93
330
5C7C
100
AcDbEntity
  8
1
  6
Continuous
 62
     4
370
    -2
100
AcDbLine
 10
-187.0378144133874
 20
102.9609928182753
 30
0.0
 11
-176.0378144133874
 21
102.9609928182753
 31
0.0
  0
INSERT
  5
5C94
330
5C7C
100
AcDbEntity
  8
1
  6
Continuous
 62
     4
370
    -2
100
AcDbBlockReference
  2
_OPEN
 10
-189.0378144133874
 20
102.9609928182753
 30
0.0
 41
2.0
 42
2.0
 43
2.0
 50
180.0
  0
INSERT
  5
5C95
330
5C7C
100
AcDbEntity
  8
1
  6
Continuous
 62
     4
370
    -2
100
AcDbBlockReference
  2
_OPEN
 10
-174.0378144133874
 20
102.9609928182753
 30
0.0
 41
2.0
 42
2.0
 43
2.0
  0
MTEXT
  5
5C96
330
5C7C
100
AcDbEntity
  8
1
  6
Continuous
 62
     4
100
AcDbMText
 10
-181.5378144133874
 20
104.2109928182753
 30
0.0
 40
2.5
 41
0.0
 71
     5
 72
     1
  1
\A1; 15 
 73
     1
 44
1.0
1001
ACAD
1000
MTEXTBEGIN
1070
    73
1070
     1
1070
    44
1040
1.0
1070
    74
1070
     0
1000
MTEXTEND
  0
POINT
  5
5C97
330
5C7C
100
AcDbEntity
  8
DEFPOINTS
  6
Continuous
 62
     0
100
AcDbPoint
 10
-189.0378144133874
 20
82.68550031827544
 30
0.0
  0
POINT
  5
5C98
330
5C7C
100
AcDbEntity
  8
DEFPOINTS
  6
Continuous
 62
     0
100
AcDbPoint
 10
-174.0378144133874
 20
218.6855003182754
 30
0.0
  0
POINT
  5
5C99
330
5C7C
100
AcDbEntity
  8
DEFPOINTS
  6
Continuous
 62
     0
100
AcDbPoint
 10
-174.0378144133874
 20
102.9609928182753
 30
0.0
  0
ENDBLK
  5
5C7E
330
5C7C
100
AcDbEntity
  8
0
100
AcDbBlockEnd
  0
BLOCK
  5
5DB5
330
5DB4
100
AcDbEntity
  8
0
100
AcDbBlockBegin
  2
*D40
 70
     1
 10
0.0
 20
0.0
 30
0.0
  3
*D40
  1

  0
LINE
  5
5E21
330
5DB4
100
AcDbEntity
  8
30
  6
Continuous
 62
     0
370
    -2
100
AcDbLine
 10
33.58400000000006
 20
269.11543082726
 30
0.0
 11
95.75223112784193
 21
269.11543082726
 31
0.0
  0
LINE
  5
5E22
330
5DB4
100
AcDbEntity
  8
30
  6
Continuous
 62
     0
370
    -2
100
AcDbLine
 10
58.68399999999997
 20
162.11543082726
 30
0.0
 11
95.75223112784192
 21
162.11543082726
 31
0.0
  0
LINE
  5
5E23
330
5DB4
100
AcDbEntity
  8
30
  6
Continuous
 62
     0
370
    -2
100
AcDbLine
 10
95.25223112784194
 20
267.11543082726
 30
0.0
 11
95.25223112784193
 21
164.11543082726
 31
0.0
  0
INSERT
  5
5E24
330
5DB4
100
AcDbEntity
  8
30
  6
Continuous
 62
     0
370
    -2
100
AcDbBlockReference
  2
_OPEN
 10
95.25223112784194
 20
269.11543082726
 30
0.0
 41
2.0
 42
2.0
 43
2.0
 50
90.0
  0
INSERT
  5
5E25
330
5DB4
100
AcDbEntity
  8
30
  6
Continuous
 62
     0
370
    -2
100
AcDbBlockReference
  2
_OPEN
 10
95.25223112784193
 20
162.11543082726
 30
0.0
 41
2.0
 42
2.0
 43
2.0
 50
270.0
  0
MTEXT
  5
5E26
330
5DB4
100
AcDbEntity
  8
30
  6
Continuous
 62
     0
100
AcDbMText
 10
92.2522311278419
 20
215.61543082726
 30
0.0
 40
4.0
 41
0.0
 71
     5
 72
     1
  1
\A1;107
 11
0.0000000000000001
 21
1.0
 31
0.0
 73
     1
 44
1.0
1001
ACAD
1000
MTEXTBEGIN
1070
    73
1070
     1
1070
    44
1040
1.0
1070
    74
1070
     0
1000
MTEXTEND
  0
POINT
  5
5E27
330
5DB4
100
AcDbEntity
  8
DEFPOINTS
  6
Continuous
 62
     0
100
AcDbPoint
 10
32.58400000000006
 20
269.11543082726
 30
0.0
  0
POINT
  5
5E28
330
5DB4
100
AcDbEntity
  8
DEFPOINTS
  6
Continuous
 62
     0
100
AcDbPoint
 10
57.68399999999997
 20
162.11543082726
 30
0.0
  0
POINT
  5
5E29
330
5DB4
100
AcDbEntity
  8
DEFPOINTS
  6
Continuous
 62
     0
100
AcDbPoint
 10
95.25223112784193
 20
162.11543082726
 30
0.0
  0
ENDBLK
  5
5DB6
330
5DB4
100
AcDbEntity
  8
0
100
AcDbBlockEnd
  0
BLOCK
  5
5DC2
330
5DC1
100
AcDbEntity
  8
0
100
AcDbBlockBegin
  2
*D41
 70
     1
 10
0.0
 20
0.0
 30
0.0
  3
*D41
  1

  0
LINE
  5
5DC4
330
5DC1
100
AcDbEntity
  8
30
  6
Continuous
 62
     0
370
    -2
100
AcDbLine
 10
33.88999999999985
 20
270.7953751724502
 30
0.0
 11
65.38140756920803
 21
270.7953751724502
 31
0.0
  0
LINE
  5
5DC5
330
5DC1
100
AcDbEntity
  8
30
  6
Continuous
 62
     0
370
    -2
100
AcDbLine
 10
46.54000000000018
 20
162.5113751724503
 30
0.0
 11
65.38140756920802
 21
162.5113751724502
 31
0.0
  0
LINE
  5
5DC6
330
5DC1
100
AcDbEntity
  8
30
  6
Continuous
 62
     0
370
    -2
100
AcDbLine
 10
64.88140756920803
 20
268.7953751724502
 30
0.0
 11
64.88140756920802
 21
164.5113751724502
 31
0.0
  0
INSERT
  5
5DC7
330
5DC1
100
AcDbEntity
  8
30
  6
Continuous
 62
     0
370
    -2
100
AcDbBlockReference
  2
_OPEN
 10
64.88140756920803
 20
270.7953751724502
 30
0.0
 41
2.0
 42
2.0
 43
2.0
 50
90.0
  0
INSERT
  5
5DC8
330
5DC1
100
AcDbEntity
  8
30
  6
Continuous
 62
     0
370
    -2
100
AcDbBlockReference
  2
_OPEN
 10
64.88140756920802
 20
162.5113751724502
 30
0.0
 41
2.0
 42
2.0
 43
2.0
 50
270.0
  0
MTEXT
  5
5DC9
330
5DC1
100
AcDbEntity
  8
30
  6
Continuous
 62
     0
100
AcDbMText
 10
61.88140756920799
 20
216.6533751724502
 30
0.0
 40
4.0
 41
0.0
 71
     5
 72
     1
  1
\A1;108.3
 11
0.0000000000000001
 21
1.0
 31
0.0
 73
     1
 44
1.0
1001
ACAD
1000
MTEXTBEGIN
1070
    73
1070
     1
1070
    44
1040
1.0
1070
    74
1070
     0
1000
MTEXTEND
  0
POINT
  5
5DCA
330
5DC1
100
AcDbEntity
  8
DEFPOINTS
  6
Continuous
 62
     0
100
AcDbPoint
 10
32.88999999999985
 20
270.7953751724502
 30
0.0
  0
POINT
  5
5DCB
330
5DC1
100
AcDbEntity
  8
DEFPOINTS
  6
Continuous
 62
     0
100
AcDbPoint
 10
45.54000000000018
 20
162.5113751724503
 30
0.0
  0
POINT
  5
5DCC
330
5DC1
100
AcDbEntity
  8
DEFPOINTS
  6
Continuous
 62
     0
100
AcDbPoint
 10
64.88140756920802
 20
162.5113751724502
 30
0.0
  0
ENDBLK
  5
5DC3
330
5DC1
100
AcDbEntity
  8
0
100
AcDbBlockEnd
  0
BLOCK
  5
5DCF
330
5DCE
100
AcDbEntity
  8
0
100
AcDbBlockBegin
  2
*D42
 70
     1
 10
0.0
 20
0.0
 30
0.0
  3
*D42
  1

  0
LINE
  5
5E2A
330
5DCE
100
AcDbEntity
  8
30
  6
Continuous
 62
     0
370
    -2
100
AcDbLine
 10
3.58400000000006
 20
319.11543082726
 30
0.0
 11
112.3256655182383
 21
319.11543082726
 31
0.0
  0
LINE
  5
5E2B
330
5DCE
100
AcDbEntity
  8
30
  6
Continuous
 62
     0
370
    -2
100
AcDbLine
 10
58.68399999999997
 20
162.11543082726
 30
0.0
 11
112.3256655182383
 21
162.11543082726
 31
0.0
  0
LINE
  5
5E2C
330
5DCE
100
AcDbEntity
  8
30
  6
Continuous
 62
     0
370
    -2
100
AcDbLine
 10
111.8256655182383
 20
317.11543082726
 30
0.0
 11
111.8256655182383
 21
164.11543082726
 31
0.0
  0
INSERT
  5
5E2D
330
5DCE
100
AcDbEntity
  8
30
  6
Continuous
 62
     0
370
    -2
100
AcDbBlockReference
  2
_OPEN
 10
111.8256655182383
 20
319.11543082726
 30
0.0
 41
2.0
 42
2.0
 43
2.0
 50
90.0
  0
INSERT
  5
5E2E
330
5DCE
100
AcDbEntity
  8
30
  6
Continuous
 62
     0
370
    -2
100
AcDbBlockReference
  2
_OPEN
 10
111.8256655182383
 20
162.11543082726
 30
0.0
 41
2.0
 42
2.0
 43
2.0
 50
270.0
  0
MTEXT
  5
5E2F
330
5DCE
100
AcDbEntity
  8
30
  6
Continuous
 62
     0
100
AcDbMText
 10
108.8256655182383
 20
240.61543082726
 30
0.0
 40
4.0
 41
0.0
 71
     5
 72
     1
  1
\A1;157
 11
0.0000000000000001
 21
1.0
 31
0.0
 73
     1
 44
1.0
1001
ACAD
1000
MTEXTBEGIN
1070
    73
1070
     1
1070
    44
1040
1.0
1070
    74
1070
     0
1000
MTEXTEND
  0
POINT
  5
5E30
330
5DCE
100
AcDbEntity
  8
DEFPOINTS
  6
Continuous
 62
     0
100
AcDbPoint
 10
2.58400000000006
 20
319.11543082726
 30
0.0
  0
POINT
  5
5E31
330
5DCE
100
AcDbEntity
  8
DEFPOINTS
  6
Continuous
 62
     0
100
AcDbPoint
 10
57.68399999999997
 20
162.11543082726
 30
0.0
  0
POINT
  5
5E32
330
5DCE
100
AcDbEntity
  8
DEFPOINTS
  6
Continuous
 62
     0
100
AcDbPoint
 10
111.8256655182383
 20
162.11543082726
 30
0.0
  0
ENDBLK
  5
5DD0
330
5DCE
100
AcDbEntity
  8
0
100
AcDbBlockEnd
  0
BLOCK
  5
5DDC
330
5DDB
100
AcDbEntity
  8
0
100
AcDbBlockBegin
  2
*D43
 70
     1
 10
0.0
 20
0.0
 30
0.0
  3
*D43
  1

  0
LINE
  5
5DDE
330
5DDB
100
AcDbEntity
  8
30
  6
Continuous
 62
     0
370
    -2
100
AcDbLine
 10
3.52999999999997
 20
321.3953751724502
 30
0.0
 11
91.64187181543642
 21
321.3953751724502
 31
0.0
  0
LINE
  5
5DDF
330
5DDB
100
AcDbEntity
  8
30
  6
Continuous
 62
     0
370
    -2
100
AcDbLine
 10
46.54000000000018
 20
162.5113751724502
 30
0.0
 11
91.64187181543638
 21
162.5113751724502
 31
0.0
  0
LINE
  5
5DE0
330
5DDB
100
AcDbEntity
  8
30
  6
Continuous
 62
     0
370
    -2
100
AcDbLine
 10
91.14187181543641
 20
319.3953751724502
 30
0.0
 11
91.14187181543639
 21
164.5113751724502
 31
0.0
  0
INSERT
  5
5DE1
330
5DDB
100
AcDbEntity
  8
30
  6
Continuous
 62
     0
370
    -2
100
AcDbBlockReference
  2
_OPEN
 10
91.14187181543641
 20
321.3953751724502
 30
0.0
 41
2.0
 42
2.0
 43
2.0
 50
90.0
  0
INSERT
  5
5DE2
330
5DDB
100
AcDbEntity
  8
30
  6
Continuous
 62
     0
370
    -2
100
AcDbBlockReference
  2
_OPEN
 10
91.14187181543639
 20
162.5113751724502
 30
0.0
 41
2.0
 42
2.0
 43
2.0
 50
270.0
  0
MTEXT
  5
5DE3
330
5DDB
100
AcDbEntity
  8
30
  6
Continuous
 62
     0
100
AcDbMText
 10
88.14187181543635
 20
241.9533751724502
 30
0.0
 40
4.0
 41
0.0
 71
     5
 72
     1
  1
\A1;158.9
 11
0.0000000000000001
 21
1.0
 31
0.0
 73
     1
 44
1.0
1001
ACAD
1000
MTEXTBEGIN
1070
    73
1070
     1
1070
    44
1040
1.0
1070
    74
1070
     0
1000
MTEXTEND
  0
POINT
  5
5DE4
330
5DDB
100
AcDbEntity
  8
DEFPOINTS
  6
Continuous
 62
     0
100
AcDbPoint
 10
2.52999999999997
 20
321.3953751724502
 30
0.0
  0
POINT
  5
5DE5
330
5DDB
100
AcDbEntity
  8
DEFPOINTS
  6
Continuous
 62
     0
100
AcDbPoint
 10
45.54000000000018
 20
162.5113751724502
 30
0.0
  0
POINT
  5
5DE6
330
5DDB
100
AcDbEntity
  8
DEFPOINTS
  6
Continuous
 62
     0
100
AcDbPoint
 10
91.14187181543639
 20
162.5113751724502
 30
0.0
  0
ENDBLK
  5
5DDD
330
5DDB
100
AcDbEntity
  8
0
100
AcDbBlockEnd
  0
BLOCK
  5
5DE9
330
5DE8
100
AcDbEntity
  8
0
100
AcDbBlockBegin
  2
*D44
 70
     1
 10
0.0
 20
0.0
 30
0.0
  3
*D44
  1

  0
LINE
  5
5DEB
330
5DE8
100
AcDbEntity
  8
30
  6
Continuous
 62
     0
370
    -2
100
AcDbLine
 10
77.0
 20
162.5113751724502
 30
0.0
 11
99.51683351501335
 21
162.5113751724502
 31
0.0
  0
LINE
  5
5DEC
330
5DE8
100
AcDbEntity
  8
30
  6
Continuous
 62
     0
370
    -2
100
AcDbLine
 10
77.0
 20
147.3313751724503
 30
0.0
 11
99.51683351501333
 21
147.3313751724503
 31
0.0
  0
LINE
  5
5DED
330
5DE8
100
AcDbEntity
  8
30
  6
Continuous
 62
     0
370
    -2
100
AcDbLine
 10
99.01683351501334
 20
160.5113751724502
 30
0.0
 11
99.01683351501333
 21
149.3313751724503
 31
0.0
  0
INSERT
  5
5DEE
330
5DE8
100
AcDbEntity
  8
30
  6
Continuous
 62
     0
370
    -2
100
AcDbBlockReference
  2
_OPEN
 10
99.01683351501334
 20
162.5113751724502
 30
0.0
 41
2.0
 42
2.0
 43
2.0
 50
90.0
  0
INSERT
  5
5DEF
330
5DE8
100
AcDbEntity
  8
30
  6
Continuous
 62
     0
370
    -2
100
AcDbBlockReference
  2
_OPEN
 10
99.01683351501333
 20
147.3313751724503
 30
0.0
 41
2.0
 42
2.0
 43
2.0
 50
270.0
  0
MTEXT
  5
5DF0
330
5DE8
100
AcDbEntity
  8
30
  6
Continuous
 62
     0
100
AcDbMText
 10
96.01683351501332
 20
154.9213751724503
 30
0.0
 40
4.0
 41
0.0
 71
     5
 72
     1
  1
\A1;15.2
 11
0.0000000000000001
 21
1.0
 31
0.0
 73
     1
 44
1.0
1001
ACAD
1000
MTEXTBEGIN
1070
    73
1070
     1
1070
    44
1040
1.0
1070
    74
1070
     0
1000
MTEXTEND
  0
POINT
  5
5DF1
330
5DE8
100
AcDbEntity
  8
DEFPOINTS
  6
Continuous
 62
     0
100
AcDbPoint
 10
76.0
 20
162.5113751724502
 30
0.0
  0
POINT
  5
5DF2
330
5DE8
100
AcDbEntity
  8
DEFPOINTS
  6
Continuous
 62
     0
100
AcDbPoint
 10
76.0
 20
147.3313751724503
 30
0.0
  0
POINT
  5
5DF3
330
5DE8
100
AcDbEntity
  8
DEFPOINTS
  6
Continuous
 62
     0
100
AcDbPoint
 10
99.01683351501333
 20
147.3313751724503
 30
0.0
  0
ENDBLK
  5
5DEA
330
5DE8
100
AcDbEntity
  8
0
100
AcDbBlockEnd
  0
BLOCK
  5
5DF6
330
5DF5
100
AcDbEntity
  8
0
100
AcDbBlockBegin
  2
*D45
 70
     1
 10
0.0
 20
0.0
 30
0.0
  3
*D45
  1

  0
LINE
  5
5E33
330
5DF5
100
AcDbEntity
  8
30
  6
Continuous
 62
     0
370
    -2
100
AcDbLine
 10
77.08400000000006
 20
162.11543082726
 30
0.0
 11
120.777607812902
 21
162.11543082726
 31
0.0
  0
LINE
  5
5E34
330
5DF5
100
AcDbEntity
  8
30
  6
Continuous
 62
     0
370
    -2
100
AcDbLine
 10
77.08400000000006
 20
147.11543082726
 30
0.0
 11
120.777607812902
 21
147.11543082726
 31
0.0
  0
LINE
  5
5E35
330
5DF5
100
AcDbEntity
  8
30
  6
Continuous
 62
     0
370
    -2
100
AcDbLine
 10
120.277607812902
 20
160.11543082726
 30
0.0
 11
120.277607812902
 21
149.11543082726
 31
0.0
  0
INSERT
  5
5E36
330
5DF5
100
AcDbEntity
  8
30
  6
Continuous
 62
     0
370
    -2
100
AcDbBlockReference
  2
_OPEN
 10
120.277607812902
 20
162.11543082726
 30
0.0
 41
2.0
 42
2.0
 43
2.0
 50
90.0
  0
INSERT
  5
5E37
330
5DF5
100
AcDbEntity
  8
30
  6
Continuous
 62
     0
370
    -2
100
AcDbBlockReference
  2
_OPEN
 10
120.277607812902
 20
147.11543082726
 30
0.0
 41
2.0
 42
2.0
 43
2.0
 50
270.0
  0
MTEXT
  5
5E38
330
5DF5
100
AcDbEntity
  8
30
  6
Continuous
 62
     0
100
AcDbMText
 10
117.277607812902
 20
154.61543082726
 30
0.0
 40
4.0
 41
0.0
 71
     5
 72
     1
  1
\A1;15
 11
0.0000000000000001
 21
1.0
 31
0.0
 73
     1
 44
1.0
1001
ACAD
1000
MTEXTBEGIN
1070
    73
1070
     1
1070
    44
1040
1.0
1070
    74
1070
     0
1000
MTEXTEND
  0
POINT
  5
5E39
330
5DF5
100
AcDbEntity
  8
DEFPOINTS
  6
Continuous
 62
     0
100
AcDbPoint
 10
76.08400000000006
 20
162.11543082726
 30
0.0
  0
POINT
  5
5E3A
330
5DF5
100
AcDbEntity
  8
DEFPOINTS
  6
Continuous
 62
     0
100
AcDbPoint
 10
76.08400000000006
 20
147.11543082726
 30
0.0
  0
POINT
  5
5E3B
330
5DF5
100
AcDbEntity
  8
DEFPOINTS
  6
Continuous
 62
     0
100
AcDbPoint
 10
120.277607812902
 20
147.11543082726
 30
0.0
  0
ENDBLK
  5
5DF7
330
5DF5
100
AcDbEntity
  8
0
100
AcDbBlockEnd
  0
ENDSEC
  0
SECTION
  2
ENTITIES
  0
LINE
  5
B4
330
1E
100
AcDbEntity
  8
16
100
AcDbLine
 10
0.0
 20
-101.8246001220914
 30
0.0
 11
0.0
 21
105.6073578546832
 31
0.0
  0
LINE
  5
B5
330
1E
100
AcDbEntity
  8
16
100
AcDbLine
 10
69.27465564206305
 20
-0.0000000000000007
 30
0.0
 11
-51.40598938498886
 21
-0.0000000000000007
 31
0.0
  0
MTEXT
  5
BF3
330
1E
100
AcDbEntity
  8
24
  6
Continuous
100
AcDbMText
 10
140.9820964648283
 20
176.3476821548369
 30
0.0
 40
3.0
 41
0.0
 71
     1
 72
     1
  1
\A1;
 73
     1
 44
1.0
1001
ACAD
1000
MTEXTBEGIN
1070
    73
1070
     1
1070
    44
1040
1.0
1070
    74
1070
     0
1000
MTEXTEND
  0
LINE
  5
1C9A
330
1E
100
AcDbEntity
  8
16
100
AcDbLine
 10
0.0
 20
118.3138729996612
 30
0.0
 11
0.0
 21
260.8138729996611
 31
0.0
  0
LINE
  5
1C9B
330
1E
100
AcDbEntity
  8
16
100
AcDbLine
 10
273.9068787532455
 20
0.0
 30
0.0
 11
141.7416311410758
 21
0.0
 31
0.0
  0
LINE
  5
2260
330
1E
100
AcDbEntity
  8
16
100
AcDbLine
 10
66.40389754940712
 20
-252.6631237443548
 30
0.0
 11
-48.04976090077385
 21
-252.6631237443548
 31
0.0
  0
LINE
  5
2261
330
1E
100
AcDbEntity
  8
16
100
AcDbLine
 10
0.0
 20
-350.4150635072006
 30
0.0
 11
0.0
 21
-151.2797245348689
 31
0.0
  0
LINE
  5
4C5A
330
1E
100
AcDbEntity
  8
16
100
AcDbLine
 10
85.99441808474184
 20
-0.0000000000000007
 30
0.0
 11
-51.40598938498886
 21
-0.0000000000000007
 31
0.0
  0
CIRCLE
  5
5045
330
1E
100
AcDbEntity
  8
12
  6
DASHED
100
AcDbCircle
 10
-35.49988246350749
 20
-32.99989074072519
 30
0.0
 40
2.499991722782211
  0
CIRCLE
  5
5047
330
1E
100
AcDbEntity
  8
12
  6
DASHED
100
AcDbCircle
 10
-35.49988246350749
 20
32.99989074072514
 30
0.0
 40
2.499991722782211
  0
LINE
  5
5048
330
1E
100
AcDbEntity
  8
12
  6
DASHDOT
 62
     3
100
AcDbLine
 10
-38.99987087540258
 20
-32.99989074072519
 30
0.0
 11
-31.99989405161239
 21
-32.99989074072519
 31
0.0
  0
LINE
  5
504A
330
1E
100
AcDbEntity
  8
12
  6
DASHDOT
 62
     3
100
AcDbLine
 10
-38.99987087540258
 20
32.99989074072514
 30
0.0
 11
-31.99989405161239
 21
32.99989074072514
 31
0.0
  0
LINE
  5
504C
330
1E
100
AcDbEntity
  8
10
  6
CONTINOUS
100
AcDbLine
 10
-40.99986425362832
 20
-95.9996821548369
 30
0.0
 11
70.99975664979702
 21
-95.9996821548369
 31
0.0
  0
LINE
  5
504D
330
1E
100
AcDbEntity
  8
10
  6
CONTINOUS
100
AcDbLine
 10
-45.99984769919273
 20
90.99969870927251
 30
0.0
 11
-45.99984769919273
 21
-90.99969870927248
 31
0.0
  0
ARC
  5
504E
330
1E
100
AcDbEntity
  8
10
  6
CONTINOUS
100
AcDbCircle
 10
-40.99986425362832
 20
-90.99969870927248
 30
0.0
 40
4.999983445564422
100
AcDbArc
 50
180.0
 51
270.0
  0
LINE
  5
504F
330
1E
100
AcDbEntity
  8
12
  6
DASHDOT
 62
     3
100
AcDbLine
 10
-35.4998824635076
 20
-36.49987915262093
 30
0.0
 11
-35.4998824635076
 21
-29.49990232883076
 31
0.0
  0
LINE
  5
5051
330
1E
100
AcDbEntity
  8
12
  6
DASHDOT
 62
     3
100
AcDbLine
 10
-35.4998824635076
 20
29.4999023288294
 30
0.0
 11
-35.4998824635076
 21
36.49987915261965
 31
0.0
  0
ARC
  5
5052
330
1E
100
AcDbEntity
  8
10
  6
CONTINOUS
100
AcDbCircle
 10
-40.99986425362832
 20
90.99969870927251
 30
0.0
 40
4.999983445564422
100
AcDbArc
 50
90.0
 51
180.0
  0
LINE
  5
5053
330
1E
100
AcDbEntity
  8
10
  6
CONTINOUS
100
AcDbLine
 10
-14.99995033669327
 20
24.99991722782211
 30
0.0
 11
-14.99995033669327
 21
-24.99991722782206
 31
0.0
  0
LINE
  5
5054
330
1E
100
AcDbEntity
  8
10
  6
CONTINOUS
100
AcDbLine
 10
41.99986094274112
 20
24.99991722782211
 30
0.0
 11
41.99986094274112
 21
-24.99991722782206
 31
0.0
  0
LINE
  5
5055
330
1E
100
AcDbEntity
  8
10
  6
CONTINOUS
100
AcDbLine
 10
-10.99996358024178
 20
24.99991722782211
 30
0.0
 11
-10.99996358024178
 21
-24.99991722782206
 31
0.0
  0
LINE
  5
5056
330
1E
100
AcDbEntity
  8
10
  6
CONTINOUS
100
AcDbLine
 10
10.99996358024167
 20
24.99991722782211
 30
0.0
 11
10.99996358024167
 21
-24.99991722782206
 31
0.0
  0
LINE
  5
5057
330
1E
100
AcDbEntity
  8
10
  6
DASHED
100
AcDbLine
 10
-14.99995033669327
 20
77.49974340624856
 30
0.0
 11
-14.99995033669327
 21
-77.49974340624856
 31
0.0
  0
LINE
  5
5058
330
1E
100
AcDbEntity
  8
10
  6
DASHED
100
AcDbLine
 10
44.99985101007982
 20
-77.49974340624856
 30
0.0
 11
44.99985101007982
 21
77.49974340624856
 31
0.0
  0
LINE
  5
5059
330
1E
100
AcDbEntity
  8
10
  6
CONTINOUS
100
AcDbLine
 10
75.99974009536139
 20
-90.99969870927248
 30
0.0
 11
75.99974009536139
 21
90.99969870927251
 31
0.0
  0
LINE
  5
505A
330
1E
100
AcDbEntity
  8
10
  6
CONTINOUS
100
AcDbLine
 10
-14.99995033669327
 20
-24.99991722782206
 30
0.0
 11
41.99986094274112
 21
-24.99991722782206
 31
0.0
  0
LINE
  5
505B
330
1E
100
AcDbEntity
  8
10
  6
DASHED
100
AcDbLine
 10
-14.99995033669327
 20
-77.49974340624856
 30
0.0
 11
44.99985101007982
 21
-77.49974340624856
 31
0.0
  0
ARC
  5
505C
330
1E
100
AcDbEntity
  8
10
  6
CONTINOUS
100
AcDbCircle
 10
70.99975664979702
 20
-90.99969870927248
 30
0.0
 40
4.999983445564422
100
AcDbArc
 50
270.0
 51
0.0
  0
CIRCLE
  5
505D
330
1E
100
AcDbEntity
  8
12
  6
DASHED
100
AcDbCircle
 10
65.49977485967611
 20
-32.99989074072519
 30
0.0
 40
2.499991722782211
  0
LINE
  5
505E
330
1E
100
AcDbEntity
  8
12
  6
DASHDOT
 62
     3
100
AcDbLine
 10
61.99978644778099
 20
-32.99989074072519
 30
0.0
 11
68.99976327157125
 21
-32.99989074072519
 31
0.0
  0
LINE
  5
505F
330
1E
100
AcDbEntity
  8
12
  6
DASHDOT
 62
     3
100
AcDbLine
 10
65.49977485967606
 20
-36.49987915262093
 30
0.0
 11
65.49977485967606
 21
-29.49990232883076
 31
0.0
  0
LINE
  5
5060
330
1E
100
AcDbEntity
  8
10
  6
CONTINOUS
100
AcDbLine
 10
-14.99995033669327
 20
24.99991722782211
 30
0.0
 11
41.99986094274112
 21
24.99991722782211
 31
0.0
  0
LINE
  5
5061
330
1E
100
AcDbEntity
  8
10
  6
DASHED
100
AcDbLine
 10
44.99985101007982
 20
77.49974340624856
 30
0.0
 11
-14.99995033669327
 21
77.49974340624856
 31
0.0
  0
LINE
  5
5062
330
1E
100
AcDbEntity
  8
10
  6
CONTINOUS
100
AcDbLine
 10
6.999976823790134
 20
-18.49993874858834
 30
0.0
 11
6.999976823790247
 21
20.15480197531517
 31
0.0
  0
LINE
  5
5063
330
1E
100
AcDbEntity
  8
10
  6
CONTINOUS
100
AcDbLine
 10
-6.999976823790191
 20
-18.49993874858834
 30
0.0
 11
-6.999976823790134
 21
20.15480197531517
 31
0.0
  0
LINE
  5
5064
330
1E
100
AcDbEntity
  8
10
  6
CONTINOUS
100
AcDbLine
 10
-6.999976823790191
 20
-18.49993874858834
 30
0.0
 11
6.999976823790134
 21
-18.49993874858834
 31
0.0
  0
LINE
  5
5065
330
1E
100
AcDbEntity
  8
10
  6
CONTINOUS
100
AcDbLine
 10
6.999976823790134
 20
6.840766657780405
 30
0.0
 11
-6.999976823789296
 21
6.840766657780405
 31
0.0
  0
LINE
  5
5066
330
1E
100
AcDbEntity
  8
10
  6
CONTINOUS
100
AcDbLine
 10
6.999976823790134
 20
20.15480197531517
 30
0.0
 11
-6.999976823791143
 21
20.15480197531517
 31
0.0
  0
LINE
  5
5067
330
1E
100
AcDbEntity
  8
10
  6
CONTINOUS
100
AcDbLine
 10
6.999976823790134
 20
15.2399059823013
 30
0.0
 11
-6.999976823790191
 21
15.2399059823013
 31
0.0
  0
CIRCLE
  5
506B
330
1E
100
AcDbEntity
  8
12
  6
DASHED
100
AcDbCircle
 10
65.49977485967611
 20
32.99989074072514
 30
0.0
 40
2.499991722782211
  0
LINE
  5
506C
330
1E
100
AcDbEntity
  8
12
  6
DASHDOT
 62
     3
100
AcDbLine
 10
61.99978644778099
 20
32.99989074072514
 30
0.0
 11
68.99976327157125
 21
32.99989074072514
 31
0.0
  0
LINE
  5
506D
330
1E
100
AcDbEntity
  8
12
  6
DASHDOT
 62
     3
100
AcDbLine
 10
65.49977485967606
 20
29.4999023288294
 30
0.0
 11
65.49977485967606
 21
36.49987915261965
 31
0.0
  0
ARC
  5
506E
330
1E
100
AcDbEntity
  8
10
  6
CONTINOUS
100
AcDbCircle
 10
70.99975664979702
 20
90.99969870927251
 30
0.0
 40
4.999983445564422
100
AcDbArc
 50
0.0
 51
90.0
  0
DIMENSION
  5
51B2
330
1E
100
AcDbEntity
  8
30
  6
Continuous
100
AcDbDimension
  2
*D17
 10
194.9999257258451
 20
-172.3996379392698
 30
0.0
 11
176.5000173306356
 21
-169.39963793927
 31
0.0
 70
    32
 71
     5
 42
-1.0
  3
STANDARD
100
AcDbAlignedDimension
 13
158.0001089354263
 23
-2.499987637474178
 33
0.0
 14
194.9999257258451
 24
-105.9994751293082
 34
0.0
 50
180.0
100
AcDbRotatedDimension
  0
LINE
  5
51B3
330
1E
100
AcDbEntity
  8
10
  6
CONTINOUS
100
AcDbLine
 10
174.0000297096619
 20
-24.99987620974255
 30
0.0
 11
180.0
 21
-24.99987620974255
 31
0.0
  0
LINE
  5
51B5
330
1E
100
AcDbEntity
  8
10
  6
CONTINOUS
100
AcDbLine
 10
174.0000297096619
 20
24.99987620974251
 30
0.0
 11
180.0
 21
24.99987620974251
 31
0.0
  0
LINE
  5
51B7
330
1E
100
AcDbEntity
  8
10
  6
CONTINOUS
100
AcDbLine
 10
174.0000297096619
 20
24.99987620974251
 30
0.0
 11
174.0000297096619
 21
-24.99987620974255
 31
0.0
  0
ARC
  5
51B8
330
1E
100
AcDbEntity
  8
30
  6
Continuous
100
AcDbCircle
 10
188.9999554355073
 20
0.0
 30
0.0
 40
30.99984650008077
100
AcDbArc
 50
150.5534441956568
 51
180.0
  0
LINE
  5
51B9
330
1E
100
AcDbEntity
  8
10
  6
CONTINOUS
100
AcDbLine
 10
174.0000297096619
 20
6.840755433938483
 30
0.0
 11
162.0048353058886
 21
15.23988097775136
 31
0.0
  0
LINE
  5
51BC
330
1E
100
AcDbEntity
  8
10
  6
CONTINOUS
100
AcDbLine
 10
174.0000297096619
 20
14.16536669770709
 30
0.0
 11
165.4462768832329
 21
20.15476890675518
 31
0.0
  0
LINE
  5
51BD
330
1E
100
AcDbEntity
  8
10
  6
CONTINOUS
100
AcDbLine
 10
162.0048353058886
 20
15.23988097775136
 30
0.0
 11
165.4462768832329
 21
20.15476890675518
 31
0.0
  0
LINE
  5
51C0
330
1E
100
AcDbEntity
  8
10
  6
CONTINOUS
100
AcDbLine
 10
194.9999257258451
 20
95.99952464541166
 30
0.0
 11
194.9999257258451
 21
-95.99952464541123
 31
0.0
  0
LINE
  5
51C2
330
1E
100
AcDbEntity
  8
10
  6
CONTINOUS
100
AcDbLine
 10
178.0000099032204
 20
24.99987620974251
 30
0.0
 11
178.0000099032204
 21
-24.99987620974255
 31
0.0
  0
LINE
  5
51C3
330
1E
100
AcDbEntity
  8
18
100
AcDbLine
 10
198.9999059194044
 20
100.9994998873601
 30
0.0
 11
198.9999059194044
 21
-110.9994503712566
 31
0.0
  0
LINE
  5
51C4
330
1E
100
AcDbEntity
  8
10
  6
CONTINOUS
100
AcDbLine
 10
180.0
 20
95.99952464541166
 30
0.0
 11
180.0
 21
-95.99952464541123
 31
0.0
  0
DIMENSION
  5
51C5
330
1E
100
AcDbEntity
  8
30
  6
Continuous
100
AcDbDimension
  2
*D18
 10
351.9991483230286
 20
-172.3996379392698
 30
0.0
 11
273.4995370244369
 21
-169.39963793927
 31
0.0
 70
    32
 71
     5
 42
-1.0
  3
STANDARD
100
AcDbAlignedDimension
 13
194.9999257258451
 23
-105.9994751293082
 33
0.0
 14
351.9991483230286
 24
-66.99966824211003
 34
0.0
 50
180.0
100
AcDbRotatedDimension
  0
DIMENSION
  5
51C6
330
1E
100
AcDbEntity
  8
30
  6
Continuous
100
AcDbDimension
  2
*D19
 10
301.9993959035433
 20
-147.3997617295276
 30
0.0
 11
248.4996608146944
 21
-144.3997617295273
 31
0.0
 70
    32
 71
     5
 42
-1.0
  3
STANDARD
100
AcDbAlignedDimension
 13
194.9999257258451
 23
-105.9994751293082
 33
0.0
 14
301.9993959035433
 24
-66.99966824211003
 34
0.0
 50
180.0
100
AcDbRotatedDimension
  0
INSERT
  5
51C7
330
1E
100
AcDbEntity
  8
30
  6
Continuous
100
AcDbBlockReference
  2
*U3
 10
-457.0351231466664
 20
-306.7739725618864
 30
0.0
 41
2.499987620974227
 42
2.499987620974227
 43
2.499987620974227
  0
DIMENSION
  5
51C8
330
1E
100
AcDbEntity
  8
30
  6
Continuous
100
AcDbDimension
  2
*D20
 10
286.9994701776981
 20
-34.90031878568621
 30
0.0
 11
279.4995073147753
 21
-31.90031878568621
 31
0.0
 70
    32
 71
     5
 42
-1.0
  3
STANDARD
100
AcDbAlignedDimension
 13
271.9995444518525
 23
-59.99970288688222
 33
0.0
 14
286.9994701776981
 24
-64.49968060463591
 34
0.0
100
AcDbRotatedDimension
  0
LINE
  5
51C9
330
1E
100
AcDbEntity
  8
0
  6
Continuous
100
AcDbLine
 10
273.5933088038024
 20
-74.99962862922766
 30
0.0
 11
299.8558129783345
 21
-74.99962862922766
 31
0.0
  0
LINE
  5
51CA
330
1E
100
AcDbEntity
  8
0
  6
Continuous
100
AcDbLine
 10
273.5933088038024
 20
-58.99970785499243
 30
0.0
 11
299.8558129783345
 21
-58.99970785499243
 31
0.0
  0
LINE
  5
51CB
330
1E
100
AcDbEntity
  8
0
  6
Continuous
100
AcDbLine
 10
244.9996781453305
 20
-66.99966824211003
 30
0.0
 11
361.9990988069257
 21
-66.99966824211003
 31
0.0
  0
DIMENSION
  5
51CC
330
1E
100
AcDbEntity
  8
30
  6
Continuous
100
AcDbDimension
  2
*D21
 10
194.9999257258451
 20
-147.3997617295276
 30
0.0
 11
187.4999628629225
 21
-144.3997617295273
 31
0.0
 70
    32
 71
     5
 42
-1.0
  3
STANDARD
100
AcDbAlignedDimension
 13
180.0
 23
-95.99952464541123
 33
0.0
 14
194.9999257258451
 24
-105.9994751293082
 34
0.0
 50
180.0
100
AcDbRotatedDimension
  0
LINE
  5
51CD
330
1E
100
AcDbEntity
  8
18
100
AcDbLine
 10
194.9999257258451
 20
-95.99952464541123
 30
0.0
 11
194.9999257258451
 21
-105.999475129308
 31
0.0
  0
LINE
  5
51CE
330
1E
100
AcDbEntity
  8
18
100
AcDbLine
 10
194.9999257258451
 20
-105.999475129308
 30
0.0
 11
198.9999059194044
 21
-110.9994503712566
 31
0.0
  0
LINE
  5
51D0
330
1E
100
AcDbEntity
  8
10
  6
CONTINOUS
100
AcDbLine
 10
194.9999257258451
 20
-77.4996162502019
 30
0.0
 11
249.9996533872792
 21
-77.4996162502019
 31
0.0
  0
LINE
  5
51D1
330
1E
100
AcDbEntity
  8
10
  6
CONTINOUS
100
AcDbLine
 10
180.0
 20
-95.99952464541123
 30
0.0
 11
194.9999257258451
 21
-95.99952464541123
 31
0.0
  0
LINE
  5
51D2
330
1E
100
AcDbEntity
  8
0
  6
Continuous
100
AcDbLine
 10
266.4995716857089
 20
-59.87470352233343
 30
0.0
 11
266.4995716857089
 21
-74.12463296188668
 31
0.0
  0
LINE
  5
51D3
330
1E
100
AcDbEntity
  8
0
  6
Continuous
100
AcDbLine
 10
249.9996533872788
 20
-74.12463296188668
 30
0.0
 11
273.1167864807559
 21
-74.12463296188668
 31
0.0
  0
LINE
  5
51D4
330
1E
100
AcDbEntity
  8
0
  6
Continuous
100
AcDbLine
 10
266.4995716857089
 20
-71.4996459598637
 30
0.0
 11
271.9995444518525
 21
-71.4996459598637
 31
0.0
  0
ARC
  5
51D5
330
1E
100
AcDbEntity
  8
0
  6
Continuous
100
AcDbCircle
 10
290.9137311150848
 20
-64.99967814533062
 30
0.0
 40
19.99990096779404
100
AcDbArc
 50
198.9655749888484
 51
210.0
  0
LINE
  5
51D6
330
1E
100
AcDbEntity
  8
0
  6
Continuous
100
AcDbLine
 10
249.9996533872788
 20
-59.87470352233343
 30
0.0
 11
273.1167864807559
 21
-59.87470352233343
 31
0.0
  0
LINE
  5
51D7
330
1E
100
AcDbEntity
  8
0
  6
Continuous
100
AcDbLine
 10
266.4995716857089
 20
-62.49969052435638
 30
0.0
 11
271.9995444518525
 21
-62.49969052435638
 31
0.0
  0
ARC
  5
51D8
330
1E
100
AcDbEntity
  8
0
  6
Continuous
100
AcDbCircle
 10
-290.9137311150848
 20
-68.99965833888946
 30
0.0
 40
19.99990096779404
210
0.0
220
0.0
230
-1.0
100
AcDbArc
 50
18.96557498884842
 51
30.00000000000014
  0
DIMENSION
  5
51D9
330
1E
100
AcDbEntity
  8
30
  6
Continuous
100
AcDbDimension
  2
*D22
 10
351.9991483230286
 20
-122.3998855197852
 30
0.0
 11
344.4991854601058
 21
-119.3998855197851
 31
0.0
 70
    32
 71
     5
 42
-1.0
  3
STANDARD
100
AcDbAlignedDimension
 13
336.9992225971831
 23
-69.49965587958423
 33
0.0
 14
351.9991483230286
 24
-76.28671009944188
 34
0.0
 50
180.0
100
AcDbRotatedDimension
  0
DIMENSION
  5
51DA
330
1E
100
AcDbEntity
  8
30
  6
Continuous
100
AcDbDimension
  2
*D23
 10
301.9993959035433
 20
-122.3998855197852
 30
0.0
 11
294.4994330406208
 21
-119.3998855197851
 31
0.0
 70
    32
 71
     5
 42
-1.0
  3
STANDARD
100
AcDbAlignedDimension
 13
286.9994701776981
 23
-69.49965587958423
 33
0.0
 14
301.9993959035433
 24
-76.28671009944188
 34
0.0
 50
180.0
100
AcDbRotatedDimension
  0
CIRCLE
  5
51DB
330
1E
100
AcDbEntity
  8
0
  6
Continuous
100
AcDbCircle
 10
336.9992225971831
 20
-66.99966824211003
 30
0.0
 40
4.249978955656231
  0
LINE
  5
51DC
330
1E
100
AcDbEntity
  8
0
  6
Continuous
100
AcDbLine
 10
323.5930612232875
 20
-58.99970785499243
 30
0.0
 11
349.8555653978196
 21
-58.99970785499243
 31
0.0
  0
LINE
  5
51DD
330
1E
100
AcDbEntity
  8
0
  6
Continuous
100
AcDbLine
 10
323.5930612232875
 20
-74.99962862922766
 30
0.0
 11
349.8555653978196
 21
-74.99962862922766
 31
0.0
  0
ARC
  5
51DE
330
1E
100
AcDbEntity
  8
0
  6
Continuous
100
AcDbCircle
 10
285.9994751293085
 20
-66.99966824211003
 30
0.0
 40
15.99992077423523
100
AcDbArc
 50
329.9999999999998
 51
30.00000000000014
  0
CIRCLE
  5
51DF
330
1E
100
AcDbEntity
  8
0
  6
Continuous
100
AcDbCircle
 10
286.9994701776981
 20
-66.99966824211003
 30
0.0
 40
4.249978955656231
  0
LINE
  5
51E0
330
1E
100
AcDbEntity
  8
0
  6
Continuous
100
AcDbLine
 10
286.9994701776981
 20
-53.99973261304392
 30
0.0
 11
286.9994701776981
 21
-79.99960387117616
 31
0.0
  0
LINE
  5
51E1
330
1E
100
AcDbEntity
  8
0
  6
Continuous
100
AcDbLine
 10
316.4993241051941
 20
-59.87470352233343
 30
0.0
 11
316.4993241051941
 21
-74.12463296188668
 31
0.0
  0
LINE
  5
51E2
330
1E
100
AcDbEntity
  8
0
  6
Continuous
100
AcDbLine
 10
300.3254076477777
 20
-74.12463296188668
 30
0.0
 11
316.4993241051943
 21
-74.12463296188668
 31
0.0
  0
LINE
  5
51E3
330
1E
100
AcDbEntity
  8
0
  6
Continuous
100
AcDbLine
 10
316.4993241051941
 20
-71.4996459598637
 30
0.0
 11
321.9992968713376
 21
-71.4996459598637
 31
0.0
  0
ARC
  5
51E4
330
1E
100
AcDbEntity
  8
0
  6
Continuous
100
AcDbCircle
 10
340.9134835345702
 20
-64.99967814533062
 30
0.0
 40
19.99990096779404
100
AcDbArc
 50
198.9655749888484
 51
210.0
  0
LINE
  5
51E5
330
1E
100
AcDbEntity
  8
0
  6
Continuous
100
AcDbLine
 10
300.3254076477777
 20
-59.87470352233343
 30
0.0
 11
316.4993241051943
 21
-59.87470352233343
 31
0.0
  0
LINE
  5
51E6
330
1E
100
AcDbEntity
  8
0
  6
Continuous
100
AcDbLine
 10
316.4993241051941
 20
-62.49969052435638
 30
0.0
 11
321.9992968713376
 21
-62.49969052435638
 31
0.0
  0
ARC
  5
51E7
330
1E
100
AcDbEntity
  8
0
  6
Continuous
100
AcDbCircle
 10
-340.9134835345702
 20
-68.99965833888946
 30
0.0
 40
19.99990096779404
210
0.0
220
0.0
230
-1.0
100
AcDbArc
 50
18.96557498884842
 51
30.00000000000014
  0
DIMENSION
  5
51E8
330
1E
100
AcDbEntity
  8
30
  6
Continuous
100
AcDbDimension
  2
*D24
 10
376.0857515477538
 20
-58.99970785499243
 30
0.0
 11
373.085751547754
 21
-66.99966824210999
 31
0.0
 70
    32
 71
     5
 42
-1.0
  3
STANDARD
100
AcDbAlignedDimension
 13
349.8555653978196
 23
-74.99962862922766
 33
0.0
 14
349.8555653978196
 24
-58.99970785499242
 34
0.0
 50
270.0
100
AcDbRotatedDimension
  0
ARC
  5
51E9
330
1E
100
AcDbEntity
  8
0
  6
Continuous
100
AcDbCircle
 10
335.9992275487935
 20
-66.99966824211003
 30
0.0
 40
15.99992077423523
100
AcDbArc
 50
329.9999999999998
 51
30.00000000000014
  0
LINE
  5
51EA
330
1E
100
AcDbEntity
  8
0
  6
Continuous
100
AcDbLine
 10
336.9992225971831
 20
-53.99973261304392
 30
0.0
 11
336.9992225971831
 21
-79.99960387117616
 31
0.0
  0
LINE
  5
51ED
330
1E
100
AcDbEntity
  8
0
  6
Continuous
100
AcDbLine
 10
266.4995716857089
 20
64.49968062113575
 30
0.0
 11
301.9993959035433
 21
64.49968062113575
 31
0.0
  0
LINE
  5
51EE
330
1E
100
AcDbEntity
  8
0
  6
Continuous
100
AcDbLine
 10
266.4995716857089
 20
69.49965586308424
 30
0.0
 11
301.9993959035433
 21
69.49965586308424
 31
0.0
  0
LINE
  5
51EF
330
1E
100
AcDbEntity
  8
0
  6
Continuous
100
AcDbLine
 10
244.9996781453305
 20
66.99966824210996
 30
0.0
 11
361.9990988069257
 21
66.99966824210996
 31
0.0
  0
LINE
  5
51F0
330
1E
100
AcDbEntity
  8
0
  6
Continuous
100
AcDbLine
 10
249.9996533872788
 20
59.87470352233344
 30
0.0
 11
316.4993241051938
 21
59.87470352233344
 31
0.0
  0
LINE
  5
51F1
330
1E
100
AcDbEntity
  8
0
  6
Continuous
100
AcDbLine
 10
249.9996533872788
 20
74.12463296188659
 30
0.0
 11
316.4993241051938
 21
74.12463296188659
 31
0.0
  0
LINE
  5
51F3
330
1E
100
AcDbEntity
  8
10
  6
CONTINOUS
100
AcDbLine
 10
194.9999257258451
 20
77.49961625020205
 30
0.0
 11
249.9996533872792
 21
77.49961625020205
 31
0.0
  0
LINE
  5
51F4
330
1E
100
AcDbEntity
  8
10
  6
CONTINOUS
100
AcDbLine
 10
180.0
 20
95.99952464541166
 30
0.0
 11
194.9999257258451
 21
95.99952464541166
 31
0.0
  0
LINE
  5
51F5
330
1E
100
AcDbEntity
  8
18
100
AcDbLine
 10
194.9999257258451
 20
105.9994751293084
 30
0.0
 11
194.9999257258451
 21
95.99952464541166
 31
0.0
  0
LINE
  5
51F6
330
1E
100
AcDbEntity
  8
18
100
AcDbLine
 10
194.9999257258451
 20
105.9994751293084
 30
0.0
 11
198.9999059194044
 21
100.9994998873601
 31
0.0
  0
LINE
  5
51F7
330
1E
100
AcDbEntity
  8
0
  6
Continuous
100
AcDbLine
 10
266.4995716857089
 20
74.12463296188659
 30
0.0
 11
266.4995716857089
 21
59.87470352233339
 31
0.0
  0
LINE
  5
51F8
330
1E
100
AcDbEntity
  8
0
  6
Continuous
100
AcDbLine
 10
271.9995444518525
 20
69.49965586308424
 30
0.0
 11
271.9995444518525
 21
64.49968062113575
 31
0.0
  0
LINE
  5
51F9
330
1E
100
AcDbEntity
  8
0
  6
Continuous
100
AcDbLine
 10
316.4993241051941
 20
69.49965586308424
 30
0.0
 11
351.9991483230286
 21
69.49965586308424
 31
0.0
  0
LINE
  5
51FA
330
1E
100
AcDbEntity
  8
0
  6
Continuous
100
AcDbLine
 10
316.4993241051941
 20
64.49968062113575
 30
0.0
 11
351.9991483230286
 21
64.49968062113575
 31
0.0
  0
LINE
  5
51FB
330
1E
100
AcDbEntity
  8
0
  6
Continuous
100
AcDbLine
 10
286.9994701776981
 20
73.24963729454561
 30
0.0
 11
286.9994701776981
 21
60.74969918967435
 31
0.0
  0
LINE
  5
51FC
330
1E
100
AcDbEntity
  8
0
  6
Continuous
100
AcDbLine
 10
301.9993959035433
 20
69.49965586308424
 30
0.0
 11
301.9993959035433
 21
64.49968062113575
 31
0.0
  0
LINE
  5
51FD
330
1E
100
AcDbEntity
  8
0
  6
Continuous
100
AcDbLine
 10
316.4993241051941
 20
74.12463296188659
 30
0.0
 11
316.4993241051941
 21
59.87470352233344
 31
0.0
  0
LINE
  5
51FE
330
1E
100
AcDbEntity
  8
0
  6
Continuous
100
AcDbLine
 10
321.9992968713376
 20
69.49965586308424
 30
0.0
 11
321.9992968713376
 21
64.49968062113575
 31
0.0
  0
DIMENSION
  5
51FF
330
1E
100
AcDbEntity
  8
30
  6
Continuous
100
AcDbDimension
  2
*D25
 10
373.7524182144206
 20
69.49965586308421
 30
0.0
 11
376.0857515477538
 21
73.4996558630843
 31
0.0
 70
   160
 71
     5
 42
-1.0
  3
STANDARD
100
AcDbAlignedDimension
 13
351.9991483230286
 23
64.49968062113575
 33
0.0
 14
351.9991483230286
 24
69.49965586308424
 34
0.0
 50
270.0
100
AcDbRotatedDimension
1001
ACAD
1000
DSTYLE
1002
{
1070
   340
1005
11
1002
}
  0
LINE
  5
5200
330
1E
100
AcDbEntity
  8
0
  6
Continuous
100
AcDbLine
 10
336.9992225971831
 20
73.24963729454561
 30
0.0
 11
336.9992225971831
 21
60.74969918967435
 31
0.0
  0
LINE
  5
5201
330
1E
100
AcDbEntity
  8
0
  6
Continuous
100
AcDbLine
 10
351.9991483230286
 20
69.49965586308424
 30
0.0
 11
351.9991483230286
 21
64.49968062113575
 31
0.0
  0
LINE
  5
5338
330
1E
100
AcDbEntity
  8
18
100
AcDbLine
 10
-47.88404680152241
 20
162.5113751724503
 30
0.0
 11
-52.94404680152247
 21
162.5113751724503
 31
0.0
  0
LINE
  5
5357
330
1E
100
AcDbEntity
  8
10
  6
CONTINOUS
100
AcDbLine
 10
7.084000000000057
 20
129.1201783272599
 30
0.0
 11
-7.084000000000057
 21
129.1201783272599
 31
0.0
  0
LINE
  5
535A
330
1E
100
AcDbEntity
  8
18
100
AcDbLine
 10
82.00200000000043
 20
162.5113751724504
 30
0.0
 11
76.0
 21
162.5113751724503
 31
0.0
  0
LINE
  5
535B
330
1E
100
AcDbEntity
  8
18
100
AcDbLine
 10
82.00200000000043
 20
162.5113751724504
 30
0.0
 11
76.0
 21
166.55937517245
 31
0.0
  0
LINE
  5
535F
330
1E
100
AcDbEntity
  8
18
100
AcDbLine
 10
76.00000000000041
 20
166.55937517245
 30
0.0
 11
-58.00404680152245
 21
166.55937517245
 31
0.0
  0
LINE
  5
5360
330
1E
100
AcDbEntity
  8
18
100
AcDbLine
 10
-52.94404680152247
 20
162.5113751724503
 30
0.0
 11
-58.00404680152245
 21
166.55937517245
 31
0.0
  0
DIMENSION
  5
53E2
330
1E
100
AcDbEntity
  8
30
  6
Continuous
100
AcDbDimension
  2
*D26
 10
65.50000000000003
 20
-403.5636153436747
 30
0.0
 11
15.00007615040354
 21
-400.5636153436748
 31
0.0
 70
    32
 71
     5
 42
-1.0
  3
STANDARD
100
AcDbAlignedDimension
 13
-35.49984769919289
 23
-288.163123760855
 33
0.0
 14
65.50000000000003
 24
-288.163123760855
 34
0.0
 50
180.0
100
AcDbRotatedDimension
  0
DIMENSION
  5
53E3
330
1E
100
AcDbEntity
  8
30
  6
Continuous
100
AcDbDimension
  2
*D27
 10
60.50000000000032
 20
-378.5636153436747
 30
0.0
 11
15.0000761504038
 21
-375.5636153436747
 31
0.0
 70
    32
 71
     5
 42
-1.0
  3
STANDARD
100
AcDbAlignedDimension
 13
-30.49984769919272
 23
-343.1631237443548
 33
0.0
 14
60.50000000000032
 24
-343.1631237443548
 34
0.0
 50
180.0
100
AcDbRotatedDimension
  0
LINE
  5
53E4
330
1E
100
AcDbEntity
  8
18
  6
DIVIDE
100
AcDbLine
 10
71.00000000000007
 20
-156.6631237443556
 30
0.0
 11
-40.99984769919282
 21
-156.6631237443556
 31
0.0
  0
LINE
  5
53E5
330
1E
100
AcDbEntity
  8
18
  6
DIVIDE
100
AcDbLine
 10
-40.99984769919282
 20
-348.663123744355
 30
0.0
 11
71.00000000000007
 21
-348.663123744355
 31
0.0
  0
LINE
  5
53E7
330
1E
100
AcDbEntity
  8
11
 48
2.0
100
AcDbLine
 10
60.50000000000032
 20
-162.1631237443549
 30
0.0
 11
-30.49984769919273
 21
-162.1631237443549
 31
0.0
  0
LINE
  5
53E8
330
1E
100
AcDbEntity
  8
11
 48
2.0
100
AcDbLine
 10
-30.49984769919295
 20
-343.1631237443548
 30
0.0
 11
60.4999999999999
 21
-343.1631237443548
 31
0.0
  0
LINE
  5
53E9
330
1E
100
AcDbEntity
  8
18
  6
DIVIDE
100
AcDbLine
 10
-45.99984769919273
 20
-161.6631237443554
 30
0.0
 11
-45.99984769919273
 21
-343.6631237443547
 31
0.0
  0
LINE
  5
53EA
330
1E
100
AcDbEntity
  8
11
 48
2.0
100
AcDbLine
 10
-30.49984769919273
 20
-343.1631237443548
 30
0.0
 11
-30.49984769919273
 21
-162.1631237443549
 31
0.0
  0
ARC
  5
53EB
330
1E
100
AcDbEntity
  8
18
  6
DIVIDE
100
AcDbCircle
 10
-40.99984769919282
 20
-343.6631237443547
 30
0.0
 40
4.999999999999992
100
AcDbArc
 50
180.0
 51
270.0
  0
CIRCLE
  5
53EC
330
1E
100
AcDbEntity
  8
12
  6
Continuous
 62
     3
100
AcDbCircle
 10
-35.49984769919289
 20
-285.6631237443549
 30
0.0
 40
2.999999999999996
  0
LINE
  5
53ED
330
1E
100
AcDbEntity
  8
12
  6
Continuous
 62
     3
100
AcDbLine
 10
-35.49984769919289
 20
-290.6631237443559
 30
0.0
 11
-35.49984769919289
 21
-280.6631237443559
 31
0.0
  0
LINE
  5
53EE
330
1E
100
AcDbEntity
  8
12
  6
Continuous
 62
     3
100
AcDbLine
 10
-40.49984769919282
 20
-285.6631237443549
 30
0.0
 11
-30.49984769919295
 21
-285.6631237443549
 31
0.0
  0
CIRCLE
  5
53F2
330
1E
100
AcDbEntity
  8
12
  6
Continuous
 62
     3
100
AcDbCircle
 10
-35.49984769919289
 20
-219.6631237443551
 30
0.0
 40
2.999999999999996
  0
LINE
  5
53F3
330
1E
100
AcDbEntity
  8
12
  6
Continuous
 62
     3
100
AcDbLine
 10
-40.49984769919282
 20
-219.6631237443551
 30
0.0
 11
-30.49984769919295
 21
-219.6631237443551
 31
0.0
  0
LINE
  5
53F4
330
1E
100
AcDbEntity
  8
12
  6
Continuous
 62
     3
100
AcDbLine
 10
-35.49984769919332
 20
-224.663123744356
 30
0.0
 11
-35.49984769919332
 21
-214.663123744356
 31
0.0
  0
ARC
  5
53F5
330
1E
100
AcDbEntity
  8
18
  6
DIVIDE
100
AcDbCircle
 10
-40.99984769919282
 20
-161.6631237443554
 30
0.0
 40
4.999999999999992
100
AcDbArc
 50
90.0
 51
180.0
  0
LINE
  5
53F6
330
1E
100
AcDbEntity
  8
18
  6
DIVIDE
100
AcDbLine
 10
76.0
 20
-343.6631237443547
 30
0.0
 11
76.0
 21
-161.6631237443554
 31
0.0
  0
LINE
  5
53F8
330
1E
100
AcDbEntity
  8
11
 48
2.0
100
AcDbLine
 10
60.50000000000032
 20
-343.1631237443548
 30
0.0
 11
60.50000000000032
 21
-162.1631237443549
 31
0.0
  0
ARC
  5
53F9
330
1E
100
AcDbEntity
  8
18
  6
DIVIDE
100
AcDbCircle
 10
71.00000000000007
 20
-343.6631237443547
 30
0.0
 40
4.999999999999992
100
AcDbArc
 50
270.0
 51
0.0
  0
CIRCLE
  5
53FA
330
1E
100
AcDbEntity
  8
12
  6
Continuous
 62
     3
100
AcDbCircle
 10
65.50000000000003
 20
-285.6631237443549
 30
0.0
 40
2.999999999999996
  0
LINE
  5
53FB
330
1E
100
AcDbEntity
  8
12
  6
Continuous
 62
     3
100
AcDbLine
 10
65.49999999999982
 20
-290.6631237443559
 30
0.0
 11
65.49999999999982
 21
-280.6631237443559
 31
0.0
  0
LINE
  5
53FC
330
1E
100
AcDbEntity
  8
12
  6
Continuous
 62
     3
100
AcDbLine
 10
60.4999999999999
 20
-285.6631237443549
 30
0.0
 11
70.49999999999998
 21
-285.6631237443549
 31
0.0
  0
LINE
  5
5400
330
1E
100
AcDbEntity
  8
12
  6
Continuous
 62
     3
100
AcDbLine
 10
60.4999999999999
 20
-219.6631237443551
 30
0.0
 11
70.49999999999973
 21
-219.6631237443551
 31
0.0
  0
CIRCLE
  5
5401
330
1E
100
AcDbEntity
  8
12
  6
Continuous
 62
     3
100
AcDbCircle
 10
65.49999999999982
 20
-219.6631237443551
 30
0.0
 40
2.999999999999996
  0
LINE
  5
5402
330
1E
100
AcDbEntity
  8
12
  6
Continuous
 62
     3
100
AcDbLine
 10
65.49999999999982
 20
-224.663123744356
 30
0.0
 11
65.49999999999982
 21
-214.663123744356
 31
0.0
  0
ARC
  5
5403
330
1E
100
AcDbEntity
  8
18
  6
DIVIDE
100
AcDbCircle
 10
71.00000000000007
 20
-161.6631237443554
 30
0.0
 40
4.999999999999992
100
AcDbArc
 50
0.0
 51
90.0
  0
LWPOLYLINE
  5
5475
330
1E
100
AcDbEntity
  8
10
  6
CONTINOUS
100
AcDbPolyline
 90
        2
 70
     0
 43
0.0
 10
70.99975664979702
 20
95.99968215483697
 10
-40.99986425362832
 20
95.99968215483697
  0
DIMENSION
  5
5476
330
1E
100
AcDbEntity
  8
30
  6
Continuous
100
AcDbDimension
  2
*D29
 10
75.99974009536143
 20
-124.2815389722079
 30
0.0
 11
14.99994619808433
 21
-121.2815389722079
 31
0.0
 70
    32
 71
     5
 42
-1.0
  3
STANDARD
100
AcDbAlignedDimension
 13
-45.99984769919273
 23
-95.2647216513492
 33
0.0
 14
75.99974009536143
 24
-95.2647216513492
 34
0.0
100
AcDbRotatedDimension
1001
ACAD
1000
DSTYLE
1002
{
1070
    79
1070
     3
1002
}
  0
DIMENSION
  5
5483
330
1E
100
AcDbEntity
  8
30
  6
Continuous
100
AcDbDimension
  2
*D30
 10
95.92339446619702
 20
-95.9996821548369
 30
0.0
 11
92.92339446619704
 21
0.0000000000000371
 31
0.0
 70
    32
 71
     5
 42
-1.0
  3
STANDARD
100
AcDbAlignedDimension
 13
75.26910358814866
 23
95.99968215483697
 33
0.0
 14
75.26910358814866
 24
-95.9996821548369
 34
0.0
 50
90.0
100
AcDbRotatedDimension
1001
ACAD
1000
DSTYLE
1002
{
1070
    79
1070
     3
1002
}
  0
DIMENSION
  5
54D8
330
1E
100
AcDbEntity
  8
30
  6
Continuous
100
AcDbDimension
  2
*D31
 10
61.07380585394633
 20
-219.4725068451631
 30
0.0
 11
95.19781585394639
 21
-204.873116845163
 31
0.0
 70
   163
 71
     5
 42
-1.0
  3
STANDARD
100
AcDbDiametricDimension
 15
66.46160785394646
 25
-216.8321288451628
 35
0.0
 40
0.0
1001
ACAD
1000
DSTYLE
1002
{
1070
   288
1070
     1
1002
}
  0
TEXT
  5
55FC
330
1E
100
AcDbEntity
  8
30
  6
Continuous
100
AcDbText
 10
244.3687489326077
 20
-121.3902071445067
 30
0.0
 40
5.0
  1
%%c8.5
 41
0.8542968749999968
  7
UGMTXT
100
AcDbText
  0
DIMENSION
  5
55FE
330
1E
100
AcDbEntity
  8
30
  6
Continuous
100
AcDbDimension
  2
*D32
 10
387.7367141808032
 20
-66.99966824211003
 30
0.0
 11
384.7367141808033
 21
0.0000000000000335
 31
0.0
 70
    32
 71
     5
 42
-1.0
  3
STANDARD
100
AcDbAlignedDimension
 13
361.9990988069257
 23
66.99966824210996
 33
0.0
 14
376.0857515477538
 24
-66.99966824211003
 34
0.0
 50
90.0
100
AcDbRotatedDimension
1001
ACAD
1000
DSTYLE
1002
{
1070
    79
1070
     3
1002
}
  0
MTEXT
  5
5928
330
1E
100
AcDbEntity
  8
30
  6
Continuous
100
AcDbMText
 10
218.5584756151299
 20
236.1018394098989
 30
0.0
 40
5.0
 41
126.0
 71
     1
 72
     5
  1
S100-NF 2P FP\PS100-GF 2P FP\PS125-NF 2P FP\PS125-GF 2P FP
  7
STANDARD1
 73
     1
 44
1.0
1001
ACAD
1000
MTEXTBEGIN
1070
    73
1070
     1
1070
    44
1040
1.0
1070
    74
1070
     0
1000
MTEXTEND
  0
LINE
  5
5C05
330
1E
100
AcDbEntity
  8
21
  6
Continuous
100
AcDbLine
 10
32.58400000000006
 20
233.61543082726
 30
0.0
 11
32.58400000000006
 21
269.11543082726
 31
0.0
  0
LINE
  5
5C06
330
1E
100
AcDbEntity
  8
10
  6
CONTINOUS
100
AcDbLine
 10
-6.915999999999939
 20
141.11543082726
 30
0.0
 11
-6.915999999999939
 21
129.1201783272599
 31
0.0
  0
LINE
  5
5C07
330
1E
100
AcDbEntity
  8
21
  6
Continuous
100
AcDbLine
 10
2.58400000000006
 20
289.11543082726
 30
0.0
 11
-2.415999999999939
 21
289.11543082726
 31
0.0
  0
LINE
  5
5C08
330
1E
100
AcDbEntity
  8
1
  6
Continuous
 62
     3
100
AcDbLine
 10
39.08400000000006
 20
219.7154308272599
 30
0.0
 11
53.58400000000006
 21
219.7154308272599
 31
0.0
  0
LINE
  5
5C09
330
1E
100
AcDbEntity
  8
10
  6
CONTINOUS
100
AcDbLine
 10
-14.91599999999994
 20
145.1154308272599
 30
0.0
 11
-14.91599999999994
 21
147.11543082726
 31
0.0
  0
LINE
  5
5C0A
330
1E
100
AcDbEntity
  8
1
  6
Continuous
 62
     3
100
AcDbLine
 10
-27.51599999999985
 20
221.3154308272599
 30
0.0
 11
-10.91600000000017
 21
221.3154308272599
 31
0.0
  0
LINE
  5
5C0B
330
1E
100
AcDbEntity
  8
10
  6
CONTINOUS
100
AcDbLine
 10
45.08400000000006
 20
217.11543082726
 30
0.0
 11
-14.91599999999994
 21
217.11543082726
 31
0.0
  0
LINE
  5
5C0C
330
1E
100
AcDbEntity
  8
1
  6
Continuous
 62
     3
100
AcDbLine
 10
51.98400000000015
 20
223.3154308272601
 30
0.0
 11
51.98400000000015
 21
222.41543082726
 31
0.0
  0
LINE
  5
5C0D
330
1E
100
AcDbEntity
  8
1
  6
Continuous
 62
     3
100
AcDbLine
 10
-13.21600000000012
 20
223.51543082726
 30
0.0
 11
-21.61600000000021
 21
223.51543082726
 31
0.0
  0
LINE
  5
5C0E
330
1E
100
AcDbEntity
  8
1
  6
Continuous
 62
     3
100
AcDbLine
 10
-25.91600000000017
 20
219.7154308272599
 30
0.0
 11
-10.91600000000017
 21
219.7154308272599
 31
0.0
  0
LINE
  5
5C0F
330
1E
100
AcDbEntity
  8
1
  6
Continuous
 62
     3
100
AcDbLine
 10
45.37099999999987
 20
216.01543082726
 30
0.0
 11
45.37099999999987
 21
217.11543082726
 31
0.0
  0
LINE
  5
5C10
330
1E
100
AcDbEntity
  8
1
  6
Continuous
 62
     3
100
AcDbLine
 10
43.23400000000015
 20
222.41543082726
 30
0.0
 11
51.93399999999996
 21
222.41543082726
 31
0.0
  0
LINE
  5
5C11
330
1E
100
AcDbEntity
  8
1
  6
Continuous
 62
     3
100
AcDbLine
 10
-21.81600000000003
 20
223.3154308272601
 30
0.0
 11
-21.81600000000003
 21
222.41543082726
 31
0.0
  0
LINE
  5
5C12
330
1E
100
AcDbEntity
  8
21
  6
Continuous
100
AcDbLine
 10
37.20900000000006
 20
217.11543082726
 30
0.0
 11
37.20900000000006
 21
233.61543082726
 31
0.0
  0
LINE
  5
5C13
330
1E
100
AcDbEntity
  8
1
  6
Continuous
 62
     3
100
AcDbLine
 10
53.58400000000006
 20
219.7154308272599
 30
0.0
 11
53.58400000000006
 21
217.11543082726
 31
0.0
  0
LINE
  5
5C14
330
1E
100
AcDbEntity
  8
21
  6
Continuous
100
AcDbLine
 10
7.20900000000006
 20
283.61543082726
 30
0.0
 11
-7.040999999999939
 21
283.61543082726
 31
0.0
  0
LINE
  5
5C15
330
1E
100
AcDbEntity
  8
1
  6
Continuous
 62
     3
100
AcDbLine
 10
56.08400000000006
 20
219.7154308272599
 30
0.0
 11
37.20900000000006
 21
219.7154308272599
 31
0.0
  0
LINE
  5
5C16
330
1E
100
AcDbEntity
  8
1
  6
Continuous
 62
     3
100
AcDbLine
 10
56.08400000000006
 20
219.7154308272599
 30
0.0
 11
56.08400000000006
 21
162.11543082726
 31
0.0
  0
LINE
  5
5C17
330
1E
100
AcDbEntity
  8
21
  6
Continuous
100
AcDbLine
 10
7.20900000000006
 20
217.11543082726
 30
0.0
 11
7.20900000000006
 21
283.61543082726
 31
0.0
  0
LINE
  5
5C18
330
1E
100
AcDbEntity
  8
1
  6
Continuous
 62
     3
100
AcDbLine
 10
-16.77417499999978
 20
222.41543082726
 30
0.0
 11
-16.8704124999997
 21
223.51543082726
 31
0.0
  0
LINE
  5
5C19
330
1E
100
AcDbEntity
  8
1
  6
Continuous
 62
     3
100
AcDbLine
 10
-13.01599999999985
 20
223.51543082726
 30
0.0
 11
-21.81600000000003
 21
223.51543082726
 31
0.0
  0
LINE
  5
5C1A
330
1E
100
AcDbEntity
  8
1
  6
Continuous
 62
     3
100
AcDbLine
 10
47.32844
 20
223.51543082726
 30
0.0
 11
47.42467750000037
 21
222.41543082726
 31
0.0
  0
LINE
  5
5C1B
330
1E
100
AcDbEntity
  8
1
  6
Continuous
 62
     3
100
AcDbLine
 10
-20.029
 20
216.01543082726
 30
0.0
 11
-20.029
 21
217.11543082726
 31
0.0
  0
LINE
  5
5C1C
330
1E
100
AcDbEntity
  8
1
  6
Continuous
 62
     3
100
AcDbLine
 10
45.6596750000001
 20
215.51543082726
 30
0.0
 11
45.37099999999987
 21
216.01543082726
 31
0.0
  0
LINE
  5
5C1D
330
1E
100
AcDbEntity
  8
10
  6
CONTINOUS
100
AcDbLine
 10
-45.91600000000016
 20
147.11543082726
 30
0.0
 11
-45.91600000000016
 21
162.11543082726
 31
0.0
  0
LINE
  5
5C1E
330
1E
100
AcDbEntity
  8
1
  6
PHANTOM
 62
     6
 48
0.666667
100
AcDbLine
 10
81.08400000000006
 20
162.11543082726
 30
0.0
 11
76.08400000000006
 21
162.11543082726
 31
0.0
  0
LINE
  5
5C1F
330
1E
100
AcDbEntity
  8
1
  6
Continuous
 62
     3
100
AcDbLine
 10
22.95900000000006
 20
219.7154308272599
 30
0.0
 11
7.20900000000006
 21
219.7154308272599
 31
0.0
  0
LINE
  5
5C20
330
1E
100
AcDbEntity
  8
1
  6
Continuous
 62
     3
100
AcDbLine
 10
-17.67156
 20
223.51543082726
 30
0.0
 11
-17.57532249999985
 21
222.41543082726
 31
0.0
  0
LINE
  5
5C21
330
1E
100
AcDbEntity
  8
1
  6
Continuous
 62
     3
100
AcDbLine
 10
-13.01599999999985
 20
225.7654308272601
 30
0.0
 11
-13.01599999999985
 21
223.51543082726
 31
0.0
  0
LINE
  5
5C22
330
1E
100
AcDbEntity
  8
1
  6
Continuous
 62
     3
100
AcDbLine
 10
51.98400000000015
 20
225.7654308272601
 30
0.0
 11
51.98400000000015
 21
223.51543082726
 31
0.0
  0
LINE
  5
5C23
330
1E
100
AcDbEntity
  8
1
  6
Continuous
 62
     3
100
AcDbLine
 10
43.18399999999996
 20
223.3154308272601
 30
0.0
 11
43.18399999999996
 21
222.41543082726
 31
0.0
  0
LINE
  5
5C24
330
1E
100
AcDbEntity
  8
1
  6
Continuous
 62
     3
100
AcDbLine
 10
-15.2030000000002
 20
216.01543082726
 30
0.0
 11
-15.2030000000002
 21
217.11543082726
 31
0.0
  0
LINE
  5
5C26
330
1E
100
AcDbEntity
  8
10
  6
CONTINOUS
100
AcDbLine
 10
-10.91600000000017
 20
141.11543082726
 30
0.0
 11
-10.91600000000017
 21
145.1154308272599
 31
0.0
  0
LINE
  5
5C28
330
1E
100
AcDbEntity
  8
21
  6
Continuous
100
AcDbLine
 10
32.58400000000006
 20
269.11543082726
 30
0.0
 11
27.58400000000006
 21
269.11543082726
 31
0.0
  0
LINE
  5
5C29
330
1E
100
AcDbEntity
  8
1
  6
Continuous
 62
     3
100
AcDbLine
 10
-10.91600000000017
 20
221.3154308272599
 30
0.0
 11
-10.91600000000017
 21
219.7154308272599
 31
0.0
  0
LINE
  5
5C2A
330
1E
100
AcDbEntity
  8
1
  6
Continuous
 62
     3
100
AcDbLine
 10
-25.91600000000017
 20
219.7154308272599
 30
0.0
 11
-25.91600000000017
 21
162.11543082726
 31
0.0
  0
LINE
  5
5C2B
330
1E
100
AcDbEntity
  8
21
  6
Continuous
100
AcDbLine
 10
-7.040999999999939
 20
217.11543082726
 30
0.0
 11
-7.040999999999939
 21
283.61543082726
 31
0.0
  0
LINE
  5
5C2C
330
1E
100
AcDbEntity
  8
1
  6
Continuous
 62
     3
100
AcDbLine
 10
-21.81600000000003
 20
225.7654308272601
 30
0.0
 11
-21.81600000000003
 21
223.51543082726
 31
0.0
  0
LINE
  5
5C2D
330
1E
100
AcDbEntity
  8
1
  6
Continuous
 62
     3
100
AcDbLine
 10
43.18399999999996
 20
225.7654308272601
 30
0.0
 11
43.18399999999996
 21
223.51543082726
 31
0.0
  0
LINE
  5
5C2E
330
1E
100
AcDbEntity
  8
1
  6
Continuous
 62
     3
100
AcDbLine
 10
51.78399999999988
 20
223.51543082726
 30
0.0
 11
43.38399999999978
 21
223.51543082726
 31
0.0
  0
LINE
  5
5C2F
330
1E
100
AcDbEntity
  8
1
  6
Continuous
 62
     3
100
AcDbLine
 10
-15.2030000000002
 20
216.01543082726
 30
0.0
 11
-15.49167499999998
 21
215.51543082726
 31
0.0
  0
LINE
  5
5C30
330
1E
100
AcDbEntity
  8
1
  6
Continuous
 62
     3
100
AcDbLine
 10
50.19700000000034
 20
216.01543082726
 30
0.0
 11
50.19700000000034
 21
217.11543082726
 31
0.0
  0
LINE
  5
5C31
330
1E
100
AcDbEntity
  8
10
  6
CONTINOUS
100
AcDbLine
 10
76.08400000000006
 20
147.11543082726
 30
0.0
 11
-45.91600000000016
 21
147.11543082726
 31
0.0
  0
LINE
  5
5C32
330
1E
100
AcDbEntity
  8
10
  6
CONTINOUS
100
AcDbLine
 10
76.08400000000006
 20
147.11543082726
 30
0.0
 11
76.08400000000006
 21
162.11543082726
 31
0.0
  0
LINE
  5
5C33
330
1E
100
AcDbEntity
  8
1
  6
Continuous
 62
    11
100
AcDbLine
 10
2.58400000000006
 20
319.11543082726
 30
0.0
 11
-2.415999999999939
 21
319.11543082726
 31
0.0
  0
LINE
  5
5C34
330
1E
100
AcDbEntity
  8
10
  6
CONTINOUS
100
AcDbLine
 10
45.08400000000006
 20
217.11543082726
 30
0.0
 11
45.08400000000006
 21
162.11543082726
 31
0.0
  0
LINE
  5
5C35
330
1E
100
AcDbEntity
  8
10
  6
CONTINOUS
100
AcDbLine
 10
7.08400000000006
 20
141.11543082726
 30
0.0
 11
7.08400000000006
 21
129.1201783272599
 31
0.0
  0
LINE
  5
5C36
330
1E
100
AcDbEntity
  8
21
  6
Continuous
100
AcDbLine
 10
32.58400000000006
 20
239.1154308272598
 30
0.0
 11
27.58400000000006
 21
239.1154308272598
 31
0.0
  0
LINE
  5
5C37
330
1E
100
AcDbEntity
  8
10
  6
CONTINOUS
100
AcDbLine
 10
-14.91599999999994
 20
162.11543082726
 30
0.0
 11
-14.91599999999994
 21
217.11543082726
 31
0.0
  0
LINE
  5
5C39
330
1E
100
AcDbEntity
  8
1
  6
Continuous
 62
     3
100
AcDbLine
 10
57.68399999999997
 20
221.3154308272599
 30
0.0
 11
57.68399999999997
 21
162.11543082726
 31
0.0
  0
LINE
  5
5C3A
330
1E
100
AcDbEntity
  8
21
  6
Continuous
100
AcDbLine
 10
22.95900000000006
 20
217.11543082726
 30
0.0
 11
22.95900000000006
 21
233.61543082726
 31
0.0
  0
LINE
  5
5C3B
330
1E
100
AcDbEntity
  8
1
  6
Continuous
 62
     3
100
AcDbLine
 10
-14.0160000000003
 20
226.76543082726
 30
0.0
 11
-20.81600000000003
 21
226.76543082726
 31
0.0
  0
LINE
  5
5C3C
330
1E
100
AcDbEntity
  8
1
  6
Continuous
 62
     3
100
AcDbLine
 10
-21.76599999999985
 20
222.41543082726
 30
0.0
 11
-13.06600000000003
 21
222.41543082726
 31
0.0
  0
LINE
  5
5C3D
330
1E
100
AcDbEntity
  8
1
  6
Continuous
 62
     3
100
AcDbLine
 10
52.33400000000006
 20
222.0154308272601
 30
0.0
 11
52.33400000000006
 21
221.3154308272599
 31
0.0
  0
LINE
  5
5C3E
330
1E
100
AcDbEntity
  8
1
  6
Continuous
 62
     3
100
AcDbLine
 10
-15.49167499999998
 20
215.51543082726
 30
0.0
 11
-19.74032499999998
 21
215.51543082726
 31
0.0
  0
LINE
  5
5C3F
330
1E
100
AcDbEntity
  8
1
  6
Continuous
 62
     3
100
AcDbLine
 10
50.19700000000034
 20
216.01543082726
 30
0.0
 11
49.9083250000001
 21
215.51543082726
 31
0.0
  0
LINE
  5
5C41
330
1E
100
AcDbEntity
  8
21
  6
Continuous
100
AcDbLine
 10
2.58400000000006
 20
319.11543082726
 30
0.0
 11
-2.415999999999939
 21
319.11543082726
 31
0.0
  0
LINE
  5
5C42
330
1E
100
AcDbEntity
  8
21
  6
Continuous
100
AcDbLine
 10
2.58400000000006
 20
283.61543082726
 30
0.0
 11
2.58400000000006
 21
319.11543082726
 31
0.0
  0
LINE
  5
5C43
330
1E
100
AcDbEntity
  8
10
  6
CONTINOUS
100
AcDbLine
 10
11.08400000000006
 20
141.11543082726
 30
0.0
 11
-10.91600000000017
 21
141.11543082726
 31
0.0
  0
LINE
  5
5C44
330
1E
100
AcDbEntity
  8
21
  6
Continuous
100
AcDbLine
 10
37.20900000000006
 20
233.61543082726
 30
0.0
 11
22.95900000000006
 21
233.61543082726
 31
0.0
  0
LINE
  5
5C45
330
1E
100
AcDbEntity
  8
1
  6
Continuous
 62
     3
100
AcDbLine
 10
7.20900000000006
 20
222.3154308272599
 30
0.0
 11
22.95900000000006
 21
222.3154308272599
 31
0.0
  0
LINE
  5
5C46
330
1E
100
AcDbEntity
  8
1
  6
Continuous
 62
     3
100
AcDbLine
 10
41.08400000000005
 20
221.3154308272599
 30
0.0
 11
57.68399999999997
 21
221.3154308272599
 31
0.0
  0
LINE
  5
5C47
330
1E
100
AcDbEntity
  8
1
  6
Continuous
 62
     3
100
AcDbLine
 10
-23.41600000000017
 20
219.7154308272599
 30
0.0
 11
-23.41600000000017
 21
217.11543082726
 31
0.0
  0
LINE
  5
5C48
330
1E
100
AcDbEntity
  8
1
  6
Continuous
 62
     3
100
AcDbLine
 10
-22.16600000000017
 20
222.0154308272601
 30
0.0
 11
-22.16600000000017
 21
221.3154308272599
 31
0.0
  0
LINE
  5
5C49
330
1E
100
AcDbEntity
  8
1
  6
Continuous
 62
     3
100
AcDbLine
 10
-13.01599999999985
 20
223.3154308272601
 30
0.0
 11
-13.01599999999985
 21
222.41543082726
 31
0.0
  0
LINE
  5
5C4A
330
1E
100
AcDbEntity
  8
1
  6
Continuous
 62
     3
100
AcDbLine
 10
42.83400000000006
 20
222.0154308272601
 30
0.0
 11
42.83400000000006
 21
221.3154308272599
 31
0.0
  0
LINE
  5
5C4B
330
1E
100
AcDbEntity
  8
1
  6
Continuous
 62
     3
100
AcDbLine
 10
51.98400000000015
 20
223.51543082726
 30
0.0
 11
43.18399999999996
 21
223.51543082726
 31
0.0
  0
LINE
  5
5C4C
330
1E
100
AcDbEntity
  8
1
  6
Continuous
 62
     3
100
AcDbLine
 10
49.9083250000001
 20
215.51543082726
 30
0.0
 11
45.6596750000001
 21
215.51543082726
 31
0.0
  0
LINE
  5
5C4D
330
1E
100
AcDbEntity
  8
21
  6
Continuous
100
AcDbLine
 10
-2.415999999999939
 20
283.61543082726
 30
0.0
 11
-2.415999999999939
 21
319.11543082726
 31
0.0
  0
LINE
  5
5C4E
330
1E
100
AcDbEntity
  8
10
  6
CONTINOUS
100
AcDbLine
 10
42.08400000000006
 20
145.1154308272599
 30
0.0
 11
-14.91599999999994
 21
145.1154308272599
 31
0.0
  0
LINE
  5
5C4F
330
1E
100
AcDbEntity
  8
10
  6
CONTINOUS
100
AcDbLine
 10
7.08400000000006
 20
129.1201783272599
 30
0.0
 11
-6.915999999999939
 21
129.1201783272599
 31
0.0
  0
LINE
  5
5C50
330
1E
100
AcDbEntity
  8
1
  6
Continuous
 62
     3
100
AcDbLine
 10
41.08400000000005
 20
221.3154308272599
 30
0.0
 11
41.08400000000005
 21
219.7154308272599
 31
0.0
  0
LINE
  5
5C51
330
1E
100
AcDbEntity
  8
1
  6
Continuous
 62
     3
100
AcDbLine
 10
-27.51599999999985
 20
221.3154308272599
 30
0.0
 11
-27.51599999999985
 21
162.11543082726
 31
0.0
  0
LINE
  5
5C52
330
1E
100
AcDbEntity
  8
1
  6
Continuous
 62
     3
100
AcDbLine
 10
-7.040999999999939
 20
219.7154308272599
 30
0.0
 11
-25.91600000000017
 21
219.7154308272599
 31
0.0
  0
LINE
  5
5C53
330
1E
100
AcDbEntity
  8
1
  6
Continuous
 62
     3
100
AcDbLine
 10
-12.66599999999994
 20
222.0154308272601
 30
0.0
 11
-12.66599999999994
 21
221.3154308272599
 31
0.0
  0
LINE
  5
5C54
330
1E
100
AcDbEntity
  8
1
  6
Continuous
 62
     3
100
AcDbLine
 10
50.98399999999969
 20
226.76543082726
 30
0.0
 11
44.18399999999997
 21
226.76543082726
 31
0.0
  0
LINE
  5
5C55
330
1E
100
AcDbEntity
  8
1
  6
Continuous
 62
     3
100
AcDbLine
 10
48.22582500000021
 20
222.41543082726
 30
0.0
 11
48.1295875000003
 21
223.51543082726
 31
0.0
  0
LINE
  5
5C56
330
1E
100
AcDbEntity
  8
1
  6
Continuous
 62
     3
100
AcDbLine
 10
-19.74032499999998
 20
215.51543082726
 30
0.0
 11
-20.029
 21
216.01543082726
 31
0.0
  0
LINE
  5
5C58
330
1E
100
AcDbEntity
  8
10
  6
CONTINOUS
100
AcDbLine
 10
76.08400000000006
 20
162.11543082726
 30
0.0
 11
-45.91600000000016
 21
162.11543082726
 31
0.0
  0
LINE
  5
5C5A
330
1E
100
AcDbEntity
  8
10
  6
CONTINOUS
100
AcDbLine
 10
11.08400000000006
 20
141.11543082726
 30
0.0
 11
11.08400000000006
 21
145.1154308272599
 31
0.0
  0
LINE
  5
5C5B
330
1E
100
AcDbEntity
  8
10
  6
CONTINOUS
100
AcDbLine
 10
42.08400000000006
 20
145.1154308272599
 30
0.0
 11
42.08400000000006
 21
147.11543082726
 31
0.0
  0
LINE
  5
5C5C
330
1E
100
AcDbEntity
  8
21
  6
Continuous
100
AcDbLine
 10
27.58400000000006
 20
233.61543082726
 30
0.0
 11
27.58400000000006
 21
269.11543082726
 31
0.0
  0
ARC
  5
5C5D
330
1E
100
AcDbEntity
  8
1
  6
Continuous
 62
     3
100
AcDbCircle
 10
51.93399999999996
 20
222.0154308272601
 30
0.0
 40
0.4
100
AcDbArc
 50
0.0
 51
90.0
  0
ARC
  5
5C5E
330
1E
100
AcDbEntity
  8
1
  6
Continuous
 62
     3
100
AcDbCircle
 10
-20.81600000000003
 20
225.7654308272601
 30
0.0
 40
1.0
100
AcDbArc
 50
90.0
 51
180.0
  0
ARC
  5
5C5F
330
1E
100
AcDbEntity
  8
1
  6
Continuous
 62
     3
100
AcDbCircle
 10
50.98399999999969
 20
225.7654308272601
 30
0.0
 40
1.0
100
AcDbArc
 50
0.0
 51
90.0
  0
ARC
  5
5C60
330
1E
100
AcDbEntity
  8
1
  6
Continuous
 62
     3
100
AcDbCircle
 10
-21.61600000000021
 20
223.3154308272601
 30
0.0
 40
0.2
100
AcDbArc
 50
90.0
 51
180.0
  0
ARC
  5
5C61
330
1E
100
AcDbEntity
  8
1
  6
Continuous
 62
     3
100
AcDbCircle
 10
-14.0160000000003
 20
225.7654308272601
 30
0.0
 40
1.0
100
AcDbArc
 50
0.0
 51
90.0
  0
ARC
  5
5C62
330
1E
100
AcDbEntity
  8
1
  6
Continuous
 62
     3
100
AcDbCircle
 10
-13.06600000000003
 20
222.0154308272601
 30
0.0
 40
0.4
100
AcDbArc
 50
0.0
 51
90.0
  0
ARC
  5
5C63
330
1E
100
AcDbEntity
  8
1
  6
Continuous
 62
     3
100
AcDbCircle
 10
51.78399999999988
 20
223.3154308272601
 30
0.0
 40
0.2
100
AcDbArc
 50
0.0
 51
90.0
  0
ARC
  5
5C64
330
1E
100
AcDbEntity
  8
1
  6
Continuous
 62
     3
100
AcDbCircle
 10
-21.76599999999985
 20
222.0154308272601
 30
0.0
 40
0.4
100
AcDbArc
 50
90.0
 51
180.0
  0
ARC
  5
5C65
330
1E
100
AcDbEntity
  8
1
  6
Continuous
 62
     3
100
AcDbCircle
 10
43.23400000000015
 20
222.0154308272601
 30
0.0
 40
0.4
100
AcDbArc
 50
90.0
 51
180.0
  0
ARC
  5
5C66
330
1E
100
AcDbEntity
  8
1
  6
Continuous
 62
     3
100
AcDbCircle
 10
44.18399999999997
 20
225.7654308272601
 30
0.0
 40
1.0
100
AcDbArc
 50
90.0
 51
180.0
  0
ARC
  5
5C67
330
1E
100
AcDbEntity
  8
1
  6
Continuous
 62
     3
100
AcDbCircle
 10
-13.21600000000012
 20
223.3154308272601
 30
0.0
 40
0.2
100
AcDbArc
 50
0.0
 51
90.0
  0
ARC
  5
5C68
330
1E
100
AcDbEntity
  8
1
  6
Continuous
 62
     3
100
AcDbCircle
 10
43.38399999999978
 20
223.3154308272601
 30
0.0
 40
0.2
100
AcDbArc
 50
90.0
 51
180.0
  0
MTEXT
  5
5C69
330
1E
100
AcDbEntity
  8
1
  6
Continuous
 62
   113
100
AcDbMText
 10
-35.08762249999995
 20
323.57096082726
 30
0.0
 40
6.25
 41
0.0
 71
     7
 72
     5
  1
\W01.000;\fsimplex.shx;,
  7
blockfont
210
0.0
220
0.0
230
-1.0
 73
     2
 44
0.9036139999999999
1001
ACAD
1000
MTEXTBEGIN
1070
    73
1070
     2
1070
    44
1040
0.9036139999999999
1070
    74
1070
     0
1000
MTEXTEND
  0
DIMENSION
  5
5C6E
330
1E
100
AcDbEntity
  8
30
  6
Continuous
100
AcDbDimension
  2
*D38
 10
30.08400000000007
 20
338.2659233272599
 30
0.0
 11
15.08400000000006
 21
341.26592332726
 31
0.0
 70
    32
  1
 <> 
 71
     5
 42
30.0
  3
STANDARD
100
AcDbAlignedDimension
 13
0.08400000000006
 23
286.11543082726
 33
0.0
 14
30.08400000000006
 24
245.61793082726
 34
0.0
100
AcDbRotatedDimension
1001
ACAD
1000
DSTYLE
1002
{
1070
    79
1070
     3
1002
}
  0
DIMENSION
  5
5DB3
330
1E
100
AcDbEntity
  8
30
  6
Continuous
100
AcDbDimension
  2
*D40
 10
95.25223112784193
 20
162.11543082726
 30
0.0
 11
92.2522311278419
 21
215.61543082726
 31
0.0
 70
    32
 71
     5
 42
107.0
  3
STANDARD
100
AcDbAlignedDimension
 13
32.58400000000006
 23
269.11543082726
 33
0.0
 14
57.68399999999997
 24
162.11543082726
 34
0.0
 50
90.0
100
AcDbRotatedDimension
1001
ACAD
1000
DSTYLE
1002
{
1070
    79
1070
     3
1002
}
  0
DIMENSION
  5
5DCD
330
1E
100
AcDbEntity
  8
30
  6
Continuous
100
AcDbDimension
  2
*D42
 10
111.8256655182383
 20
162.11543082726
 30
0.0
 11
108.8256655182383
 21
240.61543082726
 31
0.0
 70
    32
 71
     5
 42
157.0
  3
STANDARD
100
AcDbAlignedDimension
 13
2.58400000000006
 23
319.11543082726
 33
0.0
 14
57.68399999999997
 24
162.11543082726
 34
0.0
 50
90.0
100
AcDbRotatedDimension
1001
ACAD
1000
DSTYLE
1002
{
1070
    79
1070
     3
1002
}
  0
DIMENSION
  5
5DF4
330
1E
100
AcDbEntity
  8
30
  6
Continuous
100
AcDbDimension
  2
*D45
 10
120.277607812902
 20
147.11543082726
 30
0.0
 11
117.277607812902
 21
154.61543082726
 31
0.0
 70
    32
 71
     5
 42
15.0
  3
STANDARD
100
AcDbAlignedDimension
 13
76.08400000000006
 23
162.11543082726
 33
0.0
 14
76.08400000000006
 24
147.11543082726
 34
0.0
 50
90.0
100
AcDbRotatedDimension
1001
ACAD
1000
DSTYLE
1002
{
1070
    79
1070
     3
1002
}
  0
LINE
  5
5E16
330
1E
100
AcDbEntity
  8
1
  6
Continuous
 62
     3
100
AcDbLine
 10
45.08400000000006
 20
217.11543082726
 30
0.0
 11
53.58400000000006
 21
217.11543082726
 31
0.0
  0
LINE
  5
5E17
330
1E
100
AcDbEntity
  8
1
  6
Continuous
 62
     3
100
AcDbLine
 10
-23.41600000000017
 20
217.11543082726
 30
0.0
 11
-14.91599999999994
 21
217.11543082726
 31
0.0
  0
LINE
  5
5EF7
330
1E
100
AcDbEntity
  8
1
  6
Continuous
 62
     3
100
AcDbLine
 10
254.1999257258449
 20
-50.00038374979794
 30
0.0
 11
252.599925725845
 21
-50.00038374979794
 31
0.0
  0
LINE
  5
5EF8
330
1E
100
AcDbEntity
  8
1
  6
Continuous
 62
     3
100
AcDbLine
 10
206.7999257258449
 20
-50.00038374979794
 30
0.0
 11
206.7999257258449
 21
-75.00038374979794
 31
0.0
  0
LINE
  5
5EF9
330
1E
100
AcDbEntity
  8
1
  6
Continuous
 62
     3
100
AcDbLine
 10
252.599925725845
 20
-50.00038374979794
 30
0.0
 11
252.599925725845
 21
-76.50038374979793
 31
0.0
  0
LINE
  5
5EFA
330
1E
100
AcDbEntity
  8
1
  6
Continuous
 62
     3
100
AcDbLine
 10
257.2999257258446
 20
-32.60038374979793
 30
0.0
 11
257.2999257258446
 21
-41.40038374979795
 31
0.0
  0
LINE
  5
5EFB
330
1E
100
AcDbEntity
  8
1
  6
Continuous
 62
     3
100
AcDbLine
 10
259.7499257258446
 20
38.59961625020205
 30
0.0
 11
257.4999257258451
 21
38.59961625020205
 31
0.0
  0
LINE
  5
5EFC
330
1E
100
AcDbEntity
  8
1
  6
Continuous
 62
     3
100
AcDbLine
 10
203.3999257258447
 20
17.99961625020209
 30
0.0
 11
203.3999257258447
 21
-18.00038374979792
 31
0.0
  0
LINE
  5
5EFD
330
1E
100
AcDbEntity
  8
1
  6
Continuous
 62
     3
100
AcDbLine
 10
257.0999257258448
 20
-32.60038374979793
 30
0.0
 11
256.1999257258447
 21
-32.60038374979793
 31
0.0
  0
LINE
  5
5EFE
330
1E
100
AcDbEntity
  8
1
  6
Continuous
 62
     3
100
AcDbLine
 10
249.9999257258451
 20
-76.50038374979793
 30
0.0
 11
252.599925725845
 21
-76.50038374979793
 31
0.0
  0
LINE
  5
5EFF
330
1E
100
AcDbEntity
  8
1
  6
Continuous
 62
     3
100
AcDbLine
 10
206.7999257258449
 20
74.99961625020205
 30
0.0
 11
194.9999257258451
 21
74.99961625020205
 31
0.0
  0
LINE
  5
5F00
330
1E
100
AcDbEntity
  8
1
  6
Continuous
 62
     3
100
AcDbLine
 10
206.7999257258449
 20
49.99961625020205
 30
0.0
 11
252.599925725845
 21
49.99961625020205
 31
0.0
  0
LINE
  5
5F01
330
1E
100
AcDbEntity
  8
1
  6
Continuous
 62
     3
100
AcDbLine
 10
240.3999257258448
 20
-18.00038374979792
 30
0.0
 11
240.3999257258448
 21
17.99961625020209
 31
0.0
  0
LINE
  5
5F03
330
1E
100
AcDbEntity
  8
1
  6
Continuous
 62
     3
100
AcDbLine
 10
255.199925725845
 20
54.49961625020208
 30
0.0
 11
252.599925725845
 21
54.49961625020208
 31
0.0
  0
LINE
  5
5F04
330
1E
100
AcDbEntity
  8
1
  6
Continuous
 62
     3
100
AcDbLine
 10
256.3999257258448
 20
43.64143875020204
 30
0.0
 11
257.4999257258451
 21
43.54520125020208
 31
0.0
  0
LINE
  5
5F05
330
1E
100
AcDbEntity
  8
1
  6
Continuous
 62
     3
100
AcDbLine
 10
260.7499257258449
 20
46.39961625020205
 30
0.0
 11
260.7499257258449
 21
39.59961625020206
 31
0.0
  0
LINE
  5
5F06
330
1E
100
AcDbEntity
  8
1
  6
Continuous
 62
     3
100
AcDbLine
 10
256.3999257258448
 20
38.64961625020207
 30
0.0
 11
256.3999257258448
 21
47.34961625020204
 31
0.0
  0
LINE
  5
5F07
330
1E
100
AcDbEntity
  8
1
  6
Continuous
 62
     3
100
AcDbLine
 10
255.9999257258446
 20
38.24961625020208
 30
0.0
 11
255.2999257258449
 21
38.24961625020208
 31
0.0
  0
LINE
  5
5F08
330
1E
100
AcDbEntity
  8
1
  6
Continuous
 62
     3
100
AcDbLine
 10
257.4999257258451
 20
47.19961625020204
 30
0.0
 11
257.4999257258451
 21
38.79961625020208
 31
0.0
  0
LINE
  5
5F09
330
1E
100
AcDbEntity
  8
1
  6
Continuous
 62
     3
100
AcDbLine
 10
255.7999257258448
 20
-32.25038374979793
 30
0.0
 11
255.099925725845
 21
-32.25038374979793
 31
0.0
  0
LINE
  5
5F0A
330
1E
100
AcDbEntity
  8
1
  6
Continuous
 62
     3
100
AcDbLine
 10
257.4999257258451
 20
42.74405625020207
 30
0.0
 11
256.3999257258448
 21
42.84029375020203
 31
0.0
  0
LINE
  5
5F0C
330
1E
100
AcDbEntity
  8
1
  6
Continuous
 62
     3
100
AcDbLine
 10
238.3999257258448
 20
19.99961625020205
 30
0.0
 11
205.3999257258448
 21
19.99961625020205
 31
0.0
  0
LINE
  5
5F0E
330
1E
100
AcDbEntity
  8
1
  6
Continuous
 62
     3
100
AcDbLine
 10
255.199925725845
 20
-45.50038374979795
 30
0.0
 11
255.199925725845
 21
54.49961625020208
 31
0.0
  0
LINE
  5
5F0F
330
1E
100
AcDbEntity
  8
1
  6
Continuous
 62
     3
100
AcDbLine
 10
257.2999257258446
 20
47.39961625020207
 30
0.0
 11
256.3999257258448
 21
47.39961625020207
 31
0.0
  0
LINE
  5
5F10
330
1E
100
AcDbEntity
  8
1
  6
Continuous
 62
     3
100
AcDbLine
 10
257.2999257258446
 20
38.59961625020205
 30
0.0
 11
256.3999257258448
 21
38.59961625020205
 31
0.0
  0
LINE
  5
5F11
330
1E
100
AcDbEntity
  8
1
  6
Continuous
 62
     3
100
AcDbLine
 10
255.9999257258446
 20
47.74961625020203
 30
0.0
 11
255.2999257258449
 21
47.74961625020203
 31
0.0
  0
LINE
  5
5F12
330
1E
100
AcDbEntity
  8
1
  6
Continuous
 62
     3
100
AcDbLine
 10
259.5499257258448
 20
-41.40038374979795
 30
0.0
 11
257.2999257258446
 21
-41.40038374979795
 31
0.0
  0
LINE
  5
5F13
330
1E
100
AcDbEntity
  8
1
  6
Continuous
 62
     3
100
AcDbLine
 10
206.7999257258449
 20
74.99961625020205
 30
0.0
 11
206.7999257258449
 21
49.99961625020205
 31
0.0
  0
LINE
  5
5F14
330
1E
100
AcDbEntity
  8
1
  6
Continuous
 62
     3
100
AcDbLine
 10
205.3999257258448
 20
-20.00038374979795
 30
0.0
 11
238.3999257258448
 21
-20.00038374979795
 31
0.0
  0
LINE
  5
5F15
330
1E
100
AcDbEntity
  8
1
  6
Continuous
 62
     3
100
AcDbLine
 10
254.1999257258449
 20
49.99961625020205
 30
0.0
 11
254.1999257258449
 21
-50.00038374979794
 31
0.0
  0
LINE
  5
5F16
330
1E
100
AcDbEntity
  8
1
  6
Continuous
 62
     3
100
AcDbLine
 10
252.599925725845
 20
76.49961625020205
 30
0.0
 11
252.599925725845
 21
49.99961625020205
 31
0.0
  0
LINE
  5
5F17
330
1E
100
AcDbEntity
  8
1
  6
Continuous
 62
     3
100
AcDbLine
 10
259.5499257258448
 20
-32.60038374979793
 30
0.0
 11
257.2999257258446
 21
-32.60038374979793
 31
0.0
  0
LINE
  5
5F18
330
1E
100
AcDbEntity
  8
1
  6
Continuous
 62
     3
100
AcDbLine
 10
260.5499257258448
 20
-33.60038374979794
 30
0.0
 11
260.5499257258448
 21
-40.40038374979793
 31
0.0
  0
LINE
  5
5F19
330
1E
100
AcDbEntity
  8
1
  6
Continuous
 62
     3
100
AcDbLine
 10
256.1999257258447
 20
-36.35856124979792
 30
0.0
 11
257.2999257258446
 21
-36.45479874979792
 31
0.0
  0
LINE
  5
5F1A
330
1E
100
AcDbEntity
  8
1
  6
Continuous
 62
     3
100
AcDbLine
 10
194.9999257258451
 20
-75.00038374979794
 30
0.0
 11
206.7999257258449
 21
-75.00038374979794
 31
0.0
  0
LINE
  5
5F1B
330
1E
100
AcDbEntity
  8
1
  6
Continuous
 62
     3
100
AcDbLine
 10
249.9999257258451
 20
76.49961625020205
 30
0.0
 11
252.599925725845
 21
76.49961625020205
 31
0.0
  0
LINE
  5
5F1C
330
1E
100
AcDbEntity
  8
1
  6
Continuous
 62
     3
100
AcDbLine
 10
257.4999257258451
 20
47.39961625020207
 30
0.0
 11
257.4999257258451
 21
38.59961625020205
 31
0.0
  0
LINE
  5
5F1D
330
1E
100
AcDbEntity
  8
1
  6
Continuous
 62
     3
100
AcDbLine
 10
259.7499257258446
 20
47.39961625020207
 30
0.0
 11
257.4999257258451
 21
47.39961625020207
 31
0.0
  0
LINE
  5
5F1E
330
1E
100
AcDbEntity
  8
1
  6
Continuous
 62
     3
100
AcDbLine
 10
257.0999257258448
 20
-41.40038374979795
 30
0.0
 11
256.1999257258447
 21
-41.40038374979795
 31
0.0
  0
LINE
  5
5F20
330
1E
100
AcDbEntity
  8
1
  6
Continuous
 62
     3
100
AcDbLine
 10
252.599925725845
 20
-50.00038374979794
 30
0.0
 11
206.7999257258449
 21
-50.00038374979794
 31
0.0
  0
LINE
  5
5F21
330
1E
100
AcDbEntity
  8
1
  6
Continuous
 62
     3
100
AcDbLine
 10
252.599925725845
 20
49.99961625020205
 30
0.0
 11
254.1999257258449
 21
49.99961625020205
 31
0.0
  0
LINE
  5
5F23
330
1E
100
AcDbEntity
  8
1
  6
Continuous
 62
     3
100
AcDbLine
 10
255.199925725845
 20
-45.50038374979795
 30
0.0
 11
254.1999257258449
 21
-45.50038374979795
 31
0.0
  0
LINE
  5
5F24
330
1E
100
AcDbEntity
  8
1
  6
Continuous
 62
     3
100
AcDbLine
 10
257.2999257258446
 20
-37.25594374979792
 30
0.0
 11
256.1999257258447
 21
-37.15970624979796
 31
0.0
  0
LINE
  5
5F25
330
1E
100
AcDbEntity
  8
1
  6
Continuous
 62
     3
100
AcDbLine
 10
255.7999257258448
 20
-41.75038374979795
 30
0.0
 11
255.099925725845
 21
-41.75038374979795
 31
0.0
  0
LINE
  5
5F26
330
1E
100
AcDbEntity
  8
1
  6
Continuous
 62
     3
100
AcDbLine
 10
257.2999257258446
 20
-32.80038374979792
 30
0.0
 11
257.2999257258446
 21
-41.20038374979792
 31
0.0
  0
LINE
  5
5F27
330
1E
100
AcDbEntity
  8
1
  6
Continuous
 62
     3
100
AcDbLine
 10
256.1999257258447
 20
-41.35038374979792
 30
0.0
 11
256.1999257258447
 21
-32.65038374979795
 31
0.0
  0
ARC
  5
5F28
330
1E
100
AcDbEntity
  8
1
  6
Continuous
 62
     3
100
AcDbCircle
 10
259.5499257258448
 20
-33.60038374979794
 30
0.0
 40
1.0
100
AcDbArc
 50
0.0
 51
90.0
  0
ARC
  5
5F29
330
1E
100
AcDbEntity
  8
1
  6
Continuous
 62
     3
100
AcDbCircle
 10
257.2999257258446
 20
47.19961625020204
 30
0.0
 40
0.2
100
AcDbArc
 50
0.0
 51
90.0
  0
ARC
  5
5F2A
330
1E
100
AcDbEntity
  8
1
  6
Continuous
 62
     3
100
AcDbCircle
 10
205.3999257258448
 20
-18.00038374979792
 30
0.0
 40
2.0
100
AcDbArc
 50
180.0
 51
270.0
  0
ARC
  5
5F2B
330
1E
100
AcDbEntity
  8
1
  6
Continuous
 62
     3
100
AcDbCircle
 10
257.2999257258446
 20
38.79961625020208
 30
0.0
 40
0.2
100
AcDbArc
 50
270.0
 51
0.0
  0
ARC
  5
5F2C
330
1E
100
AcDbEntity
  8
1
  6
Continuous
 62
     3
100
AcDbCircle
 10
257.0999257258448
 20
-32.80038374979792
 30
0.0
 40
0.2
100
AcDbArc
 50
0.0
 51
90.0
  0
ARC
  5
5F2D
330
1E
100
AcDbEntity
  8
1
  6
Continuous
 62
     3
100
AcDbCircle
 10
205.3999257258448
 20
17.99961625020209
 30
0.0
 40
2.0
100
AcDbArc
 50
90.0
 51
180.0
  0
ARC
  5
5F2E
330
1E
100
AcDbEntity
  8
1
  6
Continuous
 62
     3
100
AcDbCircle
 10
255.9999257258446
 20
47.34961625020204
 30
0.0
 40
0.4
100
AcDbArc
 50
0.0
 51
90.0
  0
ARC
  5
5F2F
330
1E
100
AcDbEntity
  8
1
  6
Continuous
 62
     3
100
AcDbCircle
 10
238.3999257258448
 20
-18.00038374979792
 30
0.0
 40
2.0
100
AcDbArc
 50
270.0
 51
0.0
  0
ARC
  5
5F30
330
1E
100
AcDbEntity
  8
1
  6
Continuous
 62
     3
100
AcDbCircle
 10
255.9999257258446
 20
38.64961625020207
 30
0.0
 40
0.4
100
AcDbArc
 50
270.0
 51
0.0
  0
ARC
  5
5F31
330
1E
100
AcDbEntity
  8
1
  6
Continuous
 62
     3
100
AcDbCircle
 10
259.7499257258446
 20
46.39961625020205
 30
0.0
 40
1.0
100
AcDbArc
 50
0.0
 51
90.0
  0
ARC
  5
5F32
330
1E
100
AcDbEntity
  8
1
  6
Continuous
 62
     3
100
AcDbCircle
 10
257.0999257258448
 20
-41.20038374979792
 30
0.0
 40
0.2
100
AcDbArc
 50
270.0
 51
0.0
  0
ARC
  5
5F33
330
1E
100
AcDbEntity
  8
1
  6
Continuous
 62
     3
100
AcDbCircle
 10
259.5499257258448
 20
-40.40038374979793
 30
0.0
 40
1.0
100
AcDbArc
 50
270.0
 51
0.0
  0
ARC
  5
5F34
330
1E
100
AcDbEntity
  8
1
  6
Continuous
 62
     3
100
AcDbCircle
 10
259.7499257258446
 20
39.59961625020206
 30
0.0
 40
1.0
100
AcDbArc
 50
270.0
 51
0.0
  0
ARC
  5
5F35
330
1E
100
AcDbEntity
  8
1
  6
Continuous
 62
     3
100
AcDbCircle
 10
255.7999257258448
 20
-41.35038374979792
 30
0.0
 40
0.4
100
AcDbArc
 50
270.0
 51
0.0
  0
ARC
  5
5F36
330
1E
100
AcDbEntity
  8
1
  6
Continuous
 62
     3
100
AcDbCircle
 10
238.3999257258448
 20
17.99961625020209
 30
0.0
 40
2.0
100
AcDbArc
 50
0.0
 51
90.0
  0
ARC
  5
5F37
330
1E
100
AcDbEntity
  8
1
  6
Continuous
 62
     3
100
AcDbCircle
 10
255.7999257258448
 20
-32.65038374979795
 30
0.0
 40
0.4
100
AcDbArc
 50
0.0
 51
90.0
  0
LINE
  5
5F38
330
1E
100
AcDbEntity
  8
10
  6
CONTINOUS
100
AcDbLine
 10
249.9996533872792
 20
-77.4996162502019
 30
0.0
 11
249.9996533872792
 21
-50.00038374979794
 31
0.0
  0
LINE
  5
5F39
330
1E
100
AcDbEntity
  8
10
  6
CONTINOUS
100
AcDbLine
 10
249.9996533872792
 20
77.49961625020205
 30
0.0
 11
249.9996533872792
 21
49.99961625020205
 31
0.0
  0
VIEWPORT
  5
9AC
102
{ACAD_XDICTIONARY
360
6016
102
}
330
1A
100
AcDbEntity
 67
     1
  8
0
  6
Continuous
100
AcDbViewport
 10
171.999535
 20
144.1384739999999
 30
0.0
 40
488.867686
 41
292.351491
 68
    -1
 69
     1
 12
171.999535
 22
144.1384739999999
 13
0.0
 23
0.0
 14
10.0
 24
10.0
 15
10.0
 25
10.0
 16
0.0
 26
0.0
 36
1.0
 17
0.0
 27
0.0
 37
0.0
 42
50.0
 43
0.0
 44
0.0
 45
292.351491
 50
0.0
 51
0.0
 72
   100
 90
    32800
  1

281
     0
 71
     1
 74
     0
110
0.0
120
0.0
130
0.0
111
1.0
121
0.0
131
0.0
112
0.0
122
1.0
132
0.0
 79
     0
146
0.0
  0
ENDSEC
  0
SECTION
  2
OBJECTS
  0
DICTIONARY
  5
C
330
0
100
AcDbDictionary
281
     1
  3
ACAD_CIP_PREVIOUS_PRODUCT_INFO
350
59B6
  3
ACAD_COLOR
350
5998
  3
ACAD_DETAILVIEWSTYLE
350
59B1
  3
ACAD_GROUP
350
D
  3
ACAD_LAYOUT
350
19
  3
ACAD_MATERIAL
350
5966
  3
ACAD_MLEADERSTYLE
350
59AD
  3
ACAD_MLINESTYLE
350
16
  3
ACAD_PLOTSETTINGS
350
18
  3
ACAD_PLOTSTYLENAME
350
E
  3
ACAD_SCALELIST
350
599B
  3
ACAD_SECTIONVIEWSTYLE
350
59AF
  3
ACAD_TABLESTYLE
350
5999
  3
ACAD_VISUALSTYLE
350
597F
  3
ACDB_RECOMPOSE_DATA
350
6014
  3
ACDBVARIABLEDICTIONARY
350
5697
  3
DWGPROPS
350
6015
  0
DICTIONARY
  5
5E45
330
10
100
AcDbDictionary
280
     1
281
     1
  3
ADSK_XREC_LAYER_RECONCILED
360
5E46
  0
DICTIONARY
  5
5E47
330
2F
100
AcDbDictionary
280
     1
281
     1
  3
ADSK_XREC_LAYER_RECONCILED
360
5E48
  0
DICTIONARY
  5
5E49
330
31
100
AcDbDictionary
280
     1
281
     1
  3
ADSK_XREC_LAYER_RECONCILED
360
5E4A
  0
DICTIONARY
  5
5E4B
330
35
100
AcDbDictionary
280
     1
281
     1
  3
ADSK_XREC_LAYER_RECONCILED
360
5E4C
  0
DICTIONARY
  5
5E4D
330
38
100
AcDbDictionary
280
     1
281
     1
  3
ADSK_XREC_LAYER_RECONCILED
360
5E4E
  0
DICTIONARY
  5
5E4F
330
3C
100
AcDbDictionary
280
     1
281
     1
  3
ADSK_XREC_LAYER_RECONCILED
360
5E50
  0
DICTIONARY
  5
5E51
330
3D
100
AcDbDictionary
280
     1
281
     1
  3
ADSK_XREC_LAYER_RECONCILED
360
5E52
  0
DICTIONARY
  5
5E53
330
3A2
100
AcDbDictionary
280
     1
281
     1
  3
ADSK_XREC_LAYER_RECONCILED
360
5E54
  0
DICTIONARY
  5
5E55
330
3BBA
100
AcDbDictionary
280
     1
281
     1
  3
ADSK_XREC_LAYER_RECONCILED
360
5E56
  0
DICTIONARY
  5
5E57
330
3BBB
100
AcDbDictionary
280
     1
281
     1
  3
ADSK_XREC_LAYER_RECONCILED
360
5E58
  0
DICTIONARY
  5
5E59
330
5116
100
AcDbDictionary
280
     1
281
     1
  3
ADSK_XREC_LAYER_RECONCILED
360
5E5A
  0
DICTIONARY
  5
5E5B
330
5117
100
AcDbDictionary
280
     1
281
     1
  3
ADSK_XREC_LAYER_RECONCILED
360
5E5C
  0
DICTIONARY
  5
5E5D
330
5B91
100
AcDbDictionary
280
     1
281
     1
  3
ADSK_XREC_LAYER_RECONCILED
360
5E5E
  0
DICTIONARY
  5
5E5F
330
5B92
100
AcDbDictionary
280
     1
281
     1
  3
ADSK_XREC_LAYER_RECONCILED
360
5E60
  0
DICTIONARY
  5
5E61
330
5B93
100
AcDbDictionary
280
     1
281
     1
  3
ADSK_XREC_LAYER_RECONCILED
360
5E62
  0
DICTIONARY
  5
178
330
1E
100
AcDbDictionary
280
     1
281
     1
  3
ACAD_LAYOUTSELFREF
360
591C
  0
DICTIONARY
  5
17A
330
1A
100
AcDbDictionary
280
     1
281
     1
  3
ACAD_LAYOUTSELFREF
360
591B
  0
DICTIONARY
  5
6018
330
58D9
100
AcDbDictionary
280
     1
281
     1
  3
ACAD_MTEXT_RT
360
6019
  0
DICTIONARY
  5
6016
330
9AC
100
AcDbDictionary
280
     1
281
     1
  3
ACAD_XREC_ROUNDTRIP
360
6017
  0
XRECORD
  5
59B6
102
{ACAD_REACTORS
330
C
102
}
330
C
100
AcDbXrecord
280
     1
300
ACDLT
300
2015
300
ACDLT_F_S
  0
DICTIONARY
  5
5998
102
{ACAD_REACTORS
330
C
102
}
330
C
100
AcDbDictionary
281
     1
  0
DICTIONARY
  5
59B1
102
{ACAD_REACTORS
330
C
102
}
330
C
100
AcDbDictionary
281
     1
  3
Imperial24
350
59B2
  0
DICTIONARY
  5
D
102
{ACAD_REACTORS
330
C
102
}
330
C
100
AcDbDictionary
281
     1
  0
DICTIONARY
  5
19
102
{ACAD_REACTORS
330
C
102
}
330
C
100
AcDbDictionary
281
     1
  3
Model
350
5924
  3
ﾚｲｱｳﾄ1
350
5925
  0
DICTIONARY
  5
5966
102
{ACAD_REACTORS
330
C
102
}
330
C
100
AcDbDictionary
281
     1
  3
ByBlock
350
596F
  3
ByLayer
350
5967
  3
Global
350
5977
  0
DICTIONARY
  5
59AD
102
{ACAD_REACTORS
330
C
102
}
330
C
100
AcDbDictionary
281
     1
  3
Standard
350
59AE
  0
DICTIONARY
  5
16
102
{ACAD_REACTORS
330
C
102
}
330
C
100
AcDbDictionary
281
     1
  3
STANDARD
350
17
  0
DICTIONARY
  5
18
102
{ACAD_REACTORS
330
C
102
}
330
C
100
AcDbDictionary
281
     1
  0
ACDBDICTIONARYWDFLT
  5
E
102
{ACAD_REACTORS
330
C
102
}
330
C
100
AcDbDictionary
281
     1
  3
Normal
350
F
100
AcDbDictionaryWithDefault
340
F
  0
DICTIONARY
  5
599B
102
{ACAD_REACTORS
330
C
102
}
330
C
100
AcDbDictionary
281
     1
  3
A0
350
599C
  3
A1
350
599D
  3
A2
350
599E
  3
A3
350
599F
  3
A4
350
59A0
  3
A5
350
59A1
  3
A6
350
59A2
  3
A7
350
59A3
  3
A8
350
59A4
  3
A9
350
59A5
  3
B0
350
59A6
  3
B1
350
59A7
  3
B2
350
59A8
  3
B3
350
59A9
  3
B4
350
59AA
  3
B5
350
59AB
  3
B6
350
59AC
  0
DICTIONARY
  5
59AF
102
{ACAD_REACTORS
330
C
102
}
330
C
100
AcDbDictionary
281
     1
  3
Imperial24
350
59B0
  0
DICTIONARY
  5
5999
102
{ACAD_REACTORS
330
C
102
}
330
C
100
AcDbDictionary
281
     1
  3
Standard
350
599A
  0
DICTIONARY
  5
597F
102
{ACAD_REACTORS
330
C
102
}
330
C
100
AcDbDictionary
281
     1
  3
2dWireframe
350
5985
  3
Basic
350
5984
  3
Brighten
350
598B
  3
ColorChange
350
598F
  3
Conceptual
350
5988
  3
Dim
350
598A
  3
EdgeColorOff
350
5997
  3
Facepattern
350
598E
  3
Flat
350
5980
  3
FlatWithEdges
350
5981
  3
Gouraud
350
5982
  3
GouraudWithEdges
350
5983
  3
Hidden
350
5987
  3
JitterOff
350
5995
  3
Linepattern
350
598D
  3
OverhangOff
350
5996
  3
Realistic
350
5989
  3
Shaded
350
5994
  3
Shaded with edges
350
5993
  3
Shades of Gray
350
5990
  3
Sketchy
350
5991
  3
Thicken
350
598C
  3
Wireframe
350
5986
  3
X-Ray
350
5992
  0
XRECORD
  5
6014
102
{ACAD_REACTORS
330
C
102
}
330
C
100
AcDbXrecord
280
     1
 90
        1
330
599A
  0
DICTIONARY
  5
5697
102
{ACAD_REACTORS
330
C
102
}
330
C
100
AcDbDictionary
281
     1
  3
CANNOSCALE
350
5E67
  3
CMLEADERSTYLE
350
5E64
  3
CTABLESTYLE
350
5E63
  3
CVIEWDETAILSTYLE
350
5E65
  3
CVIEWSECTIONSTYLE
350
5E66
  3
DIMASSOC
350
5698
  3
INDEXCTL
350
5E69
  3
SORTENTS
350
5E68
  3
XCLIPFRAME
350
5E6A
  0
XRECORD
  5
6015
102
{ACAD_REACTORS
330
C
102
}
330
C
100
AcDbXrecord
280
     1
  1
DWGPROPS COOKIE
  2

  3

  4

  6

  7

  8
ktomoto
  9

300
=
301
=
302
=
303
=
304
=
305
=
306
=
307
=
308
=
309
=
 40
1.275398391203703
 41
2452286.555658658
 42
2457429.707650012
  1

 90
        0
  0
XRECORD
  5
5E46
102
{ACAD_REACTORS
330
5E45
102
}
330
5E45
100
AcDbXrecord
280
     1
290
     1
  0
XRECORD
  5
5E48
102
{ACAD_REACTORS
330
5E47
102
}
330
5E47
100
AcDbXrecord
280
     1
290
     1
  0
XRECORD
  5
5E4A
102
{ACAD_REACTORS
330
5E49
102
}
330
5E49
100
AcDbXrecord
280
     1
290
     1
  0
XRECORD
  5
5E4C
102
{ACAD_REACTORS
330
5E4B
102
}
330
5E4B
100
AcDbXrecord
280
     1
290
     1
  0
XRECORD
  5
5E4E
102
{ACAD_REACTORS
330
5E4D
102
}
330
5E4D
100
AcDbXrecord
280
     1
290
     1
  0
XRECORD
  5
5E50
102
{ACAD_REACTORS
330
5E4F
102
}
330
5E4F
100
AcDbXrecord
280
     1
290
     1
  0
XRECORD
  5
5E52
102
{ACAD_REACTORS
330
5E51
102
}
330
5E51
100
AcDbXrecord
280
     1
290
     1
  0
XRECORD
  5
5E54
102
{ACAD_REACTORS
330
5E53
102
}
330
5E53
100
AcDbXrecord
280
     1
290
     1
  0
XRECORD
  5
5E56
102
{ACAD_REACTORS
330
5E55
102
}
330
5E55
100
AcDbXrecord
280
     1
290
     1
  0
XRECORD
  5
5E58
102
{ACAD_REACTORS
330
5E57
102
}
330
5E57
100
AcDbXrecord
280
     1
290
     1
  0
XRECORD
  5
5E5A
102
{ACAD_REACTORS
330
5E59
102
}
330
5E59
100
AcDbXrecord
280
     1
290
     1
  0
XRECORD
  5
5E5C
102
{ACAD_REACTORS
330
5E5B
102
}
330
5E5B
100
AcDbXrecord
280
     1
290
     1
  0
XRECORD
  5
5E5E
102
{ACAD_REACTORS
330
5E5D
102
}
330
5E5D
100
AcDbXrecord
280
     1
290
     1
  0
XRECORD
  5
5E60
102
{ACAD_REACTORS
330
5E5F
102
}
330
5E5F
100
AcDbXrecord
280
     1
290
     1
  0
XRECORD
  5
5E62
102
{ACAD_REACTORS
330
5E61
102
}
330
5E61
100
AcDbXrecord
280
     1
290
     1
  0
XRECORD
  5
591C
102
{ACAD_REACTORS
330
178
102
}
330
178
100
AcDbXrecord
280
     1
340
1E
  0
XRECORD
  5
591B
102
{ACAD_REACTORS
330
17A
102
}
330
17A
100
AcDbXrecord
280
     1
340
1A
  0
XRECORD
  5
6019
102
{ACAD_REACTORS
330
6018
102
}
330
6018
100
AcDbXrecord
280
     1
 40
4437.0
  1
\A1;\U+22056
  0
XRECORD
  5
6017
102
{ACAD_REACTORS
330
6016
102
}
330
6016
100
AcDbXrecord
280
     1
102
SHADEPLOT
 70
     0
  0
ACDBDETAILVIEWSTYLE
  5
59B2
102
{ACAD_XDICTIONARY
360
6055
102
}
102
{ACAD_REACTORS
330
59B1
102
}
330
59B1
100
AcDbModelDocViewStyle
 70
     0
  3
Imperial24
290
     0
100
AcDbDetailViewStyle
 70
     0
 71
     0
 90
        3
 71
     1
340
11
 40
0.24
340
0
 40
0.24
300

 40
0.36
280
     3
 71
     2
340
15
 90
       25
 71
     3
340
11
 40
0.24
 90
        1
 40
0.75
 90
        1
300
%<\AcVar ViewType \f "%tc1">% %<\AcVar ViewDetailId>%\PSCALE %<\AcVar ViewScale \f "%sn">%
 71
     4
340
15
 90
       25
340
15
 90
       25
280
     0
  0
LAYOUT
  5
5924
102
{ACAD_XDICTIONARY
360
601A
102
}
102
{ACAD_REACTORS
330
19
102
}
330
19
100
AcDbPlotSettings
  1

  2
Canon LBP3800 LIPSLX
  4

  6

 40
0.0
 41
0.0
 42
0.0
 43
0.0
 44
0.0
 45
0.0
 46
0.0
 47
0.0
 48
0.0
 49
0.0
140
0.0
141
0.0
142
1.0
143
1.0
 70
  1712
 72
     0
 73
     0
 74
     0
  7
monochrome.ctb
 75
     0
147
1.0
148
0.0
149
0.0
100
AcDbLayout
  1
Model
 70
     1
 71
     0
 10
0.0
 20
0.0
 11
12.0
 21
9.0
 12
0.0
 22
0.0
 32
0.0
 14
0.0
 24
0.0
 34
0.0
 15
0.0
 25
0.0
 35
0.0
146
0.0
 13
0.0
 23
0.0
 33
0.0
 16
1.0
 26
0.0
 36
0.0
 17
0.0
 27
1.0
 37
0.0
 76
     0
330
1E
331
593E
  0
LAYOUT
  5
5925
102
{ACAD_XDICTIONARY
360
601C
102
}
102
{ACAD_REACTORS
330
19
102
}
330
19
100
AcDbPlotSettings
  1

  2
Canon LBP3800 LIPSLX
  4

  6

 40
0.0
 41
0.0
 42
0.0
 43
0.0
 44
0.0
 45
0.0
 46
0.0
 47
0.0
 48
0.0
 49
0.0
140
0.0
141
0.0
142
1.0
143
1.0
 70
   688
 72
     0
 73
     0
 74
     5
  7
monochrome.ctb
 75
    16
147
1.0
148
0.0
149
0.0
100
AcDbLayout
  1
ﾚｲｱｳﾄ1
 70
     1
 71
     1
 10
-5.873749
 20
-5.87375
 11
204.099579
 21
291.1369009999999
 12
0.0
 22
0.0
 32
0.0
 14
4.273573
 24
5.205245999999998
 34
0.0
 15
194.610095
 25
283.0697009999996
 35
0.0
146
0.0
 13
0.0
 23
0.0
 33
0.0
 16
1.0
 26
0.0
 36
0.0
 17
0.0
 27
1.0
 37
0.0
 76
     0
330
1A
  0
MATERIAL
  5
596F
102
{ACAD_XDICTIONARY
360
5970
102
}
102
{ACAD_REACTORS
330
5966
102
}
330
5966
100
AcDbMaterial
  1
ByBlock
 72
     0
 43
0.0208333333333333
 43
0.0
 43
0.0
 43
0.0
 43
0.0
 43
0.0208333333333333
 43
0.0
 43
0.0
 43
0.0
 43
0.0
 43
1.0
 43
0.0
 43
0.0
 43
0.0
 43
0.0
 43
1.0
 77
     0
 47
0.0208333333333333
 47
0.0
 47
0.0
 47
0.0
 47
0.0
 47
0.0208333333333333
 47
0.0
 47
0.0
 47
0.0
 47
0.0
 47
1.0
 47
0.0
 47
0.0
 47
0.0
 47
0.0
 47
1.0
171
     0
 49
0.0208333333333333
 49
0.0
 49
0.0
 49
0.0
 49
0.0
 49
0.0208333333333333
 49
0.0
 49
0.0
 49
0.0
 49
0.0
 49
1.0
 49
0.0
 49
0.0
 49
0.0
 49
0.0
 49
1.0
175
     0
142
0.0208333333333333
142
0.0
142
0.0
142
0.0
142
0.0
142
0.0208333333333333
142
0.0
142
0.0
142
0.0
142
0.0
142
1.0
142
0.0
142
0.0
142
0.0
142
0.0
142
1.0
179
     0
144
0.0208333333333333
144
0.0
144
0.0
144
0.0
144
0.0
144
0.0208333333333333
144
0.0
144
0.0
144
0.0
144
0.0
144
1.0
144
0.0
144
0.0
144
0.0
144
0.0
144
1.0
147
0.0208333333333333
147
0.0
147
0.0
147
0.0
147
0.0
147
0.0208333333333333
147
0.0
147
0.0
147
0.0
147
0.0
147
1.0
147
0.0
147
0.0
147
0.0
147
0.0
147
1.0
  0
MATERIAL
  5
5967
102
{ACAD_XDICTIONARY
360
5968
102
}
102
{ACAD_REACTORS
330
5966
102
}
330
5966
100
AcDbMaterial
  1
ByLayer
 72
     0
 43
0.0208333333333333
 43
0.0
 43
0.0
 43
0.0
 43
0.0
 43
0.0208333333333333
 43
0.0
 43
0.0
 43
0.0
 43
0.0
 43
1.0
 43
0.0
 43
0.0
 43
0.0
 43
0.0
 43
1.0
 77
     0
 47
0.0208333333333333
 47
0.0
 47
0.0
 47
0.0
 47
0.0
 47
0.0208333333333333
 47
0.0
 47
0.0
 47
0.0
 47
0.0
 47
1.0
 47
0.0
 47
0.0
 47
0.0
 47
0.0
 47
1.0
171
     0
 49
0.0208333333333333
 49
0.0
 49
0.0
 49
0.0
 49
0.0
 49
0.0208333333333333
 49
0.0
 49
0.0
 49
0.0
 49
0.0
 49
1.0
 49
0.0
 49
0.0
 49
0.0
 49
0.0
 49
1.0
175
     0
142
0.0208333333333333
142
0.0
142
0.0
142
0.0
142
0.0
142
0.0208333333333333
142
0.0
142
0.0
142
0.0
142
0.0
142
1.0
142
0.0
142
0.0
142
0.0
142
0.0
142
1.0
179
     0
144
0.0208333333333333
144
0.0
144
0.0
144
0.0
144
0.0
144
0.0208333333333333
144
0.0
144
0.0
144
0.0
144
0.0
144
1.0
144
0.0
144
0.0
144
0.0
144
0.0
144
1.0
147
0.0208333333333333
147
0.0
147
0.0
147
0.0
147
0.0
147
0.0208333333333333
147
0.0
147
0.0
147
0.0
147
0.0
147
1.0
147
0.0
147
0.0
147
0.0
147
0.0
147
1.0
  0
MATERIAL
  5
5977
102
{ACAD_XDICTIONARY
360
5978
102
}
102
{ACAD_REACTORS
330
5966
102
}
330
5966
100
AcDbMaterial
  1
Global
 72
     0
 43
0.0208333333333333
 43
0.0
 43
0.0
 43
0.0
 43
0.0
 43
0.0208333333333333
 43
0.0
 43
0.0
 43
0.0
 43
0.0
 43
1.0
 43
0.0
 43
0.0
 43
0.0
 43
0.0
 43
1.0
 77
     0
 47
0.0208333333333333
 47
0.0
 47
0.0
 47
0.0
 47
0.0
 47
0.0208333333333333
 47
0.0
 47
0.0
 47
0.0
 47
0.0
 47
1.0
 47
0.0
 47
0.0
 47
0.0
 47
0.0
 47
1.0
171
     0
 49
0.0208333333333333
 49
0.0
 49
0.0
 49
0.0
 49
0.0
 49
0.0208333333333333
 49
0.0
 49
0.0
 49
0.0
 49
0.0
 49
1.0
 49
0.0
 49
0.0
 49
0.0
 49
0.0
 49
1.0
175
     0
142
0.0208333333333333
142
0.0
142
0.0
142
0.0
142
0.0
142
0.0208333333333333
142
0.0
142
0.0
142
0.0
142
0.0
142
1.0
142
0.0
142
0.0
142
0.0
142
0.0
142
1.0
179
     0
144
0.0208333333333333
144
0.0
144
0.0
144
0.0
144
0.0
144
0.0208333333333333
144
0.0
144
0.0
144
0.0
144
0.0
144
1.0
144
0.0
144
0.0
144
0.0
144
0.0
144
1.0
147
0.0208333333333333
147
0.0
147
0.0
147
0.0
147
0.0
147
0.0208333333333333
147
0.0
147
0.0
147
0.0
147
0.0
147
1.0
147
0.0
147
0.0
147
0.0
147
0.0
147
1.0
  0
MLEADERSTYLE
  5
59AE
102
{ACAD_REACTORS
330
59AD
102
}
330
59AD
100
AcDbMLeaderStyle
170
     2
171
     1
172
     0
 90
        2
 40
0.0
 41
0.0
173
     1
 91
-1056964608
340
13
 92
       -2
290
     1
 42
0.09
291
     1
 43
0.36
  3
Standard
 44
0.18
300

342
11
174
     1
178
     6
175
     1
176
     0
 93
-1056964608
 45
0.18
292
     0
297
     0
 46
0.18
 94
-1056964608
 47
1.0
 49
1.0
140
1.0
293
     1
141
0.0
294
     1
177
     0
142
1.0
295
     0
296
     0
143
0.125
1001
ACAD_MLEADERVER
1070
     2
  0
MLINESTYLE
  5
17
102
{ACAD_REACTORS
330
16
102
}
330
16
100
AcDbMlineStyle
  2
STANDARD
 70
     0
  3

 62
   256
 51
90.0
 52
90.0
 71
     2
 49
0.5
 62
   256
  6
BYLAYER
 49
-0.5
 62
   256
  6
BYLAYER
  0
ACDBPLACEHOLDER
  5
F
102
{ACAD_REACTORS
330
E
102
}
330
E
  0
SCALE
  5
599C
102
{ACAD_REACTORS
330
599B
102
}
330
599B
100
AcDbScale
 70
     0
300
1:1
140
1.0
141
1.0
290
     1
  0
SCALE
  5
599D
102
{ACAD_REACTORS
330
599B
102
}
330
599B
100
AcDbScale
 70
     0
300
1/128" = 1'-0"
140
0.0078125
141
12.0
290
     0
  0
SCALE
  5
599E
102
{ACAD_REACTORS
330
599B
102
}
330
599B
100
AcDbScale
 70
     0
300
1/64" = 1'-0"
140
0.015625
141
12.0
290
     0
  0
SCALE
  5
599F
102
{ACAD_REACTORS
330
599B
102
}
330
599B
100
AcDbScale
 70
     0
300
1/32" = 1'-0"
140
0.03125
141
12.0
290
     0
  0
SCALE
  5
59A0
102
{ACAD_REACTORS
330
599B
102
}
330
599B
100
AcDbScale
 70
     0
300
1/16" = 1'-0"
140
0.0625
141
12.0
290
     0
  0
SCALE
  5
59A1
102
{ACAD_REACTORS
330
599B
102
}
330
599B
100
AcDbScale
 70
     0
300
3/32" = 1'-0"
140
0.09375
141
12.0
290
     0
  0
SCALE
  5
59A2
102
{ACAD_REACTORS
330
599B
102
}
330
599B
100
AcDbScale
 70
     0
300
1/8" = 1'-0"
140
0.125
141
12.0
290
     0
  0
SCALE
  5
59A3
102
{ACAD_REACTORS
330
599B
102
}
330
599B
100
AcDbScale
 70
     0
300
3/16" = 1'-0"
140
0.1875
141
12.0
290
     0
  0
SCALE
  5
59A4
102
{ACAD_REACTORS
330
599B
102
}
330
599B
100
AcDbScale
 70
     0
300
1/4" = 1'-0"
140
0.25
141
12.0
290
     0
  0
SCALE
  5
59A5
102
{ACAD_REACTORS
330
599B
102
}
330
599B
100
AcDbScale
 70
     0
300
3/8" = 1'-0"
140
0.375
141
12.0
290
     0
  0
SCALE
  5
59A6
102
{ACAD_REACTORS
330
599B
102
}
330
599B
100
AcDbScale
 70
     0
300
1/2" = 1'-0"
140
0.5
141
12.0
290
     0
  0
SCALE
  5
59A7
102
{ACAD_REACTORS
330
599B
102
}
330
599B
100
AcDbScale
 70
     0
300
3/4" = 1'-0"
140
0.75
141
12.0
290
     0
  0
SCALE
  5
59A8
102
{ACAD_REACTORS
330
599B
102
}
330
599B
100
AcDbScale
 70
     0
300
1" = 1'-0"
140
1.0
141
12.0
290
     0
  0
SCALE
  5
59A9
102
{ACAD_REACTORS
330
599B
102
}
330
599B
100
AcDbScale
 70
     0
300
1-1/2" = 1'-0"
140
1.5
141
12.0
290
     0
  0
SCALE
  5
59AA
102
{ACAD_REACTORS
330
599B
102
}
330
599B
100
AcDbScale
 70
     0
300
3" = 1'-0"
140
3.0
141
12.0
290
     0
  0
SCALE
  5
59AB
102
{ACAD_REACTORS
330
599B
102
}
330
599B
100
AcDbScale
 70
     0
300
6" = 1'-0"
140
6.0
141
12.0
290
     0
  0
SCALE
  5
59AC
102
{ACAD_REACTORS
330
599B
102
}
330
599B
100
AcDbScale
 70
     0
300
1'-0" = 1'-0"
140
12.0
141
12.0
290
     0
  0
ACDBSECTIONVIEWSTYLE
  5
59B0
102
{ACAD_XDICTIONARY
360
6053
102
}
102
{ACAD_REACTORS
330
59AF
102
}
330
59AF
100
AcDbModelDocViewStyle
 70
     0
  3
Imperial24
290
     0
100
AcDbSectionViewStyle
 70
     0
 71
     0
 90
       78
 71
     1
340
11
 40
0.24
340
0
340
0
 40
0.24
300
I, O, Q, S, X, Z
 40
0.48
 90
        3
 40
0.18
 90
        1
 71
     2
340
15
 90
       25
340
15
 90
       50
 40
0.24
 40
0.0
 40
0.24
 71
     3
340
11
 40
0.24
 90
        1
 40
0.75
 90
        1
300
%<\AcVar ViewType \f "%tc1">% %<\AcVar ViewSectionStartId>%-%<\AcVar ViewSectionEndId>%\PSCALE %<\AcVar ViewScale \f "%sn">%
 71
     4
300
ANSI31
 40
1.0
 90
        0
290
     0
290
     0
 90
        6
 40
0.0
 40
1.570796326794896
 40
0.2617993877991494
 40
1.308996938995747
 40
-0.2617993877991494
 40
1.832595714594046
  0
TABLESTYLE
  5
599A
102
{ACAD_XDICTIONARY
360
6012
102
}
102
{ACAD_REACTORS
330
5999
102
}
330
5999
100
AcDbTableStyle
  3
Standard
 70
     0
 71
     0
 40
0.06
 41
0.06
280
     0
281
     0
  7
STANDARD
140
0.18
170
     2
 62
     0
 63
     7
283
     0
274
    -2
284
     1
 64
     0
275
    -2
285
     1
 65
     0
276
    -2
286
     1
 66
     0
277
    -2
287
     1
 67
     0
278
    -2
288
     1
 68
     0
279
    -2
289
     1
 69
     0
  7
STANDARD
140
0.25
170
     5
 62
     0
 63
     7
283
     0
274
    -2
284
     1
 64
     0
275
    -2
285
     1
 65
     0
276
    -2
286
     1
 66
     0
277
    -2
287
     1
 67
     0
278
    -2
288
     1
 68
     0
279
    -2
289
     1
 69
     0
  7
STANDARD
140
0.18
170
     5
 62
     0
 63
     7
283
     0
274
    -2
284
     1
 64
     0
275
    -2
285
     1
 65
     0
276
    -2
286
     1
 66
     0
277
    -2
287
     1
 67
     0
278
    -2
288
     1
 68
     0
279
    -2
289
     1
 69
     0
  0
VISUALSTYLE
  5
5985
102
{ACAD_XDICTIONARY
360
602B
102
}
102
{ACAD_REACTORS
330
597F
102
}
330
597F
100
AcDbVisualStyle
  2
2dWireframe
 70
     4
 71
     0
 72
     2
 73
     0
 90
        0
 40
-0.6
 41
-30.0
 62
     5
 63
     7
 74
     1
 91
        4
 64
     7
 65
   257
 75
     1
175
     1
 42
1.0
 92
        0
 66
   257
 43
1.0
 76
     1
 77
     6
 78
     2
 67
     7
 79
     5
170
     0
171
     0
290
     0
174
     0
 93
        1
 44
0.0
173
     0
291
     0
 45
0.0
1001
ACAD
1000
AcDbSavedByObjectVersion
1070
     0
  0
VISUALSTYLE
  5
5984
102
{ACAD_XDICTIONARY
360
6029
102
}
102
{ACAD_REACTORS
330
597F
102
}
330
597F
100
AcDbVisualStyle
  2
Basic
 70
     7
 71
     1
 72
     0
 73
     1
 90
        0
 40
-0.6
 41
-30.0
 62
     5
 63
     7
 74
     0
 91
        4
 64
     7
 65
   257
 75
     1
175
     1
 42
1.0
 92
        8
 66
     7
 43
1.0
 76
     1
 77
     6
 78
     2
 67
     7
 79
     5
170
     0
171
     0
290
     0
174
     0
 93
        1
 44
0.0
173
     0
291
     1
 45
0.0
1001
ACAD
1000
AcDbSavedByObjectVersion
1070
     0
  0
VISUALSTYLE
  5
598B
102
{ACAD_XDICTIONARY
360
6037
102
}
102
{ACAD_REACTORS
330
597F
102
}
330
597F
100
AcDbVisualStyle
  2
Brighten
 70
    12
 71
     2
 72
     2
 73
     0
 90
        0
 40
-0.6
 41
-30.0
 62
     5
 63
     7
 74
     1
 91
        4
 64
     7
 65
   257
 75
     1
175
     1
 42
1.0
 92
        8
 66
     7
 43
1.0
 76
     1
 77
     6
 78
     2
 67
     7
 79
     5
170
     0
171
     0
290
     0
174
     0
 93
        1
 44
50.0
173
     0
291
     1
 45
0.0
1001
ACAD
1000
AcDbSavedByObjectVersion
1070
     0
  0
VISUALSTYLE
  5
598F
102
{ACAD_XDICTIONARY
360
603F
102
}
102
{ACAD_REACTORS
330
597F
102
}
330
597F
100
AcDbVisualStyle
  2
ColorChange
 70
    16
 71
     2
 72
     2
 73
     3
 90
        0
 40
-0.6
 41
-30.0
 62
     5
 63
     8
 74
     1
 91
        4
 64
     7
 65
   257
 75
     1
175
     1
 42
1.0
 92
        8
 66
     8
 43
1.0
 76
     1
 77
     6
 78
     2
 67
     7
 79
     5
170
     0
171
     0
290
     0
174
     0
 93
        1
 44
0.0
173
     0
291
     1
 45
0.0
1001
ACAD
1000
AcDbSavedByObjectVersion
1070
     0
  0
VISUALSTYLE
  5
5988
102
{ACAD_XDICTIONARY
360
6031
102
}
102
{ACAD_REACTORS
330
597F
102
}
330
597F
100
AcDbVisualStyle
  2
Conceptual
 70
     9
 71
     3
 72
     2
 73
     0
 90
        0
 40
-0.6
 41
-30.0
 62
     5
 63
     7
 74
     2
 91
        2
 64
     7
 65
   257
 75
     1
175
     1
 42
179.0
 92
        8
 66
     7
 43
1.0
 76
     1
 77
     6
 78
     2
 67
     7
 79
     3
170
     0
171
     0
290
     0
174
     0
 93
        1
 44
0.0
173
     0
291
     0
 45
0.0
1001
ACAD
1000
AcDbSavedByObjectVersion
1070
     0
  0
VISUALSTYLE
  5
598A
102
{ACAD_XDICTIONARY
360
6035
102
}
102
{ACAD_REACTORS
330
597F
102
}
330
597F
100
AcDbVisualStyle
  2
Dim
 70
    11
 71
     2
 72
     2
 73
     0
 90
        0
 40
-0.6
 41
-30.0
 62
     5
 63
     7
 74
     1
 91
        4
 64
     7
 65
   257
 75
     1
175
     1
 42
1.0
 92
        8
 66
     7
 43
1.0
 76
     1
 77
     6
 78
     2
 67
     7
 79
     5
170
     0
171
     0
290
     0
174
     0
 93
        1
 44
-50.0
173
     0
291
     1
 45
0.0
1001
ACAD
1000
AcDbSavedByObjectVersion
1070
     0
  0
VISUALSTYLE
  5
5997
102
{ACAD_XDICTIONARY
360
604F
102
}
102
{ACAD_REACTORS
330
597F
102
}
330
597F
100
AcDbVisualStyle
  2
EdgeColorOff
 70
    22
 71
     2
 72
     2
 73
     0
 90
        0
 40
-0.6
 41
-30.0
 62
     5
 63
     7
 74
     1
 91
        4
 64
     7
 65
   257
 75
     1
175
     1
 42
1.0
 92
        8
 66
     7
 43
1.0
 76
     1
 77
     6
 78
     2
 67
     7
 79
     5
170
     0
171
     0
290
     0
174
     0
 93
        1
 44
0.0
173
     0
291
     1
 45
0.0
1001
ACAD
1000
AcDbSavedByObjectVersion
1070
     0
  0
VISUALSTYLE
  5
598E
102
{ACAD_XDICTIONARY
360
603D
102
}
102
{ACAD_REACTORS
330
597F
102
}
330
597F
100
AcDbVisualStyle
  2
Facepattern
 70
    15
 71
     2
 72
     2
 73
     0
 90
        0
 40
-0.6
 41
-30.0
 62
     5
 63
     7
 74
     1
 91
        4
 64
     7
 65
   257
 75
     1
175
     1
 42
1.0
 92
        8
 66
     7
 43
1.0
 76
     1
 77
     6
 78
     2
 67
     7
 79
     5
170
     0
171
     0
290
     0
174
     0
 93
        1
 44
0.0
173
     0
291
     1
 45
0.0
1001
ACAD
1000
AcDbSavedByObjectVersion
1070
     0
  0
VISUALSTYLE
  5
5980
102
{ACAD_XDICTIONARY
360
6021
102
}
102
{ACAD_REACTORS
330
597F
102
}
330
597F
100
AcDbVisualStyle
  2
Flat
 70
     0
 71
     2
 72
     1
 73
     1
 90
        2
 40
-0.6
 41
30.0
 62
     5
 63
     7
 74
     0
 91
        0
 64
     7
 65
   257
 75
     1
175
     1
 42
1.0
 92
        8
 66
     7
 43
1.0
 76
     1
 77
     6
 78
     2
 67
     7
 79
     5
170
     0
171
     0
290
     0
174
     0
 93
       13
 44
0.0
173
     0
291
     1
 45
0.0
1001
ACAD
1000
AcDbSavedByObjectVersion
1070
     0
  0
VISUALSTYLE
  5
5981
102
{ACAD_XDICTIONARY
360
6023
102
}
102
{ACAD_REACTORS
330
597F
102
}
330
597F
100
AcDbVisualStyle
  2
FlatWithEdges
 70
     1
 71
     2
 72
     1
 73
     1
 90
        2
 40
-0.6
 41
30.0
 62
     5
 63
     7
 74
     1
 91
        0
 64
     7
 65
   257
 75
     1
175
     1
 42
1.0
 92
        0
 66
   257
 43
1.0
 76
     1
 77
     6
 78
     2
 67
     7
 79
     5
170
     0
171
     0
290
     0
174
     0
 93
       13
 44
0.0
173
     0
291
     1
 45
0.0
1001
ACAD
1000
AcDbSavedByObjectVersion
1070
     0
  0
VISUALSTYLE
  5
5982
102
{ACAD_XDICTIONARY
360
6025
102
}
102
{ACAD_REACTORS
330
597F
102
}
330
597F
100
AcDbVisualStyle
  2
Gouraud
 70
     2
 71
     2
 72
     2
 73
     1
 90
        2
 40
-0.6
 41
30.0
 62
     5
 63
     7
 74
     0
 91
        0
 64
     7
 65
   257
 75
     1
175
     1
 42
1.0
 92
        0
 66
     7
 43
1.0
 76
     1
 77
     6
 78
     2
 67
     7
 79
     5
170
     0
171
     0
290
     0
174
     0
 93
       13
 44
0.0
173
     0
291
     1
 45
0.0
1001
ACAD
1000
AcDbSavedByObjectVersion
1070
     0
  0
VISUALSTYLE
  5
5983
102
{ACAD_XDICTIONARY
360
6027
102
}
102
{ACAD_REACTORS
330
597F
102
}
330
597F
100
AcDbVisualStyle
  2
GouraudWithEdges
 70
     3
 71
     2
 72
     2
 73
     1
 90
        2
 40
-0.6
 41
30.0
 62
     5
 63
     7
 74
     1
 91
        0
 64
     7
 65
   257
 75
     1
175
     1
 42
1.0
 92
        0
 66
   257
 43
1.0
 76
     1
 77
     6
 78
     2
 67
     7
 79
     5
170
     0
171
     0
290
     0
174
     0
 93
       13
 44
0.0
173
     0
291
     1
 45
0.0
1001
ACAD
1000
AcDbSavedByObjectVersion
1070
     0
  0
VISUALSTYLE
  5
5987
102
{ACAD_XDICTIONARY
360
602F
102
}
102
{ACAD_REACTORS
330
597F
102
}
330
597F
100
AcDbVisualStyle
  2
Hidden
 70
     6
 71
     1
 72
     2
 73
     2
 90
        0
 40
-0.6
 41
-30.0
 62
     5
 63
     7
 74
     2
 91
        2
 64
     7
 65
   257
 75
     2
175
     1
 42
40.0
 92
        0
 66
   257
 43
1.0
 76
     1
 77
     6
 78
     2
 67
     7
 79
     3
170
     0
171
     0
290
     0
174
     0
 93
        1
 44
0.0
173
     0
291
     0
 45
0.0
1001
ACAD
1000
AcDbSavedByObjectVersion
1070
     0
  0
VISUALSTYLE
  5
5995
102
{ACAD_XDICTIONARY
360
604B
102
}
102
{ACAD_REACTORS
330
597F
102
}
330
597F
100
AcDbVisualStyle
  2
JitterOff
 70
    20
 71
     2
 72
     2
 73
     0
 90
        0
 40
-0.6
 41
-30.0
 62
     5
 63
     7
 74
     1
 91
        4
 64
     7
 65
   257
 75
     1
175
     1
 42
1.0
 92
       10
 66
     7
 43
1.0
 76
     1
 77
     6
 78
     2
 67
     7
 79
     5
170
     0
171
     0
290
     0
174
     0
 93
        1
 44
0.0
173
     0
291
     1
 45
0.0
1001
ACAD
1000
AcDbSavedByObjectVersion
1070
     0
  0
VISUALSTYLE
  5
598D
102
{ACAD_XDICTIONARY
360
603B
102
}
102
{ACAD_REACTORS
330
597F
102
}
330
597F
100
AcDbVisualStyle
  2
Linepattern
 70
    14
 71
     2
 72
     2
 73
     0
 90
        0
 40
-0.6
 41
-30.0
 62
     5
 63
     7
 74
     1
 91
        4
 64
     7
 65
   257
 75
     7
175
     7
 42
1.0
 92
        8
 66
     7
 43
1.0
 76
     1
 77
     6
 78
     2
 67
     7
 79
     5
170
     0
171
     0
290
     0
174
     0
 93
        1
 44
0.0
173
     0
291
     1
 45
0.0
1001
ACAD
1000
AcDbSavedByObjectVersion
1070
     0
  0
VISUALSTYLE
  5
5996
102
{ACAD_XDICTIONARY
360
604D
102
}
102
{ACAD_REACTORS
330
597F
102
}
330
597F
100
AcDbVisualStyle
  2
OverhangOff
 70
    21
 71
     2
 72
     2
 73
     0
 90
        0
 40
-0.6
 41
-30.0
 62
     5
 63
     7
 74
     1
 91
        4
 64
     7
 65
   257
 75
     1
175
     1
 42
1.0
 92
        9
 66
     7
 43
1.0
 76
     1
 77
     6
 78
     2
 67
     7
 79
     5
170
     0
171
     0
290
     0
174
     0
 93
        1
 44
0.0
173
     0
291
     1
 45
0.0
1001
ACAD
1000
AcDbSavedByObjectVersion
1070
     0
  0
VISUALSTYLE
  5
5989
102
{ACAD_XDICTIONARY
360
6033
102
}
102
{ACAD_REACTORS
330
597F
102
}
330
597F
100
AcDbVisualStyle
  2
Realistic
 70
     8
 71
     2
 72
     3
 73
     0
 90
        2
 40
-0.6
 41
30.0
 62
     5
 63
     7
 74
     0
 91
        0
 64
     7
 65
   257
 75
     1
175
     1
 42
1.0
 92
        8
 66
   257
 43
1.0
 76
     1
 77
     6
 78
     2
 67
     7
 79
     3
170
     0
171
     0
290
     0
174
     0
 93
       13
 44
0.0
173
     0
291
     0
 45
0.0
1001
ACAD
1000
AcDbSavedByObjectVersion
1070
     0
  0
VISUALSTYLE
  5
5994
102
{ACAD_XDICTIONARY
360
6049
102
}
102
{ACAD_REACTORS
330
597F
102
}
330
597F
100
AcDbVisualStyle
  2
Shaded
 70
    27
 71
     2
 72
     2
 73
     1
 90
        2
 40
-0.6
 41
30.0
 62
     5
 63
     7
 74
     0
 91
        4
 64
     7
 65
   257
 75
     1
175
     1
 42
1.0
 92
        8
 66
   257
 43
1.0
 76
     1
 77
     6
 78
     2
 67
     8
 79
     3
170
     0
171
     0
290
     0
174
     0
 93
        5
 44
0.0
173
     0
291
     0
 45
0.0
1001
ACAD
1000
AcDbSavedByObjectVersion
1070
     0
  0
VISUALSTYLE
  5
5993
102
{ACAD_XDICTIONARY
360
6047
102
}
102
{ACAD_REACTORS
330
597F
102
}
330
597F
100
AcDbVisualStyle
  2
Shaded with edges
 70
    26
 71
     2
 72
     2
 73
     1
 90
        2
 40
-0.6
 41
30.0
 62
     5
 63
     7
 74
     1
 91
       10
 64
     7
 65
   257
 75
     2
175
     1
 42
1.0
 92
        8
 66
   257
 43
1.0
 76
     1
 77
     6
 78
     2
 67
     7
 79
     3
170
     0
171
     0
290
     0
174
     0
 93
        5
 44
0.0
173
     0
291
     0
 45
0.0
1001
ACAD
1000
AcDbSavedByObjectVersion
1070
     0
  0
VISUALSTYLE
  5
5990
102
{ACAD_XDICTIONARY
360
6041
102
}
102
{ACAD_REACTORS
330
597F
102
}
330
597F
100
AcDbVisualStyle
  2
Shades of Gray
 70
    23
 71
     2
 72
     2
 73
     3
 90
        0
 40
-0.6
 41
-30.0
 62
     5
 63
     7
 74
     2
 91
        2
 64
     7
 65
     7
 75
     1
175
     1
 42
40.0
 92
        8
 66
     7
 43
1.0
 76
     1
 77
     6
 78
     2
 67
     7
 79
     3
170
     0
171
     0
290
     0
174
     0
 93
        1
 44
0.0
173
     0
291
     0
 45
0.0
1001
ACAD
1000
AcDbSavedByObjectVersion
1070
     0
  0
VISUALSTYLE
  5
5991
102
{ACAD_XDICTIONARY
360
6043
102
}
102
{ACAD_REACTORS
330
597F
102
}
330
597F
100
AcDbVisualStyle
  2
Sketchy
 70
    24
 71
     1
 72
     2
 73
     2
 90
        0
 40
-0.6
 41
-30.0
 62
     5
 63
     7
 74
     2
 91
        2
 64
     7
 65
     7
 75
     1
175
     1
 42
40.0
 92
       11
 66
     7
 43
1.0
 76
     1
 77
     6
 78
     2
 67
     7
 79
     6
170
     0
171
     0
290
     0
174
     0
 93
        1
 44
0.0
173
     0
291
     0
 45
0.0
1001
ACAD
1000
AcDbSavedByObjectVersion
1070
     0
  0
VISUALSTYLE
  5
598C
102
{ACAD_XDICTIONARY
360
6039
102
}
102
{ACAD_REACTORS
330
597F
102
}
330
597F
100
AcDbVisualStyle
  2
Thicken
 70
    13
 71
     2
 72
     2
 73
     0
 90
        0
 40
-0.6
 41
-30.0
 62
     5
 63
     7
 74
     1
 91
        4
 64
     7
 65
   257
 75
     1
175
     1
 42
1.0
 92
       12
 66
     7
 43
1.0
 76
     1
 77
     6
 78
     2
 67
     7
 79
     5
170
     0
171
     0
290
     0
174
     0
 93
        1
 44
0.0
173
     0
291
     1
 45
0.0
1001
ACAD
1000
AcDbSavedByObjectVersion
1070
     0
  0
VISUALSTYLE
  5
5986
102
{ACAD_XDICTIONARY
360
602D
102
}
102
{ACAD_REACTORS
330
597F
102
}
330
597F
100
AcDbVisualStyle
  2
Wireframe
 70
     5
 71
     0
 72
     2
 73
     0
 90
        0
 40
-0.6
 41
-30.0
 62
     5
 63
     7
 74
     1
 91
        4
 64
     7
 65
   257
 75
     1
175
     1
 42
1.0
 92
        0
 66
   257
 43
1.0
 76
     1
 77
     6
 78
     2
 67
     7
 79
     3
170
     0
171
     0
290
     0
174
     0
 93
        1
 44
0.0
173
     0
291
     0
 45
0.0
1001
ACAD
1000
AcDbSavedByObjectVersion
1070
     0
  0
VISUALSTYLE
  5
5992
102
{ACAD_XDICTIONARY
360
6045
102
}
102
{ACAD_REACTORS
330
597F
102
}
330
597F
100
AcDbVisualStyle
  2
X-Ray
 70
    25
 71
     2
 72
     2
 73
     1
 90
        1
 40
0.5
 41
-30.0
 62
     5
 63
     7
 74
     1
 91
        0
 64
     7
 65
   257
 75
     1
175
     1
 42
1.0
 92
        8
 66
     7
 43
1.0
 76
     1
 77
     6
 78
     2
 67
     7
 79
     3
170
     0
171
     0
290
     0
174
     0
 93
       13
 44
0.0
173
     0
291
     0
 45
0.0
1001
ACAD
1000
AcDbSavedByObjectVersion
1070
     0
  0
DICTIONARYVAR
  5
5E67
102
{ACAD_REACTORS
330
5697
102
}
330
5697
100
DictionaryVariables
280
     0
  1
1:1
  0
DICTIONARYVAR
  5
5E64
102
{ACAD_REACTORS
330
5697
102
}
330
5697
100
DictionaryVariables
280
     0
  1
STANDARD
  0
DICTIONARYVAR
  5
5E63
102
{ACAD_REACTORS
330
5697
102
}
330
5697
100
DictionaryVariables
280
     0
  1
STANDARD
  0
DICTIONARYVAR
  5
5E65
102
{ACAD_REACTORS
330
5697
102
}
330
5697
100
DictionaryVariables
280
     0
  1
Imperial24
  0
DICTIONARYVAR
  5
5E66
102
{ACAD_REACTORS
330
5697
102
}
330
5697
100
DictionaryVariables
280
     0
  1
Imperial24
  0
DICTIONARYVAR
  5
5698
102
{ACAD_REACTORS
330
5697
102
}
330
5697
100
DictionaryVariables
280
     0
  1
1
  0
DICTIONARYVAR
  5
5E69
102
{ACAD_REACTORS
330
5697
102
}
330
5697
100
DictionaryVariables
280
     0
  1
0
  0
DICTIONARYVAR
  5
5E68
102
{ACAD_REACTORS
330
5697
102
}
330
5697
100
DictionaryVariables
280
     0
  1
127
  0
DICTIONARYVAR
  5
5E6A
102
{ACAD_REACTORS
330
5697
102
}
330
5697
100
DictionaryVariables
280
     0
  1
2
  0
DICTIONARY
  5
6055
330
59B2
100
AcDbDictionary
280
     1
281
     1
  3
ACAD_XREC_ROUNDTRIP
360
6056
  0
DICTIONARY
  5
601A
330
5924
100
AcDbDictionary
280
     1
281
     1
  3
ACAD_XREC_ROUNDTRIP
360
601B
  0
DICTIONARY
  5
601C
330
5925
100
AcDbDictionary
280
     1
281
     1
  3
ACAD_XREC_ROUNDTRIP
360
601D
  0
DICTIONARY
  5
5970
330
596F
100
AcDbDictionary
280
     1
281
     1
  3
ACAD_XREC_ROUNDTRIP
360
601F
  3
BUMPTILE
360
5972
  3
DIFFUSETILE
360
5971
  3
OPACITYTILE
360
5975
  3
REFLECTIONTILE
360
5974
  3
REFRACTIONTILE
360
5976
  3
SPECULARTILE
360
5973
  0
DICTIONARY
  5
5968
330
5967
100
AcDbDictionary
280
     1
281
     1
  3
ACAD_XREC_ROUNDTRIP
360
601E
  3
BUMPTILE
360
596A
  3
DIFFUSETILE
360
5969
  3
OPACITYTILE
360
596D
  3
REFLECTIONTILE
360
596C
  3
REFRACTIONTILE
360
596E
  3
SPECULARTILE
360
596B
  0
DICTIONARY
  5
5978
330
5977
100
AcDbDictionary
280
     1
281
     1
  3
ACAD_XREC_ROUNDTRIP
360
6020
  3
BUMPTILE
360
597A
  3
DIFFUSETILE
360
5979
  3
OPACITYTILE
360
597D
  3
REFLECTIONTILE
360
597C
  3
REFRACTIONTILE
360
597E
  3
SPECULARTILE
360
597B
  0
DICTIONARY
  5
6053
330
59B0
100
AcDbDictionary
280
     1
281
     1
  3
ACAD_XREC_ROUNDTRIP
360
6054
  0
DICTIONARY
  5
6012
330
599A
100
AcDbDictionary
280
     1
281
     1
  3
ACAD_ROUNDTRIP_2008_TABLESTYLE_CELLSTYLEMAP
360
6013
  3
ACAD_XREC_ROUNDTRIP
360
6051
  0
DICTIONARY
  5
602B
330
5985
100
AcDbDictionary
280
     1
281
     1
  3
ACAD_XREC_ROUNDTRIP
360
602C
  0
DICTIONARY
  5
6029
330
5984
100
AcDbDictionary
280
     1
281
     1
  3
ACAD_XREC_ROUNDTRIP
360
602A
  0
DICTIONARY
  5
6037
330
598B
100
AcDbDictionary
280
     1
281
     1
  3
ACAD_XREC_ROUNDTRIP
360
6038
  0
DICTIONARY
  5
603F
330
598F
100
AcDbDictionary
280
     1
281
     1
  3
ACAD_XREC_ROUNDTRIP
360
6040
  0
DICTIONARY
  5
6031
330
5988
100
AcDbDictionary
280
     1
281
     1
  3
ACAD_XREC_ROUNDTRIP
360
6032
  0
DICTIONARY
  5
6035
330
598A
100
AcDbDictionary
280
     1
281
     1
  3
ACAD_XREC_ROUNDTRIP
360
6036
  0
DICTIONARY
  5
604F
330
5997
100
AcDbDictionary
280
     1
281
     1
  3
ACAD_XREC_ROUNDTRIP
360
6050
  0
DICTIONARY
  5
603D
330
598E
100
AcDbDictionary
280
     1
281
     1
  3
ACAD_XREC_ROUNDTRIP
360
603E
  0
DICTIONARY
  5
6021
330
5980
100
AcDbDictionary
280
     1
281
     1
  3
ACAD_XREC_ROUNDTRIP
360
6022
  0
DICTIONARY
  5
6023
330
5981
100
AcDbDictionary
280
     1
281
     1
  3
ACAD_XREC_ROUNDTRIP
360
6024
  0
DICTIONARY
  5
6025
330
5982
100
AcDbDictionary
280
     1
281
     1
  3
ACAD_XREC_ROUNDTRIP
360
6026
  0
DICTIONARY
  5
6027
330
5983
100
AcDbDictionary
280
     1
281
     1
  3
ACAD_XREC_ROUNDTRIP
360
6028
  0
DICTIONARY
  5
602F
330
5987
100
AcDbDictionary
280
     1
281
     1
  3
ACAD_XREC_ROUNDTRIP
360
6030
  0
DICTIONARY
  5
604B
330
5995
100
AcDbDictionary
280
     1
281
     1
  3
ACAD_XREC_ROUNDTRIP
360
604C
  0
DICTIONARY
  5
603B
330
598D
100
AcDbDictionary
280
     1
281
     1
  3
ACAD_XREC_ROUNDTRIP
360
603C
  0
DICTIONARY
  5
604D
330
5996
100
AcDbDictionary
280
     1
281
     1
  3
ACAD_XREC_ROUNDTRIP
360
604E
  0
DICTIONARY
  5
6033
330
5989
100
AcDbDictionary
280
     1
281
     1
  3
ACAD_XREC_ROUNDTRIP
360
6034
  0
DICTIONARY
  5
6049
330
5994
100
AcDbDictionary
280
     1
281
     1
  3
ACAD_XREC_ROUNDTRIP
360
604A
  0
DICTIONARY
  5
6047
330
5993
100
AcDbDictionary
280
     1
281
     1
  3
ACAD_XREC_ROUNDTRIP
360
6048
  0
DICTIONARY
  5
6041
330
5990
100
AcDbDictionary
280
     1
281
     1
  3
ACAD_XREC_ROUNDTRIP
360
6042
  0
DICTIONARY
  5
6043
330
5991
100
AcDbDictionary
280
     1
281
     1
  3
ACAD_XREC_ROUNDTRIP
360
6044
  0
DICTIONARY
  5
6039
330
598C
100
AcDbDictionary
280
     1
281
     1
  3
ACAD_XREC_ROUNDTRIP
360
603A
  0
DICTIONARY
  5
602D
330
5986
100
AcDbDictionary
280
     1
281
     1
  3
ACAD_XREC_ROUNDTRIP
360
602E
  0
DICTIONARY
  5
6045
330
5992
100
AcDbDictionary
280
     1
281
     1
  3
ACAD_XREC_ROUNDTRIP
360
6046
  0
XRECORD
  5
6056
102
{ACAD_REACTORS
330
6055
102
}
330
6055
100
AcDbXrecord
280
     1
102
DISPLAYNAME
  1
Imperial24
102
FLAGS
 90
        0
  0
XRECORD
  5
601B
102
{ACAD_REACTORS
330
601A
102
}
330
601A
100
AcDbXrecord
280
     1
102
SHADEPLOT
 70
     0
102
SHADEPLOTRESLEVEL
 70
     2
102
SHADEPLOTCUSTOMDPI
 70
   300
  0
XRECORD
  5
601D
102
{ACAD_REACTORS
330
601C
102
}
330
601C
100
AcDbXrecord
280
     1
102
SHADEPLOT
 70
     0
102
SHADEPLOTRESLEVEL
 70
     2
102
SHADEPLOTCUSTOMDPI
 70
   300
  0
XRECORD
  5
601F
102
{ACAD_REACTORS
330
5970
102
}
330
5970
100
AcDbXrecord
280
     1
102
MATERIAL
148
0.0
149
0.0
149
0.0
 93
        0
 94
      127
282
     0
 72
     0
 77
     0
171
     0
175
     0
179
     0
273
     0
  0
XRECORD
  5
5972
102
{ACAD_REACTORS
330
5970
102
}
330
5970
100
AcDbXrecord
280
     1
270
     1
271
     1
  0
XRECORD
  5
5971
102
{ACAD_REACTORS
330
5970
102
}
330
5970
100
AcDbXrecord
280
     1
270
     1
271
     1
  0
XRECORD
  5
5975
102
{ACAD_REACTORS
330
5970
102
}
330
5970
100
AcDbXrecord
280
     1
270
     1
271
     1
  0
XRECORD
  5
5974
102
{ACAD_REACTORS
330
5970
102
}
330
5970
100
AcDbXrecord
280
     1
270
     1
271
     1
  0
XRECORD
  5
5976
102
{ACAD_REACTORS
330
5970
102
}
330
5970
100
AcDbXrecord
280
     1
270
     1
271
     1
  0
XRECORD
  5
5973
102
{ACAD_REACTORS
330
5970
102
}
330
5970
100
AcDbXrecord
280
     1
270
     1
271
     1
  0
XRECORD
  5
601E
102
{ACAD_REACTORS
330
5968
102
}
330
5968
100
AcDbXrecord
280
     1
102
MATERIAL
148
0.0
149
0.0
149
0.0
 93
        0
 94
      127
282
     0
 72
     0
 77
     0
171
     0
175
     0
179
     0
273
     0
  0
XRECORD
  5
596A
102
{ACAD_REACTORS
330
5968
102
}
330
5968
100
AcDbXrecord
280
     1
270
     1
271
     1
  0
XRECORD
  5
5969
102
{ACAD_REACTORS
330
5968
102
}
330
5968
100
AcDbXrecord
280
     1
270
     1
271
     1
  0
XRECORD
  5
596D
102
{ACAD_REACTORS
330
5968
102
}
330
5968
100
AcDbXrecord
280
     1
270
     1
271
     1
  0
XRECORD
  5
596C
102
{ACAD_REACTORS
330
5968
102
}
330
5968
100
AcDbXrecord
280
     1
270
     1
271
     1
  0
XRECORD
  5
596E
102
{ACAD_REACTORS
330
5968
102
}
330
5968
100
AcDbXrecord
280
     1
270
     1
271
     1
  0
XRECORD
  5
596B
102
{ACAD_REACTORS
330
5968
102
}
330
5968
100
AcDbXrecord
280
     1
270
     1
271
     1
  0
XRECORD
  5
6020
102
{ACAD_REACTORS
330
5978
102
}
330
5978
100
AcDbXrecord
280
     1
102
MATERIAL
148
0.0
149
0.0
149
0.0
 93
        0
 94
      127
282
     0
 72
     0
 77
     0
171
     0
175
     0
179
     0
273
     0
  0
XRECORD
  5
597A
102
{ACAD_REACTORS
330
5978
102
}
330
5978
100
AcDbXrecord
280
     1
270
     1
271
     1
  0
XRECORD
  5
5979
102
{ACAD_REACTORS
330
5978
102
}
330
5978
100
AcDbXrecord
280
     1
270
     1
271
     1
  0
XRECORD
  5
597D
102
{ACAD_REACTORS
330
5978
102
}
330
5978
100
AcDbXrecord
280
     1
270
     1
271
     1
  0
XRECORD
  5
597C
102
{ACAD_REACTORS
330
5978
102
}
330
5978
100
AcDbXrecord
280
     1
270
     1
271
     1
  0
XRECORD
  5
597E
102
{ACAD_REACTORS
330
5978
102
}
330
5978
100
AcDbXrecord
280
     1
270
     1
271
     1
  0
XRECORD
  5
597B
102
{ACAD_REACTORS
330
5978
102
}
330
5978
100
AcDbXrecord
280
     1
270
     1
271
     1
  0
XRECORD
  5
6054
102
{ACAD_REACTORS
330
6053
102
}
330
6053
100
AcDbXrecord
280
     1
102
DISPLAYNAME
  1
Imperial24
102
FLAGS
 90
        0
  0
CELLSTYLEMAP
  5
6013
102
{ACAD_REACTORS
330
6012
102
}
330
6012
100
AcDbCellStyleMap
 90
        3
300
CELLSTYLE
  1
TABLEFORMAT_BEGIN
 90
        5
170
     1
 91
        0
 92
    32768
 62
   257
 93
        1
300
CONTENTFORMAT
  1
CONTENTFORMAT_BEGIN
 90
        0
 91
        0
 92
      512
 93
        0
300

 40
0.0
140
1.0
 94
        5
 62
     0
340
11
144
0.25
309
CONTENTFORMAT_END
171
     0
 94
        0
309
TABLEFORMAT_END
  1
CELLSTYLE_BEGIN
 90
        1
 91
        1
300
_TITLE
309
CELLSTYLE_END
300
CELLSTYLE
  1
TABLEFORMAT_BEGIN
 90
        5
170
     1
 91
        0
 92
        0
 62
   257
 93
        1
300
CONTENTFORMAT
  1
CONTENTFORMAT_BEGIN
 90
        0
 91
        0
 92
      512
 93
        0
300

 40
0.0
140
1.0
 94
        5
 62
     0
340
11
144
0.18
309
CONTENTFORMAT_END
171
     0
 94
        0
309
TABLEFORMAT_END
  1
CELLSTYLE_BEGIN
 90
        2
 91
        1
300
_HEADER
309
CELLSTYLE_END
300
CELLSTYLE
  1
TABLEFORMAT_BEGIN
 90
        5
170
     1
 91
        0
 92
        0
 62
   257
 93
        1
300
CONTENTFORMAT
  1
CONTENTFORMAT_BEGIN
 90
        0
 91
        0
 92
      512
 93
        0
300

 40
0.0
140
1.0
 94
        2
 62
     0
340
11
144
0.18
309
CONTENTFORMAT_END
171
     0
 94
        0
309
TABLEFORMAT_END
  1
CELLSTYLE_BEGIN
 90
        3
 91
        2
300
_DATA
309
CELLSTYLE_END
  0
XRECORD
  5
6051
102
{ACAD_REACTORS
330
6012
102
}
330
6012
100
AcDbXrecord
280
     1
102
ACAD_ROUNDTRIP_PRE2007_TABLESTYLE
 90
      512
 91
        0
  1

 92
      512
 93
        0
  2

 94
      512
 95
        0
  3

  0
XRECORD
  5
602C
102
{ACAD_REACTORS
330
602B
102
}
330
602B
100
AcDbXrecord
280
     1
102
RTVSPost2010Prop28
280
     1
102
RTVSPost2010PropOp28
 70
     1
102
RTVSPost2010Prop29
280
     1
102
RTVSPost2010PropOp29
 70
     1
102
RTVSPost2010Prop30
280
     0
102
RTVSPost2010PropOp30
 70
     1
102
RTVSPost2010Prop31
280
     0
102
RTVSPost2010PropOp31
 70
     1
102
RTVSPost2010Prop32
280
     0
102
RTVSPost2010PropOp32
 70
     1
102
RTVSPost2010Prop33
280
     0
102
RTVSPost2010PropOp33
 70
     1
102
RTVSPost2010Prop34
280
     0
102
RTVSPost2010PropOp34
 70
     1
102
RTVSPost2010Prop35
280
     0
102
RTVSPost2010PropOp35
 70
     1
102
RTVSPost2010Prop36
280
     0
102
RTVSPost2010PropOp36
 70
     1
102
RTVSPost2010Prop37
 90
       50
102
RTVSPost2010PropOp37
 70
     1
102
RTVSPost2010Prop38
140
0.0
102
RTVSPost2010PropOp38
 70
     1
102
RTVSPost2010Prop39
140
1.0
102
RTVSPost2010PropOp39
 70
     1
102
RTVSPost2010Prop40
 90
        0
102
RTVSPost2010PropOp40
 70
     1
102
RTVSPost2010Prop41ColorIndex
 90
       18
102
RTVSPost2010Prop41ColorRGB
 90
        0
102
RTVSPost2010PropOp41
 70
     1
102
RTVSPost2010Prop42
 90
       50
102
RTVSPost2010PropOp42
 70
     1
102
RTVSPost2010Prop43
 90
        3
102
RTVSPost2010PropOp43
 70
     1
102
RTVSPost2010Prop44ColorIndex
 90
        5
102
RTVSPost2010Prop44ColorRGB
 90
      255
102
RTVSPost2010PropOp44
 70
     1
102
RTVSPost2010Prop45
280
     0
102
RTVSPost2010PropOp45
 70
     1
102
RTVSPost2010Prop46
 90
       50
102
RTVSPost2010PropOp46
 70
     1
102
RTVSPost2010Prop47
 90
       50
102
RTVSPost2010PropOp47
 70
     1
102
RTVSPost2010Prop48
 90
       50
102
RTVSPost2010PropOp48
 70
     1
102
RTVSPost2010Prop49
280
     0
102
RTVSPost2010PropOp49
 70
     1
102
RTVSPost2010Prop50
 90
       50
102
RTVSPost2010PropOp50
 70
     1
102
RTVSPost2010Prop51ColorIndex
 90
      256
102
RTVSPost2010Prop51ColorRGB
 90
-16777216
102
RTVSPost2010PropOp51
 70
     0
102
RTVSPost2010Prop52
140
1.0
102
RTVSPost2010PropOp52
 70
     0
102
RTVSPost2010Prop53
 90
        2
102
RTVSPost2010PropOp53
 70
     1
102
RTVSPost2010Prop54
  1
strokes_ogs.tif
102
RTVSPost2010PropOp54
 70
     1
102
RTVSPost2010Prop55
280
     0
102
RTVSPost2010PropOp55
 70
     1
102
RTVSPost2010Prop56
140
1.0
102
RTVSPost2010PropOp56
 70
     1
102
RTVSPost2010Prop57
140
1.0
102
RTVSPost2010PropOp57
 70
     1
102
RTVSPropertyOp0
 70
     1
102
RTVSPropertyOp1
 70
     1
102
RTVSPropertyOp2
 70
     1
102
RTVSPropertyOp3
 70
     1
102
RTVSPropertyOp4
 70
     1
102
RTVSPropertyOp5
 70
     1
102
RTVSPropertyOp6
 70
     1
102
RTVSPropertyOp7
 70
     1
102
RTVSPropertyOp8
 70
     1
102
RTVSPropertyOp9
 70
     1
102
RTVSPropertyOp10
 70
     1
102
RTVSPropertyOp11
 70
     1
102
RTVSPropertyOp12
 70
     1
102
RTVSPropertyOp13
 70
     1
102
RTVSPropertyOp14
 70
     1
102
RTVSPropertyOp15
 70
     1
102
RTVSPropertyOp16
 70
     1
102
RTVSPropertyOp17
 70
     1
102
RTVSPropertyOp18
 70
     1
102
RTVSPropertyOp19
 70
     1
102
RTVSPropertyOp20
 70
     1
102
RTVSPropertyOp21
 70
     1
102
RTVSPropertyOp22
 70
     1
102
RTVSPropertyOp23
 70
     1
102
RTVSPropertyOp24
 70
     1
102
RTVSPropertyOp25
 70
     1
102
RTVSPropertyOp26
 70
     1
102
RTVSPropertyOp27
 70
     1
102
RTVSPropertyOp28
 70
     1
102
RTVSPropertyOp29
 70
     1
102
RTVSPropertyOp30
 70
     1
102
RTVSPropertyOp31
 70
     1
102
RTVSPropertyOp32
 70
     1
102
RTVSPropertyOp33
 70
     1
102
RTVSPropertyOp34
 70
     1
102
RTVSPropertyOp35
 70
     1
102
RTVSPropertyOp36
 70
     1
102
RTVSPropertyOp37
 70
     1
102
RTVSPropertyOp38
 70
     1
102
RTVSPropertyOp39
 70
     1
102
RTVSPropertyOp40
 70
     1
102
RTVSPropertyOp41
 70
     1
102
RTVSPropertyOp42
 70
     1
102
RTVSPropertyOp43
 70
     1
102
RTVSPropertyOp44
 70
     1
102
RTVSPropertyOp45
 70
     1
102
RTVSPropertyOp46
 70
     1
102
RTVSPropertyOp47
 70
     1
102
RTVSPropertyOp48
 70
     1
102
RTVSPropertyOp49
 70
     1
102
RTVSPropertyOp50
 70
     1
102
RTVSPropertyOp51
 70
     0
102
RTVSPropertyOp52
 70
     0
102
RTVSPropertyOp53
 70
     1
102
RTVSPropertyOp54
 70
     1
102
RTVSPropertyOp55
 70
     1
102
RTVSPropertyOp56
 70
     1
102
RTVSPropertyOp57
 70
     1
102
RTVSPropertyOp58
 70
     1
102
RTVSPropertyOp59
 70
     1
102
RTVSPropertyOp60
 70
     1
102
RTVSPropertyOp61
 70
     1
102
RTVSPropertyOp62
 70
     1
  0
XRECORD
  5
602A
102
{ACAD_REACTORS
330
6029
102
}
330
6029
100
AcDbXrecord
280
     1
102
RTVSPost2010Prop28
280
     0
102
RTVSPost2010PropOp28
 70
     1
102
RTVSPost2010Prop29
280
     1
102
RTVSPost2010PropOp29
 70
     1
102
RTVSPost2010Prop30
280
     1
102
RTVSPost2010PropOp30
 70
     1
102
RTVSPost2010Prop31
280
     0
102
RTVSPost2010PropOp31
 70
     1
102
RTVSPost2010Prop32
280
     0
102
RTVSPost2010PropOp32
 70
     1
102
RTVSPost2010Prop33
280
     0
102
RTVSPost2010PropOp33
 70
     1
102
RTVSPost2010Prop34
280
     0
102
RTVSPost2010PropOp34
 70
     1
102
RTVSPost2010Prop35
280
     0
102
RTVSPost2010PropOp35
 70
     1
102
RTVSPost2010Prop36
280
     0
102
RTVSPost2010PropOp36
 70
     1
102
RTVSPost2010Prop37
 90
       50
102
RTVSPost2010PropOp37
 70
     1
102
RTVSPost2010Prop38
140
0.0
102
RTVSPost2010PropOp38
 70
     1
102
RTVSPost2010Prop39
140
1.0
102
RTVSPost2010PropOp39
 70
     1
102
RTVSPost2010Prop40
 90
        0
102
RTVSPost2010PropOp40
 70
     1
102
RTVSPost2010Prop41ColorIndex
 90
       18
102
RTVSPost2010Prop41ColorRGB
 90
        0
102
RTVSPost2010PropOp41
 70
     1
102
RTVSPost2010Prop42
 90
       50
102
RTVSPost2010PropOp42
 70
     1
102
RTVSPost2010Prop43
 90
        3
102
RTVSPost2010PropOp43
 70
     1
102
RTVSPost2010Prop44ColorIndex
 90
        5
102
RTVSPost2010Prop44ColorRGB
 90
      255
102
RTVSPost2010PropOp44
 70
     1
102
RTVSPost2010Prop45
280
     0
102
RTVSPost2010PropOp45
 70
     1
102
RTVSPost2010Prop46
 90
       50
102
RTVSPost2010PropOp46
 70
     1
102
RTVSPost2010Prop47
 90
       50
102
RTVSPost2010PropOp47
 70
     1
102
RTVSPost2010Prop48
 90
       50
102
RTVSPost2010PropOp48
 70
     1
102
RTVSPost2010Prop49
280
     0
102
RTVSPost2010PropOp49
 70
     1
102
RTVSPost2010Prop50
 90
       50
102
RTVSPost2010PropOp50
 70
     1
102
RTVSPost2010Prop51ColorIndex
 90
      256
102
RTVSPost2010Prop51ColorRGB
 90
-16777216
102
RTVSPost2010PropOp51
 70
     0
102
RTVSPost2010Prop52
140
1.0
102
RTVSPost2010PropOp52
 70
     0
102
RTVSPost2010Prop53
 90
        2
102
RTVSPost2010PropOp53
 70
     1
102
RTVSPost2010Prop54
  1
strokes_ogs.tif
102
RTVSPost2010PropOp54
 70
     1
102
RTVSPost2010Prop55
280
     0
102
RTVSPost2010PropOp55
 70
     1
102
RTVSPost2010Prop56
140
1.0
102
RTVSPost2010PropOp56
 70
     1
102
RTVSPost2010Prop57
140
1.0
102
RTVSPost2010PropOp57
 70
     1
102
RTVSPropertyOp0
 70
     1
102
RTVSPropertyOp1
 70
     1
102
RTVSPropertyOp2
 70
     1
102
RTVSPropertyOp3
 70
     1
102
RTVSPropertyOp4
 70
     1
102
RTVSPropertyOp5
 70
     1
102
RTVSPropertyOp6
 70
     1
102
RTVSPropertyOp7
 70
     1
102
RTVSPropertyOp8
 70
     1
102
RTVSPropertyOp9
 70
     1
102
RTVSPropertyOp10
 70
     1
102
RTVSPropertyOp11
 70
     1
102
RTVSPropertyOp12
 70
     1
102
RTVSPropertyOp13
 70
     1
102
RTVSPropertyOp14
 70
     1
102
RTVSPropertyOp15
 70
     1
102
RTVSPropertyOp16
 70
     1
102
RTVSPropertyOp17
 70
     1
102
RTVSPropertyOp18
 70
     1
102
RTVSPropertyOp19
 70
     1
102
RTVSPropertyOp20
 70
     1
102
RTVSPropertyOp21
 70
     1
102
RTVSPropertyOp22
 70
     1
102
RTVSPropertyOp23
 70
     1
102
RTVSPropertyOp24
 70
     1
102
RTVSPropertyOp25
 70
     1
102
RTVSPropertyOp26
 70
     1
102
RTVSPropertyOp27
 70
     1
102
RTVSPropertyOp28
 70
     1
102
RTVSPropertyOp29
 70
     1
102
RTVSPropertyOp30
 70
     1
102
RTVSPropertyOp31
 70
     1
102
RTVSPropertyOp32
 70
     1
102
RTVSPropertyOp33
 70
     1
102
RTVSPropertyOp34
 70
     1
102
RTVSPropertyOp35
 70
     1
102
RTVSPropertyOp36
 70
     1
102
RTVSPropertyOp37
 70
     1
102
RTVSPropertyOp38
 70
     1
102
RTVSPropertyOp39
 70
     1
102
RTVSPropertyOp40
 70
     1
102
RTVSPropertyOp41
 70
     1
102
RTVSPropertyOp42
 70
     1
102
RTVSPropertyOp43
 70
     1
102
RTVSPropertyOp44
 70
     1
102
RTVSPropertyOp45
 70
     1
102
RTVSPropertyOp46
 70
     1
102
RTVSPropertyOp47
 70
     1
102
RTVSPropertyOp48
 70
     1
102
RTVSPropertyOp49
 70
     1
102
RTVSPropertyOp50
 70
     1
102
RTVSPropertyOp51
 70
     0
102
RTVSPropertyOp52
 70
     0
102
RTVSPropertyOp53
 70
     1
102
RTVSPropertyOp54
 70
     1
102
RTVSPropertyOp55
 70
     1
102
RTVSPropertyOp56
 70
     1
102
RTVSPropertyOp57
 70
     1
102
RTVSPropertyOp58
 70
     1
102
RTVSPropertyOp59
 70
     1
102
RTVSPropertyOp60
 70
     1
102
RTVSPropertyOp61
 70
     1
102
RTVSPropertyOp62
 70
     1
  0
XRECORD
  5
6038
102
{ACAD_REACTORS
330
6037
102
}
330
6037
100
AcDbXrecord
280
     1
102
RTVSPost2010Prop28
280
     0
102
RTVSPost2010PropOp28
 70
     1
102
RTVSPost2010Prop29
280
     1
102
RTVSPost2010PropOp29
 70
     1
102
RTVSPost2010Prop30
280
     1
102
RTVSPost2010PropOp30
 70
     1
102
RTVSPost2010Prop31
280
     0
102
RTVSPost2010PropOp31
 70
     1
102
RTVSPost2010Prop32
280
     0
102
RTVSPost2010PropOp32
 70
     1
102
RTVSPost2010Prop33
280
     0
102
RTVSPost2010PropOp33
 70
     1
102
RTVSPost2010Prop34
280
     0
102
RTVSPost2010PropOp34
 70
     1
102
RTVSPost2010Prop35
280
     0
102
RTVSPost2010PropOp35
 70
     1
102
RTVSPost2010Prop36
280
     0
102
RTVSPost2010PropOp36
 70
     1
102
RTVSPost2010Prop37
 90
       50
102
RTVSPost2010PropOp37
 70
     1
102
RTVSPost2010Prop38
140
0.0
102
RTVSPost2010PropOp38
 70
     1
102
RTVSPost2010Prop39
140
1.0
102
RTVSPost2010PropOp39
 70
     1
102
RTVSPost2010Prop40
 90
        0
102
RTVSPost2010PropOp40
 70
     1
102
RTVSPost2010Prop41ColorIndex
 90
       18
102
RTVSPost2010Prop41ColorRGB
 90
        0
102
RTVSPost2010PropOp41
 70
     1
102
RTVSPost2010Prop42
 90
       50
102
RTVSPost2010PropOp42
 70
     1
102
RTVSPost2010Prop43
 90
        3
102
RTVSPost2010PropOp43
 70
     1
102
RTVSPost2010Prop44ColorIndex
 90
        5
102
RTVSPost2010Prop44ColorRGB
 90
      255
102
RTVSPost2010PropOp44
 70
     1
102
RTVSPost2010Prop45
280
     0
102
RTVSPost2010PropOp45
 70
     1
102
RTVSPost2010Prop46
 90
       50
102
RTVSPost2010PropOp46
 70
     1
102
RTVSPost2010Prop47
 90
       50
102
RTVSPost2010PropOp47
 70
     1
102
RTVSPost2010Prop48
 90
       50
102
RTVSPost2010PropOp48
 70
     1
102
RTVSPost2010Prop49
280
     0
102
RTVSPost2010PropOp49
 70
     1
102
RTVSPost2010Prop50
 90
       50
102
RTVSPost2010PropOp50
 70
     1
102
RTVSPost2010Prop51ColorIndex
 90
      256
102
RTVSPost2010Prop51ColorRGB
 90
-16777216
102
RTVSPost2010PropOp51
 70
     0
102
RTVSPost2010Prop52
140
1.0
102
RTVSPost2010PropOp52
 70
     0
102
RTVSPost2010Prop53
 90
        2
102
RTVSPost2010PropOp53
 70
     1
102
RTVSPost2010Prop54
  1
strokes_ogs.tif
102
RTVSPost2010PropOp54
 70
     1
102
RTVSPost2010Prop55
280
     0
102
RTVSPost2010PropOp55
 70
     1
102
RTVSPost2010Prop56
140
1.0
102
RTVSPost2010PropOp56
 70
     1
102
RTVSPost2010Prop57
140
1.0
102
RTVSPost2010PropOp57
 70
     1
102
RTVSPropertyOp0
 70
     1
102
RTVSPropertyOp1
 70
     1
102
RTVSPropertyOp2
 70
     1
102
RTVSPropertyOp3
 70
     1
102
RTVSPropertyOp4
 70
     1
102
RTVSPropertyOp5
 70
     1
102
RTVSPropertyOp6
 70
     1
102
RTVSPropertyOp7
 70
     1
102
RTVSPropertyOp8
 70
     1
102
RTVSPropertyOp9
 70
     1
102
RTVSPropertyOp10
 70
     1
102
RTVSPropertyOp11
 70
     1
102
RTVSPropertyOp12
 70
     1
102
RTVSPropertyOp13
 70
     1
102
RTVSPropertyOp14
 70
     1
102
RTVSPropertyOp15
 70
     1
102
RTVSPropertyOp16
 70
     1
102
RTVSPropertyOp17
 70
     1
102
RTVSPropertyOp18
 70
     1
102
RTVSPropertyOp19
 70
     1
102
RTVSPropertyOp20
 70
     1
102
RTVSPropertyOp21
 70
     1
102
RTVSPropertyOp22
 70
     1
102
RTVSPropertyOp23
 70
     1
102
RTVSPropertyOp24
 70
     1
102
RTVSPropertyOp25
 70
     1
102
RTVSPropertyOp26
 70
     1
102
RTVSPropertyOp27
 70
     1
102
RTVSPropertyOp28
 70
     1
102
RTVSPropertyOp29
 70
     1
102
RTVSPropertyOp30
 70
     1
102
RTVSPropertyOp31
 70
     1
102
RTVSPropertyOp32
 70
     1
102
RTVSPropertyOp33
 70
     1
102
RTVSPropertyOp34
 70
     1
102
RTVSPropertyOp35
 70
     1
102
RTVSPropertyOp36
 70
     1
102
RTVSPropertyOp37
 70
     1
102
RTVSPropertyOp38
 70
     1
102
RTVSPropertyOp39
 70
     1
102
RTVSPropertyOp40
 70
     1
102
RTVSPropertyOp41
 70
     1
102
RTVSPropertyOp42
 70
     1
102
RTVSPropertyOp43
 70
     1
102
RTVSPropertyOp44
 70
     1
102
RTVSPropertyOp45
 70
     1
102
RTVSPropertyOp46
 70
     1
102
RTVSPropertyOp47
 70
     1
102
RTVSPropertyOp48
 70
     1
102
RTVSPropertyOp49
 70
     1
102
RTVSPropertyOp50
 70
     1
102
RTVSPropertyOp51
 70
     0
102
RTVSPropertyOp52
 70
     0
102
RTVSPropertyOp53
 70
     1
102
RTVSPropertyOp54
 70
     1
102
RTVSPropertyOp55
 70
     1
102
RTVSPropertyOp56
 70
     1
102
RTVSPropertyOp57
 70
     1
102
RTVSPropertyOp58
 70
     1
102
RTVSPropertyOp59
 70
     1
102
RTVSPropertyOp60
 70
     1
102
RTVSPropertyOp61
 70
     1
102
RTVSPropertyOp62
 70
     1
  0
XRECORD
  5
6040
102
{ACAD_REACTORS
330
603F
102
}
330
603F
100
AcDbXrecord
280
     1
102
RTVSPost2010Prop28
280
     0
102
RTVSPost2010PropOp28
 70
     1
102
RTVSPost2010Prop29
280
     1
102
RTVSPost2010PropOp29
 70
     1
102
RTVSPost2010Prop30
280
     1
102
RTVSPost2010PropOp30
 70
     1
102
RTVSPost2010Prop31
280
     0
102
RTVSPost2010PropOp31
 70
     1
102
RTVSPost2010Prop32
280
     0
102
RTVSPost2010PropOp32
 70
     1
102
RTVSPost2010Prop33
280
     0
102
RTVSPost2010PropOp33
 70
     1
102
RTVSPost2010Prop34
280
     0
102
RTVSPost2010PropOp34
 70
     1
102
RTVSPost2010Prop35
280
     0
102
RTVSPost2010PropOp35
 70
     1
102
RTVSPost2010Prop36
280
     0
102
RTVSPost2010PropOp36
 70
     1
102
RTVSPost2010Prop37
 90
       50
102
RTVSPost2010PropOp37
 70
     1
102
RTVSPost2010Prop38
140
0.0
102
RTVSPost2010PropOp38
 70
     1
102
RTVSPost2010Prop39
140
1.0
102
RTVSPost2010PropOp39
 70
     1
102
RTVSPost2010Prop40
 90
        0
102
RTVSPost2010PropOp40
 70
     1
102
RTVSPost2010Prop41ColorIndex
 90
       18
102
RTVSPost2010Prop41ColorRGB
 90
        0
102
RTVSPost2010PropOp41
 70
     1
102
RTVSPost2010Prop42
 90
       50
102
RTVSPost2010PropOp42
 70
     1
102
RTVSPost2010Prop43
 90
        3
102
RTVSPost2010PropOp43
 70
     1
102
RTVSPost2010Prop44ColorIndex
 90
        5
102
RTVSPost2010Prop44ColorRGB
 90
      255
102
RTVSPost2010PropOp44
 70
     1
102
RTVSPost2010Prop45
280
     0
102
RTVSPost2010PropOp45
 70
     1
102
RTVSPost2010Prop46
 90
       50
102
RTVSPost2010PropOp46
 70
     1
102
RTVSPost2010Prop47
 90
       50
102
RTVSPost2010PropOp47
 70
     1
102
RTVSPost2010Prop48
 90
       50
102
RTVSPost2010PropOp48
 70
     1
102
RTVSPost2010Prop49
280
     0
102
RTVSPost2010PropOp49
 70
     1
102
RTVSPost2010Prop50
 90
       50
102
RTVSPost2010PropOp50
 70
     1
102
RTVSPost2010Prop51ColorIndex
 90
      256
102
RTVSPost2010Prop51ColorRGB
 90
-16777216
102
RTVSPost2010PropOp51
 70
     0
102
RTVSPost2010Prop52
140
1.0
102
RTVSPost2010PropOp52
 70
     0
102
RTVSPost2010Prop53
 90
        2
102
RTVSPost2010PropOp53
 70
     1
102
RTVSPost2010Prop54
  1
strokes_ogs.tif
102
RTVSPost2010PropOp54
 70
     1
102
RTVSPost2010Prop55
280
     0
102
RTVSPost2010PropOp55
 70
     1
102
RTVSPost2010Prop56
140
1.0
102
RTVSPost2010PropOp56
 70
     1
102
RTVSPost2010Prop57
140
1.0
102
RTVSPost2010PropOp57
 70
     1
102
RTVSPropertyOp0
 70
     1
102
RTVSPropertyOp1
 70
     1
102
RTVSPropertyOp2
 70
     1
102
RTVSPropertyOp3
 70
     1
102
RTVSPropertyOp4
 70
     1
102
RTVSPropertyOp5
 70
     1
102
RTVSPropertyOp6
 70
     1
102
RTVSPropertyOp7
 70
     1
102
RTVSPropertyOp8
 70
     1
102
RTVSPropertyOp9
 70
     1
102
RTVSPropertyOp10
 70
     1
102
RTVSPropertyOp11
 70
     1
102
RTVSPropertyOp12
 70
     1
102
RTVSPropertyOp13
 70
     1
102
RTVSPropertyOp14
 70
     1
102
RTVSPropertyOp15
 70
     1
102
RTVSPropertyOp16
 70
     1
102
RTVSPropertyOp17
 70
     1
102
RTVSPropertyOp18
 70
     1
102
RTVSPropertyOp19
 70
     1
102
RTVSPropertyOp20
 70
     1
102
RTVSPropertyOp21
 70
     1
102
RTVSPropertyOp22
 70
     1
102
RTVSPropertyOp23
 70
     1
102
RTVSPropertyOp24
 70
     1
102
RTVSPropertyOp25
 70
     1
102
RTVSPropertyOp26
 70
     1
102
RTVSPropertyOp27
 70
     1
102
RTVSPropertyOp28
 70
     1
102
RTVSPropertyOp29
 70
     1
102
RTVSPropertyOp30
 70
     1
102
RTVSPropertyOp31
 70
     1
102
RTVSPropertyOp32
 70
     1
102
RTVSPropertyOp33
 70
     1
102
RTVSPropertyOp34
 70
     1
102
RTVSPropertyOp35
 70
     1
102
RTVSPropertyOp36
 70
     1
102
RTVSPropertyOp37
 70
     1
102
RTVSPropertyOp38
 70
     1
102
RTVSPropertyOp39
 70
     1
102
RTVSPropertyOp40
 70
     1
102
RTVSPropertyOp41
 70
     1
102
RTVSPropertyOp42
 70
     1
102
RTVSPropertyOp43
 70
     1
102
RTVSPropertyOp44
 70
     1
102
RTVSPropertyOp45
 70
     1
102
RTVSPropertyOp46
 70
     1
102
RTVSPropertyOp47
 70
     1
102
RTVSPropertyOp48
 70
     1
102
RTVSPropertyOp49
 70
     1
102
RTVSPropertyOp50
 70
     1
102
RTVSPropertyOp51
 70
     0
102
RTVSPropertyOp52
 70
     0
102
RTVSPropertyOp53
 70
     1
102
RTVSPropertyOp54
 70
     1
102
RTVSPropertyOp55
 70
     1
102
RTVSPropertyOp56
 70
     1
102
RTVSPropertyOp57
 70
     1
102
RTVSPropertyOp58
 70
     1
102
RTVSPropertyOp59
 70
     1
102
RTVSPropertyOp60
 70
     1
102
RTVSPropertyOp61
 70
     1
102
RTVSPropertyOp62
 70
     1
  0
XRECORD
  5
6032
102
{ACAD_REACTORS
330
6031
102
}
330
6031
100
AcDbXrecord
280
     1
102
RTVSPost2010Prop28
280
     0
102
RTVSPost2010PropOp28
 70
     1
102
RTVSPost2010Prop29
280
     1
102
RTVSPost2010PropOp29
 70
     1
102
RTVSPost2010Prop30
280
     1
102
RTVSPost2010PropOp30
 70
     1
102
RTVSPost2010Prop31
280
     0
102
RTVSPost2010PropOp31
 70
     1
102
RTVSPost2010Prop32
280
     0
102
RTVSPost2010PropOp32
 70
     1
102
RTVSPost2010Prop33
280
     0
102
RTVSPost2010PropOp33
 70
     1
102
RTVSPost2010Prop34
280
     0
102
RTVSPost2010PropOp34
 70
     1
102
RTVSPost2010Prop35
280
     0
102
RTVSPost2010PropOp35
 70
     1
102
RTVSPost2010Prop36
280
     0
102
RTVSPost2010PropOp36
 70
     1
102
RTVSPost2010Prop37
 90
       50
102
RTVSPost2010PropOp37
 70
     1
102
RTVSPost2010Prop38
140
0.0
102
RTVSPost2010PropOp38
 70
     1
102
RTVSPost2010Prop39
140
1.0
102
RTVSPost2010PropOp39
 70
     1
102
RTVSPost2010Prop40
 90
        0
102
RTVSPost2010PropOp40
 70
     1
102
RTVSPost2010Prop41ColorIndex
 90
       18
102
RTVSPost2010Prop41ColorRGB
 90
        0
102
RTVSPost2010PropOp41
 70
     1
102
RTVSPost2010Prop42
 90
       50
102
RTVSPost2010PropOp42
 70
     1
102
RTVSPost2010Prop43
 90
        3
102
RTVSPost2010PropOp43
 70
     1
102
RTVSPost2010Prop44ColorIndex
 90
        5
102
RTVSPost2010Prop44ColorRGB
 90
      255
102
RTVSPost2010PropOp44
 70
     1
102
RTVSPost2010Prop45
280
     0
102
RTVSPost2010PropOp45
 70
     1
102
RTVSPost2010Prop46
 90
       50
102
RTVSPost2010PropOp46
 70
     1
102
RTVSPost2010Prop47
 90
       50
102
RTVSPost2010PropOp47
 70
     1
102
RTVSPost2010Prop48
 90
       50
102
RTVSPost2010PropOp48
 70
     1
102
RTVSPost2010Prop49
280
     0
102
RTVSPost2010PropOp49
 70
     1
102
RTVSPost2010Prop50
 90
       50
102
RTVSPost2010PropOp50
 70
     1
102
RTVSPost2010Prop51ColorIndex
 90
      256
102
RTVSPost2010Prop51ColorRGB
 90
-16777216
102
RTVSPost2010PropOp51
 70
     0
102
RTVSPost2010Prop52
140
1.0
102
RTVSPost2010PropOp52
 70
     0
102
RTVSPost2010Prop53
 90
        2
102
RTVSPost2010PropOp53
 70
     1
102
RTVSPost2010Prop54
  1
strokes_ogs.tif
102
RTVSPost2010PropOp54
 70
     1
102
RTVSPost2010Prop55
280
     0
102
RTVSPost2010PropOp55
 70
     1
102
RTVSPost2010Prop56
140
1.0
102
RTVSPost2010PropOp56
 70
     1
102
RTVSPost2010Prop57
140
1.0
102
RTVSPost2010PropOp57
 70
     1
102
RTVSPropertyOp0
 70
     1
102
RTVSPropertyOp1
 70
     1
102
RTVSPropertyOp2
 70
     1
102
RTVSPropertyOp3
 70
     1
102
RTVSPropertyOp4
 70
     1
102
RTVSPropertyOp5
 70
     1
102
RTVSPropertyOp6
 70
     1
102
RTVSPropertyOp7
 70
     1
102
RTVSPropertyOp8
 70
     1
102
RTVSPropertyOp9
 70
     1
102
RTVSPropertyOp10
 70
     1
102
RTVSPropertyOp11
 70
     1
102
RTVSPropertyOp12
 70
     1
102
RTVSPropertyOp13
 70
     1
102
RTVSPropertyOp14
 70
     1
102
RTVSPropertyOp15
 70
     1
102
RTVSPropertyOp16
 70
     1
102
RTVSPropertyOp17
 70
     1
102
RTVSPropertyOp18
 70
     1
102
RTVSPropertyOp19
 70
     1
102
RTVSPropertyOp20
 70
     1
102
RTVSPropertyOp21
 70
     1
102
RTVSPropertyOp22
 70
     1
102
RTVSPropertyOp23
 70
     1
102
RTVSPropertyOp24
 70
     1
102
RTVSPropertyOp25
 70
     1
102
RTVSPropertyOp26
 70
     1
102
RTVSPropertyOp27
 70
     1
102
RTVSPropertyOp28
 70
     1
102
RTVSPropertyOp29
 70
     1
102
RTVSPropertyOp30
 70
     1
102
RTVSPropertyOp31
 70
     1
102
RTVSPropertyOp32
 70
     1
102
RTVSPropertyOp33
 70
     1
102
RTVSPropertyOp34
 70
     1
102
RTVSPropertyOp35
 70
     1
102
RTVSPropertyOp36
 70
     1
102
RTVSPropertyOp37
 70
     1
102
RTVSPropertyOp38
 70
     1
102
RTVSPropertyOp39
 70
     1
102
RTVSPropertyOp40
 70
     1
102
RTVSPropertyOp41
 70
     1
102
RTVSPropertyOp42
 70
     1
102
RTVSPropertyOp43
 70
     1
102
RTVSPropertyOp44
 70
     1
102
RTVSPropertyOp45
 70
     1
102
RTVSPropertyOp46
 70
     1
102
RTVSPropertyOp47
 70
     1
102
RTVSPropertyOp48
 70
     1
102
RTVSPropertyOp49
 70
     1
102
RTVSPropertyOp50
 70
     1
102
RTVSPropertyOp51
 70
     0
102
RTVSPropertyOp52
 70
     0
102
RTVSPropertyOp53
 70
     1
102
RTVSPropertyOp54
 70
     1
102
RTVSPropertyOp55
 70
     1
102
RTVSPropertyOp56
 70
     1
102
RTVSPropertyOp57
 70
     1
102
RTVSPropertyOp58
 70
     1
102
RTVSPropertyOp59
 70
     1
102
RTVSPropertyOp60
 70
     1
102
RTVSPropertyOp61
 70
     1
102
RTVSPropertyOp62
 70
     1
  0
XRECORD
  5
6036
102
{ACAD_REACTORS
330
6035
102
}
330
6035
100
AcDbXrecord
280
     1
102
RTVSPost2010Prop28
280
     0
102
RTVSPost2010PropOp28
 70
     1
102
RTVSPost2010Prop29
280
     1
102
RTVSPost2010PropOp29
 70
     1
102
RTVSPost2010Prop30
280
     1
102
RTVSPost2010PropOp30
 70
     1
102
RTVSPost2010Prop31
280
     0
102
RTVSPost2010PropOp31
 70
     1
102
RTVSPost2010Prop32
280
     0
102
RTVSPost2010PropOp32
 70
     1
102
RTVSPost2010Prop33
280
     0
102
RTVSPost2010PropOp33
 70
     1
102
RTVSPost2010Prop34
280
     0
102
RTVSPost2010PropOp34
 70
     1
102
RTVSPost2010Prop35
280
     0
102
RTVSPost2010PropOp35
 70
     1
102
RTVSPost2010Prop36
280
     0
102
RTVSPost2010PropOp36
 70
     1
102
RTVSPost2010Prop37
 90
       50
102
RTVSPost2010PropOp37
 70
     1
102
RTVSPost2010Prop38
140
0.0
102
RTVSPost2010PropOp38
 70
     1
102
RTVSPost2010Prop39
140
1.0
102
RTVSPost2010PropOp39
 70
     1
102
RTVSPost2010Prop40
 90
        0
102
RTVSPost2010PropOp40
 70
     1
102
RTVSPost2010Prop41ColorIndex
 90
       18
102
RTVSPost2010Prop41ColorRGB
 90
        0
102
RTVSPost2010PropOp41
 70
     1
102
RTVSPost2010Prop42
 90
       50
102
RTVSPost2010PropOp42
 70
     1
102
RTVSPost2010Prop43
 90
        3
102
RTVSPost2010PropOp43
 70
     1
102
RTVSPost2010Prop44ColorIndex
 90
        5
102
RTVSPost2010Prop44ColorRGB
 90
      255
102
RTVSPost2010PropOp44
 70
     1
102
RTVSPost2010Prop45
280
     0
102
RTVSPost2010PropOp45
 70
     1
102
RTVSPost2010Prop46
 90
       50
102
RTVSPost2010PropOp46
 70
     1
102
RTVSPost2010Prop47
 90
       50
102
RTVSPost2010PropOp47
 70
     1
102
RTVSPost2010Prop48
 90
       50
102
RTVSPost2010PropOp48
 70
     1
102
RTVSPost2010Prop49
280
     0
102
RTVSPost2010PropOp49
 70
     1
102
RTVSPost2010Prop50
 90
       50
102
RTVSPost2010PropOp50
 70
     1
102
RTVSPost2010Prop51ColorIndex
 90
      256
102
RTVSPost2010Prop51ColorRGB
 90
-16777216
102
RTVSPost2010PropOp51
 70
     0
102
RTVSPost2010Prop52
140
1.0
102
RTVSPost2010PropOp52
 70
     0
102
RTVSPost2010Prop53
 90
        2
102
RTVSPost2010PropOp53
 70
     1
102
RTVSPost2010Prop54
  1
strokes_ogs.tif
102
RTVSPost2010PropOp54
 70
     1
102
RTVSPost2010Prop55
280
     0
102
RTVSPost2010PropOp55
 70
     1
102
RTVSPost2010Prop56
140
1.0
102
RTVSPost2010PropOp56
 70
     1
102
RTVSPost2010Prop57
140
1.0
102
RTVSPost2010PropOp57
 70
     1
102
RTVSPropertyOp0
 70
     1
102
RTVSPropertyOp1
 70
     1
102
RTVSPropertyOp2
 70
     1
102
RTVSPropertyOp3
 70
     1
102
RTVSPropertyOp4
 70
     1
102
RTVSPropertyOp5
 70
     1
102
RTVSPropertyOp6
 70
     1
102
RTVSPropertyOp7
 70
     1
102
RTVSPropertyOp8
 70
     1
102
RTVSPropertyOp9
 70
     1
102
RTVSPropertyOp10
 70
     1
102
RTVSPropertyOp11
 70
     1
102
RTVSPropertyOp12
 70
     1
102
RTVSPropertyOp13
 70
     1
102
RTVSPropertyOp14
 70
     1
102
RTVSPropertyOp15
 70
     1
102
RTVSPropertyOp16
 70
     1
102
RTVSPropertyOp17
 70
     1
102
RTVSPropertyOp18
 70
     1
102
RTVSPropertyOp19
 70
     1
102
RTVSPropertyOp20
 70
     1
102
RTVSPropertyOp21
 70
     1
102
RTVSPropertyOp22
 70
     1
102
RTVSPropertyOp23
 70
     1
102
RTVSPropertyOp24
 70
     1
102
RTVSPropertyOp25
 70
     1
102
RTVSPropertyOp26
 70
     1
102
RTVSPropertyOp27
 70
     1
102
RTVSPropertyOp28
 70
     1
102
RTVSPropertyOp29
 70
     1
102
RTVSPropertyOp30
 70
     1
102
RTVSPropertyOp31
 70
     1
102
RTVSPropertyOp32
 70
     1
102
RTVSPropertyOp33
 70
     1
102
RTVSPropertyOp34
 70
     1
102
RTVSPropertyOp35
 70
     1
102
RTVSPropertyOp36
 70
     1
102
RTVSPropertyOp37
 70
     1
102
RTVSPropertyOp38
 70
     1
102
RTVSPropertyOp39
 70
     1
102
RTVSPropertyOp40
 70
     1
102
RTVSPropertyOp41
 70
     1
102
RTVSPropertyOp42
 70
     1
102
RTVSPropertyOp43
 70
     1
102
RTVSPropertyOp44
 70
     1
102
RTVSPropertyOp45
 70
     1
102
RTVSPropertyOp46
 70
     1
102
RTVSPropertyOp47
 70
     1
102
RTVSPropertyOp48
 70
     1
102
RTVSPropertyOp49
 70
     1
102
RTVSPropertyOp50
 70
     1
102
RTVSPropertyOp51
 70
     0
102
RTVSPropertyOp52
 70
     0
102
RTVSPropertyOp53
 70
     1
102
RTVSPropertyOp54
 70
     1
102
RTVSPropertyOp55
 70
     1
102
RTVSPropertyOp56
 70
     1
102
RTVSPropertyOp57
 70
     1
102
RTVSPropertyOp58
 70
     1
102
RTVSPropertyOp59
 70
     1
102
RTVSPropertyOp60
 70
     1
102
RTVSPropertyOp61
 70
     1
102
RTVSPropertyOp62
 70
     1
  0
XRECORD
  5
6050
102
{ACAD_REACTORS
330
604F
102
}
330
604F
100
AcDbXrecord
280
     1
102
RTVSPost2010Prop28
280
     0
102
RTVSPost2010PropOp28
 70
     1
102
RTVSPost2010Prop29
280
     1
102
RTVSPost2010PropOp29
 70
     1
102
RTVSPost2010Prop30
280
     1
102
RTVSPost2010PropOp30
 70
     1
102
RTVSPost2010Prop31
280
     0
102
RTVSPost2010PropOp31
 70
     1
102
RTVSPost2010Prop32
280
     0
102
RTVSPost2010PropOp32
 70
     1
102
RTVSPost2010Prop33
280
     0
102
RTVSPost2010PropOp33
 70
     1
102
RTVSPost2010Prop34
280
     0
102
RTVSPost2010PropOp34
 70
     1
102
RTVSPost2010Prop35
280
     0
102
RTVSPost2010PropOp35
 70
     1
102
RTVSPost2010Prop36
280
     0
102
RTVSPost2010PropOp36
 70
     1
102
RTVSPost2010Prop37
 90
       50
102
RTVSPost2010PropOp37
 70
     0
102
RTVSPost2010Prop38
140
0.0
102
RTVSPost2010PropOp38
 70
     0
102
RTVSPost2010Prop39
140
1.0
102
RTVSPost2010PropOp39
 70
     0
102
RTVSPost2010Prop40
 90
        0
102
RTVSPost2010PropOp40
 70
     0
102
RTVSPost2010Prop41ColorIndex
 90
       18
102
RTVSPost2010Prop41ColorRGB
 90
        0
102
RTVSPost2010PropOp41
 70
     0
102
RTVSPost2010Prop42
 90
       50
102
RTVSPost2010PropOp42
 70
     0
102
RTVSPost2010Prop43
 90
        3
102
RTVSPost2010PropOp43
 70
     0
102
RTVSPost2010Prop44ColorIndex
 90
        5
102
RTVSPost2010Prop44ColorRGB
 90
      255
102
RTVSPost2010PropOp44
 70
     0
102
RTVSPost2010Prop45
280
     0
102
RTVSPost2010PropOp45
 70
     1
102
RTVSPost2010Prop46
 90
       50
102
RTVSPost2010PropOp46
 70
     0
102
RTVSPost2010Prop47
 90
       50
102
RTVSPost2010PropOp47
 70
     0
102
RTVSPost2010Prop48
 90
       50
102
RTVSPost2010PropOp48
 70
     0
102
RTVSPost2010Prop49
280
     0
102
RTVSPost2010PropOp49
 70
     1
102
RTVSPost2010Prop50
 90
       50
102
RTVSPost2010PropOp50
 70
     0
102
RTVSPost2010Prop51ColorIndex
 90
      256
102
RTVSPost2010Prop51ColorRGB
 90
-16777216
102
RTVSPost2010PropOp51
 70
     0
102
RTVSPost2010Prop52
140
1.0
102
RTVSPost2010PropOp52
 70
     0
102
RTVSPost2010Prop53
 90
        2
102
RTVSPost2010PropOp53
 70
     0
102
RTVSPost2010Prop54
  1
strokes_ogs.tif
102
RTVSPost2010PropOp54
 70
     0
102
RTVSPost2010Prop55
280
     0
102
RTVSPost2010PropOp55
 70
     1
102
RTVSPost2010Prop56
140
1.0
102
RTVSPost2010PropOp56
 70
     0
102
RTVSPost2010Prop57
140
1.0
102
RTVSPost2010PropOp57
 70
     0
102
RTVSPropertyOp0
 70
     0
102
RTVSPropertyOp1
 70
     0
102
RTVSPropertyOp2
 70
     0
102
RTVSPropertyOp3
 70
     0
102
RTVSPropertyOp4
 70
     0
102
RTVSPropertyOp5
 70
     0
102
RTVSPropertyOp6
 70
     0
102
RTVSPropertyOp7
 70
     0
102
RTVSPropertyOp8
 70
     0
102
RTVSPropertyOp9
 70
     0
102
RTVSPropertyOp10
 70
     0
102
RTVSPropertyOp11
 70
     0
102
RTVSPropertyOp12
 70
     0
102
RTVSPropertyOp13
 70
     0
102
RTVSPropertyOp14
 70
     2
102
RTVSPropertyOp15
 70
     0
102
RTVSPropertyOp16
 70
     0
102
RTVSPropertyOp17
 70
     0
102
RTVSPropertyOp18
 70
     0
102
RTVSPropertyOp19
 70
     0
102
RTVSPropertyOp20
 70
     0
102
RTVSPropertyOp21
 70
     0
102
RTVSPropertyOp22
 70
     0
102
RTVSPropertyOp23
 70
     0
102
RTVSPropertyOp24
 70
     0
102
RTVSPropertyOp25
 70
     0
102
RTVSPropertyOp26
 70
     0
102
RTVSPropertyOp27
 70
     0
102
RTVSPropertyOp28
 70
     1
102
RTVSPropertyOp29
 70
     1
102
RTVSPropertyOp30
 70
     1
102
RTVSPropertyOp31
 70
     1
102
RTVSPropertyOp32
 70
     1
102
RTVSPropertyOp33
 70
     1
102
RTVSPropertyOp34
 70
     1
102
RTVSPropertyOp35
 70
     1
102
RTVSPropertyOp36
 70
     1
102
RTVSPropertyOp37
 70
     0
102
RTVSPropertyOp38
 70
     0
102
RTVSPropertyOp39
 70
     0
102
RTVSPropertyOp40
 70
     0
102
RTVSPropertyOp41
 70
     0
102
RTVSPropertyOp42
 70
     0
102
RTVSPropertyOp43
 70
     0
102
RTVSPropertyOp44
 70
     0
102
RTVSPropertyOp45
 70
     1
102
RTVSPropertyOp46
 70
     0
102
RTVSPropertyOp47
 70
     0
102
RTVSPropertyOp48
 70
     0
102
RTVSPropertyOp49
 70
     1
102
RTVSPropertyOp50
 70
     0
102
RTVSPropertyOp51
 70
     0
102
RTVSPropertyOp52
 70
     0
102
RTVSPropertyOp53
 70
     0
102
RTVSPropertyOp54
 70
     0
102
RTVSPropertyOp55
 70
     1
102
RTVSPropertyOp56
 70
     0
102
RTVSPropertyOp57
 70
     0
102
RTVSPropertyOp58
 70
     0
102
RTVSPropertyOp59
 70
     0
102
RTVSPropertyOp60
 70
     0
102
RTVSPropertyOp61
 70
     0
102
RTVSPropertyOp62
 70
     0
  0
XRECORD
  5
603E
102
{ACAD_REACTORS
330
603D
102
}
330
603D
100
AcDbXrecord
280
     1
102
RTVSPost2010Prop28
280
     0
102
RTVSPost2010PropOp28
 70
     1
102
RTVSPost2010Prop29
280
     1
102
RTVSPost2010PropOp29
 70
     1
102
RTVSPost2010Prop30
280
     1
102
RTVSPost2010PropOp30
 70
     1
102
RTVSPost2010Prop31
280
     0
102
RTVSPost2010PropOp31
 70
     1
102
RTVSPost2010Prop32
280
     0
102
RTVSPost2010PropOp32
 70
     1
102
RTVSPost2010Prop33
280
     0
102
RTVSPost2010PropOp33
 70
     1
102
RTVSPost2010Prop34
280
     0
102
RTVSPost2010PropOp34
 70
     1
102
RTVSPost2010Prop35
280
     0
102
RTVSPost2010PropOp35
 70
     1
102
RTVSPost2010Prop36
280
     0
102
RTVSPost2010PropOp36
 70
     1
102
RTVSPost2010Prop37
 90
       50
102
RTVSPost2010PropOp37
 70
     1
102
RTVSPost2010Prop38
140
0.0
102
RTVSPost2010PropOp38
 70
     1
102
RTVSPost2010Prop39
140
1.0
102
RTVSPost2010PropOp39
 70
     1
102
RTVSPost2010Prop40
 90
        0
102
RTVSPost2010PropOp40
 70
     1
102
RTVSPost2010Prop41ColorIndex
 90
       18
102
RTVSPost2010Prop41ColorRGB
 90
        0
102
RTVSPost2010PropOp41
 70
     1
102
RTVSPost2010Prop42
 90
       50
102
RTVSPost2010PropOp42
 70
     1
102
RTVSPost2010Prop43
 90
        3
102
RTVSPost2010PropOp43
 70
     1
102
RTVSPost2010Prop44ColorIndex
 90
        5
102
RTVSPost2010Prop44ColorRGB
 90
      255
102
RTVSPost2010PropOp44
 70
     1
102
RTVSPost2010Prop45
280
     0
102
RTVSPost2010PropOp45
 70
     1
102
RTVSPost2010Prop46
 90
       50
102
RTVSPost2010PropOp46
 70
     1
102
RTVSPost2010Prop47
 90
       50
102
RTVSPost2010PropOp47
 70
     1
102
RTVSPost2010Prop48
 90
       50
102
RTVSPost2010PropOp48
 70
     1
102
RTVSPost2010Prop49
280
     0
102
RTVSPost2010PropOp49
 70
     1
102
RTVSPost2010Prop50
 90
       50
102
RTVSPost2010PropOp50
 70
     1
102
RTVSPost2010Prop51ColorIndex
 90
      256
102
RTVSPost2010Prop51ColorRGB
 90
-16777216
102
RTVSPost2010PropOp51
 70
     0
102
RTVSPost2010Prop52
140
1.0
102
RTVSPost2010PropOp52
 70
     0
102
RTVSPost2010Prop53
 90
        2
102
RTVSPost2010PropOp53
 70
     1
102
RTVSPost2010Prop54
  1
strokes_ogs.tif
102
RTVSPost2010PropOp54
 70
     1
102
RTVSPost2010Prop55
280
     0
102
RTVSPost2010PropOp55
 70
     1
102
RTVSPost2010Prop56
140
1.0
102
RTVSPost2010PropOp56
 70
     1
102
RTVSPost2010Prop57
140
1.0
102
RTVSPost2010PropOp57
 70
     1
102
RTVSPropertyOp0
 70
     1
102
RTVSPropertyOp1
 70
     1
102
RTVSPropertyOp2
 70
     1
102
RTVSPropertyOp3
 70
     1
102
RTVSPropertyOp4
 70
     1
102
RTVSPropertyOp5
 70
     1
102
RTVSPropertyOp6
 70
     1
102
RTVSPropertyOp7
 70
     1
102
RTVSPropertyOp8
 70
     1
102
RTVSPropertyOp9
 70
     1
102
RTVSPropertyOp10
 70
     1
102
RTVSPropertyOp11
 70
     1
102
RTVSPropertyOp12
 70
     1
102
RTVSPropertyOp13
 70
     1
102
RTVSPropertyOp14
 70
     1
102
RTVSPropertyOp15
 70
     1
102
RTVSPropertyOp16
 70
     1
102
RTVSPropertyOp17
 70
     1
102
RTVSPropertyOp18
 70
     1
102
RTVSPropertyOp19
 70
     1
102
RTVSPropertyOp20
 70
     1
102
RTVSPropertyOp21
 70
     1
102
RTVSPropertyOp22
 70
     1
102
RTVSPropertyOp23
 70
     1
102
RTVSPropertyOp24
 70
     1
102
RTVSPropertyOp25
 70
     1
102
RTVSPropertyOp26
 70
     1
102
RTVSPropertyOp27
 70
     1
102
RTVSPropertyOp28
 70
     1
102
RTVSPropertyOp29
 70
     1
102
RTVSPropertyOp30
 70
     1
102
RTVSPropertyOp31
 70
     1
102
RTVSPropertyOp32
 70
     1
102
RTVSPropertyOp33
 70
     1
102
RTVSPropertyOp34
 70
     1
102
RTVSPropertyOp35
 70
     1
102
RTVSPropertyOp36
 70
     1
102
RTVSPropertyOp37
 70
     1
102
RTVSPropertyOp38
 70
     1
102
RTVSPropertyOp39
 70
     1
102
RTVSPropertyOp40
 70
     1
102
RTVSPropertyOp41
 70
     1
102
RTVSPropertyOp42
 70
     1
102
RTVSPropertyOp43
 70
     1
102
RTVSPropertyOp44
 70
     1
102
RTVSPropertyOp45
 70
     1
102
RTVSPropertyOp46
 70
     1
102
RTVSPropertyOp47
 70
     1
102
RTVSPropertyOp48
 70
     1
102
RTVSPropertyOp49
 70
     1
102
RTVSPropertyOp50
 70
     1
102
RTVSPropertyOp51
 70
     0
102
RTVSPropertyOp52
 70
     0
102
RTVSPropertyOp53
 70
     1
102
RTVSPropertyOp54
 70
     1
102
RTVSPropertyOp55
 70
     1
102
RTVSPropertyOp56
 70
     1
102
RTVSPropertyOp57
 70
     1
102
RTVSPropertyOp58
 70
     1
102
RTVSPropertyOp59
 70
     1
102
RTVSPropertyOp60
 70
     1
102
RTVSPropertyOp61
 70
     1
102
RTVSPropertyOp62
 70
     1
  0
XRECORD
  5
6022
102
{ACAD_REACTORS
330
6021
102
}
330
6021
100
AcDbXrecord
280
     1
102
RTVSPost2010Prop28
280
     0
102
RTVSPost2010PropOp28
 70
     1
102
RTVSPost2010Prop29
280
     1
102
RTVSPost2010PropOp29
 70
     1
102
RTVSPost2010Prop30
280
     1
102
RTVSPost2010PropOp30
 70
     1
102
RTVSPost2010Prop31
280
     0
102
RTVSPost2010PropOp31
 70
     1
102
RTVSPost2010Prop32
280
     0
102
RTVSPost2010PropOp32
 70
     1
102
RTVSPost2010Prop33
280
     0
102
RTVSPost2010PropOp33
 70
     1
102
RTVSPost2010Prop34
280
     0
102
RTVSPost2010PropOp34
 70
     1
102
RTVSPost2010Prop35
280
     0
102
RTVSPost2010PropOp35
 70
     1
102
RTVSPost2010Prop36
280
     0
102
RTVSPost2010PropOp36
 70
     1
102
RTVSPost2010Prop37
 90
       50
102
RTVSPost2010PropOp37
 70
     1
102
RTVSPost2010Prop38
140
0.0
102
RTVSPost2010PropOp38
 70
     1
102
RTVSPost2010Prop39
140
1.0
102
RTVSPost2010PropOp39
 70
     1
102
RTVSPost2010Prop40
 90
        0
102
RTVSPost2010PropOp40
 70
     1
102
RTVSPost2010Prop41ColorIndex
 90
       18
102
RTVSPost2010Prop41ColorRGB
 90
        0
102
RTVSPost2010PropOp41
 70
     1
102
RTVSPost2010Prop42
 90
       50
102
RTVSPost2010PropOp42
 70
     1
102
RTVSPost2010Prop43
 90
        3
102
RTVSPost2010PropOp43
 70
     1
102
RTVSPost2010Prop44ColorIndex
 90
        5
102
RTVSPost2010Prop44ColorRGB
 90
      255
102
RTVSPost2010PropOp44
 70
     1
102
RTVSPost2010Prop45
280
     0
102
RTVSPost2010PropOp45
 70
     1
102
RTVSPost2010Prop46
 90
       50
102
RTVSPost2010PropOp46
 70
     1
102
RTVSPost2010Prop47
 90
       50
102
RTVSPost2010PropOp47
 70
     1
102
RTVSPost2010Prop48
 90
       50
102
RTVSPost2010PropOp48
 70
     1
102
RTVSPost2010Prop49
280
     0
102
RTVSPost2010PropOp49
 70
     1
102
RTVSPost2010Prop50
 90
       50
102
RTVSPost2010PropOp50
 70
     1
102
RTVSPost2010Prop51ColorIndex
 90
      256
102
RTVSPost2010Prop51ColorRGB
 90
-16777216
102
RTVSPost2010PropOp51
 70
     0
102
RTVSPost2010Prop52
140
1.0
102
RTVSPost2010PropOp52
 70
     0
102
RTVSPost2010Prop53
 90
        2
102
RTVSPost2010PropOp53
 70
     1
102
RTVSPost2010Prop54
  1
strokes_ogs.tif
102
RTVSPost2010PropOp54
 70
     1
102
RTVSPost2010Prop55
280
     0
102
RTVSPost2010PropOp55
 70
     1
102
RTVSPost2010Prop56
140
1.0
102
RTVSPost2010PropOp56
 70
     1
102
RTVSPost2010Prop57
140
1.0
102
RTVSPost2010PropOp57
 70
     1
102
RTVSPropertyOp0
 70
     1
102
RTVSPropertyOp1
 70
     1
102
RTVSPropertyOp2
 70
     1
102
RTVSPropertyOp3
 70
     1
102
RTVSPropertyOp4
 70
     1
102
RTVSPropertyOp5
 70
     1
102
RTVSPropertyOp6
 70
     1
102
RTVSPropertyOp7
 70
     1
102
RTVSPropertyOp8
 70
     1
102
RTVSPropertyOp9
 70
     1
102
RTVSPropertyOp10
 70
     1
102
RTVSPropertyOp11
 70
     1
102
RTVSPropertyOp12
 70
     1
102
RTVSPropertyOp13
 70
     1
102
RTVSPropertyOp14
 70
     1
102
RTVSPropertyOp15
 70
     1
102
RTVSPropertyOp16
 70
     1
102
RTVSPropertyOp17
 70
     1
102
RTVSPropertyOp18
 70
     1
102
RTVSPropertyOp19
 70
     1
102
RTVSPropertyOp20
 70
     1
102
RTVSPropertyOp21
 70
     1
102
RTVSPropertyOp22
 70
     1
102
RTVSPropertyOp23
 70
     1
102
RTVSPropertyOp24
 70
     1
102
RTVSPropertyOp25
 70
     1
102
RTVSPropertyOp26
 70
     1
102
RTVSPropertyOp27
 70
     1
102
RTVSPropertyOp28
 70
     1
102
RTVSPropertyOp29
 70
     1
102
RTVSPropertyOp30
 70
     1
102
RTVSPropertyOp31
 70
     1
102
RTVSPropertyOp32
 70
     1
102
RTVSPropertyOp33
 70
     1
102
RTVSPropertyOp34
 70
     1
102
RTVSPropertyOp35
 70
     1
102
RTVSPropertyOp36
 70
     1
102
RTVSPropertyOp37
 70
     1
102
RTVSPropertyOp38
 70
     1
102
RTVSPropertyOp39
 70
     1
102
RTVSPropertyOp40
 70
     1
102
RTVSPropertyOp41
 70
     1
102
RTVSPropertyOp42
 70
     1
102
RTVSPropertyOp43
 70
     1
102
RTVSPropertyOp44
 70
     1
102
RTVSPropertyOp45
 70
     1
102
RTVSPropertyOp46
 70
     1
102
RTVSPropertyOp47
 70
     1
102
RTVSPropertyOp48
 70
     1
102
RTVSPropertyOp49
 70
     1
102
RTVSPropertyOp50
 70
     1
102
RTVSPropertyOp51
 70
     0
102
RTVSPropertyOp52
 70
     0
102
RTVSPropertyOp53
 70
     1
102
RTVSPropertyOp54
 70
     1
102
RTVSPropertyOp55
 70
     1
102
RTVSPropertyOp56
 70
     1
102
RTVSPropertyOp57
 70
     1
102
RTVSPropertyOp58
 70
     1
102
RTVSPropertyOp59
 70
     1
102
RTVSPropertyOp60
 70
     1
102
RTVSPropertyOp61
 70
     1
102
RTVSPropertyOp62
 70
     1
  0
XRECORD
  5
6024
102
{ACAD_REACTORS
330
6023
102
}
330
6023
100
AcDbXrecord
280
     1
102
RTVSPost2010Prop28
280
     0
102
RTVSPost2010PropOp28
 70
     1
102
RTVSPost2010Prop29
280
     1
102
RTVSPost2010PropOp29
 70
     1
102
RTVSPost2010Prop30
280
     1
102
RTVSPost2010PropOp30
 70
     1
102
RTVSPost2010Prop31
280
     0
102
RTVSPost2010PropOp31
 70
     1
102
RTVSPost2010Prop32
280
     0
102
RTVSPost2010PropOp32
 70
     1
102
RTVSPost2010Prop33
280
     0
102
RTVSPost2010PropOp33
 70
     1
102
RTVSPost2010Prop34
280
     0
102
RTVSPost2010PropOp34
 70
     1
102
RTVSPost2010Prop35
280
     0
102
RTVSPost2010PropOp35
 70
     1
102
RTVSPost2010Prop36
280
     0
102
RTVSPost2010PropOp36
 70
     1
102
RTVSPost2010Prop37
 90
       50
102
RTVSPost2010PropOp37
 70
     1
102
RTVSPost2010Prop38
140
0.0
102
RTVSPost2010PropOp38
 70
     1
102
RTVSPost2010Prop39
140
1.0
102
RTVSPost2010PropOp39
 70
     1
102
RTVSPost2010Prop40
 90
        0
102
RTVSPost2010PropOp40
 70
     1
102
RTVSPost2010Prop41ColorIndex
 90
       18
102
RTVSPost2010Prop41ColorRGB
 90
        0
102
RTVSPost2010PropOp41
 70
     1
102
RTVSPost2010Prop42
 90
       50
102
RTVSPost2010PropOp42
 70
     1
102
RTVSPost2010Prop43
 90
        3
102
RTVSPost2010PropOp43
 70
     1
102
RTVSPost2010Prop44ColorIndex
 90
        5
102
RTVSPost2010Prop44ColorRGB
 90
      255
102
RTVSPost2010PropOp44
 70
     1
102
RTVSPost2010Prop45
280
     0
102
RTVSPost2010PropOp45
 70
     1
102
RTVSPost2010Prop46
 90
       50
102
RTVSPost2010PropOp46
 70
     1
102
RTVSPost2010Prop47
 90
       50
102
RTVSPost2010PropOp47
 70
     1
102
RTVSPost2010Prop48
 90
       50
102
RTVSPost2010PropOp48
 70
     1
102
RTVSPost2010Prop49
280
     0
102
RTVSPost2010PropOp49
 70
     1
102
RTVSPost2010Prop50
 90
       50
102
RTVSPost2010PropOp50
 70
     1
102
RTVSPost2010Prop51ColorIndex
 90
      256
102
RTVSPost2010Prop51ColorRGB
 90
-16777216
102
RTVSPost2010PropOp51
 70
     0
102
RTVSPost2010Prop52
140
1.0
102
RTVSPost2010PropOp52
 70
     0
102
RTVSPost2010Prop53
 90
        2
102
RTVSPost2010PropOp53
 70
     1
102
RTVSPost2010Prop54
  1
strokes_ogs.tif
102
RTVSPost2010PropOp54
 70
     1
102
RTVSPost2010Prop55
280
     0
102
RTVSPost2010PropOp55
 70
     1
102
RTVSPost2010Prop56
140
1.0
102
RTVSPost2010PropOp56
 70
     1
102
RTVSPost2010Prop57
140
1.0
102
RTVSPost2010PropOp57
 70
     1
102
RTVSPropertyOp0
 70
     1
102
RTVSPropertyOp1
 70
     1
102
RTVSPropertyOp2
 70
     1
102
RTVSPropertyOp3
 70
     1
102
RTVSPropertyOp4
 70
     1
102
RTVSPropertyOp5
 70
     1
102
RTVSPropertyOp6
 70
     1
102
RTVSPropertyOp7
 70
     1
102
RTVSPropertyOp8
 70
     1
102
RTVSPropertyOp9
 70
     1
102
RTVSPropertyOp10
 70
     1
102
RTVSPropertyOp11
 70
     1
102
RTVSPropertyOp12
 70
     1
102
RTVSPropertyOp13
 70
     1
102
RTVSPropertyOp14
 70
     1
102
RTVSPropertyOp15
 70
     1
102
RTVSPropertyOp16
 70
     1
102
RTVSPropertyOp17
 70
     1
102
RTVSPropertyOp18
 70
     1
102
RTVSPropertyOp19
 70
     1
102
RTVSPropertyOp20
 70
     1
102
RTVSPropertyOp21
 70
     1
102
RTVSPropertyOp22
 70
     1
102
RTVSPropertyOp23
 70
     1
102
RTVSPropertyOp24
 70
     1
102
RTVSPropertyOp25
 70
     1
102
RTVSPropertyOp26
 70
     1
102
RTVSPropertyOp27
 70
     1
102
RTVSPropertyOp28
 70
     1
102
RTVSPropertyOp29
 70
     1
102
RTVSPropertyOp30
 70
     1
102
RTVSPropertyOp31
 70
     1
102
RTVSPropertyOp32
 70
     1
102
RTVSPropertyOp33
 70
     1
102
RTVSPropertyOp34
 70
     1
102
RTVSPropertyOp35
 70
     1
102
RTVSPropertyOp36
 70
     1
102
RTVSPropertyOp37
 70
     1
102
RTVSPropertyOp38
 70
     1
102
RTVSPropertyOp39
 70
     1
102
RTVSPropertyOp40
 70
     1
102
RTVSPropertyOp41
 70
     1
102
RTVSPropertyOp42
 70
     1
102
RTVSPropertyOp43
 70
     1
102
RTVSPropertyOp44
 70
     1
102
RTVSPropertyOp45
 70
     1
102
RTVSPropertyOp46
 70
     1
102
RTVSPropertyOp47
 70
     1
102
RTVSPropertyOp48
 70
     1
102
RTVSPropertyOp49
 70
     1
102
RTVSPropertyOp50
 70
     1
102
RTVSPropertyOp51
 70
     0
102
RTVSPropertyOp52
 70
     0
102
RTVSPropertyOp53
 70
     1
102
RTVSPropertyOp54
 70
     1
102
RTVSPropertyOp55
 70
     1
102
RTVSPropertyOp56
 70
     1
102
RTVSPropertyOp57
 70
     1
102
RTVSPropertyOp58
 70
     1
102
RTVSPropertyOp59
 70
     1
102
RTVSPropertyOp60
 70
     1
102
RTVSPropertyOp61
 70
     1
102
RTVSPropertyOp62
 70
     1
  0
XRECORD
  5
6026
102
{ACAD_REACTORS
330
6025
102
}
330
6025
100
AcDbXrecord
280
     1
102
RTVSPost2010Prop28
280
     0
102
RTVSPost2010PropOp28
 70
     1
102
RTVSPost2010Prop29
280
     1
102
RTVSPost2010PropOp29
 70
     1
102
RTVSPost2010Prop30
280
     1
102
RTVSPost2010PropOp30
 70
     1
102
RTVSPost2010Prop31
280
     0
102
RTVSPost2010PropOp31
 70
     1
102
RTVSPost2010Prop32
280
     0
102
RTVSPost2010PropOp32
 70
     1
102
RTVSPost2010Prop33
280
     0
102
RTVSPost2010PropOp33
 70
     1
102
RTVSPost2010Prop34
280
     0
102
RTVSPost2010PropOp34
 70
     1
102
RTVSPost2010Prop35
280
     0
102
RTVSPost2010PropOp35
 70
     1
102
RTVSPost2010Prop36
280
     0
102
RTVSPost2010PropOp36
 70
     1
102
RTVSPost2010Prop37
 90
       50
102
RTVSPost2010PropOp37
 70
     1
102
RTVSPost2010Prop38
140
0.0
102
RTVSPost2010PropOp38
 70
     1
102
RTVSPost2010Prop39
140
1.0
102
RTVSPost2010PropOp39
 70
     1
102
RTVSPost2010Prop40
 90
        0
102
RTVSPost2010PropOp40
 70
     1
102
RTVSPost2010Prop41ColorIndex
 90
       18
102
RTVSPost2010Prop41ColorRGB
 90
        0
102
RTVSPost2010PropOp41
 70
     1
102
RTVSPost2010Prop42
 90
       50
102
RTVSPost2010PropOp42
 70
     1
102
RTVSPost2010Prop43
 90
        3
102
RTVSPost2010PropOp43
 70
     1
102
RTVSPost2010Prop44ColorIndex
 90
        5
102
RTVSPost2010Prop44ColorRGB
 90
      255
102
RTVSPost2010PropOp44
 70
     1
102
RTVSPost2010Prop45
280
     0
102
RTVSPost2010PropOp45
 70
     1
102
RTVSPost2010Prop46
 90
       50
102
RTVSPost2010PropOp46
 70
     1
102
RTVSPost2010Prop47
 90
       50
102
RTVSPost2010PropOp47
 70
     1
102
RTVSPost2010Prop48
 90
       50
102
RTVSPost2010PropOp48
 70
     1
102
RTVSPost2010Prop49
280
     0
102
RTVSPost2010PropOp49
 70
     1
102
RTVSPost2010Prop50
 90
       50
102
RTVSPost2010PropOp50
 70
     1
102
RTVSPost2010Prop51ColorIndex
 90
      256
102
RTVSPost2010Prop51ColorRGB
 90
-16777216
102
RTVSPost2010PropOp51
 70
     0
102
RTVSPost2010Prop52
140
1.0
102
RTVSPost2010PropOp52
 70
     0
102
RTVSPost2010Prop53
 90
        2
102
RTVSPost2010PropOp53
 70
     1
102
RTVSPost2010Prop54
  1
strokes_ogs.tif
102
RTVSPost2010PropOp54
 70
     1
102
RTVSPost2010Prop55
280
     0
102
RTVSPost2010PropOp55
 70
     1
102
RTVSPost2010Prop56
140
1.0
102
RTVSPost2010PropOp56
 70
     1
102
RTVSPost2010Prop57
140
1.0
102
RTVSPost2010PropOp57
 70
     1
102
RTVSPropertyOp0
 70
     1
102
RTVSPropertyOp1
 70
     1
102
RTVSPropertyOp2
 70
     1
102
RTVSPropertyOp3
 70
     1
102
RTVSPropertyOp4
 70
     1
102
RTVSPropertyOp5
 70
     1
102
RTVSPropertyOp6
 70
     1
102
RTVSPropertyOp7
 70
     1
102
RTVSPropertyOp8
 70
     1
102
RTVSPropertyOp9
 70
     1
102
RTVSPropertyOp10
 70
     1
102
RTVSPropertyOp11
 70
     1
102
RTVSPropertyOp12
 70
     1
102
RTVSPropertyOp13
 70
     1
102
RTVSPropertyOp14
 70
     1
102
RTVSPropertyOp15
 70
     1
102
RTVSPropertyOp16
 70
     1
102
RTVSPropertyOp17
 70
     1
102
RTVSPropertyOp18
 70
     1
102
RTVSPropertyOp19
 70
     1
102
RTVSPropertyOp20
 70
     1
102
RTVSPropertyOp21
 70
     1
102
RTVSPropertyOp22
 70
     1
102
RTVSPropertyOp23
 70
     1
102
RTVSPropertyOp24
 70
     1
102
RTVSPropertyOp25
 70
     1
102
RTVSPropertyOp26
 70
     1
102
RTVSPropertyOp27
 70
     1
102
RTVSPropertyOp28
 70
     1
102
RTVSPropertyOp29
 70
     1
102
RTVSPropertyOp30
 70
     1
102
RTVSPropertyOp31
 70
     1
102
RTVSPropertyOp32
 70
     1
102
RTVSPropertyOp33
 70
     1
102
RTVSPropertyOp34
 70
     1
102
RTVSPropertyOp35
 70
     1
102
RTVSPropertyOp36
 70
     1
102
RTVSPropertyOp37
 70
     1
102
RTVSPropertyOp38
 70
     1
102
RTVSPropertyOp39
 70
     1
102
RTVSPropertyOp40
 70
     1
102
RTVSPropertyOp41
 70
     1
102
RTVSPropertyOp42
 70
     1
102
RTVSPropertyOp43
 70
     1
102
RTVSPropertyOp44
 70
     1
102
RTVSPropertyOp45
 70
     1
102
RTVSPropertyOp46
 70
     1
102
RTVSPropertyOp47
 70
     1
102
RTVSPropertyOp48
 70
     1
102
RTVSPropertyOp49
 70
     1
102
RTVSPropertyOp50
 70
     1
102
RTVSPropertyOp51
 70
     0
102
RTVSPropertyOp52
 70
     0
102
RTVSPropertyOp53
 70
     1
102
RTVSPropertyOp54
 70
     1
102
RTVSPropertyOp55
 70
     1
102
RTVSPropertyOp56
 70
     1
102
RTVSPropertyOp57
 70
     1
102
RTVSPropertyOp58
 70
     1
102
RTVSPropertyOp59
 70
     1
102
RTVSPropertyOp60
 70
     1
102
RTVSPropertyOp61
 70
     1
102
RTVSPropertyOp62
 70
     1
  0
XRECORD
  5
6028
102
{ACAD_REACTORS
330
6027
102
}
330
6027
100
AcDbXrecord
280
     1
102
RTVSPost2010Prop28
280
     0
102
RTVSPost2010PropOp28
 70
     1
102
RTVSPost2010Prop29
280
     1
102
RTVSPost2010PropOp29
 70
     1
102
RTVSPost2010Prop30
280
     1
102
RTVSPost2010PropOp30
 70
     1
102
RTVSPost2010Prop31
280
     0
102
RTVSPost2010PropOp31
 70
     1
102
RTVSPost2010Prop32
280
     0
102
RTVSPost2010PropOp32
 70
     1
102
RTVSPost2010Prop33
280
     0
102
RTVSPost2010PropOp33
 70
     1
102
RTVSPost2010Prop34
280
     0
102
RTVSPost2010PropOp34
 70
     1
102
RTVSPost2010Prop35
280
     0
102
RTVSPost2010PropOp35
 70
     1
102
RTVSPost2010Prop36
280
     0
102
RTVSPost2010PropOp36
 70
     1
102
RTVSPost2010Prop37
 90
       50
102
RTVSPost2010PropOp37
 70
     1
102
RTVSPost2010Prop38
140
0.0
102
RTVSPost2010PropOp38
 70
     1
102
RTVSPost2010Prop39
140
1.0
102
RTVSPost2010PropOp39
 70
     1
102
RTVSPost2010Prop40
 90
        0
102
RTVSPost2010PropOp40
 70
     1
102
RTVSPost2010Prop41ColorIndex
 90
       18
102
RTVSPost2010Prop41ColorRGB
 90
        0
102
RTVSPost2010PropOp41
 70
     1
102
RTVSPost2010Prop42
 90
       50
102
RTVSPost2010PropOp42
 70
     1
102
RTVSPost2010Prop43
 90
        3
102
RTVSPost2010PropOp43
 70
     1
102
RTVSPost2010Prop44ColorIndex
 90
        5
102
RTVSPost2010Prop44ColorRGB
 90
      255
102
RTVSPost2010PropOp44
 70
     1
102
RTVSPost2010Prop45
280
     0
102
RTVSPost2010PropOp45
 70
     1
102
RTVSPost2010Prop46
 90
       50
102
RTVSPost2010PropOp46
 70
     1
102
RTVSPost2010Prop47
 90
       50
102
RTVSPost2010PropOp47
 70
     1
102
RTVSPost2010Prop48
 90
       50
102
RTVSPost2010PropOp48
 70
     1
102
RTVSPost2010Prop49
280
     0
102
RTVSPost2010PropOp49
 70
     1
102
RTVSPost2010Prop50
 90
       50
102
RTVSPost2010PropOp50
 70
     1
102
RTVSPost2010Prop51ColorIndex
 90
      256
102
RTVSPost2010Prop51ColorRGB
 90
-16777216
102
RTVSPost2010PropOp51
 70
     0
102
RTVSPost2010Prop52
140
1.0
102
RTVSPost2010PropOp52
 70
     0
102
RTVSPost2010Prop53
 90
        2
102
RTVSPost2010PropOp53
 70
     1
102
RTVSPost2010Prop54
  1
strokes_ogs.tif
102
RTVSPost2010PropOp54
 70
     1
102
RTVSPost2010Prop55
280
     0
102
RTVSPost2010PropOp55
 70
     1
102
RTVSPost2010Prop56
140
1.0
102
RTVSPost2010PropOp56
 70
     1
102
RTVSPost2010Prop57
140
1.0
102
RTVSPost2010PropOp57
 70
     1
102
RTVSPropertyOp0
 70
     1
102
RTVSPropertyOp1
 70
     1
102
RTVSPropertyOp2
 70
     1
102
RTVSPropertyOp3
 70
     1
102
RTVSPropertyOp4
 70
     1
102
RTVSPropertyOp5
 70
     1
102
RTVSPropertyOp6
 70
     1
102
RTVSPropertyOp7
 70
     1
102
RTVSPropertyOp8
 70
     1
102
RTVSPropertyOp9
 70
     1
102
RTVSPropertyOp10
 70
     1
102
RTVSPropertyOp11
 70
     1
102
RTVSPropertyOp12
 70
     1
102
RTVSPropertyOp13
 70
     1
102
RTVSPropertyOp14
 70
     1
102
RTVSPropertyOp15
 70
     1
102
RTVSPropertyOp16
 70
     1
102
RTVSPropertyOp17
 70
     1
102
RTVSPropertyOp18
 70
     1
102
RTVSPropertyOp19
 70
     1
102
RTVSPropertyOp20
 70
     1
102
RTVSPropertyOp21
 70
     1
102
RTVSPropertyOp22
 70
     1
102
RTVSPropertyOp23
 70
     1
102
RTVSPropertyOp24
 70
     1
102
RTVSPropertyOp25
 70
     1
102
RTVSPropertyOp26
 70
     1
102
RTVSPropertyOp27
 70
     1
102
RTVSPropertyOp28
 70
     1
102
RTVSPropertyOp29
 70
     1
102
RTVSPropertyOp30
 70
     1
102
RTVSPropertyOp31
 70
     1
102
RTVSPropertyOp32
 70
     1
102
RTVSPropertyOp33
 70
     1
102
RTVSPropertyOp34
 70
     1
102
RTVSPropertyOp35
 70
     1
102
RTVSPropertyOp36
 70
     1
102
RTVSPropertyOp37
 70
     1
102
RTVSPropertyOp38
 70
     1
102
RTVSPropertyOp39
 70
     1
102
RTVSPropertyOp40
 70
     1
102
RTVSPropertyOp41
 70
     1
102
RTVSPropertyOp42
 70
     1
102
RTVSPropertyOp43
 70
     1
102
RTVSPropertyOp44
 70
     1
102
RTVSPropertyOp45
 70
     1
102
RTVSPropertyOp46
 70
     1
102
RTVSPropertyOp47
 70
     1
102
RTVSPropertyOp48
 70
     1
102
RTVSPropertyOp49
 70
     1
102
RTVSPropertyOp50
 70
     1
102
RTVSPropertyOp51
 70
     0
102
RTVSPropertyOp52
 70
     0
102
RTVSPropertyOp53
 70
     1
102
RTVSPropertyOp54
 70
     1
102
RTVSPropertyOp55
 70
     1
102
RTVSPropertyOp56
 70
     1
102
RTVSPropertyOp57
 70
     1
102
RTVSPropertyOp58
 70
     1
102
RTVSPropertyOp59
 70
     1
102
RTVSPropertyOp60
 70
     1
102
RTVSPropertyOp61
 70
     1
102
RTVSPropertyOp62
 70
     1
  0
XRECORD
  5
6030
102
{ACAD_REACTORS
330
602F
102
}
330
602F
100
AcDbXrecord
280
     1
102
RTVSPost2010Prop28
280
     0
102
RTVSPost2010PropOp28
 70
     1
102
RTVSPost2010Prop29
280
     1
102
RTVSPost2010PropOp29
 70
     1
102
RTVSPost2010Prop30
280
     1
102
RTVSPost2010PropOp30
 70
     1
102
RTVSPost2010Prop31
280
     0
102
RTVSPost2010PropOp31
 70
     1
102
RTVSPost2010Prop32
280
     0
102
RTVSPost2010PropOp32
 70
     1
102
RTVSPost2010Prop33
280
     0
102
RTVSPost2010PropOp33
 70
     1
102
RTVSPost2010Prop34
280
     0
102
RTVSPost2010PropOp34
 70
     1
102
RTVSPost2010Prop35
280
     0
102
RTVSPost2010PropOp35
 70
     1
102
RTVSPost2010Prop36
280
     0
102
RTVSPost2010PropOp36
 70
     1
102
RTVSPost2010Prop37
 90
       50
102
RTVSPost2010PropOp37
 70
     1
102
RTVSPost2010Prop38
140
0.0
102
RTVSPost2010PropOp38
 70
     1
102
RTVSPost2010Prop39
140
1.0
102
RTVSPost2010PropOp39
 70
     1
102
RTVSPost2010Prop40
 90
        0
102
RTVSPost2010PropOp40
 70
     1
102
RTVSPost2010Prop41ColorIndex
 90
       18
102
RTVSPost2010Prop41ColorRGB
 90
        0
102
RTVSPost2010PropOp41
 70
     1
102
RTVSPost2010Prop42
 90
       50
102
RTVSPost2010PropOp42
 70
     1
102
RTVSPost2010Prop43
 90
        3
102
RTVSPost2010PropOp43
 70
     1
102
RTVSPost2010Prop44ColorIndex
 90
        5
102
RTVSPost2010Prop44ColorRGB
 90
      255
102
RTVSPost2010PropOp44
 70
     1
102
RTVSPost2010Prop45
280
     0
102
RTVSPost2010PropOp45
 70
     1
102
RTVSPost2010Prop46
 90
       50
102
RTVSPost2010PropOp46
 70
     1
102
RTVSPost2010Prop47
 90
       50
102
RTVSPost2010PropOp47
 70
     1
102
RTVSPost2010Prop48
 90
       50
102
RTVSPost2010PropOp48
 70
     1
102
RTVSPost2010Prop49
280
     0
102
RTVSPost2010PropOp49
 70
     1
102
RTVSPost2010Prop50
 90
       50
102
RTVSPost2010PropOp50
 70
     1
102
RTVSPost2010Prop51ColorIndex
 90
      256
102
RTVSPost2010Prop51ColorRGB
 90
-16777216
102
RTVSPost2010PropOp51
 70
     0
102
RTVSPost2010Prop52
140
1.0
102
RTVSPost2010PropOp52
 70
     0
102
RTVSPost2010Prop53
 90
        2
102
RTVSPost2010PropOp53
 70
     1
102
RTVSPost2010Prop54
  1
strokes_ogs.tif
102
RTVSPost2010PropOp54
 70
     1
102
RTVSPost2010Prop55
280
     0
102
RTVSPost2010PropOp55
 70
     1
102
RTVSPost2010Prop56
140
1.0
102
RTVSPost2010PropOp56
 70
     1
102
RTVSPost2010Prop57
140
1.0
102
RTVSPost2010PropOp57
 70
     1
102
RTVSPropertyOp0
 70
     1
102
RTVSPropertyOp1
 70
     1
102
RTVSPropertyOp2
 70
     1
102
RTVSPropertyOp3
 70
     1
102
RTVSPropertyOp4
 70
     1
102
RTVSPropertyOp5
 70
     1
102
RTVSPropertyOp6
 70
     1
102
RTVSPropertyOp7
 70
     1
102
RTVSPropertyOp8
 70
     1
102
RTVSPropertyOp9
 70
     1
102
RTVSPropertyOp10
 70
     1
102
RTVSPropertyOp11
 70
     1
102
RTVSPropertyOp12
 70
     1
102
RTVSPropertyOp13
 70
     1
102
RTVSPropertyOp14
 70
     1
102
RTVSPropertyOp15
 70
     1
102
RTVSPropertyOp16
 70
     1
102
RTVSPropertyOp17
 70
     1
102
RTVSPropertyOp18
 70
     1
102
RTVSPropertyOp19
 70
     1
102
RTVSPropertyOp20
 70
     1
102
RTVSPropertyOp21
 70
     1
102
RTVSPropertyOp22
 70
     1
102
RTVSPropertyOp23
 70
     1
102
RTVSPropertyOp24
 70
     1
102
RTVSPropertyOp25
 70
     1
102
RTVSPropertyOp26
 70
     1
102
RTVSPropertyOp27
 70
     1
102
RTVSPropertyOp28
 70
     1
102
RTVSPropertyOp29
 70
     1
102
RTVSPropertyOp30
 70
     1
102
RTVSPropertyOp31
 70
     1
102
RTVSPropertyOp32
 70
     1
102
RTVSPropertyOp33
 70
     1
102
RTVSPropertyOp34
 70
     1
102
RTVSPropertyOp35
 70
     1
102
RTVSPropertyOp36
 70
     1
102
RTVSPropertyOp37
 70
     1
102
RTVSPropertyOp38
 70
     1
102
RTVSPropertyOp39
 70
     1
102
RTVSPropertyOp40
 70
     1
102
RTVSPropertyOp41
 70
     1
102
RTVSPropertyOp42
 70
     1
102
RTVSPropertyOp43
 70
     1
102
RTVSPropertyOp44
 70
     1
102
RTVSPropertyOp45
 70
     1
102
RTVSPropertyOp46
 70
     1
102
RTVSPropertyOp47
 70
     1
102
RTVSPropertyOp48
 70
     1
102
RTVSPropertyOp49
 70
     1
102
RTVSPropertyOp50
 70
     1
102
RTVSPropertyOp51
 70
     0
102
RTVSPropertyOp52
 70
     0
102
RTVSPropertyOp53
 70
     1
102
RTVSPropertyOp54
 70
     1
102
RTVSPropertyOp55
 70
     1
102
RTVSPropertyOp56
 70
     1
102
RTVSPropertyOp57
 70
     1
102
RTVSPropertyOp58
 70
     1
102
RTVSPropertyOp59
 70
     1
102
RTVSPropertyOp60
 70
     1
102
RTVSPropertyOp61
 70
     1
102
RTVSPropertyOp62
 70
     1
  0
XRECORD
  5
604C
102
{ACAD_REACTORS
330
604B
102
}
330
604B
100
AcDbXrecord
280
     1
102
RTVSPost2010Prop28
280
     0
102
RTVSPost2010PropOp28
 70
     1
102
RTVSPost2010Prop29
280
     1
102
RTVSPost2010PropOp29
 70
     1
102
RTVSPost2010Prop30
280
     1
102
RTVSPost2010PropOp30
 70
     1
102
RTVSPost2010Prop31
280
     0
102
RTVSPost2010PropOp31
 70
     1
102
RTVSPost2010Prop32
280
     0
102
RTVSPost2010PropOp32
 70
     1
102
RTVSPost2010Prop33
280
     0
102
RTVSPost2010PropOp33
 70
     1
102
RTVSPost2010Prop34
280
     0
102
RTVSPost2010PropOp34
 70
     1
102
RTVSPost2010Prop35
280
     0
102
RTVSPost2010PropOp35
 70
     1
102
RTVSPost2010Prop36
280
     0
102
RTVSPost2010PropOp36
 70
     1
102
RTVSPost2010Prop37
 90
       50
102
RTVSPost2010PropOp37
 70
     0
102
RTVSPost2010Prop38
140
0.0
102
RTVSPost2010PropOp38
 70
     0
102
RTVSPost2010Prop39
140
1.0
102
RTVSPost2010PropOp39
 70
     0
102
RTVSPost2010Prop40
 90
        0
102
RTVSPost2010PropOp40
 70
     0
102
RTVSPost2010Prop41ColorIndex
 90
       18
102
RTVSPost2010Prop41ColorRGB
 90
        0
102
RTVSPost2010PropOp41
 70
     0
102
RTVSPost2010Prop42
 90
       50
102
RTVSPost2010PropOp42
 70
     0
102
RTVSPost2010Prop43
 90
        3
102
RTVSPost2010PropOp43
 70
     0
102
RTVSPost2010Prop44ColorIndex
 90
        5
102
RTVSPost2010Prop44ColorRGB
 90
      255
102
RTVSPost2010PropOp44
 70
     0
102
RTVSPost2010Prop45
280
     0
102
RTVSPost2010PropOp45
 70
     1
102
RTVSPost2010Prop46
 90
       50
102
RTVSPost2010PropOp46
 70
     0
102
RTVSPost2010Prop47
 90
       50
102
RTVSPost2010PropOp47
 70
     0
102
RTVSPost2010Prop48
 90
       50
102
RTVSPost2010PropOp48
 70
     0
102
RTVSPost2010Prop49
280
     0
102
RTVSPost2010PropOp49
 70
     1
102
RTVSPost2010Prop50
 90
       50
102
RTVSPost2010PropOp50
 70
     0
102
RTVSPost2010Prop51ColorIndex
 90
      256
102
RTVSPost2010Prop51ColorRGB
 90
-16777216
102
RTVSPost2010PropOp51
 70
     0
102
RTVSPost2010Prop52
140
1.0
102
RTVSPost2010PropOp52
 70
     0
102
RTVSPost2010Prop53
 90
        2
102
RTVSPost2010PropOp53
 70
     0
102
RTVSPost2010Prop54
  1
strokes_ogs.tif
102
RTVSPost2010PropOp54
 70
     0
102
RTVSPost2010Prop55
280
     0
102
RTVSPost2010PropOp55
 70
     1
102
RTVSPost2010Prop56
140
1.0
102
RTVSPost2010PropOp56
 70
     0
102
RTVSPost2010Prop57
140
1.0
102
RTVSPost2010PropOp57
 70
     0
102
RTVSPropertyOp0
 70
     0
102
RTVSPropertyOp1
 70
     0
102
RTVSPropertyOp2
 70
     0
102
RTVSPropertyOp3
 70
     0
102
RTVSPropertyOp4
 70
     0
102
RTVSPropertyOp5
 70
     0
102
RTVSPropertyOp6
 70
     0
102
RTVSPropertyOp7
 70
     0
102
RTVSPropertyOp8
 70
     0
102
RTVSPropertyOp9
 70
     0
102
RTVSPropertyOp10
 70
     0
102
RTVSPropertyOp11
 70
     0
102
RTVSPropertyOp12
 70
     0
102
RTVSPropertyOp13
 70
     0
102
RTVSPropertyOp14
 70
     2
102
RTVSPropertyOp15
 70
     0
102
RTVSPropertyOp16
 70
     0
102
RTVSPropertyOp17
 70
     0
102
RTVSPropertyOp18
 70
     0
102
RTVSPropertyOp19
 70
     0
102
RTVSPropertyOp20
 70
     0
102
RTVSPropertyOp21
 70
     0
102
RTVSPropertyOp22
 70
     0
102
RTVSPropertyOp23
 70
     0
102
RTVSPropertyOp24
 70
     0
102
RTVSPropertyOp25
 70
     0
102
RTVSPropertyOp26
 70
     0
102
RTVSPropertyOp27
 70
     0
102
RTVSPropertyOp28
 70
     1
102
RTVSPropertyOp29
 70
     1
102
RTVSPropertyOp30
 70
     1
102
RTVSPropertyOp31
 70
     1
102
RTVSPropertyOp32
 70
     1
102
RTVSPropertyOp33
 70
     1
102
RTVSPropertyOp34
 70
     1
102
RTVSPropertyOp35
 70
     1
102
RTVSPropertyOp36
 70
     1
102
RTVSPropertyOp37
 70
     0
102
RTVSPropertyOp38
 70
     0
102
RTVSPropertyOp39
 70
     0
102
RTVSPropertyOp40
 70
     0
102
RTVSPropertyOp41
 70
     0
102
RTVSPropertyOp42
 70
     0
102
RTVSPropertyOp43
 70
     0
102
RTVSPropertyOp44
 70
     0
102
RTVSPropertyOp45
 70
     1
102
RTVSPropertyOp46
 70
     0
102
RTVSPropertyOp47
 70
     0
102
RTVSPropertyOp48
 70
     0
102
RTVSPropertyOp49
 70
     1
102
RTVSPropertyOp50
 70
     0
102
RTVSPropertyOp51
 70
     0
102
RTVSPropertyOp52
 70
     0
102
RTVSPropertyOp53
 70
     0
102
RTVSPropertyOp54
 70
     0
102
RTVSPropertyOp55
 70
     1
102
RTVSPropertyOp56
 70
     0
102
RTVSPropertyOp57
 70
     0
102
RTVSPropertyOp58
 70
     0
102
RTVSPropertyOp59
 70
     0
102
RTVSPropertyOp60
 70
     0
102
RTVSPropertyOp61
 70
     0
102
RTVSPropertyOp62
 70
     0
  0
XRECORD
  5
603C
102
{ACAD_REACTORS
330
603B
102
}
330
603B
100
AcDbXrecord
280
     1
102
RTVSPost2010Prop28
280
     0
102
RTVSPost2010PropOp28
 70
     1
102
RTVSPost2010Prop29
280
     1
102
RTVSPost2010PropOp29
 70
     1
102
RTVSPost2010Prop30
280
     1
102
RTVSPost2010PropOp30
 70
     1
102
RTVSPost2010Prop31
280
     0
102
RTVSPost2010PropOp31
 70
     1
102
RTVSPost2010Prop32
280
     0
102
RTVSPost2010PropOp32
 70
     1
102
RTVSPost2010Prop33
280
     0
102
RTVSPost2010PropOp33
 70
     1
102
RTVSPost2010Prop34
280
     0
102
RTVSPost2010PropOp34
 70
     1
102
RTVSPost2010Prop35
280
     0
102
RTVSPost2010PropOp35
 70
     1
102
RTVSPost2010Prop36
280
     0
102
RTVSPost2010PropOp36
 70
     1
102
RTVSPost2010Prop37
 90
       50
102
RTVSPost2010PropOp37
 70
     1
102
RTVSPost2010Prop38
140
0.0
102
RTVSPost2010PropOp38
 70
     1
102
RTVSPost2010Prop39
140
1.0
102
RTVSPost2010PropOp39
 70
     1
102
RTVSPost2010Prop40
 90
        0
102
RTVSPost2010PropOp40
 70
     1
102
RTVSPost2010Prop41ColorIndex
 90
       18
102
RTVSPost2010Prop41ColorRGB
 90
        0
102
RTVSPost2010PropOp41
 70
     1
102
RTVSPost2010Prop42
 90
       50
102
RTVSPost2010PropOp42
 70
     1
102
RTVSPost2010Prop43
 90
        3
102
RTVSPost2010PropOp43
 70
     1
102
RTVSPost2010Prop44ColorIndex
 90
        5
102
RTVSPost2010Prop44ColorRGB
 90
      255
102
RTVSPost2010PropOp44
 70
     1
102
RTVSPost2010Prop45
280
     0
102
RTVSPost2010PropOp45
 70
     1
102
RTVSPost2010Prop46
 90
       50
102
RTVSPost2010PropOp46
 70
     1
102
RTVSPost2010Prop47
 90
       50
102
RTVSPost2010PropOp47
 70
     1
102
RTVSPost2010Prop48
 90
       50
102
RTVSPost2010PropOp48
 70
     1
102
RTVSPost2010Prop49
280
     0
102
RTVSPost2010PropOp49
 70
     1
102
RTVSPost2010Prop50
 90
       50
102
RTVSPost2010PropOp50
 70
     1
102
RTVSPost2010Prop51ColorIndex
 90
      256
102
RTVSPost2010Prop51ColorRGB
 90
-16777216
102
RTVSPost2010PropOp51
 70
     0
102
RTVSPost2010Prop52
140
1.0
102
RTVSPost2010PropOp52
 70
     0
102
RTVSPost2010Prop53
 90
        2
102
RTVSPost2010PropOp53
 70
     1
102
RTVSPost2010Prop54
  1
strokes_ogs.tif
102
RTVSPost2010PropOp54
 70
     1
102
RTVSPost2010Prop55
280
     0
102
RTVSPost2010PropOp55
 70
     1
102
RTVSPost2010Prop56
140
1.0
102
RTVSPost2010PropOp56
 70
     1
102
RTVSPost2010Prop57
140
1.0
102
RTVSPost2010PropOp57
 70
     1
102
RTVSPropertyOp0
 70
     1
102
RTVSPropertyOp1
 70
     1
102
RTVSPropertyOp2
 70
     1
102
RTVSPropertyOp3
 70
     1
102
RTVSPropertyOp4
 70
     1
102
RTVSPropertyOp5
 70
     1
102
RTVSPropertyOp6
 70
     1
102
RTVSPropertyOp7
 70
     1
102
RTVSPropertyOp8
 70
     1
102
RTVSPropertyOp9
 70
     1
102
RTVSPropertyOp10
 70
     1
102
RTVSPropertyOp11
 70
     1
102
RTVSPropertyOp12
 70
     1
102
RTVSPropertyOp13
 70
     1
102
RTVSPropertyOp14
 70
     1
102
RTVSPropertyOp15
 70
     1
102
RTVSPropertyOp16
 70
     1
102
RTVSPropertyOp17
 70
     1
102
RTVSPropertyOp18
 70
     1
102
RTVSPropertyOp19
 70
     1
102
RTVSPropertyOp20
 70
     1
102
RTVSPropertyOp21
 70
     1
102
RTVSPropertyOp22
 70
     1
102
RTVSPropertyOp23
 70
     1
102
RTVSPropertyOp24
 70
     1
102
RTVSPropertyOp25
 70
     1
102
RTVSPropertyOp26
 70
     1
102
RTVSPropertyOp27
 70
     1
102
RTVSPropertyOp28
 70
     1
102
RTVSPropertyOp29
 70
     1
102
RTVSPropertyOp30
 70
     1
102
RTVSPropertyOp31
 70
     1
102
RTVSPropertyOp32
 70
     1
102
RTVSPropertyOp33
 70
     1
102
RTVSPropertyOp34
 70
     1
102
RTVSPropertyOp35
 70
     1
102
RTVSPropertyOp36
 70
     1
102
RTVSPropertyOp37
 70
     1
102
RTVSPropertyOp38
 70
     1
102
RTVSPropertyOp39
 70
     1
102
RTVSPropertyOp40
 70
     1
102
RTVSPropertyOp41
 70
     1
102
RTVSPropertyOp42
 70
     1
102
RTVSPropertyOp43
 70
     1
102
RTVSPropertyOp44
 70
     1
102
RTVSPropertyOp45
 70
     1
102
RTVSPropertyOp46
 70
     1
102
RTVSPropertyOp47
 70
     1
102
RTVSPropertyOp48
 70
     1
102
RTVSPropertyOp49
 70
     1
102
RTVSPropertyOp50
 70
     1
102
RTVSPropertyOp51
 70
     0
102
RTVSPropertyOp52
 70
     0
102
RTVSPropertyOp53
 70
     1
102
RTVSPropertyOp54
 70
     1
102
RTVSPropertyOp55
 70
     1
102
RTVSPropertyOp56
 70
     1
102
RTVSPropertyOp57
 70
     1
102
RTVSPropertyOp58
 70
     1
102
RTVSPropertyOp59
 70
     1
102
RTVSPropertyOp60
 70
     1
102
RTVSPropertyOp61
 70
     1
102
RTVSPropertyOp62
 70
     1
  0
XRECORD
  5
604E
102
{ACAD_REACTORS
330
604D
102
}
330
604D
100
AcDbXrecord
280
     1
102
RTVSPost2010Prop28
280
     0
102
RTVSPost2010PropOp28
 70
     1
102
RTVSPost2010Prop29
280
     1
102
RTVSPost2010PropOp29
 70
     1
102
RTVSPost2010Prop30
280
     1
102
RTVSPost2010PropOp30
 70
     1
102
RTVSPost2010Prop31
280
     0
102
RTVSPost2010PropOp31
 70
     1
102
RTVSPost2010Prop32
280
     0
102
RTVSPost2010PropOp32
 70
     1
102
RTVSPost2010Prop33
280
     0
102
RTVSPost2010PropOp33
 70
     1
102
RTVSPost2010Prop34
280
     0
102
RTVSPost2010PropOp34
 70
     1
102
RTVSPost2010Prop35
280
     0
102
RTVSPost2010PropOp35
 70
     1
102
RTVSPost2010Prop36
280
     0
102
RTVSPost2010PropOp36
 70
     1
102
RTVSPost2010Prop37
 90
       50
102
RTVSPost2010PropOp37
 70
     0
102
RTVSPost2010Prop38
140
0.0
102
RTVSPost2010PropOp38
 70
     0
102
RTVSPost2010Prop39
140
1.0
102
RTVSPost2010PropOp39
 70
     0
102
RTVSPost2010Prop40
 90
        0
102
RTVSPost2010PropOp40
 70
     0
102
RTVSPost2010Prop41ColorIndex
 90
       18
102
RTVSPost2010Prop41ColorRGB
 90
        0
102
RTVSPost2010PropOp41
 70
     0
102
RTVSPost2010Prop42
 90
       50
102
RTVSPost2010PropOp42
 70
     0
102
RTVSPost2010Prop43
 90
        3
102
RTVSPost2010PropOp43
 70
     0
102
RTVSPost2010Prop44ColorIndex
 90
        5
102
RTVSPost2010Prop44ColorRGB
 90
      255
102
RTVSPost2010PropOp44
 70
     0
102
RTVSPost2010Prop45
280
     0
102
RTVSPost2010PropOp45
 70
     1
102
RTVSPost2010Prop46
 90
       50
102
RTVSPost2010PropOp46
 70
     0
102
RTVSPost2010Prop47
 90
       50
102
RTVSPost2010PropOp47
 70
     0
102
RTVSPost2010Prop48
 90
       50
102
RTVSPost2010PropOp48
 70
     0
102
RTVSPost2010Prop49
280
     0
102
RTVSPost2010PropOp49
 70
     1
102
RTVSPost2010Prop50
 90
       50
102
RTVSPost2010PropOp50
 70
     0
102
RTVSPost2010Prop51ColorIndex
 90
      256
102
RTVSPost2010Prop51ColorRGB
 90
-16777216
102
RTVSPost2010PropOp51
 70
     0
102
RTVSPost2010Prop52
140
1.0
102
RTVSPost2010PropOp52
 70
     0
102
RTVSPost2010Prop53
 90
        2
102
RTVSPost2010PropOp53
 70
     0
102
RTVSPost2010Prop54
  1
strokes_ogs.tif
102
RTVSPost2010PropOp54
 70
     0
102
RTVSPost2010Prop55
280
     0
102
RTVSPost2010PropOp55
 70
     1
102
RTVSPost2010Prop56
140
1.0
102
RTVSPost2010PropOp56
 70
     0
102
RTVSPost2010Prop57
140
1.0
102
RTVSPost2010PropOp57
 70
     0
102
RTVSPropertyOp0
 70
     0
102
RTVSPropertyOp1
 70
     0
102
RTVSPropertyOp2
 70
     0
102
RTVSPropertyOp3
 70
     0
102
RTVSPropertyOp4
 70
     0
102
RTVSPropertyOp5
 70
     0
102
RTVSPropertyOp6
 70
     0
102
RTVSPropertyOp7
 70
     0
102
RTVSPropertyOp8
 70
     0
102
RTVSPropertyOp9
 70
     0
102
RTVSPropertyOp10
 70
     0
102
RTVSPropertyOp11
 70
     0
102
RTVSPropertyOp12
 70
     0
102
RTVSPropertyOp13
 70
     0
102
RTVSPropertyOp14
 70
     2
102
RTVSPropertyOp15
 70
     0
102
RTVSPropertyOp16
 70
     0
102
RTVSPropertyOp17
 70
     0
102
RTVSPropertyOp18
 70
     0
102
RTVSPropertyOp19
 70
     0
102
RTVSPropertyOp20
 70
     0
102
RTVSPropertyOp21
 70
     0
102
RTVSPropertyOp22
 70
     0
102
RTVSPropertyOp23
 70
     0
102
RTVSPropertyOp24
 70
     0
102
RTVSPropertyOp25
 70
     0
102
RTVSPropertyOp26
 70
     0
102
RTVSPropertyOp27
 70
     0
102
RTVSPropertyOp28
 70
     1
102
RTVSPropertyOp29
 70
     1
102
RTVSPropertyOp30
 70
     1
102
RTVSPropertyOp31
 70
     1
102
RTVSPropertyOp32
 70
     1
102
RTVSPropertyOp33
 70
     1
102
RTVSPropertyOp34
 70
     1
102
RTVSPropertyOp35
 70
     1
102
RTVSPropertyOp36
 70
     1
102
RTVSPropertyOp37
 70
     0
102
RTVSPropertyOp38
 70
     0
102
RTVSPropertyOp39
 70
     0
102
RTVSPropertyOp40
 70
     0
102
RTVSPropertyOp41
 70
     0
102
RTVSPropertyOp42
 70
     0
102
RTVSPropertyOp43
 70
     0
102
RTVSPropertyOp44
 70
     0
102
RTVSPropertyOp45
 70
     1
102
RTVSPropertyOp46
 70
     0
102
RTVSPropertyOp47
 70
     0
102
RTVSPropertyOp48
 70
     0
102
RTVSPropertyOp49
 70
     1
102
RTVSPropertyOp50
 70
     0
102
RTVSPropertyOp51
 70
     0
102
RTVSPropertyOp52
 70
     0
102
RTVSPropertyOp53
 70
     0
102
RTVSPropertyOp54
 70
     0
102
RTVSPropertyOp55
 70
     1
102
RTVSPropertyOp56
 70
     0
102
RTVSPropertyOp57
 70
     0
102
RTVSPropertyOp58
 70
     0
102
RTVSPropertyOp59
 70
     0
102
RTVSPropertyOp60
 70
     0
102
RTVSPropertyOp61
 70
     0
102
RTVSPropertyOp62
 70
     0
  0
XRECORD
  5
6034
102
{ACAD_REACTORS
330
6033
102
}
330
6033
100
AcDbXrecord
280
     1
102
RTVSPost2010Prop28
280
     0
102
RTVSPost2010PropOp28
 70
     1
102
RTVSPost2010Prop29
280
     1
102
RTVSPost2010PropOp29
 70
     1
102
RTVSPost2010Prop30
280
     1
102
RTVSPost2010PropOp30
 70
     1
102
RTVSPost2010Prop31
280
     0
102
RTVSPost2010PropOp31
 70
     1
102
RTVSPost2010Prop32
280
     0
102
RTVSPost2010PropOp32
 70
     1
102
RTVSPost2010Prop33
280
     0
102
RTVSPost2010PropOp33
 70
     1
102
RTVSPost2010Prop34
280
     0
102
RTVSPost2010PropOp34
 70
     1
102
RTVSPost2010Prop35
280
     0
102
RTVSPost2010PropOp35
 70
     1
102
RTVSPost2010Prop36
280
     0
102
RTVSPost2010PropOp36
 70
     1
102
RTVSPost2010Prop37
 90
       50
102
RTVSPost2010PropOp37
 70
     1
102
RTVSPost2010Prop38
140
0.0
102
RTVSPost2010PropOp38
 70
     1
102
RTVSPost2010Prop39
140
1.0
102
RTVSPost2010PropOp39
 70
     1
102
RTVSPost2010Prop40
 90
        0
102
RTVSPost2010PropOp40
 70
     1
102
RTVSPost2010Prop41ColorIndex
 90
       18
102
RTVSPost2010Prop41ColorRGB
 90
        0
102
RTVSPost2010PropOp41
 70
     1
102
RTVSPost2010Prop42
 90
       50
102
RTVSPost2010PropOp42
 70
     1
102
RTVSPost2010Prop43
 90
        3
102
RTVSPost2010PropOp43
 70
     1
102
RTVSPost2010Prop44ColorIndex
 90
        5
102
RTVSPost2010Prop44ColorRGB
 90
      255
102
RTVSPost2010PropOp44
 70
     1
102
RTVSPost2010Prop45
280
     0
102
RTVSPost2010PropOp45
 70
     1
102
RTVSPost2010Prop46
 90
       50
102
RTVSPost2010PropOp46
 70
     1
102
RTVSPost2010Prop47
 90
       50
102
RTVSPost2010PropOp47
 70
     1
102
RTVSPost2010Prop48
 90
       50
102
RTVSPost2010PropOp48
 70
     1
102
RTVSPost2010Prop49
280
     0
102
RTVSPost2010PropOp49
 70
     1
102
RTVSPost2010Prop50
 90
       50
102
RTVSPost2010PropOp50
 70
     1
102
RTVSPost2010Prop51ColorIndex
 90
      256
102
RTVSPost2010Prop51ColorRGB
 90
-16777216
102
RTVSPost2010PropOp51
 70
     0
102
RTVSPost2010Prop52
140
1.0
102
RTVSPost2010PropOp52
 70
     0
102
RTVSPost2010Prop53
 90
        2
102
RTVSPost2010PropOp53
 70
     1
102
RTVSPost2010Prop54
  1
strokes_ogs.tif
102
RTVSPost2010PropOp54
 70
     1
102
RTVSPost2010Prop55
280
     0
102
RTVSPost2010PropOp55
 70
     1
102
RTVSPost2010Prop56
140
1.0
102
RTVSPost2010PropOp56
 70
     1
102
RTVSPost2010Prop57
140
1.0
102
RTVSPost2010PropOp57
 70
     1
102
RTVSPropertyOp0
 70
     1
102
RTVSPropertyOp1
 70
     1
102
RTVSPropertyOp2
 70
     1
102
RTVSPropertyOp3
 70
     1
102
RTVSPropertyOp4
 70
     1
102
RTVSPropertyOp5
 70
     1
102
RTVSPropertyOp6
 70
     1
102
RTVSPropertyOp7
 70
     1
102
RTVSPropertyOp8
 70
     1
102
RTVSPropertyOp9
 70
     1
102
RTVSPropertyOp10
 70
     1
102
RTVSPropertyOp11
 70
     1
102
RTVSPropertyOp12
 70
     1
102
RTVSPropertyOp13
 70
     1
102
RTVSPropertyOp14
 70
     1
102
RTVSPropertyOp15
 70
     1
102
RTVSPropertyOp16
 70
     1
102
RTVSPropertyOp17
 70
     1
102
RTVSPropertyOp18
 70
     1
102
RTVSPropertyOp19
 70
     1
102
RTVSPropertyOp20
 70
     1
102
RTVSPropertyOp21
 70
     1
102
RTVSPropertyOp22
 70
     1
102
RTVSPropertyOp23
 70
     1
102
RTVSPropertyOp24
 70
     1
102
RTVSPropertyOp25
 70
     1
102
RTVSPropertyOp26
 70
     1
102
RTVSPropertyOp27
 70
     1
102
RTVSPropertyOp28
 70
     1
102
RTVSPropertyOp29
 70
     1
102
RTVSPropertyOp30
 70
     1
102
RTVSPropertyOp31
 70
     1
102
RTVSPropertyOp32
 70
     1
102
RTVSPropertyOp33
 70
     1
102
RTVSPropertyOp34
 70
     1
102
RTVSPropertyOp35
 70
     1
102
RTVSPropertyOp36
 70
     1
102
RTVSPropertyOp37
 70
     1
102
RTVSPropertyOp38
 70
     1
102
RTVSPropertyOp39
 70
     1
102
RTVSPropertyOp40
 70
     1
102
RTVSPropertyOp41
 70
     1
102
RTVSPropertyOp42
 70
     1
102
RTVSPropertyOp43
 70
     1
102
RTVSPropertyOp44
 70
     1
102
RTVSPropertyOp45
 70
     1
102
RTVSPropertyOp46
 70
     1
102
RTVSPropertyOp47
 70
     1
102
RTVSPropertyOp48
 70
     1
102
RTVSPropertyOp49
 70
     1
102
RTVSPropertyOp50
 70
     1
102
RTVSPropertyOp51
 70
     0
102
RTVSPropertyOp52
 70
     0
102
RTVSPropertyOp53
 70
     1
102
RTVSPropertyOp54
 70
     1
102
RTVSPropertyOp55
 70
     1
102
RTVSPropertyOp56
 70
     1
102
RTVSPropertyOp57
 70
     1
102
RTVSPropertyOp58
 70
     1
102
RTVSPropertyOp59
 70
     1
102
RTVSPropertyOp60
 70
     1
102
RTVSPropertyOp61
 70
     1
102
RTVSPropertyOp62
 70
     1
  0
XRECORD
  5
604A
102
{ACAD_REACTORS
330
6049
102
}
330
6049
100
AcDbXrecord
280
     1
102
RTVSPost2010Prop28
280
     0
102
RTVSPost2010PropOp28
 70
     1
102
RTVSPost2010Prop29
280
     1
102
RTVSPost2010PropOp29
 70
     1
102
RTVSPost2010Prop30
280
     1
102
RTVSPost2010PropOp30
 70
     1
102
RTVSPost2010Prop31
280
     0
102
RTVSPost2010PropOp31
 70
     1
102
RTVSPost2010Prop32
280
     0
102
RTVSPost2010PropOp32
 70
     1
102
RTVSPost2010Prop33
280
     0
102
RTVSPost2010PropOp33
 70
     1
102
RTVSPost2010Prop34
280
     0
102
RTVSPost2010PropOp34
 70
     1
102
RTVSPost2010Prop35
280
     0
102
RTVSPost2010PropOp35
 70
     1
102
RTVSPost2010Prop36
280
     0
102
RTVSPost2010PropOp36
 70
     1
102
RTVSPost2010Prop37
 90
       50
102
RTVSPost2010PropOp37
 70
     1
102
RTVSPost2010Prop38
140
0.0
102
RTVSPost2010PropOp38
 70
     1
102
RTVSPost2010Prop39
140
1.0
102
RTVSPost2010PropOp39
 70
     1
102
RTVSPost2010Prop40
 90
        0
102
RTVSPost2010PropOp40
 70
     1
102
RTVSPost2010Prop41ColorIndex
 90
       18
102
RTVSPost2010Prop41ColorRGB
 90
        0
102
RTVSPost2010PropOp41
 70
     1
102
RTVSPost2010Prop42
 90
       50
102
RTVSPost2010PropOp42
 70
     1
102
RTVSPost2010Prop43
 90
        3
102
RTVSPost2010PropOp43
 70
     1
102
RTVSPost2010Prop44ColorIndex
 90
        5
102
RTVSPost2010Prop44ColorRGB
 90
      255
102
RTVSPost2010PropOp44
 70
     1
102
RTVSPost2010Prop45
280
     0
102
RTVSPost2010PropOp45
 70
     1
102
RTVSPost2010Prop46
 90
       50
102
RTVSPost2010PropOp46
 70
     1
102
RTVSPost2010Prop47
 90
       50
102
RTVSPost2010PropOp47
 70
     1
102
RTVSPost2010Prop48
 90
       50
102
RTVSPost2010PropOp48
 70
     1
102
RTVSPost2010Prop49
280
     0
102
RTVSPost2010PropOp49
 70
     1
102
RTVSPost2010Prop50
 90
       50
102
RTVSPost2010PropOp50
 70
     1
102
RTVSPost2010Prop51ColorIndex
 90
      256
102
RTVSPost2010Prop51ColorRGB
 90
-16777216
102
RTVSPost2010PropOp51
 70
     0
102
RTVSPost2010Prop52
140
1.0
102
RTVSPost2010PropOp52
 70
     0
102
RTVSPost2010Prop53
 90
        2
102
RTVSPost2010PropOp53
 70
     1
102
RTVSPost2010Prop54
  1
strokes_ogs.tif
102
RTVSPost2010PropOp54
 70
     1
102
RTVSPost2010Prop55
280
     0
102
RTVSPost2010PropOp55
 70
     1
102
RTVSPost2010Prop56
140
1.0
102
RTVSPost2010PropOp56
 70
     1
102
RTVSPost2010Prop57
140
1.0
102
RTVSPost2010PropOp57
 70
     1
102
RTVSPropertyOp0
 70
     1
102
RTVSPropertyOp1
 70
     1
102
RTVSPropertyOp2
 70
     1
102
RTVSPropertyOp3
 70
     1
102
RTVSPropertyOp4
 70
     1
102
RTVSPropertyOp5
 70
     1
102
RTVSPropertyOp6
 70
     1
102
RTVSPropertyOp7
 70
     1
102
RTVSPropertyOp8
 70
     1
102
RTVSPropertyOp9
 70
     1
102
RTVSPropertyOp10
 70
     1
102
RTVSPropertyOp11
 70
     1
102
RTVSPropertyOp12
 70
     1
102
RTVSPropertyOp13
 70
     1
102
RTVSPropertyOp14
 70
     1
102
RTVSPropertyOp15
 70
     1
102
RTVSPropertyOp16
 70
     1
102
RTVSPropertyOp17
 70
     1
102
RTVSPropertyOp18
 70
     1
102
RTVSPropertyOp19
 70
     1
102
RTVSPropertyOp20
 70
     1
102
RTVSPropertyOp21
 70
     1
102
RTVSPropertyOp22
 70
     1
102
RTVSPropertyOp23
 70
     1
102
RTVSPropertyOp24
 70
     1
102
RTVSPropertyOp25
 70
     1
102
RTVSPropertyOp26
 70
     1
102
RTVSPropertyOp27
 70
     1
102
RTVSPropertyOp28
 70
     1
102
RTVSPropertyOp29
 70
     1
102
RTVSPropertyOp30
 70
     1
102
RTVSPropertyOp31
 70
     1
102
RTVSPropertyOp32
 70
     1
102
RTVSPropertyOp33
 70
     1
102
RTVSPropertyOp34
 70
     1
102
RTVSPropertyOp35
 70
     1
102
RTVSPropertyOp36
 70
     1
102
RTVSPropertyOp37
 70
     1
102
RTVSPropertyOp38
 70
     1
102
RTVSPropertyOp39
 70
     1
102
RTVSPropertyOp40
 70
     1
102
RTVSPropertyOp41
 70
     1
102
RTVSPropertyOp42
 70
     1
102
RTVSPropertyOp43
 70
     1
102
RTVSPropertyOp44
 70
     1
102
RTVSPropertyOp45
 70
     1
102
RTVSPropertyOp46
 70
     1
102
RTVSPropertyOp47
 70
     1
102
RTVSPropertyOp48
 70
     1
102
RTVSPropertyOp49
 70
     1
102
RTVSPropertyOp50
 70
     1
102
RTVSPropertyOp51
 70
     0
102
RTVSPropertyOp52
 70
     0
102
RTVSPropertyOp53
 70
     1
102
RTVSPropertyOp54
 70
     1
102
RTVSPropertyOp55
 70
     1
102
RTVSPropertyOp56
 70
     1
102
RTVSPropertyOp57
 70
     1
102
RTVSPropertyOp58
 70
     1
102
RTVSPropertyOp59
 70
     1
102
RTVSPropertyOp60
 70
     1
102
RTVSPropertyOp61
 70
     1
102
RTVSPropertyOp62
 70
     1
  0
XRECORD
  5
6048
102
{ACAD_REACTORS
330
6047
102
}
330
6047
100
AcDbXrecord
280
     1
102
RTVSPost2010Prop28
280
     0
102
RTVSPost2010PropOp28
 70
     1
102
RTVSPost2010Prop29
280
     1
102
RTVSPost2010PropOp29
 70
     1
102
RTVSPost2010Prop30
280
     1
102
RTVSPost2010PropOp30
 70
     1
102
RTVSPost2010Prop31
280
     0
102
RTVSPost2010PropOp31
 70
     1
102
RTVSPost2010Prop32
280
     0
102
RTVSPost2010PropOp32
 70
     1
102
RTVSPost2010Prop33
280
     0
102
RTVSPost2010PropOp33
 70
     1
102
RTVSPost2010Prop34
280
     0
102
RTVSPost2010PropOp34
 70
     1
102
RTVSPost2010Prop35
280
     0
102
RTVSPost2010PropOp35
 70
     1
102
RTVSPost2010Prop36
280
     0
102
RTVSPost2010PropOp36
 70
     1
102
RTVSPost2010Prop37
 90
       50
102
RTVSPost2010PropOp37
 70
     1
102
RTVSPost2010Prop38
140
0.0
102
RTVSPost2010PropOp38
 70
     1
102
RTVSPost2010Prop39
140
1.0
102
RTVSPost2010PropOp39
 70
     1
102
RTVSPost2010Prop40
 90
        0
102
RTVSPost2010PropOp40
 70
     1
102
RTVSPost2010Prop41ColorIndex
 90
       18
102
RTVSPost2010Prop41ColorRGB
 90
        0
102
RTVSPost2010PropOp41
 70
     1
102
RTVSPost2010Prop42
 90
       50
102
RTVSPost2010PropOp42
 70
     1
102
RTVSPost2010Prop43
 90
        3
102
RTVSPost2010PropOp43
 70
     1
102
RTVSPost2010Prop44ColorIndex
 90
        5
102
RTVSPost2010Prop44ColorRGB
 90
      255
102
RTVSPost2010PropOp44
 70
     1
102
RTVSPost2010Prop45
280
     0
102
RTVSPost2010PropOp45
 70
     1
102
RTVSPost2010Prop46
 90
       50
102
RTVSPost2010PropOp46
 70
     1
102
RTVSPost2010Prop47
 90
       50
102
RTVSPost2010PropOp47
 70
     1
102
RTVSPost2010Prop48
 90
       50
102
RTVSPost2010PropOp48
 70
     1
102
RTVSPost2010Prop49
280
     0
102
RTVSPost2010PropOp49
 70
     1
102
RTVSPost2010Prop50
 90
       50
102
RTVSPost2010PropOp50
 70
     1
102
RTVSPost2010Prop51ColorIndex
 90
      256
102
RTVSPost2010Prop51ColorRGB
 90
-16777216
102
RTVSPost2010PropOp51
 70
     0
102
RTVSPost2010Prop52
140
1.0
102
RTVSPost2010PropOp52
 70
     0
102
RTVSPost2010Prop53
 90
        2
102
RTVSPost2010PropOp53
 70
     1
102
RTVSPost2010Prop54
  1
strokes_ogs.tif
102
RTVSPost2010PropOp54
 70
     1
102
RTVSPost2010Prop55
280
     0
102
RTVSPost2010PropOp55
 70
     1
102
RTVSPost2010Prop56
140
1.0
102
RTVSPost2010PropOp56
 70
     1
102
RTVSPost2010Prop57
140
1.0
102
RTVSPost2010PropOp57
 70
     1
102
RTVSPropertyOp0
 70
     1
102
RTVSPropertyOp1
 70
     1
102
RTVSPropertyOp2
 70
     1
102
RTVSPropertyOp3
 70
     1
102
RTVSPropertyOp4
 70
     1
102
RTVSPropertyOp5
 70
     1
102
RTVSPropertyOp6
 70
     1
102
RTVSPropertyOp7
 70
     1
102
RTVSPropertyOp8
 70
     1
102
RTVSPropertyOp9
 70
     1
102
RTVSPropertyOp10
 70
     1
102
RTVSPropertyOp11
 70
     1
102
RTVSPropertyOp12
 70
     1
102
RTVSPropertyOp13
 70
     1
102
RTVSPropertyOp14
 70
     1
102
RTVSPropertyOp15
 70
     1
102
RTVSPropertyOp16
 70
     1
102
RTVSPropertyOp17
 70
     1
102
RTVSPropertyOp18
 70
     1
102
RTVSPropertyOp19
 70
     1
102
RTVSPropertyOp20
 70
     1
102
RTVSPropertyOp21
 70
     1
102
RTVSPropertyOp22
 70
     1
102
RTVSPropertyOp23
 70
     1
102
RTVSPropertyOp24
 70
     1
102
RTVSPropertyOp25
 70
     1
102
RTVSPropertyOp26
 70
     1
102
RTVSPropertyOp27
 70
     1
102
RTVSPropertyOp28
 70
     1
102
RTVSPropertyOp29
 70
     1
102
RTVSPropertyOp30
 70
     1
102
RTVSPropertyOp31
 70
     1
102
RTVSPropertyOp32
 70
     1
102
RTVSPropertyOp33
 70
     1
102
RTVSPropertyOp34
 70
     1
102
RTVSPropertyOp35
 70
     1
102
RTVSPropertyOp36
 70
     1
102
RTVSPropertyOp37
 70
     1
102
RTVSPropertyOp38
 70
     1
102
RTVSPropertyOp39
 70
     1
102
RTVSPropertyOp40
 70
     1
102
RTVSPropertyOp41
 70
     1
102
RTVSPropertyOp42
 70
     1
102
RTVSPropertyOp43
 70
     1
102
RTVSPropertyOp44
 70
     1
102
RTVSPropertyOp45
 70
     1
102
RTVSPropertyOp46
 70
     1
102
RTVSPropertyOp47
 70
     1
102
RTVSPropertyOp48
 70
     1
102
RTVSPropertyOp49
 70
     1
102
RTVSPropertyOp50
 70
     1
102
RTVSPropertyOp51
 70
     0
102
RTVSPropertyOp52
 70
     0
102
RTVSPropertyOp53
 70
     1
102
RTVSPropertyOp54
 70
     1
102
RTVSPropertyOp55
 70
     1
102
RTVSPropertyOp56
 70
     1
102
RTVSPropertyOp57
 70
     1
102
RTVSPropertyOp58
 70
     1
102
RTVSPropertyOp59
 70
     1
102
RTVSPropertyOp60
 70
     1
102
RTVSPropertyOp61
 70
     1
102
RTVSPropertyOp62
 70
     1
  0
XRECORD
  5
6042
102
{ACAD_REACTORS
330
6041
102
}
330
6041
100
AcDbXrecord
280
     1
102
RTVSPost2010Prop28
280
     0
102
RTVSPost2010PropOp28
 70
     1
102
RTVSPost2010Prop29
280
     1
102
RTVSPost2010PropOp29
 70
     1
102
RTVSPost2010Prop30
280
     1
102
RTVSPost2010PropOp30
 70
     1
102
RTVSPost2010Prop31
280
     0
102
RTVSPost2010PropOp31
 70
     1
102
RTVSPost2010Prop32
280
     0
102
RTVSPost2010PropOp32
 70
     1
102
RTVSPost2010Prop33
280
     0
102
RTVSPost2010PropOp33
 70
     1
102
RTVSPost2010Prop34
280
     0
102
RTVSPost2010PropOp34
 70
     1
102
RTVSPost2010Prop35
280
     0
102
RTVSPost2010PropOp35
 70
     1
102
RTVSPost2010Prop36
280
     0
102
RTVSPost2010PropOp36
 70
     1
102
RTVSPost2010Prop37
 90
       50
102
RTVSPost2010PropOp37
 70
     1
102
RTVSPost2010Prop38
140
0.0
102
RTVSPost2010PropOp38
 70
     1
102
RTVSPost2010Prop39
140
1.0
102
RTVSPost2010PropOp39
 70
     1
102
RTVSPost2010Prop40
 90
        0
102
RTVSPost2010PropOp40
 70
     1
102
RTVSPost2010Prop41ColorIndex
 90
       18
102
RTVSPost2010Prop41ColorRGB
 90
        0
102
RTVSPost2010PropOp41
 70
     1
102
RTVSPost2010Prop42
 90
       50
102
RTVSPost2010PropOp42
 70
     1
102
RTVSPost2010Prop43
 90
        3
102
RTVSPost2010PropOp43
 70
     1
102
RTVSPost2010Prop44ColorIndex
 90
        5
102
RTVSPost2010Prop44ColorRGB
 90
      255
102
RTVSPost2010PropOp44
 70
     1
102
RTVSPost2010Prop45
280
     0
102
RTVSPost2010PropOp45
 70
     1
102
RTVSPost2010Prop46
 90
       50
102
RTVSPost2010PropOp46
 70
     1
102
RTVSPost2010Prop47
 90
       50
102
RTVSPost2010PropOp47
 70
     1
102
RTVSPost2010Prop48
 90
       50
102
RTVSPost2010PropOp48
 70
     1
102
RTVSPost2010Prop49
280
     0
102
RTVSPost2010PropOp49
 70
     1
102
RTVSPost2010Prop50
 90
       50
102
RTVSPost2010PropOp50
 70
     1
102
RTVSPost2010Prop51ColorIndex
 90
      256
102
RTVSPost2010Prop51ColorRGB
 90
-16777216
102
RTVSPost2010PropOp51
 70
     0
102
RTVSPost2010Prop52
140
1.0
102
RTVSPost2010PropOp52
 70
     0
102
RTVSPost2010Prop53
 90
        2
102
RTVSPost2010PropOp53
 70
     1
102
RTVSPost2010Prop54
  1
strokes_ogs.tif
102
RTVSPost2010PropOp54
 70
     1
102
RTVSPost2010Prop55
280
     0
102
RTVSPost2010PropOp55
 70
     1
102
RTVSPost2010Prop56
140
1.0
102
RTVSPost2010PropOp56
 70
     1
102
RTVSPost2010Prop57
140
1.0
102
RTVSPost2010PropOp57
 70
     1
102
RTVSPropertyOp0
 70
     1
102
RTVSPropertyOp1
 70
     1
102
RTVSPropertyOp2
 70
     1
102
RTVSPropertyOp3
 70
     1
102
RTVSPropertyOp4
 70
     1
102
RTVSPropertyOp5
 70
     1
102
RTVSPropertyOp6
 70
     1
102
RTVSPropertyOp7
 70
     1
102
RTVSPropertyOp8
 70
     1
102
RTVSPropertyOp9
 70
     1
102
RTVSPropertyOp10
 70
     1
102
RTVSPropertyOp11
 70
     1
102
RTVSPropertyOp12
 70
     1
102
RTVSPropertyOp13
 70
     1
102
RTVSPropertyOp14
 70
     1
102
RTVSPropertyOp15
 70
     1
102
RTVSPropertyOp16
 70
     1
102
RTVSPropertyOp17
 70
     1
102
RTVSPropertyOp18
 70
     1
102
RTVSPropertyOp19
 70
     1
102
RTVSPropertyOp20
 70
     1
102
RTVSPropertyOp21
 70
     1
102
RTVSPropertyOp22
 70
     1
102
RTVSPropertyOp23
 70
     1
102
RTVSPropertyOp24
 70
     1
102
RTVSPropertyOp25
 70
     1
102
RTVSPropertyOp26
 70
     1
102
RTVSPropertyOp27
 70
     1
102
RTVSPropertyOp28
 70
     1
102
RTVSPropertyOp29
 70
     1
102
RTVSPropertyOp30
 70
     1
102
RTVSPropertyOp31
 70
     1
102
RTVSPropertyOp32
 70
     1
102
RTVSPropertyOp33
 70
     1
102
RTVSPropertyOp34
 70
     1
102
RTVSPropertyOp35
 70
     1
102
RTVSPropertyOp36
 70
     1
102
RTVSPropertyOp37
 70
     1
102
RTVSPropertyOp38
 70
     1
102
RTVSPropertyOp39
 70
     1
102
RTVSPropertyOp40
 70
     1
102
RTVSPropertyOp41
 70
     1
102
RTVSPropertyOp42
 70
     1
102
RTVSPropertyOp43
 70
     1
102
RTVSPropertyOp44
 70
     1
102
RTVSPropertyOp45
 70
     1
102
RTVSPropertyOp46
 70
     1
102
RTVSPropertyOp47
 70
     1
102
RTVSPropertyOp48
 70
     1
102
RTVSPropertyOp49
 70
     1
102
RTVSPropertyOp50
 70
     1
102
RTVSPropertyOp51
 70
     0
102
RTVSPropertyOp52
 70
     0
102
RTVSPropertyOp53
 70
     1
102
RTVSPropertyOp54
 70
     1
102
RTVSPropertyOp55
 70
     1
102
RTVSPropertyOp56
 70
     1
102
RTVSPropertyOp57
 70
     1
102
RTVSPropertyOp58
 70
     1
102
RTVSPropertyOp59
 70
     1
102
RTVSPropertyOp60
 70
     1
102
RTVSPropertyOp61
 70
     1
102
RTVSPropertyOp62
 70
     1
  0
XRECORD
  5
6044
102
{ACAD_REACTORS
330
6043
102
}
330
6043
100
AcDbXrecord
280
     1
102
RTVSPost2010Prop28
280
     0
102
RTVSPost2010PropOp28
 70
     1
102
RTVSPost2010Prop29
280
     1
102
RTVSPost2010PropOp29
 70
     1
102
RTVSPost2010Prop30
280
     1
102
RTVSPost2010PropOp30
 70
     1
102
RTVSPost2010Prop31
280
     0
102
RTVSPost2010PropOp31
 70
     1
102
RTVSPost2010Prop32
280
     0
102
RTVSPost2010PropOp32
 70
     1
102
RTVSPost2010Prop33
280
     0
102
RTVSPost2010PropOp33
 70
     1
102
RTVSPost2010Prop34
280
     0
102
RTVSPost2010PropOp34
 70
     1
102
RTVSPost2010Prop35
280
     0
102
RTVSPost2010PropOp35
 70
     1
102
RTVSPost2010Prop36
280
     0
102
RTVSPost2010PropOp36
 70
     1
102
RTVSPost2010Prop37
 90
       50
102
RTVSPost2010PropOp37
 70
     1
102
RTVSPost2010Prop38
140
0.0
102
RTVSPost2010PropOp38
 70
     1
102
RTVSPost2010Prop39
140
1.0
102
RTVSPost2010PropOp39
 70
     1
102
RTVSPost2010Prop40
 90
        0
102
RTVSPost2010PropOp40
 70
     1
102
RTVSPost2010Prop41ColorIndex
 90
       18
102
RTVSPost2010Prop41ColorRGB
 90
        0
102
RTVSPost2010PropOp41
 70
     1
102
RTVSPost2010Prop42
 90
       50
102
RTVSPost2010PropOp42
 70
     1
102
RTVSPost2010Prop43
 90
        3
102
RTVSPost2010PropOp43
 70
     1
102
RTVSPost2010Prop44ColorIndex
 90
        5
102
RTVSPost2010Prop44ColorRGB
 90
      255
102
RTVSPost2010PropOp44
 70
     1
102
RTVSPost2010Prop45
280
     0
102
RTVSPost2010PropOp45
 70
     1
102
RTVSPost2010Prop46
 90
       50
102
RTVSPost2010PropOp46
 70
     1
102
RTVSPost2010Prop47
 90
       50
102
RTVSPost2010PropOp47
 70
     1
102
RTVSPost2010Prop48
 90
       50
102
RTVSPost2010PropOp48
 70
     1
102
RTVSPost2010Prop49
280
     0
102
RTVSPost2010PropOp49
 70
     1
102
RTVSPost2010Prop50
 90
       50
102
RTVSPost2010PropOp50
 70
     1
102
RTVSPost2010Prop51ColorIndex
 90
      256
102
RTVSPost2010Prop51ColorRGB
 90
-16777216
102
RTVSPost2010PropOp51
 70
     0
102
RTVSPost2010Prop52
140
1.0
102
RTVSPost2010PropOp52
 70
     0
102
RTVSPost2010Prop53
 90
        2
102
RTVSPost2010PropOp53
 70
     1
102
RTVSPost2010Prop54
  1
strokes_ogs.tif
102
RTVSPost2010PropOp54
 70
     1
102
RTVSPost2010Prop55
280
     0
102
RTVSPost2010PropOp55
 70
     1
102
RTVSPost2010Prop56
140
1.0
102
RTVSPost2010PropOp56
 70
     1
102
RTVSPost2010Prop57
140
1.0
102
RTVSPost2010PropOp57
 70
     1
102
RTVSPropertyOp0
 70
     1
102
RTVSPropertyOp1
 70
     1
102
RTVSPropertyOp2
 70
     1
102
RTVSPropertyOp3
 70
     1
102
RTVSPropertyOp4
 70
     1
102
RTVSPropertyOp5
 70
     1
102
RTVSPropertyOp6
 70
     1
102
RTVSPropertyOp7
 70
     1
102
RTVSPropertyOp8
 70
     1
102
RTVSPropertyOp9
 70
     1
102
RTVSPropertyOp10
 70
     1
102
RTVSPropertyOp11
 70
     1
102
RTVSPropertyOp12
 70
     1
102
RTVSPropertyOp13
 70
     1
102
RTVSPropertyOp14
 70
     1
102
RTVSPropertyOp15
 70
     1
102
RTVSPropertyOp16
 70
     1
102
RTVSPropertyOp17
 70
     1
102
RTVSPropertyOp18
 70
     1
102
RTVSPropertyOp19
 70
     1
102
RTVSPropertyOp20
 70
     1
102
RTVSPropertyOp21
 70
     1
102
RTVSPropertyOp22
 70
     1
102
RTVSPropertyOp23
 70
     1
102
RTVSPropertyOp24
 70
     1
102
RTVSPropertyOp25
 70
     1
102
RTVSPropertyOp26
 70
     1
102
RTVSPropertyOp27
 70
     1
102
RTVSPropertyOp28
 70
     1
102
RTVSPropertyOp29
 70
     1
102
RTVSPropertyOp30
 70
     1
102
RTVSPropertyOp31
 70
     1
102
RTVSPropertyOp32
 70
     1
102
RTVSPropertyOp33
 70
     1
102
RTVSPropertyOp34
 70
     1
102
RTVSPropertyOp35
 70
     1
102
RTVSPropertyOp36
 70
     1
102
RTVSPropertyOp37
 70
     1
102
RTVSPropertyOp38
 70
     1
102
RTVSPropertyOp39
 70
     1
102
RTVSPropertyOp40
 70
     1
102
RTVSPropertyOp41
 70
     1
102
RTVSPropertyOp42
 70
     1
102
RTVSPropertyOp43
 70
     1
102
RTVSPropertyOp44
 70
     1
102
RTVSPropertyOp45
 70
     1
102
RTVSPropertyOp46
 70
     1
102
RTVSPropertyOp47
 70
     1
102
RTVSPropertyOp48
 70
     1
102
RTVSPropertyOp49
 70
     1
102
RTVSPropertyOp50
 70
     1
102
RTVSPropertyOp51
 70
     0
102
RTVSPropertyOp52
 70
     0
102
RTVSPropertyOp53
 70
     1
102
RTVSPropertyOp54
 70
     1
102
RTVSPropertyOp55
 70
     1
102
RTVSPropertyOp56
 70
     1
102
RTVSPropertyOp57
 70
     1
102
RTVSPropertyOp58
 70
     1
102
RTVSPropertyOp59
 70
     1
102
RTVSPropertyOp60
 70
     1
102
RTVSPropertyOp61
 70
     1
102
RTVSPropertyOp62
 70
     1
  0
XRECORD
  5
603A
102
{ACAD_REACTORS
330
6039
102
}
330
6039
100
AcDbXrecord
280
     1
102
RTVSPost2010Prop28
280
     0
102
RTVSPost2010PropOp28
 70
     1
102
RTVSPost2010Prop29
280
     1
102
RTVSPost2010PropOp29
 70
     1
102
RTVSPost2010Prop30
280
     1
102
RTVSPost2010PropOp30
 70
     1
102
RTVSPost2010Prop31
280
     0
102
RTVSPost2010PropOp31
 70
     1
102
RTVSPost2010Prop32
280
     0
102
RTVSPost2010PropOp32
 70
     1
102
RTVSPost2010Prop33
280
     0
102
RTVSPost2010PropOp33
 70
     1
102
RTVSPost2010Prop34
280
     0
102
RTVSPost2010PropOp34
 70
     1
102
RTVSPost2010Prop35
280
     0
102
RTVSPost2010PropOp35
 70
     1
102
RTVSPost2010Prop36
280
     0
102
RTVSPost2010PropOp36
 70
     1
102
RTVSPost2010Prop37
 90
       50
102
RTVSPost2010PropOp37
 70
     1
102
RTVSPost2010Prop38
140
0.0
102
RTVSPost2010PropOp38
 70
     1
102
RTVSPost2010Prop39
140
1.0
102
RTVSPost2010PropOp39
 70
     1
102
RTVSPost2010Prop40
 90
        0
102
RTVSPost2010PropOp40
 70
     1
102
RTVSPost2010Prop41ColorIndex
 90
       18
102
RTVSPost2010Prop41ColorRGB
 90
        0
102
RTVSPost2010PropOp41
 70
     1
102
RTVSPost2010Prop42
 90
       50
102
RTVSPost2010PropOp42
 70
     1
102
RTVSPost2010Prop43
 90
        3
102
RTVSPost2010PropOp43
 70
     1
102
RTVSPost2010Prop44ColorIndex
 90
        5
102
RTVSPost2010Prop44ColorRGB
 90
      255
102
RTVSPost2010PropOp44
 70
     1
102
RTVSPost2010Prop45
280
     0
102
RTVSPost2010PropOp45
 70
     1
102
RTVSPost2010Prop46
 90
       50
102
RTVSPost2010PropOp46
 70
     1
102
RTVSPost2010Prop47
 90
       50
102
RTVSPost2010PropOp47
 70
     1
102
RTVSPost2010Prop48
 90
       50
102
RTVSPost2010PropOp48
 70
     1
102
RTVSPost2010Prop49
280
     0
102
RTVSPost2010PropOp49
 70
     1
102
RTVSPost2010Prop50
 90
       50
102
RTVSPost2010PropOp50
 70
     1
102
RTVSPost2010Prop51ColorIndex
 90
      256
102
RTVSPost2010Prop51ColorRGB
 90
-16777216
102
RTVSPost2010PropOp51
 70
     0
102
RTVSPost2010Prop52
140
1.0
102
RTVSPost2010PropOp52
 70
     0
102
RTVSPost2010Prop53
 90
        2
102
RTVSPost2010PropOp53
 70
     1
102
RTVSPost2010Prop54
  1
strokes_ogs.tif
102
RTVSPost2010PropOp54
 70
     1
102
RTVSPost2010Prop55
280
     0
102
RTVSPost2010PropOp55
 70
     1
102
RTVSPost2010Prop56
140
1.0
102
RTVSPost2010PropOp56
 70
     1
102
RTVSPost2010Prop57
140
1.0
102
RTVSPost2010PropOp57
 70
     1
102
RTVSPropertyOp0
 70
     1
102
RTVSPropertyOp1
 70
     1
102
RTVSPropertyOp2
 70
     1
102
RTVSPropertyOp3
 70
     1
102
RTVSPropertyOp4
 70
     1
102
RTVSPropertyOp5
 70
     1
102
RTVSPropertyOp6
 70
     1
102
RTVSPropertyOp7
 70
     1
102
RTVSPropertyOp8
 70
     1
102
RTVSPropertyOp9
 70
     1
102
RTVSPropertyOp10
 70
     1
102
RTVSPropertyOp11
 70
     1
102
RTVSPropertyOp12
 70
     1
102
RTVSPropertyOp13
 70
     1
102
RTVSPropertyOp14
 70
     1
102
RTVSPropertyOp15
 70
     1
102
RTVSPropertyOp16
 70
     1
102
RTVSPropertyOp17
 70
     1
102
RTVSPropertyOp18
 70
     1
102
RTVSPropertyOp19
 70
     1
102
RTVSPropertyOp20
 70
     1
102
RTVSPropertyOp21
 70
     1
102
RTVSPropertyOp22
 70
     1
102
RTVSPropertyOp23
 70
     1
102
RTVSPropertyOp24
 70
     1
102
RTVSPropertyOp25
 70
     1
102
RTVSPropertyOp26
 70
     1
102
RTVSPropertyOp27
 70
     1
102
RTVSPropertyOp28
 70
     1
102
RTVSPropertyOp29
 70
     1
102
RTVSPropertyOp30
 70
     1
102
RTVSPropertyOp31
 70
     1
102
RTVSPropertyOp32
 70
     1
102
RTVSPropertyOp33
 70
     1
102
RTVSPropertyOp34
 70
     1
102
RTVSPropertyOp35
 70
     1
102
RTVSPropertyOp36
 70
     1
102
RTVSPropertyOp37
 70
     1
102
RTVSPropertyOp38
 70
     1
102
RTVSPropertyOp39
 70
     1
102
RTVSPropertyOp40
 70
     1
102
RTVSPropertyOp41
 70
     1
102
RTVSPropertyOp42
 70
     1
102
RTVSPropertyOp43
 70
     1
102
RTVSPropertyOp44
 70
     1
102
RTVSPropertyOp45
 70
     1
102
RTVSPropertyOp46
 70
     1
102
RTVSPropertyOp47
 70
     1
102
RTVSPropertyOp48
 70
     1
102
RTVSPropertyOp49
 70
     1
102
RTVSPropertyOp50
 70
     1
102
RTVSPropertyOp51
 70
     0
102
RTVSPropertyOp52
 70
     0
102
RTVSPropertyOp53
 70
     1
102
RTVSPropertyOp54
 70
     1
102
RTVSPropertyOp55
 70
     1
102
RTVSPropertyOp56
 70
     1
102
RTVSPropertyOp57
 70
     1
102
RTVSPropertyOp58
 70
     1
102
RTVSPropertyOp59
 70
     1
102
RTVSPropertyOp60
 70
     1
102
RTVSPropertyOp61
 70
     1
102
RTVSPropertyOp62
 70
     1
  0
XRECORD
  5
602E
102
{ACAD_REACTORS
330
602D
102
}
330
602D
100
AcDbXrecord
280
     1
102
RTVSPost2010Prop28
280
     0
102
RTVSPost2010PropOp28
 70
     1
102
RTVSPost2010Prop29
280
     1
102
RTVSPost2010PropOp29
 70
     1
102
RTVSPost2010Prop30
280
     1
102
RTVSPost2010PropOp30
 70
     1
102
RTVSPost2010Prop31
280
     0
102
RTVSPost2010PropOp31
 70
     1
102
RTVSPost2010Prop32
280
     0
102
RTVSPost2010PropOp32
 70
     1
102
RTVSPost2010Prop33
280
     0
102
RTVSPost2010PropOp33
 70
     1
102
RTVSPost2010Prop34
280
     0
102
RTVSPost2010PropOp34
 70
     1
102
RTVSPost2010Prop35
280
     0
102
RTVSPost2010PropOp35
 70
     1
102
RTVSPost2010Prop36
280
     0
102
RTVSPost2010PropOp36
 70
     1
102
RTVSPost2010Prop37
 90
       50
102
RTVSPost2010PropOp37
 70
     1
102
RTVSPost2010Prop38
140
0.0
102
RTVSPost2010PropOp38
 70
     1
102
RTVSPost2010Prop39
140
1.0
102
RTVSPost2010PropOp39
 70
     1
102
RTVSPost2010Prop40
 90
        0
102
RTVSPost2010PropOp40
 70
     1
102
RTVSPost2010Prop41ColorIndex
 90
       18
102
RTVSPost2010Prop41ColorRGB
 90
        0
102
RTVSPost2010PropOp41
 70
     1
102
RTVSPost2010Prop42
 90
       50
102
RTVSPost2010PropOp42
 70
     1
102
RTVSPost2010Prop43
 90
        3
102
RTVSPost2010PropOp43
 70
     1
102
RTVSPost2010Prop44ColorIndex
 90
        5
102
RTVSPost2010Prop44ColorRGB
 90
      255
102
RTVSPost2010PropOp44
 70
     1
102
RTVSPost2010Prop45
280
     0
102
RTVSPost2010PropOp45
 70
     1
102
RTVSPost2010Prop46
 90
       50
102
RTVSPost2010PropOp46
 70
     1
102
RTVSPost2010Prop47
 90
       50
102
RTVSPost2010PropOp47
 70
     1
102
RTVSPost2010Prop48
 90
       50
102
RTVSPost2010PropOp48
 70
     1
102
RTVSPost2010Prop49
280
     0
102
RTVSPost2010PropOp49
 70
     1
102
RTVSPost2010Prop50
 90
       50
102
RTVSPost2010PropOp50
 70
     1
102
RTVSPost2010Prop51ColorIndex
 90
      256
102
RTVSPost2010Prop51ColorRGB
 90
-16777216
102
RTVSPost2010PropOp51
 70
     0
102
RTVSPost2010Prop52
140
1.0
102
RTVSPost2010PropOp52
 70
     0
102
RTVSPost2010Prop53
 90
        2
102
RTVSPost2010PropOp53
 70
     1
102
RTVSPost2010Prop54
  1
strokes_ogs.tif
102
RTVSPost2010PropOp54
 70
     1
102
RTVSPost2010Prop55
280
     0
102
RTVSPost2010PropOp55
 70
     1
102
RTVSPost2010Prop56
140
1.0
102
RTVSPost2010PropOp56
 70
     1
102
RTVSPost2010Prop57
140
1.0
102
RTVSPost2010PropOp57
 70
     1
102
RTVSPropertyOp0
 70
     1
102
RTVSPropertyOp1
 70
     1
102
RTVSPropertyOp2
 70
     1
102
RTVSPropertyOp3
 70
     1
102
RTVSPropertyOp4
 70
     1
102
RTVSPropertyOp5
 70
     1
102
RTVSPropertyOp6
 70
     1
102
RTVSPropertyOp7
 70
     1
102
RTVSPropertyOp8
 70
     1
102
RTVSPropertyOp9
 70
     1
102
RTVSPropertyOp10
 70
     1
102
RTVSPropertyOp11
 70
     1
102
RTVSPropertyOp12
 70
     1
102
RTVSPropertyOp13
 70
     1
102
RTVSPropertyOp14
 70
     1
102
RTVSPropertyOp15
 70
     1
102
RTVSPropertyOp16
 70
     1
102
RTVSPropertyOp17
 70
     1
102
RTVSPropertyOp18
 70
     1
102
RTVSPropertyOp19
 70
     1
102
RTVSPropertyOp20
 70
     1
102
RTVSPropertyOp21
 70
     1
102
RTVSPropertyOp22
 70
     1
102
RTVSPropertyOp23
 70
     1
102
RTVSPropertyOp24
 70
     1
102
RTVSPropertyOp25
 70
     1
102
RTVSPropertyOp26
 70
     1
102
RTVSPropertyOp27
 70
     1
102
RTVSPropertyOp28
 70
     1
102
RTVSPropertyOp29
 70
     1
102
RTVSPropertyOp30
 70
     1
102
RTVSPropertyOp31
 70
     1
102
RTVSPropertyOp32
 70
     1
102
RTVSPropertyOp33
 70
     1
102
RTVSPropertyOp34
 70
     1
102
RTVSPropertyOp35
 70
     1
102
RTVSPropertyOp36
 70
     1
102
RTVSPropertyOp37
 70
     1
102
RTVSPropertyOp38
 70
     1
102
RTVSPropertyOp39
 70
     1
102
RTVSPropertyOp40
 70
     1
102
RTVSPropertyOp41
 70
     1
102
RTVSPropertyOp42
 70
     1
102
RTVSPropertyOp43
 70
     1
102
RTVSPropertyOp44
 70
     1
102
RTVSPropertyOp45
 70
     1
102
RTVSPropertyOp46
 70
     1
102
RTVSPropertyOp47
 70
     1
102
RTVSPropertyOp48
 70
     1
102
RTVSPropertyOp49
 70
     1
102
RTVSPropertyOp50
 70
     1
102
RTVSPropertyOp51
 70
     0
102
RTVSPropertyOp52
 70
     0
102
RTVSPropertyOp53
 70
     1
102
RTVSPropertyOp54
 70
     1
102
RTVSPropertyOp55
 70
     1
102
RTVSPropertyOp56
 70
     1
102
RTVSPropertyOp57
 70
     1
102
RTVSPropertyOp58
 70
     1
102
RTVSPropertyOp59
 70
     1
102
RTVSPropertyOp60
 70
     1
102
RTVSPropertyOp61
 70
     1
102
RTVSPropertyOp62
 70
     1
  0
XRECORD
  5
6046
102
{ACAD_REACTORS
330
6045
102
}
330
6045
100
AcDbXrecord
280
     1
102
RTVSPost2010Prop28
280
     0
102
RTVSPost2010PropOp28
 70
     1
102
RTVSPost2010Prop29
280
     1
102
RTVSPost2010PropOp29
 70
     1
102
RTVSPost2010Prop30
280
     1
102
RTVSPost2010PropOp30
 70
     1
102
RTVSPost2010Prop31
280
     0
102
RTVSPost2010PropOp31
 70
     1
102
RTVSPost2010Prop32
280
     0
102
RTVSPost2010PropOp32
 70
     1
102
RTVSPost2010Prop33
280
     0
102
RTVSPost2010PropOp33
 70
     1
102
RTVSPost2010Prop34
280
     0
102
RTVSPost2010PropOp34
 70
     1
102
RTVSPost2010Prop35
280
     0
102
RTVSPost2010PropOp35
 70
     1
102
RTVSPost2010Prop36
280
     0
102
RTVSPost2010PropOp36
 70
     1
102
RTVSPost2010Prop37
 90
       50
102
RTVSPost2010PropOp37
 70
     1
102
RTVSPost2010Prop38
140
0.0
102
RTVSPost2010PropOp38
 70
     1
102
RTVSPost2010Prop39
140
1.0
102
RTVSPost2010PropOp39
 70
     1
102
RTVSPost2010Prop40
 90
        0
102
RTVSPost2010PropOp40
 70
     1
102
RTVSPost2010Prop41ColorIndex
 90
       18
102
RTVSPost2010Prop41ColorRGB
 90
        0
102
RTVSPost2010PropOp41
 70
     1
102
RTVSPost2010Prop42
 90
       50
102
RTVSPost2010PropOp42
 70
     1
102
RTVSPost2010Prop43
 90
        3
102
RTVSPost2010PropOp43
 70
     1
102
RTVSPost2010Prop44ColorIndex
 90
        5
102
RTVSPost2010Prop44ColorRGB
 90
      255
102
RTVSPost2010PropOp44
 70
     1
102
RTVSPost2010Prop45
280
     0
102
RTVSPost2010PropOp45
 70
     1
102
RTVSPost2010Prop46
 90
       50
102
RTVSPost2010PropOp46
 70
     1
102
RTVSPost2010Prop47
 90
       50
102
RTVSPost2010PropOp47
 70
     1
102
RTVSPost2010Prop48
 90
       50
102
RTVSPost2010PropOp48
 70
     1
102
RTVSPost2010Prop49
280
     0
102
RTVSPost2010PropOp49
 70
     1
102
RTVSPost2010Prop50
 90
       50
102
RTVSPost2010PropOp50
 70
     1
102
RTVSPost2010Prop51ColorIndex
 90
      256
102
RTVSPost2010Prop51ColorRGB
 90
-16777216
102
RTVSPost2010PropOp51
 70
     0
102
RTVSPost2010Prop52
140
1.0
102
RTVSPost2010PropOp52
 70
     0
102
RTVSPost2010Prop53
 90
        2
102
RTVSPost2010PropOp53
 70
     1
102
RTVSPost2010Prop54
  1
strokes_ogs.tif
102
RTVSPost2010PropOp54
 70
     1
102
RTVSPost2010Prop55
280
     0
102
RTVSPost2010PropOp55
 70
     1
102
RTVSPost2010Prop56
140
1.0
102
RTVSPost2010PropOp56
 70
     1
102
RTVSPost2010Prop57
140
1.0
102
RTVSPost2010PropOp57
 70
     1
102
RTVSPropertyOp0
 70
     1
102
RTVSPropertyOp1
 70
     1
102
RTVSPropertyOp2
 70
     1
102
RTVSPropertyOp3
 70
     1
102
RTVSPropertyOp4
 70
     1
102
RTVSPropertyOp5
 70
     1
102
RTVSPropertyOp6
 70
     1
102
RTVSPropertyOp7
 70
     1
102
RTVSPropertyOp8
 70
     1
102
RTVSPropertyOp9
 70
     1
102
RTVSPropertyOp10
 70
     1
102
RTVSPropertyOp11
 70
     1
102
RTVSPropertyOp12
 70
     1
102
RTVSPropertyOp13
 70
     1
102
RTVSPropertyOp14
 70
     1
102
RTVSPropertyOp15
 70
     1
102
RTVSPropertyOp16
 70
     1
102
RTVSPropertyOp17
 70
     1
102
RTVSPropertyOp18
 70
     1
102
RTVSPropertyOp19
 70
     1
102
RTVSPropertyOp20
 70
     1
102
RTVSPropertyOp21
 70
     1
102
RTVSPropertyOp22
 70
     1
102
RTVSPropertyOp23
 70
     1
102
RTVSPropertyOp24
 70
     1
102
RTVSPropertyOp25
 70
     1
102
RTVSPropertyOp26
 70
     1
102
RTVSPropertyOp27
 70
     1
102
RTVSPropertyOp28
 70
     1
102
RTVSPropertyOp29
 70
     1
102
RTVSPropertyOp30
 70
     1
102
RTVSPropertyOp31
 70
     1
102
RTVSPropertyOp32
 70
     1
102
RTVSPropertyOp33
 70
     1
102
RTVSPropertyOp34
 70
     1
102
RTVSPropertyOp35
 70
     1
102
RTVSPropertyOp36
 70
     1
102
RTVSPropertyOp37
 70
     1
102
RTVSPropertyOp38
 70
     1
102
RTVSPropertyOp39
 70
     1
102
RTVSPropertyOp40
 70
     1
102
RTVSPropertyOp41
 70
     1
102
RTVSPropertyOp42
 70
     1
102
RTVSPropertyOp43
 70
     1
102
RTVSPropertyOp44
 70
     1
102
RTVSPropertyOp45
 70
     1
102
RTVSPropertyOp46
 70
     1
102
RTVSPropertyOp47
 70
     1
102
RTVSPropertyOp48
 70
     1
102
RTVSPropertyOp49
 70
     1
102
RTVSPropertyOp50
 70
     1
102
RTVSPropertyOp51
 70
     0
102
RTVSPropertyOp52
 70
     0
102
RTVSPropertyOp53
 70
     1
102
RTVSPropertyOp54
 70
     1
102
RTVSPropertyOp55
 70
     1
102
RTVSPropertyOp56
 70
     1
102
RTVSPropertyOp57
 70
     1
102
RTVSPropertyOp58
 70
     1
102
RTVSPropertyOp59
 70
     1
102
RTVSPropertyOp60
 70
     1
102
RTVSPropertyOp61
 70
     1
102
RTVSPropertyOp62
 70
     1
  0
ENDSEC
  0
EOF
