  0
SECTION
  2
HEADER
  9
$ACADVER
  1
AC1015
  9
$ACADMAINTVER
 70
    20
  9
$DWGCODEPAGE
  3
ANSI_932
  9
$INSBASE
 10
0.0
 20
0.0
 30
0.0
  9
$EXTMIN
 10
-84.9302304718949
 20
-340.233235153182
 30
-0.0000000000112498
  9
$EXTMAX
 10
364.5758476399781
 20
318.476330291247
 30
0.0000000000002956
  9
$LIMMIN
 10
-111.6607628231322
 20
-393.6846650918833
  9
$LIMMAX
 10
267.0001487158915
 20
364.8672605553397
  9
$ORTHOMODE
 70
     0
  9
$REGENMODE
 70
     1
  9
$FILLMODE
 70
     1
  9
$QTEXTMODE
 70
     0
  9
$MIRRTEXT
 70
     1
  9
$LTSCALE
 40
5.0
  9
$ATTMODE
 70
     1
  9
$TEXTSIZE
 40
5.0
  9
$TRACEWID
 40
0.05
  9
$TEXTSTYLE
  7
STANDARD1
  9
$CLAYER
  8
30
  9
$CELTYPE
  6
BYLAYER
  9
$CECOLOR
 62
   256
  9
$CELTSCALE
 40
1.0
  9
$DISPSILH
 70
     0
  9
$DIMSCALE
 40
1.0
  9
$DIMASZ
 40
2.0
  9
$DIMEXO
 40
1.0
  9
$DIMDLI
 40
0.5
  9
$DIMRND
 40
0.0
  9
$DIMDLE
 40
0.0
  9
$DIMEXE
 40
0.5
  9
$DIMTP
 40
0.0
  9
$DIMTM
 40
0.0
  9
$DIMTXT
 40
4.0
  9
$DIMCEN
 40
0.09
  9
$DIMTSZ
 40
0.0
  9
$DIMTOL
 70
     0
  9
$DIMLIM
 70
     0
  9
$DIMTIH
 70
     0
  9
$DIMTOH
 70
     0
  9
$DIMSE1
 70
     0
  9
$DIMSE2
 70
     0
  9
$DIMTAD
 70
     3
  9
$DIMZIN
 70
    12
  9
$DIMBLK
  1
OPEN
  9
$DIMASO
 70
     1
  9
$DIMSHO
 70
     1
  9
$DIMPOST
  1

  9
$DIMAPOST
  1

  9
$DIMALT
 70
     0
  9
$DIMALTD
 70
     2
  9
$DIMALTF
 40
25.4
  9
$DIMLFAC
 40
1.0
  9
$DIMTOFL
 70
     0
  9
$DIMTVP
 40
0.0
  9
$DIMTIX
 70
     0
  9
$DIMSOXD
 70
     0
  9
$DIMSAH
 70
     0
  9
$DIMBLK1
  1

  9
$DIMBLK2
  1

  9
$DIMSTYLE
  2
STANDARD
  9
$DIMCLRD
 70
     0
  9
$DIMCLRE
 70
     0
  9
$DIMCLRT
 70
     0
  9
$DIMTFAC
 40
1.0
  9
$DIMGAP
 40
1.0
  9
$DIMJUST
 70
     0
  9
$DIMSD1
 70
     0
  9
$DIMSD2
 70
     0
  9
$DIMTOLJ
 70
     1
  9
$DIMTZIN
 70
     0
  9
$DIMALTZ
 70
     0
  9
$DIMALTTZ
 70
     0
  9
$DIMUPT
 70
     0
  9
$DIMDEC
 70
     1
  9
$DIMTDEC
 70
     1
  9
$DIMALTU
 70
     2
  9
$DIMALTTD
 70
     2
  9
$DIMTXSTY
  7
STANDARD
  9
$DIMAUNIT
 70
     0
  9
$DIMADEC
 70
     0
  9
$DIMALTRND
 40
0.0
  9
$DIMAZIN
 70
     3
  9
$DIMDSEP
 70
    46
  9
$DIMATFIT
 70
     3
  9
$DIMFRAC
 70
     0
  9
$DIMLDRBLK
  1
OPEN
  9
$DIMLUNIT
 70
     2
  9
$DIMLWD
 70
    -2
  9
$DIMLWE
 70
    -2
  9
$DIMTMOVE
 70
     0
  9
$LUNITS
 70
     2
  9
$LUPREC
 70
     4
  9
$SKETCHINC
 40
0.1
  9
$FILLETRAD
 40
1.0
  9
$AUNITS
 70
     0
  9
$AUPREC
 70
     0
  9
$MENU
  1
.
  9
$ELEVATION
 40
0.0
  9
$PELEVATION
 40
0.0
  9
$THICKNESS
 40
0.0
  9
$LIMCHECK
 70
     0
  9
$CHAMFERA
 40
0.0
  9
$CHAMFERB
 40
0.0
  9
$CHAMFERC
 40
0.0
  9
$CHAMFERD
 40
0.0
  9
$SKPOLY
 70
     0
  9
$TDCREATE
 40
2452286.555658658
  9
$TDUCREATE
 40
2452286.180658658
  9
$TDUPDATE
 40
2455873.474106435
  9
$TDUUPDATE
 40
2455873.099106435
  9
$TDINDWG
 40
1.4424383102
  9
$TDUSRTIMER
 40
1.4424363310
  9
$USRTIMER
 70
     1
  9
$ANGBASE
 50
0.0
  9
$ANGDIR
 70
     0
  9
$PDMODE
 70
     0
  9
$PDSIZE
 40
0.0
  9
$PLINEWID
 40
0.0
  9
$SPLFRAME
 70
     0
  9
$SPLINETYPE
 70
     6
  9
$SPLINESEGS
 70
     8
  9
$HANDSEED
  5
9D8B
  9
$SURFTAB1
 70
     6
  9
$SURFTAB2
 70
     6
  9
$SURFTYPE
 70
     6
  9
$SURFU
 70
     6
  9
$SURFV
 70
     6
  9
$UCSBASE
  2

  9
$UCSNAME
  2

  9
$UCSORG
 10
0.0
 20
0.0
 30
0.0
  9
$UCSXDIR
 10
1.0
 20
0.0
 30
0.0
  9
$UCSYDIR
 10
0.0
 20
1.0
 30
0.0
  9
$UCSORTHOREF
  2

  9
$UCSORTHOVIEW
 70
     0
  9
$UCSORGTOP
 10
0.0
 20
0.0
 30
0.0
  9
$UCSORGBOTTOM
 10
0.0
 20
0.0
 30
0.0
  9
$UCSORGLEFT
 10
0.0
 20
0.0
 30
0.0
  9
$UCSORGRIGHT
 10
0.0
 20
0.0
 30
0.0
  9
$UCSORGFRONT
 10
0.0
 20
0.0
 30
0.0
  9
$UCSORGBACK
 10
0.0
 20
0.0
 30
0.0
  9
$PUCSBASE
  2

  9
$PUCSNAME
  2

  9
$PUCSORG
 10
0.0
 20
0.0
 30
0.0
  9
$PUCSXDIR
 10
1.0
 20
0.0
 30
0.0
  9
$PUCSYDIR
 10
0.0
 20
1.0
 30
0.0
  9
$PUCSORTHOREF
  2

  9
$PUCSORTHOVIEW
 70
     0
  9
$PUCSORGTOP
 10
0.0
 20
0.0
 30
0.0
  9
$PUCSORGBOTTOM
 10
0.0
 20
0.0
 30
0.0
  9
$PUCSORGLEFT
 10
0.0
 20
0.0
 30
0.0
  9
$PUCSORGRIGHT
 10
0.0
 20
0.0
 30
0.0
  9
$PUCSORGFRONT
 10
0.0
 20
0.0
 30
0.0
  9
$PUCSORGBACK
 10
0.0
 20
0.0
 30
0.0
  9
$USERI1
 70
     0
  9
$USERI2
 70
     0
  9
$USERI3
 70
     0
  9
$USERI4
 70
     0
  9
$USERI5
 70
     0
  9
$USERR1
 40
0.0
  9
$USERR2
 40
0.0
  9
$USERR3
 40
0.0
  9
$USERR4
 40
0.0
  9
$USERR5
 40
0.0
  9
$WORLDVIEW
 70
     1
  9
$SHADEDGE
 70
     3
  9
$SHADEDIF
 70
    70
  9
$TILEMODE
 70
     1
  9
$MAXACTVP
 70
    48
  9
$PINSBASE
 10
0.0
 20
0.0
 30
0.0
  9
$PLIMCHECK
 70
     0
  9
$PEXTMIN
 10
4.273573370203961
 20
5.205246163471485
 30
0.0
  9
$PEXTMAX
 10
194.6100952986349
 20
283.0697008572913
 30
0.0
  9
$PLIMMIN
 10
-5.873748779296875
 20
-5.873749732971191
  9
$PLIMMAX
 10
204.0995788574218
 20
291.1369009017943
  9
$UNITMODE
 70
     0
  9
$VISRETAIN
 70
     1
  9
$PLINEGEN
 70
     0
  9
$PSLTSCALE
 70
     1
  9
$TREEDEPTH
 70
  3020
  9
$CMLSTYLE
  2
STANDARD
  9
$CMLJUST
 70
     0
  9
$CMLSCALE
 40
1.0
  9
$PROXYGRAPHICS
 70
     1
  9
$MEASUREMENT
 70
     0
  9
$CELWEIGHT
370
    -1
  9
$ENDCAPS
280
     0
  9
$JOINSTYLE
280
     0
  9
$LWDISPLAY
290
     0
  9
$INSUNITS
 70
     0
  9
$HYPERLINKBASE
  1

  9
$STYLESHEET
  1
monochrome.ctb
  9
$XEDIT
290
     1
  9
$CEPSNTYPE
380
     0
  9
$PSTYLEMODE
290
     1
  9
$FINGERPRINTGUID
  2

  9
$VERSIONGUID
  2
{0AA66457-B2A7-4EF9-BB4D-E2D03C96EED7}
  9
$EXTNAMES
290
     1
  9
$PSVPSCALE
 40
0.0
  9
$OLESTARTUP
290
     0
  0
ENDSEC
  0
SECTION
  2
CLASSES
  0
CLASS
  1
ACDBDICTIONARYWDFLT
  2
AcDbDictionaryWithDefault
  3
ObjectDBX Classes
 90
        0
280
     0
281
     0
  0
CLASS
  1
ACDBPLACEHOLDER
  2
AcDbPlaceHolder
  3
ObjectDBX Classes
 90
        0
280
     0
281
     0
  0
CLASS
  1
LAYOUT
  2
AcDbLayout
  3
ObjectDBX Classes
 90
        0
280
     0
281
     0
  0
CLASS
  1
DICTIONARYVAR
  2
AcDbDictionaryVar
  3
ObjectDBX Classes
 90
        0
280
     0
281
     0
  0
CLASS
  1
MATERIAL
  2
AcDbMaterial
  3
ObjectDBX Classes
 90
     1153
280
     0
281
     0
  0
CLASS
  1
VISUALSTYLE
  2
AcDbVisualStyle
  3
ObjectDBX Classes
 90
     4095
280
     0
281
     0
  0
CLASS
  1
TABLESTYLE
  2
AcDbTableStyle
  3
ObjectDBX Classes
 90
     4095
280
     0
281
     0
  0
CLASS
  1
SCALE
  2
AcDbScale
  3
ObjectDBX Classes
 90
     1153
280
     0
281
     0
  0
CLASS
  1
MLEADERSTYLE
  2
AcDbMLeaderStyle
  3
ACDB_MLEADERSTYLE_CLASS
 90
     4095
280
     0
281
     0
  0
CLASS
  1
CELLSTYLEMAP
  2
AcDbCellStyleMap
  3
ObjectDBX Classes
 90
     1152
280
     0
281
     0
  0
ENDSEC
  0
SECTION
  2
TABLES
  0
TABLE
  2
VPORT
  5
8
330
0
100
AcDbSymbolTable
 70
     1
  0
VPORT
  5
93BE
330
8
100
AcDbSymbolTableRecord
100
AcDbViewportTableRecord
  2
*Active
 70
     0
 10
0.0
 20
0.0
 11
1.0
 21
1.0
 12
139.8228085840416
 22
-10.87845243096751
 13
0.0
 23
0.0
 14
1.0
 24
1.0
 15
10.0
 25
10.0
 16
0.0
 26
0.0
 36
1.0
 17
0.0
 27
0.0
 37
0.0
 40
663.2442163558161
 41
1.733409610983981
 42
50.0
 43
0.0
 44
0.0
 50
0.0
 51
0.0
 71
     0
 72
   100
 73
     1
 74
     1
 75
     0
 76
     0
 77
     0
 78
     0
281
     0
 65
     1
110
0.0
120
0.0
130
0.0
111
1.0
121
0.0
131
0.0
112
0.0
122
1.0
132
0.0
 79
     0
146
0.0
  0
ENDTAB
  0
TABLE
  2
LTYPE
  5
5
330
0
100
AcDbSymbolTable
 70
     6
  0
LTYPE
  5
13
330
5
100
AcDbSymbolTableRecord
100
AcDbLinetypeTableRecord
  2
BYBLOCK
 70
     0
  3

 72
    65
 73
     0
 40
0.0
  0
LTYPE
  5
14
330
5
100
AcDbSymbolTableRecord
100
AcDbLinetypeTableRecord
  2
BYLAYER
 70
     0
  3

 72
    65
 73
     0
 40
0.0
  0
LTYPE
  5
15
330
5
100
AcDbSymbolTableRecord
100
AcDbLinetypeTableRecord
  2
CONTINUOUS
 70
     0
  3
Solid line
 72
    65
 73
     0
 40
0.0
  0
LTYPE
  5
22
330
5
100
AcDbSymbolTableRecord
100
AcDbLinetypeTableRecord
  2
CONTINOUS
 70
     0
  3
Solid line
 72
    65
 73
     0
 40
0.0
  0
LTYPE
  5
24
330
5
100
AcDbSymbolTableRecord
100
AcDbLinetypeTableRecord
  2
DASHDOT
 70
     0
  3
__ . __ . __ . __ . __ . __ . __ . __ . __ . __
 72
    65
 73
     4
 40
1.0
 49
0.5
 74
     0
 49
-0.25
 74
     0
 49
0.0
 74
     0
 49
-0.25
 74
     0
  0
LTYPE
  5
429E
330
5
100
AcDbSymbolTableRecord
100
AcDbLinetypeTableRecord
  2
DIVIDE
 70
     0
  3
Divide ____ . . ____ . . ____ . . ____ . . ____
 72
    65
 73
     6
 40
1.25
 49
0.5
 74
     0
 49
-0.25
 74
     0
 49
0.0
 74
     0
 49
-0.25
 74
     0
 49
0.0
 74
     0
 49
-0.25
 74
     0
  0
LTYPE
  5
957C
330
5
100
AcDbSymbolTableRecord
100
AcDbLinetypeTableRecord
  2
PHANTOM
 70
     0
  3
____ _ _ ____ _ _ _____ _ _ ____
 72
    65
 73
     6
 40
2.5
 49
1.25
 74
     0
 49
-0.25
 74
     0
 49
0.25
 74
     0
 49
-0.25
 74
     0
 49
0.25
 74
     0
 49
-0.25
 74
     0
  0
LTYPE
  5
957D
330
5
100
AcDbSymbolTableRecord
100
AcDbLinetypeTableRecord
  2
CENTER
 70
     0
  3
____ _ ____ _ ____ _ ____
 72
    65
 73
     4
 40
2.0
 49
1.25
 74
     0
 49
-0.25
 74
     0
 49
0.25
 74
     0
 49
-0.25
 74
     0
  0
ENDTAB
  0
TABLE
  2
LAYER
  5
2
330
0
100
AcDbSymbolTable
 70
    16
  0
LAYER
  5
10
102
{ACAD_XDICTIONARY
360
941B
102
}
330
2
100
AcDbSymbolTableRecord
100
AcDbLayerTableRecord
  2
0
 70
     0
 62
     7
  6
CONTINOUS
370
    -3
390
F
  0
LAYER
  5
2F
102
{ACAD_XDICTIONARY
360
941D
102
}
330
2
100
AcDbSymbolTableRecord
100
AcDbLayerTableRecord
  2
10
 70
     0
 62
     4
  6
CONTINOUS
370
    -3
390
F
  0
LAYER
  5
31
102
{ACAD_XDICTIONARY
360
941F
102
}
330
2
100
AcDbSymbolTableRecord
100
AcDbLayerTableRecord
  2
12
 70
     0
 62
     3
  6
CONTINOUS
370
    -3
390
F
  0
LAYER
  5
35
102
{ACAD_XDICTIONARY
360
9421
102
}
330
2
100
AcDbSymbolTableRecord
100
AcDbLayerTableRecord
  2
16
 70
     0
 62
     6
  6
DASHDOT
370
    -3
390
F
  0
LAYER
  5
36
102
{ACAD_XDICTIONARY
360
9423
102
}
330
2
100
AcDbSymbolTableRecord
100
AcDbLayerTableRecord
  2
17
 70
     0
 62
     2
  6
DASHDOT
370
    -3
390
F
  0
LAYER
  5
3D
102
{ACAD_XDICTIONARY
360
9425
102
}
330
2
100
AcDbSymbolTableRecord
100
AcDbLayerTableRecord
  2
24
 70
     0
 62
     2
  6
CONTINOUS
370
    -3
390
F
  0
LAYER
  5
3A2
102
{ACAD_XDICTIONARY
360
9427
102
}
330
2
100
AcDbSymbolTableRecord
100
AcDbLayerTableRecord
  2
30
 70
     0
 62
     9
  6
CONTINUOUS
370
    -3
390
F
  0
LAYER
  5
3A4
330
2
100
AcDbSymbolTableRecord
100
AcDbLayerTableRecord
  2
DEFPOINTS
 70
     0
 62
     7
  6
CONTINUOUS
290
     0
370
    -3
390
F
  0
LAYER
  5
3BBA
102
{ACAD_XDICTIONARY
360
9429
102
}
330
2
100
AcDbSymbolTableRecord
100
AcDbLayerTableRecord
  2
18
 70
     0
 62
     5
  6
DIVIDE
370
    -3
390
F
  0
LAYER
  5
3BBB
102
{ACAD_XDICTIONARY
360
942B
102
}
330
2
100
AcDbSymbolTableRecord
100
AcDbLayerTableRecord
  2
21
 70
     0
 62
     7
  6
CONTINUOUS
370
    -3
390
F
  0
LAYER
  5
40E3
102
{ACAD_XDICTIONARY
360
942D
102
}
330
2
100
AcDbSymbolTableRecord
100
AcDbLayerTableRecord
  2
22
 70
     0
 62
     3
  6
CONTINUOUS
370
    -3
390
F
  0
LAYER
  5
957E
330
2
100
AcDbSymbolTableRecord
100
AcDbLayerTableRecord
  2
1
 70
     0
 62
     7
  6
CONTINUOUS
370
    -3
390
F
  0
LAYER
  5
957F
330
2
100
AcDbSymbolTableRecord
100
AcDbLayerTableRecord
  2
4
 70
     0
 62
     7
  6
CONTINUOUS
370
    -3
390
F
  0
LAYER
  5
9580
330
2
100
AcDbSymbolTableRecord
100
AcDbLayerTableRecord
  2
2
 70
     0
 62
     7
  6
CONTINUOUS
370
    -3
390
F
  0
LAYER
  5
9581
330
2
100
AcDbSymbolTableRecord
100
AcDbLayerTableRecord
  2
3
 70
     0
 62
     7
  6
CONTINUOUS
370
    -3
390
F
  0
LAYER
  5
9582
330
2
100
AcDbSymbolTableRecord
100
AcDbLayerTableRecord
  2
5
 70
     0
 62
     7
  6
CONTINUOUS
370
    -3
390
F
  0
ENDTAB
  0
TABLE
  2
STYLE
  5
3
330
0
100
AcDbSymbolTable
 70
     6
  0
STYLE
  5
11
330
3
100
AcDbSymbolTableRecord
100
AcDbTextStyleTableRecord
  2
STANDARD
 70
     0
 40
0.0
 41
1.0
 50
0.0
 71
     0
 42
2.0
  3
txt.shx
  4
bigfont.shx
  0
STYLE
  5
42
330
3
100
AcDbSymbolTableRecord
100
AcDbTextStyleTableRecord
  2
STANDARD1
 70
     0
 40
0.0
 41
1.0
 50
0.0
 71
     0
 42
5.0
  3
MONOTXT
  4
BIGFONT
  0
STYLE
  5
5CC0
330
3
100
AcDbSymbolTableRecord
100
AcDbTextStyleTableRecord
  2
SMP-SET
 70
     0
 40
0.0
 41
1.0
 50
0.0
 71
     0
 42
3.0
  3
SIMPLEX
  4
BIGFONT
  0
STYLE
  5
9583
330
3
100
AcDbSymbolTableRecord
100
AcDbTextStyleTableRecord
  2
blockfont
 70
     0
 40
0.0
 41
1.0
 50
0.0
 71
     0
 42
0.2
  3
simplex.shx
  4
bigfont
  0
ENDTAB
  0
TABLE
  2
VIEW
  5
6
330
0
100
AcDbSymbolTable
 70
     5
  0
VIEW
  5
230C
330
6
100
AcDbSymbolTableRecord
100
AcDbViewTableRecord
  2
OLE1
 70
     0
 40
148.9124878027714
 10
429.4976280407222
 20
2.560626997828478
 41
103.1458057716444
 11
0.0
 21
0.0
 31
1.0
 12
0.0
 22
0.0
 32
0.0
 42
50.0
 43
0.0
 44
0.0
 50
0.0
 71
     0
281
     0
 72
     0
  0
VIEW
  5
230E
330
6
100
AcDbSymbolTableRecord
100
AcDbViewTableRecord
  2
OLE2
 70
     0
 40
170.7786920545775
 10
322.664969958371
 20
-5.978304054290276
 41
102.4672152327465
 11
0.0
 21
0.0
 31
1.0
 12
0.0
 22
0.0
 32
0.0
 42
50.0
 43
0.0
 44
0.0
 50
0.0
 71
     0
281
     0
 72
     0
  0
VIEW
  5
23AA
330
6
100
AcDbSymbolTableRecord
100
AcDbViewTableRecord
  2
OLE3
 70
     0
 40
591.7897393182231
 10
84.79698158148218
 20
-46.09336010803995
 41
388.7920961799953
 11
0.0
 21
0.0
 31
1.0
 12
0.0
 22
0.0
 32
0.0
 42
50.0
 43
0.0
 44
0.0
 50
0.0
 71
     0
281
     0
 72
     0
  0
VIEW
  5
4402
330
6
100
AcDbSymbolTableRecord
100
AcDbViewTableRecord
  2
OLE4
 70
     0
 40
151.7917771380923
 10
15.38766885376364
 20
-193.752550173716
 41
398.5527551557765
 11
0.0
 21
0.0
 31
1.0
 12
0.0
 22
0.0
 32
0.0
 42
50.0
 43
0.0
 44
0.0
 50
0.0
 71
     0
281
     0
 72
     0
  0
VIEW
  5
8D79
330
6
100
AcDbSymbolTableRecord
100
AcDbViewTableRecord
  2
OLE5
 70
     0
 40
473.0465752437631
 10
40.72308557678552
 20
-190.6885064073368
 41
1018.166770320803
 11
0.0
 21
0.0
 31
1.0
 12
0.0
 22
0.0
 32
0.0
 42
50.0
 43
0.0
 44
0.0
 50
0.0
 71
     0
281
     0
 72
     0
  0
ENDTAB
  0
TABLE
  2
UCS
  5
7
330
0
100
AcDbSymbolTable
 70
     0
  0
ENDTAB
  0
TABLE
  2
APPID
  5
9
330
0
100
AcDbSymbolTable
 70
     6
  0
APPID
  5
12
330
9
100
AcDbSymbolTableRecord
100
AcDbRegAppTableRecord
  2
ACAD
 70
     0
  0
APPID
  5
ECD
330
9
100
AcDbSymbolTableRecord
100
AcDbRegAppTableRecord
  2
CONTENTBLOCKICON
 70
     0
  0
APPID
  5
9431
330
9
100
AcDbSymbolTableRecord
100
AcDbRegAppTableRecord
  2
DCO15
 70
     0
  0
APPID
  5
946E
330
9
100
AcDbSymbolTableRecord
100
AcDbRegAppTableRecord
  2
ACAD_EXEMPT_FROM_CAD_STANDARDS
 70
     0
  0
APPID
  5
9D3C
330
9
100
AcDbSymbolTableRecord
100
AcDbRegAppTableRecord
  2
ACAD_MLEADERVER
 70
     0
  0
APPID
  5
9D47
330
9
100
AcDbSymbolTableRecord
100
AcDbRegAppTableRecord
  2
ACAD_PSEXT
 70
     0
  0
ENDTAB
  0
TABLE
  2
DIMSTYLE
  5
A
330
0
100
AcDbSymbolTable
 70
     3
100
AcDbDimStyleTable
 71
     1
340
175
  0
DIMSTYLE
105
175
102
{ACAD_REACTORS
330
8393
330
81A8
330
85E9
330
85DF
330
85DE
330
85E2
330
85DA
330
85D9
330
85DB
330
8618
330
85D6
330
85D8
330
87E8
330
87F5
330
8802
330
81CA
330
883C
330
8852
330
885F
330
8D3E
330
8D63
330
9297
330
92DE
330
92F4
330
9301
330
930E
330
931B
330
85F0
330
9CB1
330
9762
102
}
330
A
100
AcDbSymbolTableRecord
100
AcDbDimStyleTableRecord
  2
STANDARD
 70
     0
 41
2.0
 42
1.0
 43
0.5
 44
0.5
 73
     0
 74
     0
 77
     3
 78
    12
140
4.0
147
1.0
271
     1
272
     1
340
11
341
3B2
342
3B2
  0
ENDTAB
  0
TABLE
  2
BLOCK_RECORD
  5
1
330
0
100
AcDbSymbolTable
 70
    93
  0
BLOCK_RECORD
  5
1E
102
{ACAD_XDICTIONARY
360
178
102
}
330
1
100
AcDbSymbolTableRecord
100
AcDbBlockTableRecord
  2
*MODEL_SPACE
340
93B8
  0
BLOCK_RECORD
  5
1A
102
{ACAD_XDICTIONARY
360
17A
102
}
330
1
100
AcDbSymbolTableRecord
100
AcDbBlockTableRecord
  2
*PAPER_SPACE
340
93B9
  0
BLOCK_RECORD
  5
3B2
330
1
100
AcDbSymbolTableRecord
100
AcDbBlockTableRecord
  2
_OPEN
340
0
102
{BLKREFS
331
8C16
331
8C17
331
8C0D
331
8C0E
331
8C04
331
8C05
331
9355
331
9356
331
8BFB
331
8BFC
331
8BF2
331
8BF3
331
8D01
331
8D02
331
8D0A
331
8D0B
331
8D1D
331
8D1E
331
8CE6
331
8CE7
331
8CEF
331
8CF0
331
8D13
331
8D14
331
8D38
331
8D39
331
9334
331
9335
331
8B96
331
8B97
331
9390
331
9391
331
9399
331
939A
331
8B72
331
8B73
331
8B69
331
8B6A
331
8D4E
331
8D4F
331
8D73
331
8D74
331
932B
331
932C
331
92EE
331
92EF
331
92F9
331
92FA
331
93A2
331
93A3
331
93AB
331
93AC
331
9320
331
9321
331
9B2D
331
9B2E
331
9B36
331
9B37
331
9B40
331
9B41
331
9B49
331
9B4A
331
9B53
331
9B54
331
9B5C
331
9B5D
331
9B65
331
9B66
331
9B6E
331
9B6F
331
9B77
331
9B78
331
9B81
331
9B82
331
9B8A
331
9B8B
331
9B93
331
9B94
331
9B9C
331
9B9D
331
9BA5
331
9BA6
331
9BB7
331
9BB8
331
9BC0
331
9BC1
331
9BC9
331
9BCA
331
9BD2
331
9BD3
331
9BDC
331
9BDD
331
9BE6
331
9BE7
331
9BF0
331
9BF1
331
9BFA
331
9BFB
331
9C04
331
9C05
331
9C0E
331
9C0F
331
9C18
331
9C19
331
9C22
331
9C23
331
9C2C
331
9C2D
331
9C36
331
9C37
331
9C3E
331
9CA2
331
9CA3
331
9CCA
331
9CCB
331
9CD3
331
9CD4
331
9D02
331
9D03
102
}
  0
BLOCK_RECORD
  5
8264
330
1
100
AcDbSymbolTableRecord
100
AcDbBlockTableRecord
  2
*D1
340
0
  0
BLOCK_RECORD
  5
8270
330
1
100
AcDbSymbolTableRecord
100
AcDbBlockTableRecord
  2
*D2
340
0
  0
BLOCK_RECORD
  5
83B8
330
1
100
AcDbSymbolTableRecord
100
AcDbBlockTableRecord
  2
*D3
340
0
  0
BLOCK_RECORD
  5
861D
330
1
100
AcDbSymbolTableRecord
100
AcDbBlockTableRecord
  2
*D4
340
0
  0
BLOCK_RECORD
  5
862A
330
1
100
AcDbSymbolTableRecord
100
AcDbBlockTableRecord
  2
*D5
340
0
  0
BLOCK_RECORD
  5
8636
330
1
100
AcDbSymbolTableRecord
100
AcDbBlockTableRecord
  2
*D6
340
0
  0
BLOCK_RECORD
  5
8642
330
1
100
AcDbSymbolTableRecord
100
AcDbBlockTableRecord
  2
*D7
340
0
  0
BLOCK_RECORD
  5
864E
330
1
100
AcDbSymbolTableRecord
100
AcDbBlockTableRecord
  2
*D8
340
0
  0
BLOCK_RECORD
  5
865A
330
1
100
AcDbSymbolTableRecord
100
AcDbBlockTableRecord
  2
*D9
340
0
  0
BLOCK_RECORD
  5
8667
330
1
100
AcDbSymbolTableRecord
100
AcDbBlockTableRecord
  2
*D10
340
0
  0
BLOCK_RECORD
  5
8673
330
1
100
AcDbSymbolTableRecord
100
AcDbBlockTableRecord
  2
*D11
340
0
  0
BLOCK_RECORD
  5
867F
330
1
100
AcDbSymbolTableRecord
100
AcDbBlockTableRecord
  2
*D12
340
0
  0
BLOCK_RECORD
  5
868B
330
1
100
AcDbSymbolTableRecord
100
AcDbBlockTableRecord
  2
*D13
340
0
  0
BLOCK_RECORD
  5
8697
330
1
100
AcDbSymbolTableRecord
100
AcDbBlockTableRecord
  2
*D14
340
0
  0
BLOCK_RECORD
  5
87E9
330
1
100
AcDbSymbolTableRecord
100
AcDbBlockTableRecord
  2
*D15
340
0
  0
BLOCK_RECORD
  5
87F6
330
1
100
AcDbSymbolTableRecord
100
AcDbBlockTableRecord
  2
*D16
340
0
  0
BLOCK_RECORD
  5
8803
330
1
100
AcDbSymbolTableRecord
100
AcDbBlockTableRecord
  2
*D17
340
0
  0
BLOCK_RECORD
  5
883D
330
1
100
AcDbSymbolTableRecord
100
AcDbBlockTableRecord
  2
*D18
340
0
  0
BLOCK_RECORD
  5
8853
330
1
100
AcDbSymbolTableRecord
100
AcDbBlockTableRecord
  2
*D19
340
0
  0
BLOCK_RECORD
  5
8860
330
1
100
AcDbSymbolTableRecord
100
AcDbBlockTableRecord
  2
*D20
340
0
  0
BLOCK_RECORD
  5
8D3F
330
1
100
AcDbSymbolTableRecord
100
AcDbBlockTableRecord
  2
*D21
340
0
  0
BLOCK_RECORD
  5
8D64
330
1
100
AcDbSymbolTableRecord
100
AcDbBlockTableRecord
  2
*D22
340
0
  0
BLOCK_RECORD
  5
92AF
330
1
100
AcDbSymbolTableRecord
100
AcDbBlockTableRecord
  2
*D23
340
0
  0
BLOCK_RECORD
  5
92DF
330
1
100
AcDbSymbolTableRecord
100
AcDbBlockTableRecord
  2
*D24
340
0
  0
BLOCK_RECORD
  5
92F5
330
1
100
AcDbSymbolTableRecord
100
AcDbBlockTableRecord
  2
*D25
340
0
  0
BLOCK_RECORD
  5
9302
330
1
100
AcDbSymbolTableRecord
100
AcDbBlockTableRecord
  2
*D26
340
0
  0
BLOCK_RECORD
  5
930F
330
1
100
AcDbSymbolTableRecord
100
AcDbBlockTableRecord
  2
*D27
340
0
  0
BLOCK_RECORD
  5
931C
330
1
100
AcDbSymbolTableRecord
100
AcDbBlockTableRecord
  2
*D28
340
0
  0
BLOCK_RECORD
  5
9470
330
1
100
AcDbSymbolTableRecord
100
AcDbBlockTableRecord
  2
_D0
340
0
  0
BLOCK_RECORD
  5
9479
330
1
100
AcDbSymbolTableRecord
100
AcDbBlockTableRecord
  2
_D1
340
0
  0
BLOCK_RECORD
  5
9482
330
1
100
AcDbSymbolTableRecord
100
AcDbBlockTableRecord
  2
_D2
340
0
  0
BLOCK_RECORD
  5
948B
330
1
100
AcDbSymbolTableRecord
100
AcDbBlockTableRecord
  2
_D3
340
0
  0
BLOCK_RECORD
  5
9494
330
1
100
AcDbSymbolTableRecord
100
AcDbBlockTableRecord
  2
_D7
340
0
  0
BLOCK_RECORD
  5
949D
330
1
100
AcDbSymbolTableRecord
100
AcDbBlockTableRecord
  2
_D11
340
0
  0
BLOCK_RECORD
  5
94A6
330
1
100
AcDbSymbolTableRecord
100
AcDbBlockTableRecord
  2
_D14
340
0
  0
BLOCK_RECORD
  5
94AF
330
1
100
AcDbSymbolTableRecord
100
AcDbBlockTableRecord
  2
_D18
340
0
  0
BLOCK_RECORD
  5
94B8
330
1
100
AcDbSymbolTableRecord
100
AcDbBlockTableRecord
  2
_D21
340
0
  0
BLOCK_RECORD
  5
94C1
330
1
100
AcDbSymbolTableRecord
100
AcDbBlockTableRecord
  2
_D22
340
0
  0
BLOCK_RECORD
  5
94CA
330
1
100
AcDbSymbolTableRecord
100
AcDbBlockTableRecord
  2
_D23
340
0
  0
BLOCK_RECORD
  5
94D3
330
1
100
AcDbSymbolTableRecord
100
AcDbBlockTableRecord
  2
_D24
340
0
  0
BLOCK_RECORD
  5
94DC
330
1
100
AcDbSymbolTableRecord
100
AcDbBlockTableRecord
  2
_D26
340
0
  0
BLOCK_RECORD
  5
94E5
330
1
100
AcDbSymbolTableRecord
100
AcDbBlockTableRecord
  2
_D27
340
0
  0
BLOCK_RECORD
  5
94EE
330
1
100
AcDbSymbolTableRecord
100
AcDbBlockTableRecord
  2
_D28
340
0
  0
BLOCK_RECORD
  5
94F7
330
1
100
AcDbSymbolTableRecord
100
AcDbBlockTableRecord
  2
_D31
340
0
  0
BLOCK_RECORD
  5
9500
330
1
100
AcDbSymbolTableRecord
100
AcDbBlockTableRecord
  2
_D32
340
0
  0
BLOCK_RECORD
  5
9509
330
1
100
AcDbSymbolTableRecord
100
AcDbBlockTableRecord
  2
_D33
340
0
  0
BLOCK_RECORD
  5
9512
330
1
100
AcDbSymbolTableRecord
100
AcDbBlockTableRecord
  2
_D34
340
0
  0
BLOCK_RECORD
  5
951B
330
1
100
AcDbSymbolTableRecord
100
AcDbBlockTableRecord
  2
_D35
340
0
  0
BLOCK_RECORD
  5
9524
330
1
100
AcDbSymbolTableRecord
100
AcDbBlockTableRecord
  2
_D36
340
0
  0
BLOCK_RECORD
  5
952D
330
1
100
AcDbSymbolTableRecord
100
AcDbBlockTableRecord
  2
_D37
340
0
  0
BLOCK_RECORD
  5
9536
330
1
100
AcDbSymbolTableRecord
100
AcDbBlockTableRecord
  2
_D38
340
0
  0
BLOCK_RECORD
  5
953F
330
1
100
AcDbSymbolTableRecord
100
AcDbBlockTableRecord
  2
_D41
340
0
  0
BLOCK_RECORD
  5
9548
330
1
100
AcDbSymbolTableRecord
100
AcDbBlockTableRecord
  2
_D45
340
0
  0
BLOCK_RECORD
  5
9551
330
1
100
AcDbSymbolTableRecord
100
AcDbBlockTableRecord
  2
_D46
340
0
  0
BLOCK_RECORD
  5
955A
330
1
100
AcDbSymbolTableRecord
100
AcDbBlockTableRecord
  2
_D47
340
0
  0
BLOCK_RECORD
  5
9563
330
1
100
AcDbSymbolTableRecord
100
AcDbBlockTableRecord
  2
_D48
340
0
  0
BLOCK_RECORD
  5
956C
330
1
100
AcDbSymbolTableRecord
100
AcDbBlockTableRecord
  2
_D49
340
0
  0
BLOCK_RECORD
  5
9575
330
1
100
AcDbSymbolTableRecord
100
AcDbBlockTableRecord
  2
_D57
340
0
  0
BLOCK_RECORD
  5
9772
330
1
100
AcDbSymbolTableRecord
100
AcDbBlockTableRecord
  2
*D59
340
0
  0
BLOCK_RECORD
  5
977F
330
1
100
AcDbSymbolTableRecord
100
AcDbBlockTableRecord
  2
*D60
340
0
  0
BLOCK_RECORD
  5
978B
330
1
100
AcDbSymbolTableRecord
100
AcDbBlockTableRecord
  2
*D61
340
0
  0
BLOCK_RECORD
  5
9798
330
1
100
AcDbSymbolTableRecord
100
AcDbBlockTableRecord
  2
*D62
340
0
  0
BLOCK_RECORD
  5
97A4
330
1
100
AcDbSymbolTableRecord
100
AcDbBlockTableRecord
  2
*D63
340
0
  0
BLOCK_RECORD
  5
97B1
330
1
100
AcDbSymbolTableRecord
100
AcDbBlockTableRecord
  2
*D64
340
0
  0
BLOCK_RECORD
  5
97BD
330
1
100
AcDbSymbolTableRecord
100
AcDbBlockTableRecord
  2
*D65
340
0
  0
BLOCK_RECORD
  5
97CA
330
1
100
AcDbSymbolTableRecord
100
AcDbBlockTableRecord
  2
*D66
340
0
  0
BLOCK_RECORD
  5
97D6
330
1
100
AcDbSymbolTableRecord
100
AcDbBlockTableRecord
  2
*D67
340
0
  0
BLOCK_RECORD
  5
97E3
330
1
100
AcDbSymbolTableRecord
100
AcDbBlockTableRecord
  2
*D68
340
0
  0
BLOCK_RECORD
  5
97F0
330
1
100
AcDbSymbolTableRecord
100
AcDbBlockTableRecord
  2
*D69
340
0
  0
BLOCK_RECORD
  5
97FD
330
1
100
AcDbSymbolTableRecord
100
AcDbBlockTableRecord
  2
*D70
340
0
  0
BLOCK_RECORD
  5
980A
330
1
100
AcDbSymbolTableRecord
100
AcDbBlockTableRecord
  2
*D71
340
0
  0
BLOCK_RECORD
  5
9816
330
1
100
AcDbSymbolTableRecord
100
AcDbBlockTableRecord
  2
*D72
340
0
  0
BLOCK_RECORD
  5
9822
330
1
100
AcDbSymbolTableRecord
100
AcDbBlockTableRecord
  2
*D73
340
0
  0
BLOCK_RECORD
  5
982E
330
1
100
AcDbSymbolTableRecord
100
AcDbBlockTableRecord
  2
*D74
340
0
  0
BLOCK_RECORD
  5
983A
330
1
100
AcDbSymbolTableRecord
100
AcDbBlockTableRecord
  2
*D75
340
0
  0
BLOCK_RECORD
  5
9846
330
1
100
AcDbSymbolTableRecord
100
AcDbBlockTableRecord
  2
*D76
340
0
  0
BLOCK_RECORD
  5
9852
330
1
100
AcDbSymbolTableRecord
100
AcDbBlockTableRecord
  2
*D77
340
0
  0
BLOCK_RECORD
  5
985F
330
1
100
AcDbSymbolTableRecord
100
AcDbBlockTableRecord
  2
*D78
340
0
  0
BLOCK_RECORD
  5
986C
330
1
100
AcDbSymbolTableRecord
100
AcDbBlockTableRecord
  2
*D79
340
0
  0
BLOCK_RECORD
  5
9879
330
1
100
AcDbSymbolTableRecord
100
AcDbBlockTableRecord
  2
*D80
340
0
  0
BLOCK_RECORD
  5
9886
330
1
100
AcDbSymbolTableRecord
100
AcDbBlockTableRecord
  2
*D81
340
0
  0
BLOCK_RECORD
  5
9893
330
1
100
AcDbSymbolTableRecord
100
AcDbBlockTableRecord
  2
*D82
340
0
  0
BLOCK_RECORD
  5
98A0
330
1
100
AcDbSymbolTableRecord
100
AcDbBlockTableRecord
  2
*D83
340
0
  0
BLOCK_RECORD
  5
98AD
330
1
100
AcDbSymbolTableRecord
100
AcDbBlockTableRecord
  2
*D84
340
0
  0
BLOCK_RECORD
  5
98BA
330
1
100
AcDbSymbolTableRecord
100
AcDbBlockTableRecord
  2
*D85
340
0
  0
BLOCK_RECORD
  5
98C7
330
1
100
AcDbSymbolTableRecord
100
AcDbBlockTableRecord
  2
*D86
340
0
  0
BLOCK_RECORD
  5
98D4
330
1
100
AcDbSymbolTableRecord
100
AcDbBlockTableRecord
  2
*D87
340
0
  0
BLOCK_RECORD
  5
98E1
330
1
100
AcDbSymbolTableRecord
100
AcDbBlockTableRecord
  2
*D88
340
0
  0
BLOCK_RECORD
  5
9C45
330
1
100
AcDbSymbolTableRecord
100
AcDbBlockTableRecord
  2
*D89
340
0
  0
BLOCK_RECORD
  5
9CB2
330
1
100
AcDbSymbolTableRecord
100
AcDbBlockTableRecord
  2
*D90
340
0
  0
ENDTAB
  0
ENDSEC
  0
SECTION
  2
BLOCKS
  0
BLOCK
  5
1F
330
1E
100
AcDbEntity
  8
0
100
AcDbBlockBegin
  2
*MODEL_SPACE
 70
     0
 10
0.0
 20
0.0
 30
0.0
  3
*MODEL_SPACE
  1

  0
ENDBLK
  5
20
330
1E
100
AcDbEntity
  8
0
100
AcDbBlockEnd
  0
BLOCK
  5
1B
330
1A
100
AcDbEntity
 67
     1
  8
0
100
AcDbBlockBegin
  2
*PAPER_SPACE
 70
     0
 10
0.0
 20
0.0
 30
0.0
  3
*PAPER_SPACE
  1

  0
ENDBLK
  5
1C
330
1A
100
AcDbEntity
 67
     1
  8
0
100
AcDbBlockEnd
  0
BLOCK
  5
3B6
330
3B2
100
AcDbEntity
  8
0
100
AcDbBlockBegin
  2
_OPEN
 70
     0
 10
0.0
 20
0.0
 30
0.0
  3
_OPEN
  1

  0
LINE
  5
3B3
330
3B2
100
AcDbEntity
  8
30
  6
Continuous
 62
     0
100
AcDbLine
 10
-1.0
 20
0.1666666666666666
 30
0.0
 11
0.0
 21
0.0
 31
0.0
  0
LINE
  5
3B4
330
3B2
100
AcDbEntity
  8
30
  6
Continuous
 62
     0
100
AcDbLine
 10
-1.0
 20
-0.1666666666666666
 30
0.0
 11
0.0
 21
0.0
 31
0.0
  0
LINE
  5
3B5
330
3B2
100
AcDbEntity
  8
30
  6
Continuous
 62
     0
100
AcDbLine
 10
0.0
 20
0.0
 30
0.0
 11
-1.0
 21
0.0
 31
0.0
  0
ENDBLK
  5
3B7
330
3B2
100
AcDbEntity
  8
0
100
AcDbBlockEnd
  0
BLOCK
  5
826E
330
8264
100
AcDbEntity
  8
0
100
AcDbBlockBegin
  2
*D1
 70
     1
 10
0.0
 20
0.0
 30
0.0
  3
*D1
  1

  0
LINE
  5
8C13
330
8264
100
AcDbEntity
  8
30
 62
     0
100
AcDbLine
 10
-45.0
 20
-78.5
 30
0.0
 11
-45.0
 21
-95.55260904743505
 31
0.0
  0
LINE
  5
8C14
330
8264
100
AcDbEntity
  8
30
 62
     0
100
AcDbLine
 10
75.00000000000003
 20
-78.5
 30
0.0
 11
75.00000000000003
 21
-95.55260904743505
 31
0.0
  0
LINE
  5
8C15
330
8264
100
AcDbEntity
  8
30
 62
     0
100
AcDbLine
 10
-43.0
 20
-95.05260904743506
 30
0.0
 11
73.00000000000003
 21
-95.05260904743506
 31
0.0
  0
INSERT
  5
8C16
330
8264
100
AcDbEntity
  8
30
 62
     0
100
AcDbBlockReference
  2
_OPEN
 10
-45.0
 20
-95.05260904743506
 30
0.0
 41
2.0
 42
2.0
 43
2.0
 50
180.0
  0
INSERT
  5
8C17
330
8264
100
AcDbEntity
  8
30
 62
     0
100
AcDbBlockReference
  2
_OPEN
 10
75.00000000000003
 20
-95.05260904743506
 30
0.0
 41
2.0
 42
2.0
 43
2.0
  0
MTEXT
  5
8C18
330
8264
100
AcDbEntity
  8
30
 62
     0
100
AcDbMText
 10
15.0
 20
-92.05260904743502
 30
0.0
 40
4.0
 41
0.0
 71
     5
 72
     1
  1
\A1;120
 73
     1
 44
1.0
1001
ACAD
1000
MTEXTBEGIN
1070
    73
1070
     1
1070
    44
1040
1.0
1070
    74
1070
     0
1000
MTEXTEND
  0
POINT
  5
8C19
330
8264
100
AcDbEntity
  8
DEFPOINTS
 62
     0
100
AcDbPoint
 10
-45.0
 20
-77.5
 30
0.0
  0
POINT
  5
8C1A
330
8264
100
AcDbEntity
  8
DEFPOINTS
 62
     0
100
AcDbPoint
 10
75.00000000000003
 20
-77.5
 30
0.0
  0
POINT
  5
8C1B
330
8264
100
AcDbEntity
  8
DEFPOINTS
 62
     0
100
AcDbPoint
 10
75.00000000000003
 20
-95.05260904743506
 30
0.0
  0
ENDBLK
  5
826F
330
8264
100
AcDbEntity
  8
0
100
AcDbBlockEnd
  0
BLOCK
  5
827A
330
8270
100
AcDbEntity
  8
0
100
AcDbBlockBegin
  2
*D2
 70
     1
 10
0.0
 20
0.0
 30
0.0
  3
*D2
  1

  0
LINE
  5
8C0A
330
8270
100
AcDbEntity
  8
30
 62
     0
100
AcDbLine
 10
-42.0
 20
25.99999999999996
 30
0.0
 11
-42.0
 21
33.09950840068008
 31
0.0
  0
LINE
  5
8C0B
330
8270
100
AcDbEntity
  8
30
 62
     0
100
AcDbLine
 10
42.00000000000001
 20
25.99999999999996
 30
0.0
 11
42.00000000000001
 21
33.09950840068008
 31
0.0
  0
LINE
  5
8C0C
330
8270
100
AcDbEntity
  8
30
 62
     0
100
AcDbLine
 10
-40.0
 20
32.59950840068008
 30
0.0
 11
40.00000000000002
 21
32.59950840068008
 31
0.0
  0
INSERT
  5
8C0D
330
8270
100
AcDbEntity
  8
30
 62
     0
100
AcDbBlockReference
  2
_OPEN
 10
-42.0
 20
32.59950840068008
 30
0.0
 41
2.0
 42
2.0
 43
2.0
 50
180.0
  0
INSERT
  5
8C0E
330
8270
100
AcDbEntity
  8
30
 62
     0
100
AcDbBlockReference
  2
_OPEN
 10
42.00000000000001
 20
32.59950840068008
 30
0.0
 41
2.0
 42
2.0
 43
2.0
  0
MTEXT
  5
8C0F
330
8270
100
AcDbEntity
  8
30
 62
     0
100
AcDbMText
 10
0.0000000000000144
 20
35.59950840068009
 30
0.0
 40
4.0
 41
0.0
 71
     5
 72
     1
  1
\A1;84
 73
     1
 44
1.0
1001
ACAD
1000
MTEXTBEGIN
1070
    73
1070
     1
1070
    44
1040
1.0
1070
    74
1070
     0
1000
MTEXTEND
  0
POINT
  5
8C10
330
8270
100
AcDbEntity
  8
DEFPOINTS
 62
     0
100
AcDbPoint
 10
-42.0
 20
24.99999999999996
 30
0.0
  0
POINT
  5
8C11
330
8270
100
AcDbEntity
  8
DEFPOINTS
 62
     0
100
AcDbPoint
 10
42.00000000000001
 20
24.99999999999996
 30
0.0
  0
POINT
  5
8C12
330
8270
100
AcDbEntity
  8
DEFPOINTS
 62
     0
100
AcDbPoint
 10
42.00000000000001
 20
32.59950840068008
 30
0.0
  0
ENDBLK
  5
827B
330
8270
100
AcDbEntity
  8
0
100
AcDbBlockEnd
  0
BLOCK
  5
83C2
330
83B8
100
AcDbEntity
  8
0
100
AcDbBlockBegin
  2
*D3
 70
     1
 10
0.0
 20
0.0
 30
0.0
  3
*D3
  1

  0
LINE
  5
8C01
330
83B8
100
AcDbEntity
  8
30
 62
     0
100
AcDbLine
 10
18.00000000000011
 20
210.8811670622456
 30
0.0
 11
119.586722492788
 21
210.8811670622456
 31
0.0
  0
LINE
  5
8C02
330
83B8
100
AcDbEntity
  8
30
 62
     0
100
AcDbLine
 10
95.49999999999954
 20
202.8811670622456
 30
0.0
 11
119.586722492788
 21
202.8811670622456
 31
0.0
  0
LINE
  5
8C03
330
83B8
100
AcDbEntity
  8
30
 62
     0
100
AcDbLine
 10
119.0867224927879
 20
208.8811670622455
 30
0.0
 11
119.0867224927879
 21
204.8811670622456
 31
0.0
  0
INSERT
  5
8C04
330
83B8
100
AcDbEntity
  8
30
 62
     0
100
AcDbBlockReference
  2
_OPEN
 10
119.0867224927879
 20
210.8811670622456
 30
0.0
 41
2.0
 42
2.0
 43
2.0
 50
90.0
  0
INSERT
  5
8C05
330
83B8
100
AcDbEntity
  8
30
 62
     0
100
AcDbBlockReference
  2
_OPEN
 10
119.0867224927879
 20
202.8811670622456
 30
0.0
 41
2.0
 42
2.0
 43
2.0
 50
270.0
  0
MTEXT
  5
8C06
330
83B8
100
AcDbEntity
  8
30
 62
     0
100
AcDbMText
 10
116.0867224927879
 20
206.8811670622456
 30
0.0
 40
4.0
 41
0.0
 71
     5
 72
     1
  1
\A1;8
 11
0.0000000000000001
 21
1.0
 31
0.0
 73
     1
 44
1.0
1001
ACAD
1000
MTEXTBEGIN
1070
    73
1070
     1
1070
    44
1040
1.0
1070
    74
1070
     0
1000
MTEXTEND
  0
POINT
  5
8C07
330
83B8
100
AcDbEntity
  8
DEFPOINTS
 62
     0
100
AcDbPoint
 10
17.00000000000011
 20
210.8811670622456
 30
0.0
  0
POINT
  5
8C08
330
83B8
100
AcDbEntity
  8
DEFPOINTS
 62
     0
100
AcDbPoint
 10
94.49999999999954
 20
202.8811670622456
 30
0.0
  0
POINT
  5
8C09
330
83B8
100
AcDbEntity
  8
DEFPOINTS
 62
     0
100
AcDbPoint
 10
119.0867224927879
 20
202.8811670622456
 30
0.0
  0
ENDBLK
  5
83C3
330
83B8
100
AcDbEntity
  8
0
100
AcDbBlockEnd
  0
BLOCK
  5
8628
330
861D
100
AcDbEntity
  8
0
100
AcDbBlockBegin
  2
*D4
 70
     1
 10
0.0
 20
0.0
 30
0.0
  3
*D4
  1

  0
LINE
  5
9350
330
861D
100
AcDbEntity
  8
30
 62
     0
100
AcDbLine
 10
325.0415450433536
 20
64.49999999999993
 30
0.0
 11
348.5191311370208
 21
64.49999999999993
 31
0.0
  0
LINE
  5
9351
330
861D
100
AcDbEntity
  8
30
 62
     0
100
AcDbLine
 10
325.0415450433536
 20
69.49999999999993
 30
0.0
 11
348.5191311370208
 21
69.49999999999993
 31
0.0
  0
LINE
  5
9352
330
861D
100
AcDbEntity
  8
30
 62
     0
100
AcDbLine
 10
348.0191311370207
 20
62.49999999999991
 30
0.0
 11
348.0191311370207
 21
60.4999999999999
 31
0.0
  0
LINE
  5
9353
330
861D
100
AcDbEntity
  8
30
 62
     0
100
AcDbLine
 10
348.0191311370207
 20
71.49999999999995
 30
0.0
 11
348.0191311370207
 21
78.16666666666661
 31
0.0
  0
LINE
  5
9354
330
861D
100
AcDbEntity
  8
30
 62
     0
100
AcDbLine
 10
348.0191311370207
 20
64.49999999999993
 30
0.0
 11
348.0191311370207
 21
69.49999999999993
 31
0.0
  0
INSERT
  5
9355
330
861D
100
AcDbEntity
  8
30
 62
     0
100
AcDbBlockReference
  2
_OPEN
 10
348.0191311370207
 20
64.49999999999993
 30
0.0
 41
2.0
 42
2.0
 43
2.0
 50
90.0
  0
INSERT
  5
9356
330
861D
100
AcDbEntity
  8
30
 62
     0
100
AcDbBlockReference
  2
_OPEN
 10
348.0191311370207
 20
69.49999999999993
 30
0.0
 41
2.0
 42
2.0
 43
2.0
 50
270.0
  0
MTEXT
  5
9357
330
861D
100
AcDbEntity
  8
30
 62
     0
100
AcDbMText
 10
345.0191311370208
 20
75.83333333333333
 30
0.0
 40
4.0
 41
0.0
 71
     5
 72
     1
  1
\A1;5
 11
0.0000000000000001
 21
1.0
 31
0.0
 73
     1
 44
1.0
1001
ACAD
1000
MTEXTBEGIN
1070
    73
1070
     1
1070
    44
1040
1.0
1070
    74
1070
     0
1000
MTEXTEND
  0
POINT
  5
9358
330
861D
100
AcDbEntity
  8
DEFPOINTS
 62
     0
100
AcDbPoint
 10
324.0415450433536
 20
64.49999999999993
 30
0.0
  0
POINT
  5
9359
330
861D
100
AcDbEntity
  8
DEFPOINTS
 62
     0
100
AcDbPoint
 10
324.0415450433536
 20
69.49999999999993
 30
0.0
  0
POINT
  5
935A
330
861D
100
AcDbEntity
  8
DEFPOINTS
 62
     0
100
AcDbPoint
 10
348.0191311370207
 20
69.49999999999993
 30
0.0
  0
ENDBLK
  5
8629
330
861D
100
AcDbEntity
  8
0
100
AcDbBlockEnd
  0
BLOCK
  5
8634
330
862A
100
AcDbEntity
  8
0
100
AcDbBlockBegin
  2
*D5
 70
     1
 10
0.0
 20
0.0
 30
0.0
  3
*D5
  1

  0
LINE
  5
8BF8
330
862A
100
AcDbEntity
  8
30
 62
     0
100
AcDbLine
 10
322.8979515039046
 20
-75.0
 30
0.0
 11
348.6282675361418
 21
-75.0
 31
0.0
  0
LINE
  5
8BF9
330
862A
100
AcDbEntity
  8
30
 62
     0
100
AcDbLine
 10
322.8979515039046
 20
-59.00000000000003
 30
0.0
 11
348.6282675361418
 21
-59.00000000000003
 31
0.0
  0
LINE
  5
8BFA
330
862A
100
AcDbEntity
  8
30
 62
     0
100
AcDbLine
 10
348.1282675361418
 20
-73.0
 30
0.0
 11
348.1282675361418
 21
-61.00000000000004
 31
0.0
  0
INSERT
  5
8BFB
330
862A
100
AcDbEntity
  8
30
 62
     0
100
AcDbBlockReference
  2
_OPEN
 10
348.1282675361418
 20
-75.0
 30
0.0
 41
2.0
 42
2.0
 43
2.0
 50
270.0
  0
INSERT
  5
8BFC
330
862A
100
AcDbEntity
  8
30
 62
     0
100
AcDbBlockReference
  2
_OPEN
 10
348.1282675361418
 20
-59.00000000000003
 30
0.0
 41
2.0
 42
2.0
 43
2.0
 50
90.0
  0
MTEXT
  5
8BFD
330
862A
100
AcDbEntity
  8
30
 62
     0
100
AcDbMText
 10
345.1282675361418
 20
-66.99999999999995
 30
0.0
 40
4.0
 41
0.0
 71
     5
 72
     1
  1
\A1;16
 11
0.0000000000000001
 21
1.0
 31
0.0
 73
     1
 44
1.0
1001
ACAD
1000
MTEXTBEGIN
1070
    73
1070
     1
1070
    44
1040
1.0
1070
    74
1070
     0
1000
MTEXTEND
  0
POINT
  5
8BFE
330
862A
100
AcDbEntity
  8
DEFPOINTS
 62
     0
100
AcDbPoint
 10
321.8979515039046
 20
-75.0
 30
0.0
  0
POINT
  5
8BFF
330
862A
100
AcDbEntity
  8
DEFPOINTS
 62
     0
100
AcDbPoint
 10
321.8979515039046
 20
-59.00000000000003
 30
0.0
  0
POINT
  5
8C00
330
862A
100
AcDbEntity
  8
DEFPOINTS
 62
     0
100
AcDbPoint
 10
348.1282675361418
 20
-59.00000000000003
 30
0.0
  0
ENDBLK
  5
8635
330
862A
100
AcDbEntity
  8
0
100
AcDbBlockEnd
  0
BLOCK
  5
8640
330
8636
100
AcDbEntity
  8
0
100
AcDbBlockBegin
  2
*D6
 70
     1
 10
0.0
 20
0.0
 30
0.0
  3
*D6
  1

  0
LINE
  5
8BEF
330
8636
100
AcDbEntity
  8
30
 62
     0
100
AcDbLine
 10
244.0415450433536
 20
-58.99999998350003
 30
0.0
 11
244.0415450433536
 21
-34.40049159931986
 31
0.0
  0
LINE
  5
8BF0
330
8636
100
AcDbEntity
  8
30
 62
     0
100
AcDbLine
 10
259.0415450433535
 20
-63.49999998350003
 30
0.0
 11
259.0415450433535
 21
-34.40049159931986
 31
0.0
  0
LINE
  5
8BF1
330
8636
100
AcDbEntity
  8
30
 62
     0
100
AcDbLine
 10
246.0415450433536
 20
-34.90049159931984
 30
0.0
 11
257.0415450433535
 21
-34.90049159931984
 31
0.0
  0
INSERT
  5
8BF2
330
8636
100
AcDbEntity
  8
30
 62
     0
100
AcDbBlockReference
  2
_OPEN
 10
244.0415450433536
 20
-34.90049159931984
 30
0.0
 41
2.0
 42
2.0
 43
2.0
 50
180.0
  0
INSERT
  5
8BF3
330
8636
100
AcDbEntity
  8
30
 62
     0
100
AcDbBlockReference
  2
_OPEN
 10
259.0415450433535
 20
-34.90049159931984
 30
0.0
 41
2.0
 42
2.0
 43
2.0
  0
MTEXT
  5
8BF4
330
8636
100
AcDbEntity
  8
30
 62
     0
100
AcDbMText
 10
251.5415450433535
 20
-31.90049159931986
 30
0.0
 40
4.0
 41
0.0
 71
     5
 72
     1
  1
\A1;15
 73
     1
 44
1.0
1001
ACAD
1000
MTEXTBEGIN
1070
    73
1070
     1
1070
    44
1040
1.0
1070
    74
1070
     0
1000
MTEXTEND
  0
POINT
  5
8BF5
330
8636
100
AcDbEntity
  8
DEFPOINTS
 62
     0
100
AcDbPoint
 10
244.0415450433536
 20
-59.99999998350003
 30
0.0
  0
POINT
  5
8BF6
330
8636
100
AcDbEntity
  8
DEFPOINTS
 62
     0
100
AcDbPoint
 10
259.0415450433535
 20
-64.49999998350003
 30
0.0
  0
POINT
  5
8BF7
330
8636
100
AcDbEntity
  8
DEFPOINTS
 62
     0
100
AcDbPoint
 10
259.0415450433535
 20
-34.90049159931984
 30
0.0
  0
ENDBLK
  5
8641
330
8636
100
AcDbEntity
  8
0
100
AcDbBlockEnd
  0
BLOCK
  5
864C
330
8642
100
AcDbEntity
  8
0
100
AcDbBlockBegin
  2
*D7
 70
     1
 10
0.0
 20
0.0
 30
0.0
  3
*D7
  1

  0
LINE
  5
8CFE
330
8642
100
AcDbEntity
  8
30
 62
     0
100
AcDbLine
 10
154.0415450433536
 20
-52.00000000000002
 30
0.0
 11
154.0415450433536
 21
-121.6323124432112
 31
0.0
  0
LINE
  5
8CFF
330
8642
100
AcDbEntity
  8
30
 62
     0
100
AcDbLine
 10
222.0415450433535
 20
-78.5
 30
0.0
 11
222.0415450433535
 21
-121.6323124432112
 31
0.0
  0
LINE
  5
8D00
330
8642
100
AcDbEntity
  8
30
 62
     0
100
AcDbLine
 10
156.0415450433536
 20
-121.1323124432112
 30
0.0
 11
220.0415450433535
 21
-121.1323124432112
 31
0.0
  0
INSERT
  5
8D01
330
8642
100
AcDbEntity
  8
30
 62
     0
100
AcDbBlockReference
  2
_OPEN
 10
154.0415450433536
 20
-121.1323124432112
 30
0.0
 41
2.0
 42
2.0
 43
2.0
 50
180.0
  0
INSERT
  5
8D02
330
8642
100
AcDbEntity
  8
30
 62
     0
100
AcDbBlockReference
  2
_OPEN
 10
222.0415450433535
 20
-121.1323124432112
 30
0.0
 41
2.0
 42
2.0
 43
2.0
  0
MTEXT
  5
8D03
330
8642
100
AcDbEntity
  8
30
 62
     0
100
AcDbMText
 10
188.0415450433535
 20
-118.1323124432112
 30
0.0
 40
4.0
 41
0.0
 71
     5
 72
     1
  1
\A1;68
 73
     1
 44
1.0
1001
ACAD
1000
MTEXTBEGIN
1070
    73
1070
     1
1070
    44
1040
1.0
1070
    74
1070
     0
1000
MTEXTEND
  0
POINT
  5
8D04
330
8642
100
AcDbEntity
  8
DEFPOINTS
 62
     0
100
AcDbPoint
 10
154.0415450433536
 20
-51.00000000000003
 30
0.0
  0
POINT
  5
8D05
330
8642
100
AcDbEntity
  8
DEFPOINTS
 62
     0
100
AcDbPoint
 10
222.0415450433535
 20
-77.5
 30
0.0
  0
POINT
  5
8D06
330
8642
100
AcDbEntity
  8
DEFPOINTS
 62
     0
100
AcDbPoint
 10
222.0415450433535
 20
-121.1323124432112
 30
0.0
  0
ENDBLK
  5
864D
330
8642
100
AcDbEntity
  8
0
100
AcDbBlockEnd
  0
BLOCK
  5
8658
330
864E
100
AcDbEntity
  8
0
100
AcDbBlockBegin
  2
*D8
 70
     1
 10
0.0
 20
0.0
 30
0.0
  3
*D8
  1

  0
LINE
  5
8D07
330
864E
100
AcDbEntity
  8
30
 62
     0
100
AcDbLine
 10
150.0415450433536
 20
-26.00000000000003
 30
0.0
 11
150.0415450433536
 21
-142.8823124432113
 31
0.0
  0
LINE
  5
8D08
330
864E
100
AcDbEntity
  8
30
 62
     0
100
AcDbLine
 10
222.0415450433535
 20
-78.5
 30
0.0
 11
222.0415450433535
 21
-142.8823124432113
 31
0.0
  0
LINE
  5
8D09
330
864E
100
AcDbEntity
  8
30
 62
     0
100
AcDbLine
 10
152.0415450433536
 20
-142.3823124432113
 30
0.0
 11
220.0415450433535
 21
-142.3823124432113
 31
0.0
  0
INSERT
  5
8D0A
330
864E
100
AcDbEntity
  8
30
 62
     0
100
AcDbBlockReference
  2
_OPEN
 10
150.0415450433536
 20
-142.3823124432113
 30
0.0
 41
2.0
 42
2.0
 43
2.0
 50
180.0
  0
INSERT
  5
8D0B
330
864E
100
AcDbEntity
  8
30
 62
     0
100
AcDbBlockReference
  2
_OPEN
 10
222.0415450433535
 20
-142.3823124432113
 30
0.0
 41
2.0
 42
2.0
 43
2.0
  0
MTEXT
  5
8D0C
330
864E
100
AcDbEntity
  8
30
 62
     0
100
AcDbMText
 10
186.0415450433535
 20
-139.3823124432112
 30
0.0
 40
4.0
 41
0.0
 71
     5
 72
     1
  1
\A1;72
 73
     1
 44
1.0
1001
ACAD
1000
MTEXTBEGIN
1070
    73
1070
     1
1070
    44
1040
1.0
1070
    74
1070
     0
1000
MTEXTEND
  0
POINT
  5
8D0D
330
864E
100
AcDbEntity
  8
DEFPOINTS
 62
     0
100
AcDbPoint
 10
150.0415450433536
 20
-25.00000000000003
 30
0.0
  0
POINT
  5
8D0E
330
864E
100
AcDbEntity
  8
DEFPOINTS
 62
     0
100
AcDbPoint
 10
222.0415450433535
 20
-77.5
 30
0.0
  0
POINT
  5
8D0F
330
864E
100
AcDbEntity
  8
DEFPOINTS
 62
     0
100
AcDbPoint
 10
222.0415450433535
 20
-142.3823124432113
 30
0.0
  0
ENDBLK
  5
8659
330
864E
100
AcDbEntity
  8
0
100
AcDbBlockEnd
  0
BLOCK
  5
8665
330
865A
100
AcDbEntity
  8
0
100
AcDbBlockBegin
  2
*D9
 70
     1
 10
0.0
 20
0.0
 30
0.0
  3
*D9
  1

  0
LINE
  5
8D19
330
865A
100
AcDbEntity
  8
30
 62
     0
100
AcDbLine
 10
146.0415450433536
 20
-26.00000000000003
 30
0.0
 11
146.0415450433536
 21
-142.8823124432113
 31
0.0
  0
LINE
  5
8D1A
330
865A
100
AcDbEntity
  8
30
 62
     0
100
AcDbLine
 10
150.0415450433536
 20
-26.00000000000003
 30
0.0
 11
150.0415450433536
 21
-142.8823124432113
 31
0.0
  0
LINE
  5
8D1B
330
865A
100
AcDbEntity
  8
30
 62
     0
100
AcDbLine
 10
144.0415450433536
 20
-142.3823124432113
 30
0.0
 11
142.0415450433536
 21
-142.3823124432113
 31
0.0
  0
LINE
  5
8D1C
330
865A
100
AcDbEntity
  8
30
 62
     0
100
AcDbLine
 10
152.0415450433536
 20
-142.3823124432113
 30
0.0
 11
158.7082117100201
 21
-142.3823124432113
 31
0.0
  0
INSERT
  5
8D1D
330
865A
100
AcDbEntity
  8
30
 62
     0
100
AcDbBlockReference
  2
_OPEN
 10
146.0415450433536
 20
-142.3823124432113
 30
0.0
 41
2.0
 42
2.0
 43
2.0
  0
INSERT
  5
8D1E
330
865A
100
AcDbEntity
  8
30
 62
     0
100
AcDbBlockReference
  2
_OPEN
 10
150.0415450433536
 20
-142.3823124432113
 30
0.0
 41
2.0
 42
2.0
 43
2.0
 50
180.0
  0
MTEXT
  5
8D1F
330
865A
100
AcDbEntity
  8
30
 62
     0
100
AcDbMText
 10
156.3748783766868
 20
-139.3823124432112
 30
0.0
 40
4.0
 41
0.0
 71
     5
 72
     1
  1
\A1;4
 73
     1
 44
1.0
1001
ACAD
1000
MTEXTBEGIN
1070
    73
1070
     1
1070
    44
1040
1.0
1070
    74
1070
     0
1000
MTEXTEND
  0
POINT
  5
8D20
330
865A
100
AcDbEntity
  8
DEFPOINTS
 62
     0
100
AcDbPoint
 10
146.0415450433536
 20
-25.00000000000003
 30
0.0
  0
POINT
  5
8D21
330
865A
100
AcDbEntity
  8
DEFPOINTS
 62
     0
100
AcDbPoint
 10
150.0415450433536
 20
-25.00000000000003
 30
0.0
  0
POINT
  5
8D22
330
865A
100
AcDbEntity
  8
DEFPOINTS
 62
     0
100
AcDbPoint
 10
150.0415450433536
 20
-142.3823124432113
 30
0.0
  0
ENDBLK
  5
8666
330
865A
100
AcDbEntity
  8
0
100
AcDbBlockEnd
  0
BLOCK
  5
8671
330
8667
100
AcDbEntity
  8
0
100
AcDbBlockBegin
  2
*D10
 70
     1
 10
0.0
 20
0.0
 30
0.0
  3
*D10
  1

  0
LINE
  5
8CE3
330
8667
100
AcDbEntity
  8
30
 62
     0
100
AcDbLine
 10
222.0415450433535
 20
-98.00000000000004
 30
0.0
 11
222.0415450433535
 21
-101.6323124432112
 31
0.0
  0
LINE
  5
8CE4
330
8667
100
AcDbEntity
  8
30
 62
     0
100
AcDbLine
 10
274.0415450433535
 20
-68.0
 30
0.0
 11
274.0415450433535
 21
-101.6323124432112
 31
0.0
  0
LINE
  5
8CE5
330
8667
100
AcDbEntity
  8
30
 62
     0
100
AcDbLine
 10
224.0415450433535
 20
-101.1323124432112
 30
0.0
 11
272.0415450433535
 21
-101.1323124432112
 31
0.0
  0
INSERT
  5
8CE6
330
8667
100
AcDbEntity
  8
30
 62
     0
100
AcDbBlockReference
  2
_OPEN
 10
222.0415450433535
 20
-101.1323124432112
 30
0.0
 41
2.0
 42
2.0
 43
2.0
 50
180.0
  0
INSERT
  5
8CE7
330
8667
100
AcDbEntity
  8
30
 62
     0
100
AcDbBlockReference
  2
_OPEN
 10
274.0415450433535
 20
-101.1323124432112
 30
0.0
 41
2.0
 42
2.0
 43
2.0
  0
MTEXT
  5
8CE8
330
8667
100
AcDbEntity
  8
30
 62
     0
100
AcDbMText
 10
248.0415450433536
 20
-98.1323124432113
 30
0.0
 40
4.0
 41
0.0
 71
     5
 72
     1
  1
\A1;52
 73
     1
 44
1.0
1001
ACAD
1000
MTEXTBEGIN
1070
    73
1070
     1
1070
    44
1040
1.0
1070
    74
1070
     0
1000
MTEXTEND
  0
POINT
  5
8CE9
330
8667
100
AcDbEntity
  8
DEFPOINTS
 62
     0
100
AcDbPoint
 10
222.0415450433535
 20
-97.00000000000002
 30
0.0
  0
POINT
  5
8CEA
330
8667
100
AcDbEntity
  8
DEFPOINTS
 62
     0
100
AcDbPoint
 10
274.0415450433535
 20
-67.0
 30
0.0
  0
POINT
  5
8CEB
330
8667
100
AcDbEntity
  8
DEFPOINTS
 62
     0
100
AcDbPoint
 10
274.0415450433535
 20
-101.1323124432112
 30
0.0
  0
ENDBLK
  5
8672
330
8667
100
AcDbEntity
  8
0
100
AcDbBlockEnd
  0
BLOCK
  5
867D
330
8673
100
AcDbEntity
  8
0
100
AcDbBlockBegin
  2
*D11
 70
     1
 10
0.0
 20
0.0
 30
0.0
  3
*D11
  1

  0
LINE
  5
8CEC
330
8673
100
AcDbEntity
  8
30
 62
     0
100
AcDbLine
 10
222.0415450433535
 20
-98.00000000000004
 30
0.0
 11
222.0415450433535
 21
-121.6323124432112
 31
0.0
  0
LINE
  5
8CED
330
8673
100
AcDbEntity
  8
30
 62
     0
100
AcDbLine
 10
324.0415450433536
 20
-68.0
 30
0.0
 11
324.0415450433536
 21
-121.6323124432112
 31
0.0
  0
LINE
  5
8CEE
330
8673
100
AcDbEntity
  8
30
 62
     0
100
AcDbLine
 10
224.0415450433535
 20
-121.1323124432112
 30
0.0
 11
322.0415450433536
 21
-121.1323124432112
 31
0.0
  0
INSERT
  5
8CEF
330
8673
100
AcDbEntity
  8
30
 62
     0
100
AcDbBlockReference
  2
_OPEN
 10
222.0415450433535
 20
-121.1323124432112
 30
0.0
 41
2.0
 42
2.0
 43
2.0
 50
180.0
  0
INSERT
  5
8CF0
330
8673
100
AcDbEntity
  8
30
 62
     0
100
AcDbBlockReference
  2
_OPEN
 10
324.0415450433536
 20
-121.1323124432112
 30
0.0
 41
2.0
 42
2.0
 43
2.0
  0
MTEXT
  5
8CF1
330
8673
100
AcDbEntity
  8
30
 62
     0
100
AcDbMText
 10
273.0415450433535
 20
-118.1323124432112
 30
0.0
 40
4.0
 41
0.0
 71
     5
 72
     1
  1
\A1;102
 73
     1
 44
1.0
1001
ACAD
1000
MTEXTBEGIN
1070
    73
1070
     1
1070
    44
1040
1.0
1070
    74
1070
     0
1000
MTEXTEND
  0
POINT
  5
8CF2
330
8673
100
AcDbEntity
  8
DEFPOINTS
 62
     0
100
AcDbPoint
 10
222.0415450433535
 20
-97.00000000000002
 30
0.0
  0
POINT
  5
8CF3
330
8673
100
AcDbEntity
  8
DEFPOINTS
 62
     0
100
AcDbPoint
 10
324.0415450433536
 20
-67.0
 30
0.0
  0
POINT
  5
8CF4
330
8673
100
AcDbEntity
  8
DEFPOINTS
 62
     0
100
AcDbPoint
 10
324.0415450433536
 20
-121.1323124432112
 30
0.0
  0
ENDBLK
  5
867E
330
8673
100
AcDbEntity
  8
0
100
AcDbBlockEnd
  0
BLOCK
  5
8689
330
867F
100
AcDbEntity
  8
0
100
AcDbBlockBegin
  2
*D12
 70
     1
 10
0.0
 20
0.0
 30
0.0
  3
*D12
  1

  0
LINE
  5
8D10
330
867F
100
AcDbEntity
  8
30
 62
     0
100
AcDbLine
 10
161.0415450433536
 20
-78.5
 30
0.0
 11
161.0415450433536
 21
-101.6323124432112
 31
0.0
  0
LINE
  5
8D11
330
867F
100
AcDbEntity
  8
30
 62
     0
100
AcDbLine
 10
222.0415450433535
 20
-78.5
 30
0.0
 11
222.0415450433535
 21
-101.6323124432112
 31
0.0
  0
LINE
  5
8D12
330
867F
100
AcDbEntity
  8
30
 62
     0
100
AcDbLine
 10
163.0415450433536
 20
-101.1323124432112
 30
0.0
 11
220.0415450433535
 21
-101.1323124432112
 31
0.0
  0
INSERT
  5
8D13
330
867F
100
AcDbEntity
  8
30
 62
     0
100
AcDbBlockReference
  2
_OPEN
 10
161.0415450433536
 20
-101.1323124432112
 30
0.0
 41
2.0
 42
2.0
 43
2.0
 50
180.0
  0
INSERT
  5
8D14
330
867F
100
AcDbEntity
  8
30
 62
     0
100
AcDbBlockReference
  2
_OPEN
 10
222.0415450433535
 20
-101.1323124432112
 30
0.0
 41
2.0
 42
2.0
 43
2.0
  0
MTEXT
  5
8D15
330
867F
100
AcDbEntity
  8
30
 62
     0
100
AcDbMText
 10
191.5415450433535
 20
-98.1323124432113
 30
0.0
 40
4.0
 41
0.0
 71
     5
 72
     1
  1
\A1;61
 73
     1
 44
1.0
1001
ACAD
1000
MTEXTBEGIN
1070
    73
1070
     1
1070
    44
1040
1.0
1070
    74
1070
     0
1000
MTEXTEND
  0
POINT
  5
8D16
330
867F
100
AcDbEntity
  8
DEFPOINTS
 62
     0
100
AcDbPoint
 10
161.0415450433536
 20
-77.5
 30
0.0
  0
POINT
  5
8D17
330
867F
100
AcDbEntity
  8
DEFPOINTS
 62
     0
100
AcDbPoint
 10
222.0415450433535
 20
-77.5
 30
0.0
  0
POINT
  5
8D18
330
867F
100
AcDbEntity
  8
DEFPOINTS
 62
     0
100
AcDbPoint
 10
222.0415450433535
 20
-101.1323124432112
 30
0.0
  0
ENDBLK
  5
868A
330
867F
100
AcDbEntity
  8
0
100
AcDbBlockEnd
  0
BLOCK
  5
8695
330
868B
100
AcDbEntity
  8
0
100
AcDbBlockBegin
  2
*D13
 70
     1
 10
0.0
 20
0.0
 30
0.0
  3
*D13
  1

  0
LINE
  5
8D35
330
868B
100
AcDbEntity
  8
30
 62
     0
100
AcDbLine
 10
259.0415450433535
 20
-70.50000001650001
 30
0.0
 11
259.0415450433535
 21
-91.85521683906721
 31
0.0
  0
LINE
  5
8D36
330
868B
100
AcDbEntity
  8
30
 62
     0
100
AcDbLine
 10
274.0415450433535
 20
-77.28708784337164
 30
0.0
 11
274.0415450433535
 21
-91.85521683906721
 31
0.0
  0
LINE
  5
8D37
330
868B
100
AcDbEntity
  8
30
 62
     0
100
AcDbLine
 10
261.0415450433535
 20
-91.35521683906722
 30
0.0
 11
272.0415450433535
 21
-91.35521683906722
 31
0.0
  0
INSERT
  5
8D38
330
868B
100
AcDbEntity
  8
30
 62
     0
100
AcDbBlockReference
  2
_OPEN
 10
259.0415450433535
 20
-91.35521683906722
 30
0.0
 41
2.0
 42
2.0
 43
2.0
 50
180.0
  0
INSERT
  5
8D39
330
868B
100
AcDbEntity
  8
30
 62
     0
100
AcDbBlockReference
  2
_OPEN
 10
274.0415450433535
 20
-91.35521683906722
 30
0.0
 41
2.0
 42
2.0
 43
2.0
  0
MTEXT
  5
8D3A
330
868B
100
AcDbEntity
  8
30
 62
     0
100
AcDbMText
 10
266.5415450433535
 20
-88.35521683906723
 30
0.0
 40
4.0
 41
0.0
 71
     5
 72
     1
  1
\A1;15
 73
     1
 44
1.0
1001
ACAD
1000
MTEXTBEGIN
1070
    73
1070
     1
1070
    44
1040
1.0
1070
    74
1070
     0
1000
MTEXTEND
  0
POINT
  5
8D3B
330
868B
100
AcDbEntity
  8
DEFPOINTS
 62
     0
100
AcDbPoint
 10
259.0415450433535
 20
-69.50000001650002
 30
0.0
  0
POINT
  5
8D3C
330
868B
100
AcDbEntity
  8
DEFPOINTS
 62
     0
100
AcDbPoint
 10
274.0415450433535
 20
-76.28708784337162
 30
0.0
  0
POINT
  5
8D3D
330
868B
100
AcDbEntity
  8
DEFPOINTS
 62
     0
100
AcDbPoint
 10
274.0415450433535
 20
-91.35521683906722
 30
0.0
  0
ENDBLK
  5
8696
330
868B
100
AcDbEntity
  8
0
100
AcDbBlockEnd
  0
BLOCK
  5
86A1
330
8697
100
AcDbEntity
  8
0
100
AcDbBlockBegin
  2
*D14
 70
     1
 10
0.0
 20
0.0
 30
0.0
  3
*D14
  1

  0
LINE
  5
9331
330
8697
100
AcDbEntity
  8
30
 62
     0
100
AcDbLine
 10
309.0415450433535
 20
-70.50000001650001
 30
0.0
 11
309.0415450433535
 21
-81.6323124432113
 31
0.0
  0
LINE
  5
9332
330
8697
100
AcDbEntity
  8
30
 62
     0
100
AcDbLine
 10
324.0415450433536
 20
-77.28708784337164
 30
0.0
 11
324.0415450433536
 21
-81.6323124432113
 31
0.0
  0
LINE
  5
9333
330
8697
100
AcDbEntity
  8
30
 62
     0
100
AcDbLine
 10
311.0415450433535
 20
-81.13231244321132
 30
0.0
 11
322.0415450433536
 21
-81.13231244321132
 31
0.0
  0
INSERT
  5
9334
330
8697
100
AcDbEntity
  8
30
 62
     0
100
AcDbBlockReference
  2
_OPEN
 10
309.0415450433535
 20
-81.13231244321132
 30
0.0
 41
2.0
 42
2.0
 43
2.0
 50
180.0
  0
INSERT
  5
9335
330
8697
100
AcDbEntity
  8
30
 62
     0
100
AcDbBlockReference
  2
_OPEN
 10
324.0415450433536
 20
-81.13231244321132
 30
0.0
 41
2.0
 42
2.0
 43
2.0
  0
MTEXT
  5
9336
330
8697
100
AcDbEntity
  8
30
 62
     0
100
AcDbMText
 10
316.5415450433536
 20
-78.1323124432113
 30
0.0
 40
4.0
 41
0.0
 71
     5
 72
     1
  1
\A1;15
 73
     1
 44
1.0
1001
ACAD
1000
MTEXTBEGIN
1070
    73
1070
     1
1070
    44
1040
1.0
1070
    74
1070
     0
1000
MTEXTEND
  0
POINT
  5
9337
330
8697
100
AcDbEntity
  8
DEFPOINTS
 62
     0
100
AcDbPoint
 10
309.0415450433535
 20
-69.50000001650002
 30
0.0
  0
POINT
  5
9338
330
8697
100
AcDbEntity
  8
DEFPOINTS
 62
     0
100
AcDbPoint
 10
324.0415450433536
 20
-76.28708784337162
 30
0.0
  0
POINT
  5
9339
330
8697
100
AcDbEntity
  8
DEFPOINTS
 62
     0
100
AcDbPoint
 10
324.0415450433536
 20
-81.13231244321132
 30
0.0
  0
ENDBLK
  5
86A2
330
8697
100
AcDbEntity
  8
0
100
AcDbBlockEnd
  0
BLOCK
  5
87F3
330
87E9
100
AcDbEntity
  8
0
100
AcDbBlockBegin
  2
*D15
 70
     1
 10
0.0
 20
0.0
 30
0.0
  3
*D15
  1

  0
LINE
  5
8B93
330
87E9
100
AcDbEntity
  8
30
 62
     0
100
AcDbLine
 10
-30.00000000000023
 20
260.8811670622456
 30
0.0
 11
-30.00000000000022
 21
313.9340221653557
 31
0.0
  0
LINE
  5
8B94
330
87E9
100
AcDbEntity
  8
30
 62
     0
100
AcDbLine
 10
-0.0000000000002273
 20
305.8811670622457
 30
0.0
 11
-0.0000000000002268
 21
313.9340221653557
 31
0.0
  0
LINE
  5
8B95
330
87E9
100
AcDbEntity
  8
30
 62
     0
100
AcDbLine
 10
-28.00000000000022
 20
313.4340221653557
 30
0.0
 11
-2.000000000000226
 21
313.4340221653557
 31
0.0
  0
INSERT
  5
8B96
330
87E9
100
AcDbEntity
  8
30
 62
     0
100
AcDbBlockReference
  2
_OPEN
 10
-30.00000000000022
 20
313.4340221653557
 30
0.0
 41
2.0
 42
2.0
 43
2.0
 50
180.0
  0
INSERT
  5
8B97
330
87E9
100
AcDbEntity
  8
30
 62
     0
100
AcDbBlockReference
  2
_OPEN
 10
-0.0000000000002268
 20
313.4340221653557
 30
0.0
 41
2.0
 42
2.0
 43
2.0
  0
MTEXT
  5
8B98
330
87E9
100
AcDbEntity
  8
30
 62
     0
100
AcDbMText
 10
-15.00000000000022
 20
316.4340221653556
 30
0.0
 40
4.0
 41
0.0
 71
     5
 72
     1
  1
\A1;30
 73
     1
 44
1.0
1001
ACAD
1000
MTEXTBEGIN
1070
    73
1070
     1
1070
    44
1040
1.0
1070
    74
1070
     0
1000
MTEXTEND
  0
POINT
  5
8B99
330
87E9
100
AcDbEntity
  8
DEFPOINTS
 62
     0
100
AcDbPoint
 10
-30.00000000000023
 20
259.8811670622456
 30
0.0
  0
POINT
  5
8B9A
330
87E9
100
AcDbEntity
  8
DEFPOINTS
 62
     0
100
AcDbPoint
 10
-0.0000000000002274
 20
304.8811670622456
 30
0.0
  0
POINT
  5
8B9B
330
87E9
100
AcDbEntity
  8
DEFPOINTS
 62
     0
100
AcDbPoint
 10
-0.0000000000002268
 20
313.4340221653557
 30
0.0
  0
ENDBLK
  5
87F4
330
87E9
100
AcDbEntity
  8
0
100
AcDbBlockEnd
  0
BLOCK
  5
8800
330
87F6
100
AcDbEntity
  8
0
100
AcDbBlockBegin
  2
*D16
 70
     1
 10
0.0
 20
0.0
 30
0.0
  3
*D16
  1

  0
LINE
  5
938D
330
87F6
100
AcDbEntity
  8
30
 62
     0
100
AcDbLine
 10
-0.0000000000002273
 20
305.8811670622457
 30
0.0
 11
-0.0000000000002268
 21
313.9340221653557
 31
0.0
  0
LINE
  5
938E
330
87F6
100
AcDbEntity
  8
30
 62
     0
100
AcDbLine
 10
29.99999999999977
 20
260.8811670622456
 30
0.0
 11
29.99999999999977
 21
313.9340221653557
 31
0.0
  0
LINE
  5
938F
330
87F6
100
AcDbEntity
  8
30
 62
     0
100
AcDbLine
 10
1.999999999999771
 20
313.4340221653557
 30
0.0
 11
27.99999999999978
 21
313.4340221653557
 31
0.0
  0
INSERT
  5
9390
330
87F6
100
AcDbEntity
  8
30
 62
     0
100
AcDbBlockReference
  2
_OPEN
 10
-0.0000000000002268
 20
313.4340221653557
 30
0.0
 41
2.0
 42
2.0
 43
2.0
 50
180.0
  0
INSERT
  5
9391
330
87F6
100
AcDbEntity
  8
30
 62
     0
100
AcDbBlockReference
  2
_OPEN
 10
29.99999999999977
 20
313.4340221653557
 30
0.0
 41
2.0
 42
2.0
 43
2.0
  0
MTEXT
  5
9392
330
87F6
100
AcDbEntity
  8
30
 62
     0
100
AcDbMText
 10
14.99999999999976
 20
316.4340221653556
 30
0.0
 40
4.0
 41
0.0
 71
     5
 72
     1
  1
\A1;30
 73
     1
 44
1.0
1001
ACAD
1000
MTEXTBEGIN
1070
    73
1070
     1
1070
    44
1040
1.0
1070
    74
1070
     0
1000
MTEXTEND
  0
POINT
  5
9393
330
87F6
100
AcDbEntity
  8
DEFPOINTS
 62
     0
100
AcDbPoint
 10
-0.0000000000002274
 20
304.8811670622456
 30
0.0
  0
POINT
  5
9394
330
87F6
100
AcDbEntity
  8
DEFPOINTS
 62
     0
100
AcDbPoint
 10
29.99999999999977
 20
259.8811670622456
 30
0.0
  0
POINT
  5
9395
330
87F6
100
AcDbEntity
  8
DEFPOINTS
 62
     0
100
AcDbPoint
 10
29.99999999999977
 20
313.4340221653557
 30
0.0
  0
ENDBLK
  5
8801
330
87F6
100
AcDbEntity
  8
0
100
AcDbBlockEnd
  0
BLOCK
  5
880D
330
8803
100
AcDbEntity
  8
0
100
AcDbBlockBegin
  2
*D17
 70
     1
 10
0.0
 20
0.0
 30
0.0
  3
*D17
  1

  0
LINE
  5
9396
330
8803
100
AcDbEntity
  8
30
 62
     0
100
AcDbLine
 10
29.99999999999977
 20
260.8811670622456
 30
0.0
 11
29.99999999999977
 21
313.9340221653557
 31
0.0
  0
LINE
  5
9397
330
8803
100
AcDbEntity
  8
30
 62
     0
100
AcDbLine
 10
59.99999999999977
 20
310.8811670622456
 30
0.0
 11
59.99999999999977
 21
313.9340221653557
 31
0.0
  0
LINE
  5
9398
330
8803
100
AcDbEntity
  8
30
 62
     0
100
AcDbLine
 10
31.99999999999977
 20
313.4340221653557
 30
0.0
 11
57.99999999999977
 21
313.4340221653557
 31
0.0
  0
INSERT
  5
9399
330
8803
100
AcDbEntity
  8
30
 62
     0
100
AcDbBlockReference
  2
_OPEN
 10
29.99999999999977
 20
313.4340221653557
 30
0.0
 41
2.0
 42
2.0
 43
2.0
 50
180.0
  0
INSERT
  5
939A
330
8803
100
AcDbEntity
  8
30
 62
     0
100
AcDbBlockReference
  2
_OPEN
 10
59.99999999999977
 20
313.4340221653557
 30
0.0
 41
2.0
 42
2.0
 43
2.0
  0
MTEXT
  5
939B
330
8803
100
AcDbEntity
  8
30
 62
     0
100
AcDbMText
 10
44.99999999999977
 20
316.4340221653556
 30
0.0
 40
4.0
 41
0.0
 71
     5
 72
     1
  1
\A1;30
 73
     1
 44
1.0
1001
ACAD
1000
MTEXTBEGIN
1070
    73
1070
     1
1070
    44
1040
1.0
1070
    74
1070
     0
1000
MTEXTEND
  0
POINT
  5
939C
330
8803
100
AcDbEntity
  8
DEFPOINTS
 62
     0
100
AcDbPoint
 10
29.99999999999977
 20
259.8811670622456
 30
0.0
  0
POINT
  5
939D
330
8803
100
AcDbEntity
  8
DEFPOINTS
 62
     0
100
AcDbPoint
 10
59.99999999999977
 20
309.8811670622457
 30
0.0
  0
POINT
  5
939E
330
8803
100
AcDbEntity
  8
DEFPOINTS
 62
     0
100
AcDbPoint
 10
59.99999999999977
 20
313.4340221653557
 30
0.0
  0
ENDBLK
  5
880E
330
8803
100
AcDbEntity
  8
0
100
AcDbBlockEnd
  0
BLOCK
  5
8847
330
883D
100
AcDbEntity
  8
0
100
AcDbBlockBegin
  2
*D18
 70
     1
 10
0.0
 20
0.0
 30
0.0
  3
*D18
  1

  0
LINE
  5
9CC7
330
883D
100
AcDbEntity
  8
30
 62
     0
370
    -2
100
AcDbLine
 10
12.00000000000023
 20
82.49999999999992
 30
0.0
 11
-80.39493462656306
 21
82.49999999999996
 31
0.0
  0
LINE
  5
9CC8
330
883D
100
AcDbEntity
  8
30
 62
     0
370
    -2
100
AcDbLine
 10
-46.0
 20
-77.5
 30
0.0
 11
-80.39493462656308
 21
-77.5
 31
0.0
  0
LINE
  5
9CC9
330
883D
100
AcDbEntity
  8
30
 62
     0
370
    -2
100
AcDbLine
 10
-79.89493462656304
 20
80.49999999999995
 30
0.0
 11
-79.89493462656309
 21
-75.5
 31
0.0
  0
INSERT
  5
9CCA
330
883D
100
AcDbEntity
  8
30
 62
     0
370
    -2
100
AcDbBlockReference
  2
_OPEN
 10
-79.89493462656304
 20
82.49999999999996
 30
0.0
 41
2.0
 42
2.0
 43
2.0
 50
90.0
  0
INSERT
  5
9CCB
330
883D
100
AcDbEntity
  8
30
 62
     0
370
    -2
100
AcDbBlockReference
  2
_OPEN
 10
-79.89493462656309
 20
-77.5
 30
0.0
 41
2.0
 42
2.0
 43
2.0
 50
270.0
  0
MTEXT
  5
9CCC
330
883D
100
AcDbEntity
  8
30
 62
     0
100
AcDbMText
 10
-82.89493462656308
 20
2.499999999999969
 30
0.0
 40
4.0
 41
0.0
 71
     5
 72
     1
  1
\A1;160
 11
0.0000000000000001
 21
1.0
 31
0.0
 73
     1
 44
1.0
1001
ACAD
1000
MTEXTBEGIN
1070
    73
1070
     1
1070
    44
1040
1.0
1070
    74
1070
     0
1000
MTEXTEND
  0
POINT
  5
9CCD
330
883D
100
AcDbEntity
  8
DEFPOINTS
 62
     0
100
AcDbPoint
 10
13.00000000000023
 20
82.49999999999992
 30
0.0
  0
POINT
  5
9CCE
330
883D
100
AcDbEntity
  8
DEFPOINTS
 62
     0
100
AcDbPoint
 10
-45.0
 20
-77.5
 30
0.0
  0
POINT
  5
9CCF
330
883D
100
AcDbEntity
  8
DEFPOINTS
 62
     0
100
AcDbPoint
 10
-79.89493462656309
 20
-77.5
 30
0.0
  0
ENDBLK
  5
8848
330
883D
100
AcDbEntity
  8
0
100
AcDbBlockEnd
  0
BLOCK
  5
885D
330
8853
100
AcDbEntity
  8
0
100
AcDbBlockBegin
  2
*D19
 70
     1
 10
0.0
 20
0.0
 30
0.0
  3
*D19
  1

  0
LINE
  5
8B6F
330
8853
100
AcDbEntity
  8
30
 62
     0
100
AcDbLine
 10
-46.0
 20
50.99999999999988
 30
0.0
 11
-69.83461828766346
 21
50.99999999999989
 31
0.0
  0
LINE
  5
8B70
330
8853
100
AcDbEntity
  8
30
 62
     0
100
AcDbLine
 10
-46.0
 20
-51.00000000000003
 30
0.0
 11
-69.83461828766349
 21
-51.00000000000002
 31
0.0
  0
LINE
  5
8B71
330
8853
100
AcDbEntity
  8
30
 62
     0
100
AcDbLine
 10
-69.33461828766346
 20
48.99999999999989
 30
0.0
 11
-69.33461828766349
 21
-49.00000000000002
 31
0.0
  0
INSERT
  5
8B72
330
8853
100
AcDbEntity
  8
30
 62
     0
100
AcDbBlockReference
  2
_OPEN
 10
-69.33461828766346
 20
50.99999999999989
 30
0.0
 41
2.0
 42
2.0
 43
2.0
 50
90.0
  0
INSERT
  5
8B73
330
8853
100
AcDbEntity
  8
30
 62
     0
100
AcDbBlockReference
  2
_OPEN
 10
-69.33461828766349
 20
-51.00000000000002
 30
0.0
 41
2.0
 42
2.0
 43
2.0
 50
270.0
  0
MTEXT
  5
8B74
330
8853
100
AcDbEntity
  8
30
 62
     0
100
AcDbMText
 10
-72.33461828766349
 20
-0.0000000000000735
 30
0.0
 40
4.0
 41
0.0
 71
     5
 72
     1
  1
\A1;102
 11
0.0000000000000001
 21
1.0
 31
0.0
 73
     1
 44
1.0
1001
ACAD
1000
MTEXTBEGIN
1070
    73
1070
     1
1070
    44
1040
1.0
1070
    74
1070
     0
1000
MTEXTEND
  0
POINT
  5
8B75
330
8853
100
AcDbEntity
  8
DEFPOINTS
 62
     0
100
AcDbPoint
 10
-45.0
 20
50.99999999999988
 30
0.0
  0
POINT
  5
8B76
330
8853
100
AcDbEntity
  8
DEFPOINTS
 62
     0
100
AcDbPoint
 10
-45.0
 20
-51.00000000000003
 30
0.0
  0
POINT
  5
8B77
330
8853
100
AcDbEntity
  8
DEFPOINTS
 62
     0
100
AcDbPoint
 10
-69.33461828766349
 20
-51.00000000000002
 30
0.0
  0
ENDBLK
  5
885E
330
8853
100
AcDbEntity
  8
0
100
AcDbBlockEnd
  0
BLOCK
  5
886A
330
8860
100
AcDbEntity
  8
0
100
AcDbBlockBegin
  2
*D20
 70
     1
 10
0.0
 20
0.0
 30
0.0
  3
*D20
  1

  0
LINE
  5
8B66
330
8860
100
AcDbEntity
  8
30
 62
     0
100
AcDbLine
 10
-43.0
 20
24.99999999999995
 30
0.0
 11
-60.44766848119387
 21
24.99999999999995
 31
0.0
  0
LINE
  5
8B67
330
8860
100
AcDbEntity
  8
30
 62
     0
100
AcDbLine
 10
-43.0
 20
-25.0
 30
0.0
 11
-60.44766848119389
 21
-25.0
 31
0.0
  0
LINE
  5
8B68
330
8860
100
AcDbEntity
  8
30
 62
     0
100
AcDbLine
 10
-59.94766848119386
 20
22.99999999999994
 30
0.0
 11
-59.9476684811939
 21
-22.99999999999998
 31
0.0
  0
INSERT
  5
8B69
330
8860
100
AcDbEntity
  8
30
 62
     0
100
AcDbBlockReference
  2
_OPEN
 10
-59.94766848119386
 20
24.99999999999995
 30
0.0
 41
2.0
 42
2.0
 43
2.0
 50
90.0
  0
INSERT
  5
8B6A
330
8860
100
AcDbEntity
  8
30
 62
     0
100
AcDbBlockReference
  2
_OPEN
 10
-59.9476684811939
 20
-25.0
 30
0.0
 41
2.0
 42
2.0
 43
2.0
 50
270.0
  0
MTEXT
  5
8B6B
330
8860
100
AcDbEntity
  8
30
 62
     0
100
AcDbMText
 10
-62.94766848119389
 20
-0.000000000000035
 30
0.0
 40
4.0
 41
0.0
 71
     5
 72
     1
  1
\A1;50
 11
0.0000000000000001
 21
1.0
 31
0.0
 73
     1
 44
1.0
1001
ACAD
1000
MTEXTBEGIN
1070
    73
1070
     1
1070
    44
1040
1.0
1070
    74
1070
     0
1000
MTEXTEND
  0
POINT
  5
8B6C
330
8860
100
AcDbEntity
  8
DEFPOINTS
 62
     0
100
AcDbPoint
 10
-42.0
 20
24.99999999999995
 30
0.0
  0
POINT
  5
8B6D
330
8860
100
AcDbEntity
  8
DEFPOINTS
 62
     0
100
AcDbPoint
 10
-42.0
 20
-25.0
 30
0.0
  0
POINT
  5
8B6E
330
8860
100
AcDbEntity
  8
DEFPOINTS
 62
     0
100
AcDbPoint
 10
-59.9476684811939
 20
-25.0
 30
0.0
  0
ENDBLK
  5
886B
330
8860
100
AcDbEntity
  8
0
100
AcDbBlockEnd
  0
BLOCK
  5
8D49
330
8D3F
100
AcDbEntity
  8
0
100
AcDbBlockBegin
  2
*D21
 70
     1
 10
0.0
 20
0.0
 30
0.0
  3
*D21
  1

  0
LINE
  5
8D4B
330
8D3F
100
AcDbEntity
  8
30
 62
     0
100
AcDbLine
 10
130.0415450433536
 20
-0.9999999999999962
 30
0.0
 11
130.0415450433536
 21
-155.6114571606904
 31
0.0
  0
LINE
  5
8D4C
330
8D3F
100
AcDbEntity
  8
30
 62
     0
100
AcDbLine
 10
222.0415450433535
 20
-143.8823124432111
 30
0.0
 11
222.0415450433535
 21
-155.6114571606904
 31
0.0
  0
LINE
  5
8D4D
330
8D3F
100
AcDbEntity
  8
30
 62
     0
100
AcDbLine
 10
132.0415450433536
 20
-155.1114571606904
 30
0.0
 11
220.0415450433535
 21
-155.1114571606904
 31
0.0
  0
INSERT
  5
8D4E
330
8D3F
100
AcDbEntity
  8
30
 62
     0
100
AcDbBlockReference
  2
_OPEN
 10
130.0415450433536
 20
-155.1114571606904
 30
0.0
 41
2.0
 42
2.0
 43
2.0
 50
180.0
  0
INSERT
  5
8D4F
330
8D3F
100
AcDbEntity
  8
30
 62
     0
100
AcDbBlockReference
  2
_OPEN
 10
222.0415450433535
 20
-155.1114571606904
 30
0.0
 41
2.0
 42
2.0
 43
2.0
  0
MTEXT
  5
8D50
330
8D3F
100
AcDbEntity
  8
30
 62
     0
100
AcDbMText
 10
176.0415450433535
 20
-152.1114571606904
 30
0.0
 40
4.0
 41
0.0
 71
     5
 72
     1
  1
\A1;92
 73
     1
 44
1.0
1001
ACAD
1000
MTEXTBEGIN
1070
    73
1070
     1
1070
    44
1040
1.0
1070
    74
1070
     0
1000
MTEXTEND
  0
POINT
  5
8D51
330
8D3F
100
AcDbEntity
  8
DEFPOINTS
 62
     0
100
AcDbPoint
 10
130.0415450433536
 20
0.0000000000000038
 30
0.0
  0
POINT
  5
8D52
330
8D3F
100
AcDbEntity
  8
DEFPOINTS
 62
     0
100
AcDbPoint
 10
222.0415450433535
 20
-142.8823124432113
 30
0.0
  0
POINT
  5
8D53
330
8D3F
100
AcDbEntity
  8
DEFPOINTS
 62
     0
100
AcDbPoint
 10
222.0415450433535
 20
-155.1114571606904
 30
0.0
  0
ENDBLK
  5
8D4A
330
8D3F
100
AcDbEntity
  8
0
100
AcDbBlockEnd
  0
BLOCK
  5
8D6E
330
8D64
100
AcDbEntity
  8
0
100
AcDbBlockBegin
  2
*D22
 70
     1
 10
0.0
 20
0.0
 30
0.0
  3
*D22
  1

  0
LINE
  5
8D70
330
8D64
100
AcDbEntity
  8
30
 62
     0
100
AcDbLine
 10
335.0415450433536
 20
66.99999999999993
 30
0.0
 11
364.5609929336933
 21
66.99999999999993
 31
0.0
  0
LINE
  5
8D71
330
8D64
100
AcDbEntity
  8
30
 62
     0
100
AcDbLine
 10
335.0415450433536
 20
-67.0
 30
0.0
 11
364.5609929336933
 21
-67.00000000000001
 31
0.0
  0
LINE
  5
8D72
330
8D64
100
AcDbEntity
  8
30
 62
     0
100
AcDbLine
 10
364.0609929336934
 20
64.99999999999992
 30
0.0
 11
364.0609929336934
 21
-65.00000000000001
 31
0.0
  0
INSERT
  5
8D73
330
8D64
100
AcDbEntity
  8
30
 62
     0
100
AcDbBlockReference
  2
_OPEN
 10
364.0609929336934
 20
66.99999999999993
 30
0.0
 41
2.0
 42
2.0
 43
2.0
 50
90.0
  0
INSERT
  5
8D74
330
8D64
100
AcDbEntity
  8
30
 62
     0
100
AcDbBlockReference
  2
_OPEN
 10
364.0609929336934
 20
-67.00000000000001
 30
0.0
 41
2.0
 42
2.0
 43
2.0
 50
270.0
  0
MTEXT
  5
8D75
330
8D64
100
AcDbEntity
  8
30
 62
     0
100
AcDbMText
 10
361.0609929336933
 20
0.0000000000000207
 30
0.0
 40
4.0
 41
0.0
 71
     5
 72
     1
  1
\A1;134
 11
0.0000000000000001
 21
1.0
 31
0.0
 73
     1
 44
1.0
1001
ACAD
1000
MTEXTBEGIN
1070
    73
1070
     1
1070
    44
1040
1.0
1070
    74
1070
     0
1000
MTEXTEND
  0
POINT
  5
8D76
330
8D64
100
AcDbEntity
  8
DEFPOINTS
 62
     0
100
AcDbPoint
 10
334.0415450433535
 20
66.99999999999993
 30
0.0
  0
POINT
  5
8D77
330
8D64
100
AcDbEntity
  8
DEFPOINTS
 62
     0
100
AcDbPoint
 10
334.0415450433535
 20
-67.0
 30
0.0
  0
POINT
  5
8D78
330
8D64
100
AcDbEntity
  8
DEFPOINTS
 62
     0
100
AcDbPoint
 10
364.0609929336934
 20
-67.00000000000001
 30
0.0
  0
ENDBLK
  5
8D6F
330
8D64
100
AcDbEntity
  8
0
100
AcDbBlockEnd
  0
BLOCK
  5
92B9
330
92AF
100
AcDbEntity
  8
0
100
AcDbBlockBegin
  2
*D23
 70
     1
 10
0.0
 20
0.0
 30
0.0
  3
*D23
  1

  0
LINE
  5
9328
330
92AF
100
AcDbEntity
  8
30
 62
     0
100
AcDbLine
 10
63.50000001650005
 20
-302.0
 30
0.0
 11
116.6399438671996
 21
-302.0
 31
0.0
  0
LINE
  5
9329
330
92AF
100
AcDbEntity
  8
30
 62
     0
100
AcDbLine
 10
63.50000001650005
 20
-168.0
 30
0.0
 11
116.6399438671997
 21
-168.0
 31
0.0
  0
LINE
  5
932A
330
92AF
100
AcDbEntity
  8
30
 62
     0
100
AcDbLine
 10
116.1399438671997
 20
-300.0
 30
0.0
 11
116.1399438671997
 21
-170.0
 31
0.0
  0
INSERT
  5
932B
330
92AF
100
AcDbEntity
  8
30
 62
     0
100
AcDbBlockReference
  2
_OPEN
 10
116.1399438671997
 20
-302.0
 30
0.0
 41
2.0
 42
2.0
 43
2.0
 50
270.0
  0
INSERT
  5
932C
330
92AF
100
AcDbEntity
  8
30
 62
     0
100
AcDbBlockReference
  2
_OPEN
 10
116.1399438671997
 20
-168.0
 30
0.0
 41
2.0
 42
2.0
 43
2.0
 50
90.0
  0
MTEXT
  5
932D
330
92AF
100
AcDbEntity
  8
30
 62
     0
100
AcDbMText
 10
113.1399438671996
 20
-235.0
 30
0.0
 40
4.0
 41
0.0
 71
     5
 72
     1
  1
\A1;134
 11
0.0000000000000001
 21
1.0
 31
0.0
 73
     1
 44
1.0
1001
ACAD
1000
MTEXTBEGIN
1070
    73
1070
     1
1070
    44
1040
1.0
1070
    74
1070
     0
1000
MTEXTEND
  0
POINT
  5
932E
330
92AF
100
AcDbEntity
  8
DEFPOINTS
 62
     0
100
AcDbPoint
 10
62.50000001650003
 20
-302.0
 30
0.0
  0
POINT
  5
932F
330
92AF
100
AcDbEntity
  8
DEFPOINTS
 62
     0
100
AcDbPoint
 10
62.50000001650003
 20
-168.0
 30
0.0
  0
POINT
  5
9330
330
92AF
100
AcDbEntity
  8
DEFPOINTS
 62
     0
100
AcDbPoint
 10
116.1399438671997
 20
-168.0
 30
0.0
  0
ENDBLK
  5
92BA
330
92AF
100
AcDbEntity
  8
0
100
AcDbBlockEnd
  0
BLOCK
  5
92E9
330
92DF
100
AcDbEntity
  8
0
100
AcDbBlockBegin
  2
*D24
 70
     1
 10
0.0
 20
0.0
 30
0.0
  3
*D24
  1

  0
LINE
  5
92EB
330
92DF
100
AcDbEntity
  8
30
 62
     0
100
AcDbLine
 10
-15.00000000000158
 20
-305.9999999999998
 30
0.0
 11
-15.00000000000158
 21
-330.5941269446008
 31
0.0
  0
LINE
  5
92EC
330
92DF
100
AcDbEntity
  8
30
 62
     0
100
AcDbLine
 10
14.99999999999841
 20
-305.9999999999998
 30
0.0
 11
14.9999999999984
 21
-330.5941269446008
 31
0.0
  0
LINE
  5
92ED
330
92DF
100
AcDbEntity
  8
30
 62
     0
100
AcDbLine
 10
-13.00000000000159
 20
-330.0941269446008
 30
0.0
 11
12.99999999999839
 21
-330.0941269446008
 31
0.0
  0
INSERT
  5
92EE
330
92DF
100
AcDbEntity
  8
30
 62
     0
100
AcDbBlockReference
  2
_OPEN
 10
-15.00000000000158
 20
-330.0941269446008
 30
0.0
 41
2.0
 42
2.0
 43
2.0
 50
180.0
  0
INSERT
  5
92EF
330
92DF
100
AcDbEntity
  8
30
 62
     0
100
AcDbBlockReference
  2
_OPEN
 10
14.9999999999984
 20
-330.0941269446008
 30
0.0
 41
2.0
 42
2.0
 43
2.0
  0
MTEXT
  5
92F0
330
92DF
100
AcDbEntity
  8
30
 62
     0
100
AcDbMText
 10
-0.0000000000015932
 20
-327.0941269446008
 30
0.0
 40
4.0
 41
0.0
 71
     5
 72
     1
  1
\A1;30
 73
     1
 44
1.0
1001
ACAD
1000
MTEXTBEGIN
1070
    73
1070
     1
1070
    44
1040
1.0
1070
    74
1070
     0
1000
MTEXTEND
  0
POINT
  5
92F1
330
92DF
100
AcDbEntity
  8
DEFPOINTS
 62
     0
100
AcDbPoint
 10
-15.00000000000158
 20
-304.9999999999998
 30
0.0
  0
POINT
  5
92F2
330
92DF
100
AcDbEntity
  8
DEFPOINTS
 62
     0
100
AcDbPoint
 10
14.99999999999841
 20
-304.9999999999998
 30
0.0
  0
POINT
  5
92F3
330
92DF
100
AcDbEntity
  8
DEFPOINTS
 62
     0
100
AcDbPoint
 10
14.9999999999984
 20
-330.0941269446008
 30
0.0
  0
ENDBLK
  5
92EA
330
92DF
100
AcDbEntity
  8
0
100
AcDbBlockEnd
  0
BLOCK
  5
92FF
330
92F5
100
AcDbEntity
  8
0
100
AcDbBlockBegin
  2
*D25
 70
     1
 10
0.0
 20
0.0
 30
0.0
  3
*D25
  1

  0
LINE
  5
92F6
330
92F5
100
AcDbEntity
  8
30
 62
     0
100
AcDbLine
 10
-30.0
 20
-315.0
 30
0.0
 11
-30.0
 21
-340.2034767486354
 31
0.0
  0
LINE
  5
92F7
330
92F5
100
AcDbEntity
  8
30
 62
     0
100
AcDbLine
 10
-0.0000000000000001
 20
-318.4374692359974
 30
0.0
 11
-0.0000000000000014
 21
-340.2034767486354
 31
0.0
  0
LINE
  5
92F8
330
92F5
100
AcDbEntity
  8
30
 62
     0
100
AcDbLine
 10
-28.0
 20
-339.7034767486354
 30
0.0
 11
-2.0
 21
-339.7034767486354
 31
0.0
  0
INSERT
  5
92F9
330
92F5
100
AcDbEntity
  8
30
 62
     0
100
AcDbBlockReference
  2
_OPEN
 10
-30.0
 20
-339.7034767486354
 30
0.0
 41
2.0
 42
2.0
 43
2.0
 50
180.0
  0
INSERT
  5
92FA
330
92F5
100
AcDbEntity
  8
30
 62
     0
100
AcDbBlockReference
  2
_OPEN
 10
-0.0000000000000014
 20
-339.7034767486354
 30
0.0
 41
2.0
 42
2.0
 43
2.0
  0
MTEXT
  5
92FB
330
92F5
100
AcDbEntity
  8
30
 62
     0
100
AcDbMText
 10
-15.0
 20
-336.7034767486353
 30
0.0
 40
4.0
 41
0.0
 71
     5
 72
     1
  1
\A1;30
 73
     1
 44
1.0
1001
ACAD
1000
MTEXTBEGIN
1070
    73
1070
     1
1070
    44
1040
1.0
1070
    74
1070
     0
1000
MTEXTEND
  0
POINT
  5
92FC
330
92F5
100
AcDbEntity
  8
DEFPOINTS
 62
     0
100
AcDbPoint
 10
-30.0
 20
-314.0
 30
0.0
  0
POINT
  5
92FD
330
92F5
100
AcDbEntity
  8
DEFPOINTS
 62
     0
100
AcDbPoint
 10
0.0
 20
-317.4374692359974
 30
0.0
  0
POINT
  5
92FE
330
92F5
100
AcDbEntity
  8
DEFPOINTS
 62
     0
100
AcDbPoint
 10
-0.0000000000000014
 20
-339.7034767486354
 30
0.0
  0
ENDBLK
  5
9300
330
92F5
100
AcDbEntity
  8
0
100
AcDbBlockEnd
  0
BLOCK
  5
930C
330
9302
100
AcDbEntity
  8
0
100
AcDbBlockBegin
  2
*D26
 70
     1
 10
0.0
 20
0.0
 30
0.0
  3
*D26
  1

  0
LINE
  5
939F
330
9302
100
AcDbEntity
  8
30
 62
     0
100
AcDbLine
 10
-0.0000000000000001
 20
-318.4374692359974
 30
0.0
 11
-0.0000000000000014
 21
-340.2034767486354
 31
0.0
  0
LINE
  5
93A0
330
9302
100
AcDbEntity
  8
30
 62
     0
100
AcDbLine
 10
30.0
 20
-315.0
 30
0.0
 11
30.0
 21
-340.2034767486354
 31
0.0
  0
LINE
  5
93A1
330
9302
100
AcDbEntity
  8
30
 62
     0
100
AcDbLine
 10
1.999999999999998
 20
-339.7034767486354
 30
0.0
 11
28.0
 21
-339.7034767486354
 31
0.0
  0
INSERT
  5
93A2
330
9302
100
AcDbEntity
  8
30
 62
     0
100
AcDbBlockReference
  2
_OPEN
 10
-0.0000000000000014
 20
-339.7034767486354
 30
0.0
 41
2.0
 42
2.0
 43
2.0
 50
180.0
  0
INSERT
  5
93A3
330
9302
100
AcDbEntity
  8
30
 62
     0
100
AcDbBlockReference
  2
_OPEN
 10
30.0
 20
-339.7034767486354
 30
0.0
 41
2.0
 42
2.0
 43
2.0
  0
MTEXT
  5
93A4
330
9302
100
AcDbEntity
  8
30
 62
     0
100
AcDbMText
 10
15.0
 20
-336.7034767486353
 30
0.0
 40
4.0
 41
0.0
 71
     5
 72
     1
  1
\A1;30
 73
     1
 44
1.0
1001
ACAD
1000
MTEXTBEGIN
1070
    73
1070
     1
1070
    44
1040
1.0
1070
    74
1070
     0
1000
MTEXTEND
  0
POINT
  5
93A5
330
9302
100
AcDbEntity
  8
DEFPOINTS
 62
     0
100
AcDbPoint
 10
0.0
 20
-317.4374692359974
 30
0.0
  0
POINT
  5
93A6
330
9302
100
AcDbEntity
  8
DEFPOINTS
 62
     0
100
AcDbPoint
 10
30.0
 20
-314.0
 30
0.0
  0
POINT
  5
93A7
330
9302
100
AcDbEntity
  8
DEFPOINTS
 62
     0
100
AcDbPoint
 10
30.0
 20
-339.7034767486354
 30
0.0
  0
ENDBLK
  5
930D
330
9302
100
AcDbEntity
  8
0
100
AcDbBlockEnd
  0
BLOCK
  5
9319
330
930F
100
AcDbEntity
  8
0
100
AcDbBlockBegin
  2
*D27
 70
     1
 10
0.0
 20
0.0
 30
0.0
  3
*D27
  1

  0
LINE
  5
93A8
330
930F
100
AcDbEntity
  8
30
 62
     0
100
AcDbLine
 10
30.0
 20
-315.0
 30
0.0
 11
30.0
 21
-340.2034767486354
 31
0.0
  0
LINE
  5
93A9
330
930F
100
AcDbEntity
  8
30
 62
     0
100
AcDbLine
 10
60.0
 20
-315.0
 30
0.0
 11
60.0
 21
-340.2034767486354
 31
0.0
  0
LINE
  5
93AA
330
930F
100
AcDbEntity
  8
30
 62
     0
100
AcDbLine
 10
32.0
 20
-339.7034767486354
 30
0.0
 11
58.0
 21
-339.7034767486354
 31
0.0
  0
INSERT
  5
93AB
330
930F
100
AcDbEntity
  8
30
 62
     0
100
AcDbBlockReference
  2
_OPEN
 10
30.0
 20
-339.7034767486354
 30
0.0
 41
2.0
 42
2.0
 43
2.0
 50
180.0
  0
INSERT
  5
93AC
330
930F
100
AcDbEntity
  8
30
 62
     0
100
AcDbBlockReference
  2
_OPEN
 10
60.0
 20
-339.7034767486354
 30
0.0
 41
2.0
 42
2.0
 43
2.0
  0
MTEXT
  5
93AD
330
930F
100
AcDbEntity
  8
30
 62
     0
100
AcDbMText
 10
45.0
 20
-336.7034767486353
 30
0.0
 40
4.0
 41
0.0
 71
     5
 72
     1
  1
\A1;30
 73
     1
 44
1.0
1001
ACAD
1000
MTEXTBEGIN
1070
    73
1070
     1
1070
    44
1040
1.0
1070
    74
1070
     0
1000
MTEXTEND
  0
POINT
  5
93AE
330
930F
100
AcDbEntity
  8
DEFPOINTS
 62
     0
100
AcDbPoint
 10
30.0
 20
-314.0
 30
0.0
  0
POINT
  5
93AF
330
930F
100
AcDbEntity
  8
DEFPOINTS
 62
     0
100
AcDbPoint
 10
60.0
 20
-314.0
 30
0.0
  0
POINT
  5
93B0
330
930F
100
AcDbEntity
  8
DEFPOINTS
 62
     0
100
AcDbPoint
 10
60.0
 20
-339.7034767486354
 30
0.0
  0
ENDBLK
  5
931A
330
930F
100
AcDbEntity
  8
0
100
AcDbBlockEnd
  0
BLOCK
  5
9326
330
931C
100
AcDbEntity
  8
0
100
AcDbBlockBegin
  2
*D28
 70
     1
 10
0.0
 20
0.0
 30
0.0
  3
*D28
  1

  0
LINE
  5
931D
330
931C
100
AcDbEntity
  8
30
 62
     0
100
AcDbLine
 10
20.00000000000022
 20
-169.0
 30
0.0
 11
101.2473398081974
 21
-169.0
 31
0.0
  0
LINE
  5
931E
330
931C
100
AcDbEntity
  8
30
 62
     0
100
AcDbLine
 10
20.00000000000022
 20
-301.0
 30
0.0
 11
101.2473398081974
 21
-301.0
 31
0.0
  0
LINE
  5
931F
330
931C
100
AcDbEntity
  8
30
 62
     0
100
AcDbLine
 10
100.7473398081974
 20
-171.0
 30
0.0
 11
100.7473398081974
 21
-299.0
 31
0.0
  0
INSERT
  5
9320
330
931C
100
AcDbEntity
  8
30
 62
     0
100
AcDbBlockReference
  2
_OPEN
 10
100.7473398081974
 20
-169.0
 30
0.0
 41
2.0
 42
2.0
 43
2.0
 50
90.0
  0
INSERT
  5
9321
330
931C
100
AcDbEntity
  8
30
 62
     0
100
AcDbBlockReference
  2
_OPEN
 10
100.7473398081974
 20
-301.0
 30
0.0
 41
2.0
 42
2.0
 43
2.0
 50
270.0
  0
MTEXT
  5
9322
330
931C
100
AcDbEntity
  8
30
 62
     0
100
AcDbMText
 10
97.74733980819753
 20
-235.0
 30
0.0
 40
4.0
 41
0.0
 71
     5
 72
     1
  1
\A1;132
 11
0.0000000000000001
 21
1.0
 31
0.0
 73
     1
 44
1.0
1001
ACAD
1000
MTEXTBEGIN
1070
    73
1070
     1
1070
    44
1040
1.0
1070
    74
1070
     0
1000
MTEXTEND
  0
POINT
  5
9323
330
931C
100
AcDbEntity
  8
DEFPOINTS
 62
     0
100
AcDbPoint
 10
19.00000000000022
 20
-169.0
 30
0.0
  0
POINT
  5
9324
330
931C
100
AcDbEntity
  8
DEFPOINTS
 62
     0
100
AcDbPoint
 10
19.00000000000022
 20
-301.0
 30
0.0
  0
POINT
  5
9325
330
931C
100
AcDbEntity
  8
DEFPOINTS
 62
     0
100
AcDbPoint
 10
100.7473398081974
 20
-301.0
 30
0.0
  0
ENDBLK
  5
9327
330
931C
100
AcDbEntity
  8
0
100
AcDbBlockEnd
  0
BLOCK
  5
9471
330
9470
100
AcDbEntity
  8
0
100
AcDbBlockBegin
  2
_D0
 70
     0
 10
0.0
 20
0.0
 30
0.0
  3
_D0
  1

  0
MTEXT
  5
9472
330
9470
100
AcDbEntity
  8
1
  6
Continuous
 62
     4
100
AcDbMText
 10
102.340719
 20
211.195543
 30
0.0
 40
2.5
 41
0.0
 71
     7
 72
     5
  1
\W01.000;\fsimplex.shx;13
  7
blockfont
 73
     2
 44
0.9036139999999999
1001
ACAD
1000
MTEXTBEGIN
1070
    73
1070
     2
1070
    44
1040
0.9036139999999999
1070
    74
1070
     0
1000
MTEXTEND
  0
LINE
  5
9473
330
9470
100
AcDbEntity
  8
1
 62
     4
100
AcDbLine
 10
101.15999
 20
191.513031
 30
0.0
 11
101.15999
 21
211.752834
 31
0.0
  0
LINE
  5
9474
330
9470
100
AcDbEntity
  8
1
 62
     4
100
AcDbLine
 10
106.35999
 20
192.713031
 30
0.0
 11
106.35999
 21
211.752834
 31
0.0
  0
LINE
  5
9475
330
9470
100
AcDbEntity
  8
1
 62
     4
100
AcDbLine
 10
94.90999
 20
210.752834
 30
0.0
 11
112.60999
 21
210.752834
 31
0.0
  0
SOLID
  5
9476
330
9470
100
AcDbEntity
  8
1
 62
     4
100
AcDbTrace
 10
101.15999
 20
210.752834
 30
0.0
 11
99.159991
 21
210.412764
 31
0.0
 12
99.15998899999999
 22
211.092904
 32
0.0
 13
101.15999
 23
210.752834
 33
0.0
  0
SOLID
  5
9477
330
9470
100
AcDbEntity
  8
1
 62
     4
100
AcDbTrace
 10
106.35999
 20
210.752834
 30
0.0
 11
108.359989
 21
211.092904
 31
0.0
 12
108.359991
 22
210.412764
 32
0.0
 13
106.35999
 23
210.752834
 33
0.0
  0
ENDBLK
  5
9478
330
9470
100
AcDbEntity
  8
0
100
AcDbBlockEnd
  0
BLOCK
  5
947A
330
9479
100
AcDbEntity
  8
0
100
AcDbBlockBegin
  2
_D1
 70
     0
 10
0.0
 20
0.0
 30
0.0
  3
_D1
  1

  0
MTEXT
  5
947B
330
9479
100
AcDbEntity
  8
5
  6
Continuous
 62
     4
100
AcDbMText
 10
104.749834
 20
114.192708
 30
0.0
 40
2.5
 41
0.0
 71
     7
 72
     5
  1
\W01.000;\fsimplex.shx;120
  7
blockfont
 73
     2
 44
0.9036139999999999
1001
ACAD
1000
MTEXTBEGIN
1070
    73
1070
     2
1070
    44
1040
0.9036139999999999
1070
    74
1070
     0
1000
MTEXTEND
  0
LINE
  5
947C
330
9479
100
AcDbEntity
  8
5
 62
     4
100
AcDbLine
 10
83.15999000000003
 20
126.713031
 30
0.0
 11
83.15999000000003
 21
112.75
 31
0.0
  0
LINE
  5
947D
330
9479
100
AcDbEntity
  8
5
 62
     4
100
AcDbLine
 10
131.15999
 20
126.713031
 30
0.0
 11
131.15999
 21
112.75
 31
0.0
  0
LINE
  5
947E
330
9479
100
AcDbEntity
  8
5
 62
     4
100
AcDbLine
 10
83.15999000000003
 20
113.75
 30
0.0
 11
131.15999
 21
113.75
 31
0.0
  0
SOLID
  5
947F
330
9479
100
AcDbEntity
  8
5
 62
     4
100
AcDbTrace
 10
83.15999000000003
 20
113.75
 30
0.0
 11
85.15998899999997
 21
114.09007
 31
0.0
 12
85.159991
 22
113.40993
 32
0.0
 13
83.15999000000003
 23
113.75
 33
0.0
  0
SOLID
  5
9480
330
9479
100
AcDbEntity
  8
5
 62
     4
100
AcDbTrace
 10
131.15999
 20
113.75
 30
0.0
 11
129.159991
 21
113.40993
 31
0.0
 12
129.159989
 22
114.09007
 32
0.0
 13
131.15999
 23
113.75
 33
0.0
  0
ENDBLK
  5
9481
330
9479
100
AcDbEntity
  8
0
100
AcDbBlockEnd
  0
BLOCK
  5
9483
330
9482
100
AcDbEntity
  8
0
100
AcDbBlockBegin
  2
_D2
 70
     0
 10
0.0
 20
0.0
 30
0.0
  3
_D2
  1

  0
MTEXT
  5
9484
330
9482
100
AcDbEntity
  8
1
  6
Continuous
 62
     4
100
AcDbMText
 10
210.265719
 20
84.19270799999997
 30
0.0
 40
2.5
 41
0.0
 71
     7
 72
     5
  1
\W01.000;\fsimplex.shx;4
  7
blockfont
 73
     2
 44
0.9036139999999999
1001
ACAD
1000
MTEXTBEGIN
1070
    73
1070
     2
1070
    44
1040
0.9036139999999999
1070
    74
1070
     0
1000
MTEXTEND
  0
LINE
  5
9485
330
9482
100
AcDbEntity
  8
1
 62
     4
100
AcDbLine
 10
213.55999
 20
148.713031
 30
0.0
 11
213.55999
 21
82.75
 31
0.0
  0
LINE
  5
9486
330
9482
100
AcDbEntity
  8
1
 62
     4
100
AcDbLine
 10
215.15999
 20
148.212031
 30
0.0
 11
215.15999
 21
82.75
 31
0.0
  0
LINE
  5
9487
330
9482
100
AcDbEntity
  8
1
 62
     4
100
AcDbLine
 10
221.40999
 20
83.75
 30
0.0
 11
209.828219
 21
83.75
 31
0.0
  0
SOLID
  5
9488
330
9482
100
AcDbEntity
  8
1
 62
     4
100
AcDbTrace
 10
213.55999
 20
83.75
 30
0.0
 11
211.559991
 21
83.40993
 31
0.0
 12
211.559989
 22
84.09007
 32
0.0
 13
213.55999
 23
83.75
 33
0.0
  0
SOLID
  5
9489
330
9482
100
AcDbEntity
  8
1
 62
     4
100
AcDbTrace
 10
215.15999
 20
83.75
 30
0.0
 11
217.159989
 21
84.09007
 31
0.0
 12
217.159991
 22
83.40993
 32
0.0
 13
215.15999
 23
83.75
 33
0.0
  0
ENDBLK
  5
948A
330
9482
100
AcDbEntity
  8
0
100
AcDbBlockEnd
  0
BLOCK
  5
948C
330
948B
100
AcDbEntity
  8
0
100
AcDbBlockBegin
  2
_D3
 70
     0
 10
0.0
 20
0.0
 30
0.0
  3
_D3
  1

  0
MTEXT
  5
948D
330
948B
100
AcDbEntity
  8
1
  6
Continuous
 62
     4
100
AcDbMText
 10
228.140719
 20
84.19270799999997
 30
0.0
 40
2.5
 41
0.0
 71
     7
 72
     5
  1
\W01.000;\fsimplex.shx;72
  7
blockfont
 73
     2
 44
0.9036139999999999
1001
ACAD
1000
MTEXTBEGIN
1070
    73
1070
     2
1070
    44
1040
0.9036139999999999
1070
    74
1070
     0
1000
MTEXTEND
  0
LINE
  5
948E
330
948B
100
AcDbEntity
  8
1
 62
     4
100
AcDbLine
 10
215.15999
 20
147.712031
 30
0.0
 11
215.15999
 21
82.75
 31
0.0
  0
LINE
  5
948F
330
948B
100
AcDbEntity
  8
1
 62
     4
100
AcDbLine
 10
243.95999
 20
126.713031
 30
0.0
 11
243.95999
 21
82.75
 31
0.0
  0
LINE
  5
9490
330
948B
100
AcDbEntity
  8
1
 62
     4
100
AcDbLine
 10
215.15999
 20
83.75
 30
0.0
 11
243.95999
 21
83.75
 31
0.0
  0
SOLID
  5
9491
330
948B
100
AcDbEntity
  8
1
 62
     4
100
AcDbTrace
 10
215.15999
 20
83.75
 30
0.0
 11
217.159989
 21
84.09007
 31
0.0
 12
217.159991
 22
83.40993
 32
0.0
 13
215.15999
 23
83.75
 33
0.0
  0
SOLID
  5
9492
330
948B
100
AcDbEntity
  8
1
 62
     4
100
AcDbTrace
 10
243.95999
 20
83.75
 30
0.0
 11
241.959991
 21
83.40993
 31
0.0
 12
241.959989
 22
84.09007
 32
0.0
 13
243.95999
 23
83.75
 33
0.0
  0
ENDBLK
  5
9493
330
948B
100
AcDbEntity
  8
0
100
AcDbBlockEnd
  0
BLOCK
  5
9495
330
9494
100
AcDbEntity
  8
0
100
AcDbBlockBegin
  2
_D7
 70
     0
 10
0.0
 20
0.0
 30
0.0
  3
_D7
  1

  0
MTEXT
  5
9496
330
9494
100
AcDbEntity
  8
1
  6
Continuous
 62
     4
100
AcDbMText
 10
255.4375
 20
114.192708
 30
0.0
 40
2.5
 41
0.0
 71
     7
 72
     5
  1
\W01.000;\fsimplex.shx;3
  7
blockfont
 73
     2
 44
0.9036139999999999
1001
ACAD
1000
MTEXTBEGIN
1070
    73
1070
     2
1070
    44
1040
0.9036139999999999
1070
    74
1070
     0
1000
MTEXTEND
  0
LINE
  5
9497
330
9494
100
AcDbEntity
  8
1
 62
     4
100
AcDbLine
 10
258.15999
 20
129.213031
 30
0.0
 11
258.15999
 21
112.75
 31
0.0
  0
LINE
  5
9498
330
9494
100
AcDbEntity
  8
1
 62
     4
100
AcDbLine
 10
259.35999
 20
129.213031
 30
0.0
 11
259.35999
 21
112.75
 31
0.0
  0
LINE
  5
9499
330
9494
100
AcDbEntity
  8
1
 62
     4
100
AcDbLine
 10
265.60999
 20
113.75
 30
0.0
 11
255.0
 21
113.75
 31
0.0
  0
SOLID
  5
949A
330
9494
100
AcDbEntity
  8
1
 62
     4
100
AcDbTrace
 10
258.15999
 20
113.75
 30
0.0
 11
256.159991
 21
113.40993
 31
0.0
 12
256.159989
 22
114.09007
 32
0.0
 13
258.15999
 23
113.75
 33
0.0
  0
SOLID
  5
949B
330
9494
100
AcDbEntity
  8
1
 62
     4
100
AcDbTrace
 10
259.35999
 20
113.75
 30
0.0
 11
261.3599890000001
 21
114.09007
 31
0.0
 12
261.359991
 22
113.40993
 32
0.0
 13
259.35999
 23
113.75
 33
0.0
  0
ENDBLK
  5
949C
330
9494
100
AcDbEntity
  8
0
100
AcDbBlockEnd
  0
BLOCK
  5
949E
330
949D
100
AcDbEntity
  8
0
100
AcDbBlockBegin
  2
_D11
 70
     0
 10
0.0
 20
0.0
 30
0.0
  3
_D11
  1

  0
MTEXT
  5
949F
330
949D
100
AcDbEntity
  8
1
  6
Continuous
 62
     4
100
AcDbMText
 10
96.4375
 20
174.192708
 30
0.0
 40
2.5
 41
0.0
 71
     7
 72
     5
  1
\W01.000;\fsimplex.shx;84
  7
blockfont
 73
     2
 44
0.9036139999999999
1001
ACAD
1000
MTEXTBEGIN
1070
    73
1070
     2
1070
    44
1040
0.9036139999999999
1070
    74
1070
     0
1000
MTEXTEND
  0
LINE
  5
94A0
330
949D
100
AcDbEntity
  8
1
 62
     4
100
AcDbLine
 10
84.35999
 20
169.713031
 30
0.0
 11
84.35999
 21
174.75
 31
0.0
  0
LINE
  5
94A1
330
949D
100
AcDbEntity
  8
1
 62
     4
100
AcDbLine
 10
117.95999
 20
169.713031
 30
0.0
 11
117.95999
 21
174.75
 31
0.0
  0
LINE
  5
94A2
330
949D
100
AcDbEntity
  8
1
 62
     4
100
AcDbLine
 10
84.35999
 20
173.75
 30
0.0
 11
117.95999
 21
173.75
 31
0.0
  0
SOLID
  5
94A3
330
949D
100
AcDbEntity
  8
1
 62
     4
100
AcDbTrace
 10
84.35999
 20
173.75
 30
0.0
 11
86.359989
 21
174.09007
 31
0.0
 12
86.35999100000002
 22
173.40993
 32
0.0
 13
84.35999
 23
173.75
 33
0.0
  0
SOLID
  5
94A4
330
949D
100
AcDbEntity
  8
1
 62
     4
100
AcDbTrace
 10
117.95999
 20
173.75
 30
0.0
 11
115.959991
 21
173.40993
 31
0.0
 12
115.959989
 22
174.09007
 32
0.0
 13
117.95999
 23
173.75
 33
0.0
  0
ENDBLK
  5
94A5
330
949D
100
AcDbEntity
  8
0
100
AcDbBlockEnd
  0
BLOCK
  5
94A7
330
94A6
100
AcDbEntity
  8
0
100
AcDbBlockBegin
  2
_D14
 70
     0
 10
0.0
 20
0.0
 30
0.0
  3
_D14
  1

  0
MTEXT
  5
94A8
330
94A6
100
AcDbEntity
  8
1
  6
Continuous
 62
     4
100
AcDbMText
 10
114.19749
 20
211.195543
 30
0.0
 40
2.5
 41
0.0
 71
     7
 72
     5
  1
\W01.000;\fsimplex.shx;13.5
  7
blockfont
 73
     2
 44
0.9036139999999999
1001
ACAD
1000
MTEXTBEGIN
1070
    73
1070
     2
1070
    44
1040
0.9036139999999999
1070
    74
1070
     0
1000
MTEXTEND
  0
LINE
  5
94A9
330
94A6
100
AcDbEntity
  8
1
 62
     4
100
AcDbLine
 10
106.35999
 20
192.713031
 30
0.0
 11
106.35999
 21
211.752834
 31
0.0
  0
LINE
  5
94AA
330
94A6
100
AcDbEntity
  8
1
 62
     4
100
AcDbLine
 10
111.75999
 20
193.113031
 30
0.0
 11
111.75999
 21
211.752834
 31
0.0
  0
LINE
  5
94AB
330
94A6
100
AcDbEntity
  8
1
 62
     4
100
AcDbLine
 10
106.35999
 20
210.752834
 30
0.0
 11
121.437073
 21
210.752834
 31
0.0
  0
SOLID
  5
94AC
330
94A6
100
AcDbEntity
  8
1
 62
     4
100
AcDbTrace
 10
106.35999
 20
210.752834
 30
0.0
 11
108.359989
 21
211.092904
 31
0.0
 12
108.359991
 22
210.412764
 32
0.0
 13
106.35999
 23
210.752834
 33
0.0
  0
SOLID
  5
94AD
330
94A6
100
AcDbEntity
  8
1
 62
     4
100
AcDbTrace
 10
111.75999
 20
210.752834
 30
0.0
 11
109.759991
 21
210.412764
 31
0.0
 12
109.759989
 22
211.092904
 32
0.0
 13
111.75999
 23
210.752834
 33
0.0
  0
ENDBLK
  5
94AE
330
94A6
100
AcDbEntity
  8
0
100
AcDbBlockEnd
  0
BLOCK
  5
94B0
330
94AF
100
AcDbEntity
  8
0
100
AcDbBlockBegin
  2
_D18
 70
     0
 10
0.0
 20
0.0
 30
0.0
  3
_D18
  1

  0
MTEXT
  5
94B1
330
94AF
100
AcDbEntity
  8
1
  6
Continuous
 62
     4
100
AcDbMText
 10
228.940719
 20
91.69270799999999
 30
0.0
 40
2.5
 41
0.0
 71
     7
 72
     5
  1
\W01.000;\fsimplex.shx;68
  7
blockfont
 73
     2
 44
0.9036139999999999
1001
ACAD
1000
MTEXTBEGIN
1070
    73
1070
     2
1070
    44
1040
0.9036139999999999
1070
    74
1070
     0
1000
MTEXTEND
  0
LINE
  5
94B2
330
94AF
100
AcDbEntity
  8
1
 62
     4
100
AcDbLine
 10
216.75999
 20
137.313031
 30
0.0
 11
216.75999
 21
90.25
 31
0.0
  0
LINE
  5
94B3
330
94AF
100
AcDbEntity
  8
1
 62
     4
100
AcDbLine
 10
243.95999
 20
126.713031
 30
0.0
 11
243.95999
 21
90.25
 31
0.0
  0
LINE
  5
94B4
330
94AF
100
AcDbEntity
  8
1
 62
     4
100
AcDbLine
 10
216.75999
 20
91.25
 30
0.0
 11
243.95999
 21
91.25
 31
0.0
  0
SOLID
  5
94B5
330
94AF
100
AcDbEntity
  8
1
 62
     4
100
AcDbTrace
 10
216.75999
 20
91.25
 30
0.0
 11
218.759989
 21
91.59007
 31
0.0
 12
218.759991
 22
90.90993
 32
0.0
 13
216.75999
 23
91.25
 33
0.0
  0
SOLID
  5
94B6
330
94AF
100
AcDbEntity
  8
1
 62
     4
100
AcDbTrace
 10
243.95999
 20
91.25
 30
0.0
 11
241.959991
 21
90.90993
 31
0.0
 12
241.959989
 22
91.59007
 32
0.0
 13
243.95999
 23
91.25
 33
0.0
  0
ENDBLK
  5
94B7
330
94AF
100
AcDbEntity
  8
0
100
AcDbBlockEnd
  0
BLOCK
  5
94B9
330
94B8
100
AcDbEntity
  8
0
100
AcDbBlockBegin
  2
_D21
 70
     0
 10
0.0
 20
0.0
 30
0.0
  3
_D21
  1

  0
MTEXT
  5
94BA
330
94B8
100
AcDbEntity
  8
1
  6
Continuous
 62
     4
100
AcDbMText
 10
265.4375
 20
114.192708
 30
0.0
 40
2.5
 41
0.0
 71
     7
 72
     5
  1
\W01.000;\fsimplex.shx;13.5
  7
blockfont
 73
     2
 44
0.9036139999999999
1001
ACAD
1000
MTEXTBEGIN
1070
    73
1070
     2
1070
    44
1040
0.9036139999999999
1070
    74
1070
     0
1000
MTEXTEND
  0
LINE
  5
94BB
330
94B8
100
AcDbEntity
  8
1
 62
     4
100
AcDbLine
 10
259.35999
 20
129.213031
 30
0.0
 11
259.35999
 21
112.75
 31
0.0
  0
LINE
  5
94BC
330
94B8
100
AcDbEntity
  8
1
 62
     4
100
AcDbLine
 10
264.75999
 20
130.913031
 30
0.0
 11
264.75999
 21
112.75
 31
0.0
  0
LINE
  5
94BD
330
94B8
100
AcDbEntity
  8
1
 62
     4
100
AcDbLine
 10
259.35999
 20
113.75
 30
0.0
 11
272.677083
 21
113.75
 31
0.0
  0
SOLID
  5
94BE
330
94B8
100
AcDbEntity
  8
1
 62
     4
100
AcDbTrace
 10
259.35999
 20
113.75
 30
0.0
 11
261.3599890000001
 21
114.09007
 31
0.0
 12
261.359991
 22
113.40993
 32
0.0
 13
259.35999
 23
113.75
 33
0.0
  0
SOLID
  5
94BF
330
94B8
100
AcDbEntity
  8
1
 62
     4
100
AcDbTrace
 10
264.75999
 20
113.75
 30
0.0
 11
262.759991
 21
113.40993
 31
0.0
 12
262.759989
 22
114.09007
 32
0.0
 13
264.75999
 23
113.75
 33
0.0
  0
ENDBLK
  5
94C0
330
94B8
100
AcDbEntity
  8
0
100
AcDbBlockEnd
  0
BLOCK
  5
94C2
330
94C1
100
AcDbEntity
  8
0
100
AcDbBlockBegin
  2
_D22
 70
     0
 10
0.0
 20
0.0
 30
0.0
  3
_D22
  1

  0
MTEXT
  5
94C3
330
94C1
100
AcDbEntity
  8
1
  6
Continuous
 62
     4
100
AcDbMText
 10
275.4375
 20
114.192708
 30
0.0
 40
2.5
 41
0.0
 71
     7
 72
     5
  1
\W01.000;\fsimplex.shx;3
  7
blockfont
 73
     2
 44
0.9036139999999999
1001
ACAD
1000
MTEXTBEGIN
1070
    73
1070
     2
1070
    44
1040
0.9036139999999999
1070
    74
1070
     0
1000
MTEXTEND
  0
LINE
  5
94C4
330
94C1
100
AcDbEntity
  8
1
 62
     4
100
AcDbLine
 10
278.15999
 20
129.213031
 30
0.0
 11
278.15999
 21
112.75
 31
0.0
  0
LINE
  5
94C5
330
94C1
100
AcDbEntity
  8
1
 62
     4
100
AcDbLine
 10
279.35999
 20
129.213031
 30
0.0
 11
279.35999
 21
112.75
 31
0.0
  0
LINE
  5
94C6
330
94C1
100
AcDbEntity
  8
1
 62
     4
100
AcDbLine
 10
285.60999
 20
113.75
 30
0.0
 11
275.0
 21
113.75
 31
0.0
  0
SOLID
  5
94C7
330
94C1
100
AcDbEntity
  8
1
 62
     4
100
AcDbTrace
 10
278.15999
 20
113.75
 30
0.0
 11
276.159991
 21
113.40993
 31
0.0
 12
276.159989
 22
114.09007
 32
0.0
 13
278.15999
 23
113.75
 33
0.0
  0
SOLID
  5
94C8
330
94C1
100
AcDbEntity
  8
1
 62
     4
100
AcDbTrace
 10
279.35999
 20
113.75
 30
0.0
 11
281.359989
 21
114.09007
 31
0.0
 12
281.359991
 22
113.40993
 32
0.0
 13
279.35999
 23
113.75
 33
0.0
  0
ENDBLK
  5
94C9
330
94C1
100
AcDbEntity
  8
0
100
AcDbBlockEnd
  0
BLOCK
  5
94CB
330
94CA
100
AcDbEntity
  8
0
100
AcDbBlockBegin
  2
_D23
 70
     0
 10
0.0
 20
0.0
 30
0.0
  3
_D23
  1

  0
MTEXT
  5
94CC
330
94CA
100
AcDbEntity
  8
1
  6
Continuous
 62
     4
100
AcDbMText
 10
285.4375
 20
114.192708
 30
0.0
 40
2.5
 41
0.0
 71
     7
 72
     5
  1
\W01.000;\fsimplex.shx;13.5
  7
blockfont
 73
     2
 44
0.9036139999999999
1001
ACAD
1000
MTEXTBEGIN
1070
    73
1070
     2
1070
    44
1040
0.9036139999999999
1070
    74
1070
     0
1000
MTEXTEND
  0
LINE
  5
94CD
330
94CA
100
AcDbEntity
  8
1
 62
     4
100
AcDbLine
 10
279.35999
 20
129.213031
 30
0.0
 11
279.35999
 21
112.75
 31
0.0
  0
LINE
  5
94CE
330
94CA
100
AcDbEntity
  8
1
 62
     4
100
AcDbLine
 10
284.75999
 20
130.913031
 30
0.0
 11
284.75999
 21
112.75
 31
0.0
  0
LINE
  5
94CF
330
94CA
100
AcDbEntity
  8
1
 62
     4
100
AcDbLine
 10
279.35999
 20
113.75
 30
0.0
 11
292.677083
 21
113.75
 31
0.0
  0
SOLID
  5
94D0
330
94CA
100
AcDbEntity
  8
1
 62
     4
100
AcDbTrace
 10
279.35999
 20
113.75
 30
0.0
 11
281.359989
 21
114.09007
 31
0.0
 12
281.359991
 22
113.40993
 32
0.0
 13
279.35999
 23
113.75
 33
0.0
  0
SOLID
  5
94D1
330
94CA
100
AcDbEntity
  8
1
 62
     4
100
AcDbTrace
 10
284.75999
 20
113.75
 30
0.0
 11
282.759991
 21
113.40993
 31
0.0
 12
282.759989
 22
114.09007
 32
0.0
 13
284.75999
 23
113.75
 33
0.0
  0
ENDBLK
  5
94D2
330
94CA
100
AcDbEntity
  8
0
100
AcDbBlockEnd
  0
BLOCK
  5
94D4
330
94D3
100
AcDbEntity
  8
0
100
AcDbBlockBegin
  2
_D24
 70
     0
 10
0.0
 20
0.0
 30
0.0
  3
_D24
  1

  0
MTEXT
  5
94D5
330
94D3
100
AcDbEntity
  8
1
  6
Continuous
 62
     4
100
AcDbMText
 10
282.582179
 20
140.195543
 30
0.0
 40
2.5
 41
0.0
 71
     7
 72
     5
  1
\W01.000;\fsimplex.shx;11.5
  7
blockfont
 73
     2
 44
0.9036139999999999
1001
ACAD
1000
MTEXTBEGIN
1070
    73
1070
     2
1070
    44
1040
0.9036139999999999
1070
    74
1070
     0
1000
MTEXTEND
  0
LINE
  5
94D6
330
94D3
100
AcDbEntity
  8
1
 62
     4
100
AcDbLine
 10
276.45999
 20
132.913031
 30
0.0
 11
276.45999
 21
140.752834
 31
0.0
  0
LINE
  5
94D7
330
94D3
100
AcDbEntity
  8
1
 62
     4
100
AcDbLine
 10
281.05999
 20
132.913031
 30
0.0
 11
281.05999
 21
140.752834
 31
0.0
  0
LINE
  5
94D8
330
94D3
100
AcDbEntity
  8
1
 62
     4
100
AcDbLine
 10
276.45999
 20
139.752834
 30
0.0
 11
289.821762
 21
139.752834
 31
0.0
  0
SOLID
  5
94D9
330
94D3
100
AcDbEntity
  8
1
 62
     4
100
AcDbTrace
 10
276.45999
 20
139.752834
 30
0.0
 11
278.459989
 21
140.092904
 31
0.0
 12
278.459991
 22
139.4127639999999
 32
0.0
 13
276.45999
 23
139.752834
 33
0.0
  0
SOLID
  5
94DA
330
94D3
100
AcDbEntity
  8
1
 62
     4
100
AcDbTrace
 10
281.05999
 20
139.752834
 30
0.0
 11
279.059991
 21
139.4127639999999
 31
0.0
 12
279.059989
 22
140.092904
 32
0.0
 13
281.05999
 23
139.752834
 33
0.0
  0
ENDBLK
  5
94DB
330
94D3
100
AcDbEntity
  8
0
100
AcDbBlockEnd
  0
BLOCK
  5
94DD
330
94DC
100
AcDbEntity
  8
0
100
AcDbBlockBegin
  2
_D26
 70
     0
 10
0.0
 20
0.0
 30
0.0
  3
_D26
  1

  0
MTEXT
  5
94DE
330
94DC
100
AcDbEntity
  8
1
  6
Continuous
 62
     4
100
AcDbMText
 10
230.340719
 20
106.692708
 30
0.0
 40
2.5
 41
0.0
 71
     7
 72
     5
  1
\W01.000;\fsimplex.shx;61
  7
blockfont
 73
     2
 44
0.9036139999999999
1001
ACAD
1000
MTEXTBEGIN
1070
    73
1070
     2
1070
    44
1040
0.9036139999999999
1070
    74
1070
     0
1000
MTEXTEND
  0
LINE
  5
94DF
330
94DC
100
AcDbEntity
  8
1
 62
     4
100
AcDbLine
 10
219.55999
 20
126.713031
 30
0.0
 11
219.55999
 21
105.25
 31
0.0
  0
LINE
  5
94E0
330
94DC
100
AcDbEntity
  8
1
 62
     4
100
AcDbLine
 10
243.95999
 20
126.713031
 30
0.0
 11
243.95999
 21
105.25
 31
0.0
  0
LINE
  5
94E1
330
94DC
100
AcDbEntity
  8
1
 62
     4
100
AcDbLine
 10
219.55999
 20
106.25
 30
0.0
 11
243.95999
 21
106.25
 31
0.0
  0
SOLID
  5
94E2
330
94DC
100
AcDbEntity
  8
1
 62
     4
100
AcDbTrace
 10
219.55999
 20
106.25
 30
0.0
 11
221.559989
 21
106.59007
 31
0.0
 12
221.559991
 22
105.90993
 32
0.0
 13
219.55999
 23
106.25
 33
0.0
  0
SOLID
  5
94E3
330
94DC
100
AcDbEntity
  8
1
 62
     4
100
AcDbTrace
 10
243.95999
 20
106.25
 30
0.0
 11
241.959991
 21
105.90993
 31
0.0
 12
241.959989
 22
106.59007
 32
0.0
 13
243.95999
 23
106.25
 33
0.0
  0
ENDBLK
  5
94E4
330
94DC
100
AcDbEntity
  8
0
100
AcDbBlockEnd
  0
BLOCK
  5
94E6
330
94E5
100
AcDbEntity
  8
0
100
AcDbBlockBegin
  2
_D27
 70
     0
 10
0.0
 20
0.0
 30
0.0
  3
_D27
  1

  0
MTEXT
  5
94E7
330
94E5
100
AcDbEntity
  8
1
  6
Continuous
 62
     4
100
AcDbMText
 10
92.4375
 20
144.192708
 30
0.0
 40
2.5
 41
0.0
 71
     7
 72
     5
  1
\W01.000;\fsimplex.shx;22
  7
blockfont
 73
     2
 44
0.9036139999999999
1001
ACAD
1000
MTEXTBEGIN
1070
    73
1070
     2
1070
    44
1040
0.9036139999999999
1070
    74
1070
     0
1000
MTEXTEND
  0
LINE
  5
94E8
330
94E5
100
AcDbEntity
  8
1
 62
     4
100
AcDbLine
 10
96.75999
 20
148.713031
 30
0.0
 11
96.75999
 21
142.75
 31
0.0
  0
LINE
  5
94E9
330
94E5
100
AcDbEntity
  8
1
 62
     4
100
AcDbLine
 10
105.55999
 20
148.713031
 30
0.0
 11
105.55999
 21
142.75
 31
0.0
  0
LINE
  5
94EA
330
94E5
100
AcDbEntity
  8
1
 62
     4
100
AcDbLine
 10
105.55999
 20
143.75
 30
0.0
 11
92.0
 21
143.75
 31
0.0
  0
SOLID
  5
94EB
330
94E5
100
AcDbEntity
  8
1
 62
     4
100
AcDbTrace
 10
96.75999
 20
143.75
 30
0.0
 11
98.759989
 21
144.09007
 31
0.0
 12
98.75999100000001
 22
143.40993
 32
0.0
 13
96.75999
 23
143.75
 33
0.0
  0
SOLID
  5
94EC
330
94E5
100
AcDbEntity
  8
1
 62
     4
100
AcDbTrace
 10
105.55999
 20
143.75
 30
0.0
 11
103.559991
 21
143.40993
 31
0.0
 12
103.559989
 22
144.09007
 32
0.0
 13
105.55999
 23
143.75
 33
0.0
  0
ENDBLK
  5
94ED
330
94E5
100
AcDbEntity
  8
0
100
AcDbBlockEnd
  0
BLOCK
  5
94EF
330
94EE
100
AcDbEntity
  8
0
100
AcDbBlockBegin
  2
_D28
 70
     0
 10
0.0
 20
0.0
 30
0.0
  3
_D28
  1

  0
MTEXT
  5
94F0
330
94EE
100
AcDbEntity
  8
1
  6
Continuous
 62
     4
100
AcDbMText
 10
230.258948
 20
211.195543
 30
0.0
 40
2.5
 41
0.0
 71
     7
 72
     5
  1
\W01.000;\fsimplex.shx;51.5
  7
blockfont
 73
     2
 44
0.9036139999999999
1001
ACAD
1000
MTEXTBEGIN
1070
    73
1070
     2
1070
    44
1040
0.9036139999999999
1070
    74
1070
     0
1000
MTEXTEND
  0
LINE
  5
94F1
330
94EE
100
AcDbEntity
  8
1
 62
     4
100
AcDbLine
 10
223.35999
 20
193.113031
 30
0.0
 11
223.35999
 21
211.752834
 31
0.0
  0
LINE
  5
94F2
330
94EE
100
AcDbEntity
  8
1
 62
     4
100
AcDbLine
 10
243.95999
 20
193.113031
 30
0.0
 11
243.95999
 21
211.752834
 31
0.0
  0
LINE
  5
94F3
330
94EE
100
AcDbEntity
  8
1
 62
     4
100
AcDbLine
 10
223.35999
 20
210.752834
 30
0.0
 11
243.95999
 21
210.752834
 31
0.0
  0
SOLID
  5
94F4
330
94EE
100
AcDbEntity
  8
1
 62
     4
100
AcDbTrace
 10
223.35999
 20
210.752834
 30
0.0
 11
225.359989
 21
211.092904
 31
0.0
 12
225.359991
 22
210.412764
 32
0.0
 13
223.35999
 23
210.752834
 33
0.0
  0
SOLID
  5
94F5
330
94EE
100
AcDbEntity
  8
1
 62
     4
100
AcDbTrace
 10
243.95999
 20
210.752834
 30
0.0
 11
241.959991
 21
210.412764
 31
0.0
 12
241.959989
 22
211.092904
 32
0.0
 13
243.95999
 23
210.752834
 33
0.0
  0
ENDBLK
  5
94F6
330
94EE
100
AcDbEntity
  8
0
100
AcDbBlockEnd
  0
BLOCK
  5
94F8
330
94F7
100
AcDbEntity
  8
0
100
AcDbBlockBegin
  2
_D31
 70
     0
 10
0.0
 20
0.0
 30
0.0
  3
_D31
  1

  0
MTEXT
  5
94F9
330
94F7
100
AcDbEntity
  8
1
  6
Continuous
 62
     4
100
AcDbMText
 10
224.140719
 20
76.69270799999998
 30
0.0
 40
2.5
 41
0.0
 71
     7
 72
     5
  1
\W01.000;\fsimplex.shx;92
  7
blockfont
 73
     2
 44
0.9036139999999999
1001
ACAD
1000
MTEXTBEGIN
1070
    73
1070
     2
1070
    44
1040
0.9036139999999999
1070
    74
1070
     0
1000
MTEXTEND
  0
LINE
  5
94FA
330
94F7
100
AcDbEntity
  8
1
 62
     4
100
AcDbLine
 10
207.15999
 20
158.713031
 30
0.0
 11
207.15999
 21
75.25
 31
0.0
  0
LINE
  5
94FB
330
94F7
100
AcDbEntity
  8
1
 62
     4
100
AcDbLine
 10
243.95999
 20
126.713031
 30
0.0
 11
243.95999
 21
75.25
 31
0.0
  0
LINE
  5
94FC
330
94F7
100
AcDbEntity
  8
1
 62
     4
100
AcDbLine
 10
207.15999
 20
76.25
 30
0.0
 11
243.95999
 21
76.25
 31
0.0
  0
SOLID
  5
94FD
330
94F7
100
AcDbEntity
  8
1
 62
     4
100
AcDbTrace
 10
207.15999
 20
76.25
 30
0.0
 11
209.159989
 21
76.59006999999999
 31
0.0
 12
209.159991
 22
75.90993
 32
0.0
 13
207.15999
 23
76.25
 33
0.0
  0
SOLID
  5
94FE
330
94F7
100
AcDbEntity
  8
1
 62
     4
100
AcDbTrace
 10
243.95999
 20
76.25
 30
0.0
 11
241.959991
 21
75.90993
 31
0.0
 12
241.959989
 22
76.59006999999999
 32
0.0
 13
243.95999
 23
76.25
 33
0.0
  0
ENDBLK
  5
94FF
330
94F7
100
AcDbEntity
  8
0
100
AcDbBlockEnd
  0
BLOCK
  5
9501
330
9500
100
AcDbEntity
  8
0
100
AcDbBlockBegin
  2
_D32
 70
     0
 10
0.0
 20
0.0
 30
0.0
  3
_D32
  1

  0
MTEXT
  5
9502
330
9500
100
AcDbEntity
  8
1
  6
Continuous
 62
     4
100
AcDbMText
 10
252.940719
 20
106.692708
 30
0.0
 40
2.5
 41
0.0
 71
     7
 72
     5
  1
\W01.000;\fsimplex.shx;52
  7
blockfont
 73
     2
 44
0.9036139999999999
1001
ACAD
1000
MTEXTBEGIN
1070
    73
1070
     2
1070
    44
1040
0.9036139999999999
1070
    74
1070
     0
1000
MTEXTEND
  0
LINE
  5
9503
330
9500
100
AcDbEntity
  8
1
 62
     4
100
AcDbLine
 10
243.95999
 20
118.913031
 30
0.0
 11
243.95999
 21
105.25
 31
0.0
  0
LINE
  5
9504
330
9500
100
AcDbEntity
  8
1
 62
     4
100
AcDbLine
 10
264.75999
 20
131.913031
 30
0.0
 11
264.75999
 21
105.25
 31
0.0
  0
LINE
  5
9505
330
9500
100
AcDbEntity
  8
1
 62
     4
100
AcDbLine
 10
243.95999
 20
106.25
 30
0.0
 11
264.75999
 21
106.25
 31
0.0
  0
SOLID
  5
9506
330
9500
100
AcDbEntity
  8
1
 62
     4
100
AcDbTrace
 10
243.95999
 20
106.25
 30
0.0
 11
245.959989
 21
106.59007
 31
0.0
 12
245.959991
 22
105.90993
 32
0.0
 13
243.95999
 23
106.25
 33
0.0
  0
SOLID
  5
9507
330
9500
100
AcDbEntity
  8
1
 62
     4
100
AcDbTrace
 10
264.75999
 20
106.25
 30
0.0
 11
262.759991
 21
105.90993
 31
0.0
 12
262.759989
 22
106.59007
 32
0.0
 13
264.75999
 23
106.25
 33
0.0
  0
ENDBLK
  5
9508
330
9500
100
AcDbEntity
  8
0
100
AcDbBlockEnd
  0
BLOCK
  5
950A
330
9509
100
AcDbEntity
  8
0
100
AcDbBlockBegin
  2
_D33
 70
     0
 10
0.0
 20
0.0
 30
0.0
  3
_D33
  1

  0
MTEXT
  5
950B
330
9509
100
AcDbEntity
  8
1
  6
Continuous
 62
     4
100
AcDbMText
 10
261.949834
 20
99.19270799999999
 30
0.0
 40
2.5
 41
0.0
 71
     7
 72
     5
  1
\W01.000;\fsimplex.shx;102
  7
blockfont
 73
     2
 44
0.9036139999999999
1001
ACAD
1000
MTEXTBEGIN
1070
    73
1070
     2
1070
    44
1040
0.9036139999999999
1070
    74
1070
     0
1000
MTEXTEND
  0
LINE
  5
950C
330
9509
100
AcDbEntity
  8
1
 62
     4
100
AcDbLine
 10
243.95999
 20
118.913031
 30
0.0
 11
243.95999
 21
97.75
 31
0.0
  0
LINE
  5
950D
330
9509
100
AcDbEntity
  8
1
 62
     4
100
AcDbLine
 10
284.75999
 20
131.913031
 30
0.0
 11
284.75999
 21
97.75
 31
0.0
  0
LINE
  5
950E
330
9509
100
AcDbEntity
  8
1
 62
     4
100
AcDbLine
 10
243.95999
 20
98.75
 30
0.0
 11
284.75999
 21
98.75
 31
0.0
  0
SOLID
  5
950F
330
9509
100
AcDbEntity
  8
1
 62
     4
100
AcDbTrace
 10
243.95999
 20
98.75
 30
0.0
 11
245.959989
 21
99.09007
 31
0.0
 12
245.959991
 22
98.40993
 32
0.0
 13
243.95999
 23
98.75
 33
0.0
  0
SOLID
  5
9510
330
9509
100
AcDbEntity
  8
1
 62
     4
100
AcDbTrace
 10
284.75999
 20
98.75
 30
0.0
 11
282.759991
 21
98.40993
 31
0.0
 12
282.759989
 22
99.09007
 32
0.0
 13
284.75999
 23
98.75
 33
0.0
  0
ENDBLK
  5
9511
330
9509
100
AcDbEntity
  8
0
100
AcDbBlockEnd
  0
BLOCK
  5
9513
330
9512
100
AcDbEntity
  8
0
100
AcDbBlockBegin
  2
_D34
 70
     0
 10
0.0
 20
0.0
 30
0.0
  3
_D34
  1

  0
MTEXT
  5
9514
330
9512
100
AcDbEntity
  8
1
  6
Continuous
 62
     4
100
AcDbMText
 10
260.4375
 20
144.192708
 30
0.0
 40
2.5
 41
0.0
 71
     7
 72
     5
  1
\W01.000;\fsimplex.shx;13.5
  7
blockfont
 73
     2
 44
0.9036139999999999
1001
ACAD
1000
MTEXTBEGIN
1070
    73
1070
     2
1070
    44
1040
0.9036139999999999
1070
    74
1070
     0
1000
MTEXTEND
  0
LINE
  5
9515
330
9512
100
AcDbEntity
  8
1
 62
     4
100
AcDbLine
 10
252.75999
 20
134.713031
 30
0.0
 11
252.75999
 21
144.75
 31
0.0
  0
LINE
  5
9516
330
9512
100
AcDbEntity
  8
1
 62
     4
100
AcDbLine
 10
258.15999
 20
131.213031
 30
0.0
 11
258.15999
 21
144.75
 31
0.0
  0
LINE
  5
9517
330
9512
100
AcDbEntity
  8
1
 62
     4
100
AcDbLine
 10
252.75999
 20
143.75
 30
0.0
 11
267.677083
 21
143.75
 31
0.0
  0
SOLID
  5
9518
330
9512
100
AcDbEntity
  8
1
 62
     4
100
AcDbTrace
 10
252.75999
 20
143.75
 30
0.0
 11
254.759989
 21
144.09007
 31
0.0
 12
254.759991
 22
143.40993
 32
0.0
 13
252.75999
 23
143.75
 33
0.0
  0
SOLID
  5
9519
330
9512
100
AcDbEntity
  8
1
 62
     4
100
AcDbTrace
 10
258.15999
 20
143.75
 30
0.0
 11
256.159991
 21
143.40993
 31
0.0
 12
256.159989
 22
144.09007
 32
0.0
 13
258.15999
 23
143.75
 33
0.0
  0
ENDBLK
  5
951A
330
9512
100
AcDbEntity
  8
0
100
AcDbBlockEnd
  0
BLOCK
  5
951C
330
951B
100
AcDbEntity
  8
0
100
AcDbBlockBegin
  2
_D35
 70
     0
 10
0.0
 20
0.0
 30
0.0
  3
_D35
  1

  0
MTEXT
  5
951D
330
951B
100
AcDbEntity
  8
1
  6
Continuous
 62
     4
100
AcDbMText
 10
190.807292
 20
157.29376
 30
0.0
 40
2.5
 41
0.0
 71
     7
 72
     5
  1
\W01.000;\fsimplex.shx;45
  7
blockfont
 11
0.0
 21
1.0
 31
0.0
 73
     2
 44
0.9036139999999999
1001
ACAD
1000
MTEXTBEGIN
1070
    73
1070
     2
1070
    44
1040
0.9036139999999999
1070
    74
1070
     0
1000
MTEXTEND
  0
LINE
  5
951E
330
951B
100
AcDbEntity
  8
1
 62
     4
100
AcDbLine
 10
212.55999
 20
167.713031
 30
0.0
 11
190.25
 21
167.713031
 31
0.0
  0
LINE
  5
951F
330
951B
100
AcDbEntity
  8
1
 62
     4
100
AcDbLine
 10
212.55999
 20
149.713031
 30
0.0
 11
190.25
 21
149.713031
 31
0.0
  0
LINE
  5
9520
330
951B
100
AcDbEntity
  8
1
 62
     4
100
AcDbLine
 10
191.25
 20
167.713031
 30
0.0
 11
191.25
 21
149.713031
 31
0.0
  0
SOLID
  5
9521
330
951B
100
AcDbEntity
  8
1
 62
     4
100
AcDbTrace
 10
191.25
 20
167.713031
 30
0.0
 11
191.59007
 21
165.713032
 31
0.0
 12
190.90993
 22
165.71303
 32
0.0
 13
191.25
 23
167.713031
 33
0.0
  0
SOLID
  5
9522
330
951B
100
AcDbEntity
  8
1
 62
     4
100
AcDbTrace
 10
191.25
 20
149.713031
 30
0.0
 11
190.90993
 21
151.71303
 31
0.0
 12
191.59007
 22
151.713032
 32
0.0
 13
191.25
 23
149.713031
 33
0.0
  0
ENDBLK
  5
9523
330
951B
100
AcDbEntity
  8
0
100
AcDbBlockEnd
  0
BLOCK
  5
9525
330
9524
100
AcDbEntity
  8
0
100
AcDbBlockBegin
  2
_D36
 70
     0
 10
0.0
 20
0.0
 30
0.0
  3
_D36
  1

  0
MTEXT
  5
9526
330
9524
100
AcDbEntity
  8
1
  6
Continuous
 62
     4
100
AcDbMText
 10
63.95197099999999
 20
157.302875
 30
0.0
 40
2.5
 41
0.0
 71
     7
 72
     5
  1
\W01.000;\fsimplex.shx;160
  7
blockfont
 11
0.0
 21
1.0
 31
0.0
 73
     2
 44
0.9036139999999999
1001
ACAD
1000
MTEXTBEGIN
1070
    73
1070
     2
1070
    44
1040
0.9036139999999999
1070
    74
1070
     0
1000
MTEXTEND
  0
LINE
  5
9527
330
9524
100
AcDbEntity
  8
1
 62
     4
100
AcDbLine
 10
105.35999
 20
191.713031
 30
0.0
 11
63.394679
 21
191.713031
 31
0.0
  0
LINE
  5
9528
330
9524
100
AcDbEntity
  8
1
 62
     4
100
AcDbLine
 10
82.15999000000001
 20
127.713031
 30
0.0
 11
63.394679
 21
127.713031
 31
0.0
  0
LINE
  5
9529
330
9524
100
AcDbEntity
  8
1
 62
     4
100
AcDbLine
 10
64.39467900000001
 20
191.713031
 30
0.0
 11
64.39467900000001
 21
127.713031
 31
0.0
  0
SOLID
  5
952A
330
9524
100
AcDbEntity
  8
1
 62
     4
100
AcDbTrace
 10
64.39467900000001
 20
191.713031
 30
0.0
 11
64.73474899999999
 21
189.713032
 31
0.0
 12
64.054609
 22
189.71303
 32
0.0
 13
64.39467900000001
 23
191.713031
 33
0.0
  0
SOLID
  5
952B
330
9524
100
AcDbEntity
  8
1
 62
     4
100
AcDbTrace
 10
64.39467900000001
 20
127.713031
 30
0.0
 11
64.054609
 21
129.71303
 31
0.0
 12
64.73474899999999
 22
129.713032
 32
0.0
 13
64.39467900000001
 23
127.713031
 33
0.0
  0
ENDBLK
  5
952C
330
9524
100
AcDbEntity
  8
0
100
AcDbBlockEnd
  0
BLOCK
  5
952E
330
952D
100
AcDbEntity
  8
0
100
AcDbBlockBegin
  2
_D37
 70
     0
 10
0.0
 20
0.0
 30
0.0
  3
_D37
  1

  0
MTEXT
  5
952F
330
952D
100
AcDbEntity
  8
1
  6
Continuous
 62
     4
100
AcDbMText
 10
148.951971
 20
190.484645
 30
0.0
 40
2.5
 41
0.0
 71
     7
 72
     5
  1
\W01.000;\fsimplex.shx;6
  7
blockfont
 11
0.0
 21
1.0
 31
0.0
 73
     2
 44
0.9036139999999999
1001
ACAD
1000
MTEXTBEGIN
1070
    73
1070
     2
1070
    44
1040
0.9036139999999999
1070
    74
1070
     0
1000
MTEXTEND
  0
LINE
  5
9530
330
952D
100
AcDbEntity
  8
1
 62
     4
100
AcDbLine
 10
112.75999
 20
192.113031
 30
0.0
 11
150.394679
 21
192.113031
 31
0.0
  0
LINE
  5
9531
330
952D
100
AcDbEntity
  8
1
 62
     4
100
AcDbLine
 10
132.15999
 20
189.713031
 30
0.0
 11
150.394679
 21
189.713031
 31
0.0
  0
LINE
  5
9532
330
952D
100
AcDbEntity
  8
1
 62
     4
100
AcDbLine
 10
149.394679
 20
198.363031
 30
0.0
 11
149.394679
 21
183.463031
 31
0.0
  0
SOLID
  5
9533
330
952D
100
AcDbEntity
  8
1
 62
     4
100
AcDbTrace
 10
149.394679
 20
192.113031
 30
0.0
 11
149.054609
 21
194.11303
 31
0.0
 12
149.734749
 22
194.113032
 32
0.0
 13
149.394679
 23
192.113031
 33
0.0
  0
SOLID
  5
9534
330
952D
100
AcDbEntity
  8
1
 62
     4
100
AcDbTrace
 10
149.394679
 20
189.713031
 30
0.0
 11
149.734749
 21
187.713032
 31
0.0
 12
149.054609
 22
187.71303
 32
0.0
 13
149.394679
 23
189.713031
 33
0.0
  0
ENDBLK
  5
9535
330
952D
100
AcDbEntity
  8
0
100
AcDbBlockEnd
  0
BLOCK
  5
9537
330
9536
100
AcDbEntity
  8
0
100
AcDbBlockBegin
  2
_D38
 70
     0
 10
0.0
 20
0.0
 30
0.0
  3
_D38
  1

  0
MTEXT
  5
9538
330
9536
100
AcDbEntity
  8
1
  6
Continuous
 62
     4
100
AcDbMText
 10
293.951971
 20
190.084645
 30
0.0
 40
2.5
 41
0.0
 71
     7
 72
     5
  1
\W01.000;\fsimplex.shx;5
  7
blockfont
 11
0.0
 21
1.0
 31
0.0
 73
     2
 44
0.9036139999999999
1001
ACAD
1000
MTEXTBEGIN
1070
    73
1070
     2
1070
    44
1040
0.9036139999999999
1070
    74
1070
     0
1000
MTEXTEND
  0
LINE
  5
9539
330
9536
100
AcDbEntity
  8
1
 62
     4
100
AcDbLine
 10
285.75999
 20
184.513031
 30
0.0
 11
295.394679
 21
184.513031
 31
0.0
  0
LINE
  5
953A
330
9536
100
AcDbEntity
  8
1
 62
     4
100
AcDbLine
 10
285.75999
 20
186.513031
 30
0.0
 11
295.394679
 21
186.513031
 31
0.0
  0
LINE
  5
953B
330
9536
100
AcDbEntity
  8
1
 62
     4
100
AcDbLine
 10
294.394679
 20
191.378916
 30
0.0
 11
294.394679
 21
178.263031
 31
0.0
  0
SOLID
  5
953C
330
9536
100
AcDbEntity
  8
1
 62
     4
100
AcDbTrace
 10
294.394679
 20
184.513031
 30
0.0
 11
294.734749
 21
182.513032
 31
0.0
 12
294.054609
 22
182.51303
 32
0.0
 13
294.394679
 23
184.513031
 33
0.0
  0
SOLID
  5
953D
330
9536
100
AcDbEntity
  8
1
 62
     4
100
AcDbTrace
 10
294.394679
 20
186.513031
 30
0.0
 11
294.054609
 21
188.51303
 31
0.0
 12
294.734749
 22
188.513032
 32
0.0
 13
294.394679
 23
186.513031
 33
0.0
  0
ENDBLK
  5
953E
330
9536
100
AcDbEntity
  8
0
100
AcDbBlockEnd
  0
BLOCK
  5
9540
330
953F
100
AcDbEntity
  8
0
100
AcDbBlockBegin
  2
_D41
 70
     0
 10
0.0
 20
0.0
 30
0.0
  3
_D41
  1

  0
MTEXT
  5
9541
330
953F
100
AcDbEntity
  8
1
  6
Continuous
 62
     4
100
AcDbMText
 10
274.951971
 20
121.440334
 30
0.0
 40
2.5
 41
0.0
 71
     7
 72
     5
  1
\W01.000;\fsimplex.shx;8.5
  7
blockfont
 11
0.0
 21
1.0
 31
0.0
 73
     2
 44
0.9036139999999999
1001
ACAD
1000
MTEXTBEGIN
1070
    73
1070
     2
1070
    44
1040
0.9036139999999999
1070
    74
1070
     0
1000
MTEXTEND
  0
LINE
  5
9542
330
953F
100
AcDbEntity
  8
1
 62
     4
100
AcDbLine
 10
277.15999
 20
133.613031
 30
0.0
 11
274.394679
 21
133.613031
 31
0.0
  0
LINE
  5
9543
330
953F
100
AcDbEntity
  8
1
 62
     4
100
AcDbLine
 10
277.15999
 20
130.213031
 30
0.0
 11
274.394679
 21
130.213031
 31
0.0
  0
LINE
  5
9544
330
953F
100
AcDbEntity
  8
1
 62
     4
100
AcDbLine
 10
275.394679
 20
121.002834
 30
0.0
 11
275.394679
 21
139.863031
 31
0.0
  0
SOLID
  5
9545
330
953F
100
AcDbEntity
  8
1
 62
     4
100
AcDbTrace
 10
275.394679
 20
133.613031
 30
0.0
 11
275.054609
 21
135.61303
 31
0.0
 12
275.734749
 22
135.613032
 32
0.0
 13
275.394679
 23
133.613031
 33
0.0
  0
SOLID
  5
9546
330
953F
100
AcDbEntity
  8
1
 62
     4
100
AcDbTrace
 10
275.394679
 20
130.213031
 30
0.0
 11
275.734749
 21
128.213032
 31
0.0
 12
275.054609
 22
128.21303
 32
0.0
 13
275.394679
 23
130.213031
 33
0.0
  0
ENDBLK
  5
9547
330
953F
100
AcDbEntity
  8
0
100
AcDbBlockEnd
  0
BLOCK
  5
9549
330
9548
100
AcDbEntity
  8
0
100
AcDbBlockBegin
  2
_D45
 70
     0
 10
0.0
 20
0.0
 30
0.0
  3
_D45
  1

  0
MTEXT
  5
954A
330
9548
100
AcDbEntity
  8
1
  6
Continuous
 62
     4
100
AcDbMText
 10
175.807292
 20
156.302875
 30
0.0
 40
2.5
 41
0.0
 71
     7
 72
     5
  1
\W01.000;\fsimplex.shx;102
  7
blockfont
 11
0.0
 21
1.0
 31
0.0
 73
     2
 44
0.9036139999999999
1001
ACAD
1000
MTEXTBEGIN
1070
    73
1070
     2
1070
    44
1040
0.9036139999999999
1070
    74
1070
     0
1000
MTEXTEND
  0
LINE
  5
954B
330
9548
100
AcDbEntity
  8
1
 62
     4
100
AcDbLine
 10
215.75999
 20
138.313031
 30
0.0
 11
175.25
 21
138.313031
 31
0.0
  0
LINE
  5
954C
330
9548
100
AcDbEntity
  8
1
 62
     4
100
AcDbLine
 10
215.75999
 20
179.113031
 30
0.0
 11
175.25
 21
179.113031
 31
0.0
  0
LINE
  5
954D
330
9548
100
AcDbEntity
  8
1
 62
     4
100
AcDbLine
 10
176.25
 20
138.313031
 30
0.0
 11
176.25
 21
179.113031
 31
0.0
  0
SOLID
  5
954E
330
9548
100
AcDbEntity
  8
1
 62
     4
100
AcDbTrace
 10
176.25
 20
138.313031
 30
0.0
 11
175.90993
 21
140.31303
 31
0.0
 12
176.59007
 22
140.313032
 32
0.0
 13
176.25
 23
138.313031
 33
0.0
  0
SOLID
  5
954F
330
9548
100
AcDbEntity
  8
1
 62
     4
100
AcDbTrace
 10
176.25
 20
179.113031
 30
0.0
 11
176.59007
 21
177.113032
 31
0.0
 12
175.90993
 22
177.11303
 32
0.0
 13
176.25
 23
179.113031
 33
0.0
  0
ENDBLK
  5
9550
330
9548
100
AcDbEntity
  8
0
100
AcDbBlockEnd
  0
BLOCK
  5
9552
330
9551
100
AcDbEntity
  8
0
100
AcDbBlockBegin
  2
_D46
 70
     0
 10
0.0
 20
0.0
 30
0.0
  3
_D46
  1

  0
MTEXT
  5
9553
330
9551
100
AcDbEntity
  8
1
  6
Continuous
 62
     4
100
AcDbMText
 10
183.307292
 20
157.29376
 30
0.0
 40
2.5
 41
0.0
 71
     7
 72
     5
  1
\W01.000;\fsimplex.shx;50
  7
blockfont
 11
0.0
 21
1.0
 31
0.0
 73
     2
 44
0.9036139999999999
1001
ACAD
1000
MTEXTBEGIN
1070
    73
1070
     2
1070
    44
1040
0.9036139999999999
1070
    74
1070
     0
1000
MTEXTEND
  0
LINE
  5
9554
330
9551
100
AcDbEntity
  8
1
 62
     4
100
AcDbLine
 10
214.15999
 20
148.713031
 30
0.0
 11
182.75
 21
148.713031
 31
0.0
  0
LINE
  5
9555
330
9551
100
AcDbEntity
  8
1
 62
     4
100
AcDbLine
 10
214.15999
 20
168.713031
 30
0.0
 11
182.75
 21
168.713031
 31
0.0
  0
LINE
  5
9556
330
9551
100
AcDbEntity
  8
1
 62
     4
100
AcDbLine
 10
183.75
 20
148.713031
 30
0.0
 11
183.75
 21
168.713031
 31
0.0
  0
SOLID
  5
9557
330
9551
100
AcDbEntity
  8
1
 62
     4
100
AcDbTrace
 10
183.75
 20
148.713031
 30
0.0
 11
183.40993
 21
150.71303
 31
0.0
 12
184.09007
 22
150.713032
 32
0.0
 13
183.75
 23
148.713031
 33
0.0
  0
SOLID
  5
9558
330
9551
100
AcDbEntity
  8
1
 62
     4
100
AcDbTrace
 10
183.75
 20
168.713031
 30
0.0
 11
184.09007
 21
166.713032
 31
0.0
 12
183.40993
 22
166.71303
 32
0.0
 13
183.75
 23
168.713031
 33
0.0
  0
ENDBLK
  5
9559
330
9551
100
AcDbEntity
  8
0
100
AcDbBlockEnd
  0
BLOCK
  5
955B
330
955A
100
AcDbEntity
  8
0
100
AcDbBlockBegin
  2
_D47
 70
     0
 10
0.0
 20
0.0
 30
0.0
  3
_D47
  1

  0
MTEXT
  5
955C
330
955A
100
AcDbEntity
  8
1
  6
Continuous
 62
     4
100
AcDbMText
 10
148.951971
 20
156.302875
 30
0.0
 40
2.5
 41
0.0
 71
     7
 72
     5
  1
\W01.000;\fsimplex.shx;155
  7
blockfont
 11
0.0
 21
1.0
 31
0.0
 73
     2
 44
0.9036139999999999
1001
ACAD
1000
MTEXTBEGIN
1070
    73
1070
     2
1070
    44
1040
0.9036139999999999
1070
    74
1070
     0
1000
MTEXTEND
  0
LINE
  5
955D
330
955A
100
AcDbEntity
  8
1
 62
     4
100
AcDbLine
 10
132.15999
 20
127.713031
 30
0.0
 11
150.394679
 21
127.713031
 31
0.0
  0
LINE
  5
955E
330
955A
100
AcDbEntity
  8
1
 62
     4
100
AcDbLine
 10
132.15999
 20
189.713031
 30
0.0
 11
150.394679
 21
189.713031
 31
0.0
  0
LINE
  5
955F
330
955A
100
AcDbEntity
  8
1
 62
     4
100
AcDbLine
 10
149.394679
 20
127.713031
 30
0.0
 11
149.394679
 21
189.713031
 31
0.0
  0
SOLID
  5
9560
330
955A
100
AcDbEntity
  8
1
 62
     4
100
AcDbTrace
 10
149.394679
 20
127.713031
 30
0.0
 11
149.054609
 21
129.71303
 31
0.0
 12
149.734749
 22
129.713032
 32
0.0
 13
149.394679
 23
127.713031
 33
0.0
  0
SOLID
  5
9561
330
955A
100
AcDbEntity
  8
1
 62
     4
100
AcDbTrace
 10
149.394679
 20
189.713031
 30
0.0
 11
149.734749
 21
187.713032
 31
0.0
 12
149.054609
 22
187.71303
 32
0.0
 13
149.394679
 23
189.713031
 33
0.0
  0
ENDBLK
  5
9562
330
955A
100
AcDbEntity
  8
0
100
AcDbBlockEnd
  0
BLOCK
  5
9564
330
9563
100
AcDbEntity
  8
0
100
AcDbBlockBegin
  2
_D48
 70
     0
 10
0.0
 20
0.0
 30
0.0
  3
_D48
  1

  0
MTEXT
  5
9565
330
9563
100
AcDbEntity
  8
1
  6
Continuous
 62
     4
100
AcDbMText
 10
293.951971
 20
130.49376
 30
0.0
 40
2.5
 41
0.0
 71
     7
 72
     5
  1
\W01.000;\fsimplex.shx;16
  7
blockfont
 11
0.0
 21
1.0
 31
0.0
 73
     2
 44
0.9036139999999999
1001
ACAD
1000
MTEXTBEGIN
1070
    73
1070
     2
1070
    44
1040
0.9036139999999999
1070
    74
1070
     0
1000
MTEXTEND
  0
LINE
  5
9566
330
9563
100
AcDbEntity
  8
1
 62
     4
100
AcDbLine
 10
284.902553
 20
128.713031
 30
0.0
 11
295.394679
 21
128.713031
 31
0.0
  0
LINE
  5
9567
330
9563
100
AcDbEntity
  8
1
 62
     4
100
AcDbLine
 10
284.902553
 20
135.113031
 30
0.0
 11
295.394679
 21
135.113031
 31
0.0
  0
LINE
  5
9568
330
9563
100
AcDbEntity
  8
1
 62
     4
100
AcDbLine
 10
294.394679
 20
128.713031
 30
0.0
 11
294.394679
 21
135.113031
 31
0.0
  0
SOLID
  5
9569
330
9563
100
AcDbEntity
  8
1
 62
     4
100
AcDbTrace
 10
294.394679
 20
128.713031
 30
0.0
 11
294.054609
 21
130.71303
 31
0.0
 12
294.734749
 22
130.713032
 32
0.0
 13
294.394679
 23
128.713031
 33
0.0
  0
SOLID
  5
956A
330
9563
100
AcDbEntity
  8
1
 62
     4
100
AcDbTrace
 10
294.394679
 20
135.113031
 30
0.0
 11
294.734749
 21
133.113032
 31
0.0
 12
294.054609
 22
133.11303
 32
0.0
 13
294.394679
 23
135.113031
 33
0.0
  0
ENDBLK
  5
956B
330
9563
100
AcDbEntity
  8
0
100
AcDbBlockEnd
  0
BLOCK
  5
956D
330
956C
100
AcDbEntity
  8
0
100
AcDbBlockBegin
  2
_D49
 70
     0
 10
0.0
 20
0.0
 30
0.0
  3
_D49
  1

  0
MTEXT
  5
956E
330
956C
100
AcDbEntity
  8
1
  6
Continuous
 62
     4
100
AcDbMText
 10
303.951971
 20
156.302875
 30
0.0
 40
2.5
 41
0.0
 71
     7
 72
     5
  1
\W01.000;\fsimplex.shx;134
  7
blockfont
 11
0.0
 21
1.0
 31
0.0
 73
     2
 44
0.9036139999999999
1001
ACAD
1000
MTEXTBEGIN
1070
    73
1070
     2
1070
    44
1040
0.9036139999999999
1070
    74
1070
     0
1000
MTEXTEND
  0
LINE
  5
956F
330
956C
100
AcDbEntity
  8
1
 62
     4
100
AcDbLine
 10
295.55999
 20
131.913031
 30
0.0
 11
305.394679
 21
131.913031
 31
0.0
  0
LINE
  5
9570
330
956C
100
AcDbEntity
  8
1
 62
     4
100
AcDbLine
 10
295.55999
 20
185.513031
 30
0.0
 11
305.394679
 21
185.513031
 31
0.0
  0
LINE
  5
9571
330
956C
100
AcDbEntity
  8
1
 62
     4
100
AcDbLine
 10
304.394679
 20
131.913031
 30
0.0
 11
304.394679
 21
185.513031
 31
0.0
  0
SOLID
  5
9572
330
956C
100
AcDbEntity
  8
1
 62
     4
100
AcDbTrace
 10
304.394679
 20
131.913031
 30
0.0
 11
304.054609
 21
133.91303
 31
0.0
 12
304.734749
 22
133.913032
 32
0.0
 13
304.394679
 23
131.913031
 33
0.0
  0
SOLID
  5
9573
330
956C
100
AcDbEntity
  8
1
 62
     4
100
AcDbTrace
 10
304.394679
 20
185.513031
 30
0.0
 11
304.734749
 21
183.513032
 31
0.0
 12
304.054609
 22
183.51303
 32
0.0
 13
304.394679
 23
185.513031
 33
0.0
  0
ENDBLK
  5
9574
330
956C
100
AcDbEntity
  8
0
100
AcDbBlockEnd
  0
BLOCK
  5
9576
330
9575
100
AcDbEntity
  8
0
100
AcDbBlockBegin
  2
_D57
 70
     0
 10
0.0
 20
0.0
 30
0.0
  3
_D57
  1

  0
MTEXT
  5
9577
330
9575
100
AcDbEntity
  8
5
  6
Continuous
 62
     4
100
AcDbMText
 10
165.716294
 20
203.195543
 30
0.0
 40
2.5
 41
0.0
 71
     7
 72
     5
  1
\W01.000;\fsimplex.shx; 
  7
blockfont
 73
     2
 44
0.9036139999999999
1001
ACAD
1000
MTEXTBEGIN
1070
    73
1070
     2
1070
    44
1040
0.9036139999999999
1070
    74
1070
     0
1000
MTEXTEND
  0
LINE
  5
9578
330
9575
100
AcDbEntity
  8
5
 62
     4
100
AcDbLine
 10
140.278794
 20
205.252834
 30
0.0
 11
165.278794
 21
205.252834
 31
0.0
  0
LINE
  5
9579
330
9575
100
AcDbEntity
  8
5
 62
     4
100
AcDbLine
 10
108.527065
 20
185.94436
 30
0.0
 11
140.278794
 21
205.252834
 31
0.0
  0
SOLID
  5
957A
330
9575
100
AcDbEntity
  8
5
 62
     4
100
AcDbTrace
 10
108.527065
 20
185.94436
 30
0.0
 11
110.059213
 21
187.274083
 31
0.0
 12
110.412603
 22
186.692958
 32
0.0
 13
108.527065
 23
185.94436
 33
0.0
  0
ENDBLK
  5
957B
330
9575
100
AcDbEntity
  8
0
100
AcDbBlockEnd
  0
BLOCK
  5
9773
330
9772
100
AcDbEntity
  8
0
100
AcDbBlockBegin
  2
*D59
 70
     1
 10
0.0
 20
0.0
 30
0.0
  3
*D59
  1

  0
LINE
  5
9B2A
330
9772
100
AcDbEntity
  8
1
  6
Continuous
 62
     4
370
    -2
100
AcDbLine
 10
841.8242412690636
 20
74.30871922599661
 30
0.0
 11
841.8242412690636
 21
125.5332267259965
 31
0.0
  0
LINE
  5
9B2B
330
9772
100
AcDbEntity
  8
1
  6
Continuous
 62
     4
370
    -2
100
AcDbLine
 10
854.824241269064
 20
77.30871922599658
 30
0.0
 11
854.824241269064
 21
125.5332267259965
 31
0.0
  0
LINE
  5
9B2C
330
9772
100
AcDbEntity
  8
1
  6
Continuous
 62
     4
370
    -2
100
AcDbLine
 10
843.8242412690637
 20
124.5332267259965
 30
0.0
 11
852.8242412690641
 21
124.5332267259965
 31
0.0
  0
INSERT
  5
9B2D
330
9772
100
AcDbEntity
  8
1
  6
Continuous
 62
     4
370
    -2
100
AcDbBlockReference
  2
_OPEN
 10
841.8242412690636
 20
124.5332267259965
 30
0.0
 41
2.0
 42
2.0
 43
2.0
 50
180.0
  0
INSERT
  5
9B2E
330
9772
100
AcDbEntity
  8
1
  6
Continuous
 62
     4
370
    -2
100
AcDbBlockReference
  2
_OPEN
 10
854.824241269064
 20
124.5332267259965
 30
0.0
 41
2.0
 42
2.0
 43
2.0
  0
MTEXT
  5
9B2F
330
9772
100
AcDbEntity
  8
1
  6
Continuous
 62
     4
100
AcDbMText
 10
848.3242412690639
 20
125.7832267259965
 30
0.0
 40
2.5
 41
0.0
 71
     5
 72
     1
  1
\A1; 13 
 73
     1
 44
1.0
1001
ACAD
1000
MTEXTBEGIN
1070
    73
1070
     1
1070
    44
1040
1.0
1070
    74
1070
     0
1000
MTEXTEND
  0
POINT
  5
9B30
330
9772
100
AcDbEntity
  8
DEFPOINTS
  6
Continuous
 62
     0
100
AcDbPoint
 10
841.8242412690636
 20
73.30871922599661
 30
0.0
  0
POINT
  5
9B31
330
9772
100
AcDbEntity
  8
DEFPOINTS
  6
Continuous
 62
     0
100
AcDbPoint
 10
854.824241269064
 20
76.30871922599658
 30
0.0
  0
POINT
  5
9B32
330
9772
100
AcDbEntity
  8
DEFPOINTS
  6
Continuous
 62
     0
100
AcDbPoint
 10
854.824241269064
 20
124.5332267259965
 30
0.0
  0
ENDBLK
  5
9774
330
9772
100
AcDbEntity
  8
0
100
AcDbBlockEnd
  0
BLOCK
  5
9780
330
977F
100
AcDbEntity
  8
0
100
AcDbBlockBegin
  2
*D60
 70
     1
 10
0.0
 20
0.0
 30
0.0
  3
*D60
  1

  0
LINE
  5
9B33
330
977F
100
AcDbEntity
  8
5
  6
Continuous
 62
     4
370
    -2
100
AcDbLine
 10
796.8242412690637
 20
-89.69128077400341
 30
0.0
 11
796.8242412690637
 21
-118.9738582740034
 31
0.0
  0
LINE
  5
9B34
330
977F
100
AcDbEntity
  8
5
  6
Continuous
 62
     4
370
    -2
100
AcDbLine
 10
916.8242412690636
 20
-89.69128077400341
 30
0.0
 11
916.8242412690636
 21
-118.9738582740034
 31
0.0
  0
LINE
  5
9B35
330
977F
100
AcDbEntity
  8
5
  6
Continuous
 62
     4
370
    -2
100
AcDbLine
 10
798.8242412690636
 20
-117.9738582740034
 30
0.0
 11
914.8242412690635
 21
-117.9738582740034
 31
0.0
  0
INSERT
  5
9B36
330
977F
100
AcDbEntity
  8
5
  6
Continuous
 62
     4
370
    -2
100
AcDbBlockReference
  2
_OPEN
 10
796.8242412690637
 20
-117.9738582740034
 30
0.0
 41
2.0
 42
2.0
 43
2.0
 50
180.0
  0
INSERT
  5
9B37
330
977F
100
AcDbEntity
  8
5
  6
Continuous
 62
     4
370
    -2
100
AcDbBlockReference
  2
_OPEN
 10
916.8242412690636
 20
-117.9738582740034
 30
0.0
 41
2.0
 42
2.0
 43
2.0
  0
MTEXT
  5
9B38
330
977F
100
AcDbEntity
  8
5
  6
Continuous
 62
     4
100
AcDbMText
 10
856.8242412690635
 20
-116.7238582740034
 30
0.0
 40
2.5
 41
0.0
 71
     5
 72
     1
  1
\A1; 120 
 73
     1
 44
1.0
1001
ACAD
1000
MTEXTBEGIN
1070
    73
1070
     1
1070
    44
1040
1.0
1070
    74
1070
     0
1000
MTEXTEND
  0
POINT
  5
9B39
330
977F
100
AcDbEntity
  8
DEFPOINTS
  6
Continuous
 62
     0
100
AcDbPoint
 10
796.8242412690637
 20
-88.69128077400343
 30
0.0
  0
POINT
  5
9B3A
330
977F
100
AcDbEntity
  8
DEFPOINTS
  6
Continuous
 62
     0
100
AcDbPoint
 10
916.8242412690636
 20
-88.69128077400343
 30
0.0
  0
POINT
  5
9B3B
330
977F
100
AcDbEntity
  8
DEFPOINTS
  6
Continuous
 62
     0
100
AcDbPoint
 10
916.8242412690636
 20
-117.9738582740034
 30
0.0
  0
ENDBLK
  5
9781
330
977F
100
AcDbEntity
  8
0
100
AcDbBlockEnd
  0
BLOCK
  5
978C
330
978B
100
AcDbEntity
  8
0
100
AcDbBlockBegin
  2
*D61
 70
     1
 10
0.0
 20
0.0
 30
0.0
  3
*D61
  1

  0
LINE
  5
9B3C
330
978B
100
AcDbEntity
  8
1
  6
Continuous
 62
     4
370
    -2
100
AcDbLine
 10
1122.824241269063
 20
-34.69128077400342
 30
0.0
 11
1122.824241269063
 21
-193.9738582740034
 31
0.0
  0
LINE
  5
9B3D
330
978B
100
AcDbEntity
  8
1
  6
Continuous
 62
     4
370
    -2
100
AcDbLine
 10
1126.824241269063
 20
-35.94378077400341
 30
0.0
 11
1126.824241269063
 21
-193.9738582740034
 31
0.0
  0
LINE
  5
9B3E
330
978B
100
AcDbEntity
  8
1
  6
Continuous
 62
     4
370
    -2
100
AcDbLine
 10
1120.824241269063
 20
-192.9738582740034
 30
0.0
 11
1118.824241269063
 21
-192.9738582740034
 31
0.0
  0
LINE
  5
9B3F
330
978B
100
AcDbEntity
  8
1
  6
Continuous
 62
     4
370
    -2
100
AcDbLine
 10
1128.824241269063
 20
-192.9738582740034
 30
0.0
 11
1130.824241269063
 21
-192.9738582740034
 31
0.0
  0
INSERT
  5
9B40
330
978B
100
AcDbEntity
  8
1
  6
Continuous
 62
     4
370
    -2
100
AcDbBlockReference
  2
_OPEN
 10
1122.824241269063
 20
-192.9738582740034
 30
0.0
 41
2.0
 42
2.0
 43
2.0
  0
INSERT
  5
9B41
330
978B
100
AcDbEntity
  8
1
  6
Continuous
 62
     4
370
    -2
100
AcDbBlockReference
  2
_OPEN
 10
1126.824241269063
 20
-192.9738582740034
 30
0.0
 41
2.0
 42
2.0
 43
2.0
 50
180.0
  0
MTEXT
  5
9B42
330
978B
100
AcDbEntity
  8
1
  6
Continuous
 62
     4
100
AcDbMText
 10
1124.824241269063
 20
-191.7238582740034
 30
0.0
 40
2.5
 41
0.0
 71
     5
 72
     1
  1
\A1; 4 
 73
     1
 44
1.0
1001
ACAD
1000
MTEXTBEGIN
1070
    73
1070
     1
1070
    44
1040
1.0
1070
    74
1070
     0
1000
MTEXTEND
  0
POINT
  5
9B43
330
978B
100
AcDbEntity
  8
DEFPOINTS
  6
Continuous
 62
     0
100
AcDbPoint
 10
1122.824241269063
 20
-33.69128077400342
 30
0.0
  0
POINT
  5
9B44
330
978B
100
AcDbEntity
  8
DEFPOINTS
  6
Continuous
 62
     0
100
AcDbPoint
 10
1126.824241269063
 20
-34.94378077400341
 30
0.0
  0
POINT
  5
9B45
330
978B
100
AcDbEntity
  8
DEFPOINTS
  6
Continuous
 62
     0
100
AcDbPoint
 10
1126.824241269063
 20
-192.9738582740034
 30
0.0
  0
ENDBLK
  5
978D
330
978B
100
AcDbEntity
  8
0
100
AcDbBlockEnd
  0
BLOCK
  5
9799
330
9798
100
AcDbEntity
  8
0
100
AcDbBlockBegin
  2
*D62
 70
     1
 10
0.0
 20
0.0
 30
0.0
  3
*D62
  1

  0
LINE
  5
9B46
330
9798
100
AcDbEntity
  8
1
  6
Continuous
 62
     4
370
    -2
100
AcDbLine
 10
1126.824241269063
 20
-37.19378077400341
 30
0.0
 11
1126.824241269063
 21
-193.9738582740034
 31
0.0
  0
LINE
  5
9B47
330
9798
100
AcDbEntity
  8
1
  6
Continuous
 62
     4
370
    -2
100
AcDbLine
 10
1198.824241269064
 20
-89.69128077400341
 30
0.0
 11
1198.824241269064
 21
-193.9738582740034
 31
0.0
  0
LINE
  5
9B48
330
9798
100
AcDbEntity
  8
1
  6
Continuous
 62
     4
370
    -2
100
AcDbLine
 10
1128.824241269063
 20
-192.9738582740034
 30
0.0
 11
1196.824241269064
 21
-192.9738582740034
 31
0.0
  0
INSERT
  5
9B49
330
9798
100
AcDbEntity
  8
1
  6
Continuous
 62
     4
370
    -2
100
AcDbBlockReference
  2
_OPEN
 10
1126.824241269063
 20
-192.9738582740034
 30
0.0
 41
2.0
 42
2.0
 43
2.0
 50
180.0
  0
INSERT
  5
9B4A
330
9798
100
AcDbEntity
  8
1
  6
Continuous
 62
     4
370
    -2
100
AcDbBlockReference
  2
_OPEN
 10
1198.824241269064
 20
-192.9738582740034
 30
0.0
 41
2.0
 42
2.0
 43
2.0
  0
MTEXT
  5
9B4B
330
9798
100
AcDbEntity
  8
1
  6
Continuous
 62
     4
100
AcDbMText
 10
1162.824241269063
 20
-191.7238582740034
 30
0.0
 40
2.5
 41
0.0
 71
     5
 72
     1
  1
\A1; 72 
 73
     1
 44
1.0
1001
ACAD
1000
MTEXTBEGIN
1070
    73
1070
     1
1070
    44
1040
1.0
1070
    74
1070
     0
1000
MTEXTEND
  0
POINT
  5
9B4C
330
9798
100
AcDbEntity
  8
DEFPOINTS
  6
Continuous
 62
     0
100
AcDbPoint
 10
1126.824241269063
 20
-36.19378077400341
 30
0.0
  0
POINT
  5
9B4D
330
9798
100
AcDbEntity
  8
DEFPOINTS
  6
Continuous
 62
     0
100
AcDbPoint
 10
1198.824241269064
 20
-88.69128077400343
 30
0.0
  0
POINT
  5
9B4E
330
9798
100
AcDbEntity
  8
DEFPOINTS
  6
Continuous
 62
     0
100
AcDbPoint
 10
1198.824241269064
 20
-192.9738582740034
 30
0.0
  0
ENDBLK
  5
979A
330
9798
100
AcDbEntity
  8
0
100
AcDbBlockEnd
  0
BLOCK
  5
97A5
330
97A4
100
AcDbEntity
  8
0
100
AcDbBlockBegin
  2
*D63
 70
     1
 10
0.0
 20
0.0
 30
0.0
  3
*D63
  1

  0
LINE
  5
9B4F
330
97A4
100
AcDbEntity
  8
1
  6
Continuous
 62
     4
370
    -2
100
AcDbLine
 10
1234.324241269063
 20
-83.44128077400341
 30
0.0
 11
1234.324241269063
 21
-118.9738582740034
 31
0.0
  0
LINE
  5
9B50
330
97A4
100
AcDbEntity
  8
1
  6
Continuous
 62
     4
370
    -2
100
AcDbLine
 10
1237.324241269063
 20
-83.44128077400341
 30
0.0
 11
1237.324241269063
 21
-118.9738582740034
 31
0.0
  0
LINE
  5
9B51
330
97A4
100
AcDbEntity
  8
1
  6
Continuous
 62
     4
370
    -2
100
AcDbLine
 10
1232.324241269063
 20
-117.9738582740034
 30
0.0
 11
1230.324241269064
 21
-117.9738582740034
 31
0.0
  0
LINE
  5
9B52
330
97A4
100
AcDbEntity
  8
1
  6
Continuous
 62
     4
370
    -2
100
AcDbLine
 10
1239.324241269063
 20
-117.9738582740034
 30
0.0
 11
1244.49090793573
 21
-117.9738582740034
 31
0.0
  0
INSERT
  5
9B53
330
97A4
100
AcDbEntity
  8
1
  6
Continuous
 62
     4
370
    -2
100
AcDbBlockReference
  2
_OPEN
 10
1234.324241269063
 20
-117.9738582740034
 30
0.0
 41
2.0
 42
2.0
 43
2.0
  0
INSERT
  5
9B54
330
97A4
100
AcDbEntity
  8
1
  6
Continuous
 62
     4
370
    -2
100
AcDbBlockReference
  2
_OPEN
 10
1237.324241269063
 20
-117.9738582740034
 30
0.0
 41
2.0
 42
2.0
 43
2.0
 50
180.0
  0
MTEXT
  5
9B55
330
97A4
100
AcDbEntity
  8
1
  6
Continuous
 62
     4
100
AcDbMText
 10
1242.907574602397
 20
-116.7238582740034
 30
0.0
 40
2.5
 41
0.0
 71
     5
 72
     1
  1
\A1; 3 
 73
     1
 44
1.0
1001
ACAD
1000
MTEXTBEGIN
1070
    73
1070
     1
1070
    44
1040
1.0
1070
    74
1070
     0
1000
MTEXTEND
  0
POINT
  5
9B56
330
97A4
100
AcDbEntity
  8
DEFPOINTS
  6
Continuous
 62
     0
100
AcDbPoint
 10
1234.324241269063
 20
-82.44128077400342
 30
0.0
  0
POINT
  5
9B57
330
97A4
100
AcDbEntity
  8
DEFPOINTS
  6
Continuous
 62
     0
100
AcDbPoint
 10
1237.324241269063
 20
-82.44128077400342
 30
0.0
  0
POINT
  5
9B58
330
97A4
100
AcDbEntity
  8
DEFPOINTS
  6
Continuous
 62
     0
100
AcDbPoint
 10
1237.324241269063
 20
-117.9738582740034
 30
0.0
  0
ENDBLK
  5
97A6
330
97A4
100
AcDbEntity
  8
0
100
AcDbBlockEnd
  0
BLOCK
  5
97B2
330
97B1
100
AcDbEntity
  8
0
100
AcDbBlockBegin
  2
*D64
 70
     1
 10
0.0
 20
0.0
 30
0.0
  3
*D64
  1

  0
LINE
  5
9B59
330
97B1
100
AcDbEntity
  8
1
  6
Continuous
 62
     4
370
    -2
100
AcDbLine
 10
799.824241269064
 20
19.80871922599657
 30
0.0
 11
799.824241269064
 21
33.02614172599658
 31
0.0
  0
LINE
  5
9B5A
330
97B1
100
AcDbEntity
  8
1
  6
Continuous
 62
     4
370
    -2
100
AcDbLine
 10
883.8242412690636
 20
19.80871922599657
 30
0.0
 11
883.8242412690636
 21
33.02614172599658
 31
0.0
  0
LINE
  5
9B5B
330
97B1
100
AcDbEntity
  8
1
  6
Continuous
 62
     4
370
    -2
100
AcDbLine
 10
801.8242412690639
 20
32.02614172599658
 30
0.0
 11
881.8242412690635
 21
32.02614172599658
 31
0.0
  0
INSERT
  5
9B5C
330
97B1
100
AcDbEntity
  8
1
  6
Continuous
 62
     4
370
    -2
100
AcDbBlockReference
  2
_OPEN
 10
799.824241269064
 20
32.02614172599658
 30
0.0
 41
2.0
 42
2.0
 43
2.0
 50
180.0
  0
INSERT
  5
9B5D
330
97B1
100
AcDbEntity
  8
1
  6
Continuous
 62
     4
370
    -2
100
AcDbBlockReference
  2
_OPEN
 10
883.8242412690636
 20
32.02614172599658
 30
0.0
 41
2.0
 42
2.0
 43
2.0
  0
MTEXT
  5
9B5E
330
97B1
100
AcDbEntity
  8
1
  6
Continuous
 62
     4
100
AcDbMText
 10
841.8242412690636
 20
33.27614172599658
 30
0.0
 40
2.5
 41
0.0
 71
     5
 72
     1
  1
\A1; 84 
 73
     1
 44
1.0
1001
ACAD
1000
MTEXTBEGIN
1070
    73
1070
     1
1070
    44
1040
1.0
1070
    74
1070
     0
1000
MTEXTEND
  0
POINT
  5
9B5F
330
97B1
100
AcDbEntity
  8
DEFPOINTS
  6
Continuous
 62
     0
100
AcDbPoint
 10
799.824241269064
 20
18.80871922599657
 30
0.0
  0
POINT
  5
9B60
330
97B1
100
AcDbEntity
  8
DEFPOINTS
  6
Continuous
 62
     0
100
AcDbPoint
 10
883.8242412690636
 20
18.80871922599657
 30
0.0
  0
POINT
  5
9B61
330
97B1
100
AcDbEntity
  8
DEFPOINTS
  6
Continuous
 62
     0
100
AcDbPoint
 10
883.8242412690636
 20
32.02614172599658
 30
0.0
  0
ENDBLK
  5
97B3
330
97B1
100
AcDbEntity
  8
0
100
AcDbBlockEnd
  0
BLOCK
  5
97BE
330
97BD
100
AcDbEntity
  8
0
100
AcDbBlockBegin
  2
*D65
 70
     1
 10
0.0
 20
0.0
 30
0.0
  3
*D65
  1

  0
LINE
  5
9B62
330
97BD
100
AcDbEntity
  8
1
  6
Continuous
 62
     4
370
    -2
100
AcDbLine
 10
854.824241269064
 20
77.30871922599658
 30
0.0
 11
854.824241269064
 21
125.5332267259965
 31
0.0
  0
LINE
  5
9B63
330
97BD
100
AcDbEntity
  8
1
  6
Continuous
 62
     4
370
    -2
100
AcDbLine
 10
868.324241269064
 20
78.30871922599659
 30
0.0
 11
868.324241269064
 21
125.5332267259965
 31
0.0
  0
LINE
  5
9B64
330
97BD
100
AcDbEntity
  8
1
  6
Continuous
 62
     4
370
    -2
100
AcDbLine
 10
856.824241269064
 20
124.5332267259965
 30
0.0
 11
866.3242412690641
 21
124.5332267259965
 31
0.0
  0
INSERT
  5
9B65
330
97BD
100
AcDbEntity
  8
1
  6
Continuous
 62
     4
370
    -2
100
AcDbBlockReference
  2
_OPEN
 10
854.824241269064
 20
124.5332267259965
 30
0.0
 41
2.0
 42
2.0
 43
2.0
 50
180.0
  0
INSERT
  5
9B66
330
97BD
100
AcDbEntity
  8
1
  6
Continuous
 62
     4
370
    -2
100
AcDbBlockReference
  2
_OPEN
 10
868.324241269064
 20
124.5332267259965
 30
0.0
 41
2.0
 42
2.0
 43
2.0
  0
MTEXT
  5
9B67
330
97BD
100
AcDbEntity
  8
1
  6
Continuous
 62
     4
100
AcDbMText
 10
861.5742412690639
 20
125.7832267259965
 30
0.0
 40
2.5
 41
0.0
 71
     5
 72
     1
  1
\A1; 13.5 
 73
     1
 44
1.0
1001
ACAD
1000
MTEXTBEGIN
1070
    73
1070
     1
1070
    44
1040
1.0
1070
    74
1070
     0
1000
MTEXTEND
  0
POINT
  5
9B68
330
97BD
100
AcDbEntity
  8
DEFPOINTS
  6
Continuous
 62
     0
100
AcDbPoint
 10
854.824241269064
 20
76.30871922599658
 30
0.0
  0
POINT
  5
9B69
330
97BD
100
AcDbEntity
  8
DEFPOINTS
  6
Continuous
 62
     0
100
AcDbPoint
 10
868.324241269064
 20
77.30871922599658
 30
0.0
  0
POINT
  5
9B6A
330
97BD
100
AcDbEntity
  8
DEFPOINTS
  6
Continuous
 62
     0
100
AcDbPoint
 10
868.324241269064
 20
124.5332267259965
 30
0.0
  0
ENDBLK
  5
97BF
330
97BD
100
AcDbEntity
  8
0
100
AcDbBlockEnd
  0
BLOCK
  5
97CB
330
97CA
100
AcDbEntity
  8
0
100
AcDbBlockBegin
  2
*D66
 70
     1
 10
0.0
 20
0.0
 30
0.0
  3
*D66
  1

  0
LINE
  5
9B6B
330
97CA
100
AcDbEntity
  8
1
  6
Continuous
 62
     4
370
    -2
100
AcDbLine
 10
1130.824241269064
 20
-63.19128077400342
 30
0.0
 11
1130.824241269064
 21
-175.2238582740034
 31
0.0
  0
LINE
  5
9B6C
330
97CA
100
AcDbEntity
  8
1
  6
Continuous
 62
     4
370
    -2
100
AcDbLine
 10
1198.824241269064
 20
-89.69128077400341
 30
0.0
 11
1198.824241269064
 21
-175.2238582740034
 31
0.0
  0
LINE
  5
9B6D
330
97CA
100
AcDbEntity
  8
1
  6
Continuous
 62
     4
370
    -2
100
AcDbLine
 10
1132.824241269064
 20
-174.2238582740034
 30
0.0
 11
1196.824241269064
 21
-174.2238582740034
 31
0.0
  0
INSERT
  5
9B6E
330
97CA
100
AcDbEntity
  8
1
  6
Continuous
 62
     4
370
    -2
100
AcDbBlockReference
  2
_OPEN
 10
1130.824241269064
 20
-174.2238582740034
 30
0.0
 41
2.0
 42
2.0
 43
2.0
 50
180.0
  0
INSERT
  5
9B6F
330
97CA
100
AcDbEntity
  8
1
  6
Continuous
 62
     4
370
    -2
100
AcDbBlockReference
  2
_OPEN
 10
1198.824241269064
 20
-174.2238582740034
 30
0.0
 41
2.0
 42
2.0
 43
2.0
  0
MTEXT
  5
9B70
330
97CA
100
AcDbEntity
  8
1
  6
Continuous
 62
     4
100
AcDbMText
 10
1164.824241269064
 20
-172.9738582740034
 30
0.0
 40
2.5
 41
0.0
 71
     5
 72
     1
  1
\A1; 68 
 73
     1
 44
1.0
1001
ACAD
1000
MTEXTBEGIN
1070
    73
1070
     1
1070
    44
1040
1.0
1070
    74
1070
     0
1000
MTEXTEND
  0
POINT
  5
9B71
330
97CA
100
AcDbEntity
  8
DEFPOINTS
  6
Continuous
 62
     0
100
AcDbPoint
 10
1130.824241269064
 20
-62.19128077400341
 30
0.0
  0
POINT
  5
9B72
330
97CA
100
AcDbEntity
  8
DEFPOINTS
  6
Continuous
 62
     0
100
AcDbPoint
 10
1198.824241269064
 20
-88.69128077400343
 30
0.0
  0
POINT
  5
9B73
330
97CA
100
AcDbEntity
  8
DEFPOINTS
  6
Continuous
 62
     0
100
AcDbPoint
 10
1198.824241269064
 20
-174.2238582740034
 30
0.0
  0
ENDBLK
  5
97CC
330
97CA
100
AcDbEntity
  8
0
100
AcDbBlockEnd
  0
BLOCK
  5
97D7
330
97D6
100
AcDbEntity
  8
0
100
AcDbBlockBegin
  2
*D67
 70
     1
 10
0.0
 20
0.0
 30
0.0
  3
*D67
  1

  0
LINE
  5
9B74
330
97D6
100
AcDbEntity
  8
1
  6
Continuous
 62
     4
370
    -2
100
AcDbLine
 10
1237.324241269063
 20
-83.44128077400341
 30
0.0
 11
1237.324241269063
 21
-118.9738582740034
 31
0.0
  0
LINE
  5
9B75
330
97D6
100
AcDbEntity
  8
1
  6
Continuous
 62
     4
370
    -2
100
AcDbLine
 10
1250.824241269064
 20
-79.19128077400336
 30
0.0
 11
1250.824241269064
 21
-118.9738582740034
 31
0.0
  0
LINE
  5
9B76
330
97D6
100
AcDbEntity
  8
1
  6
Continuous
 62
     4
370
    -2
100
AcDbLine
 10
1239.324241269063
 20
-117.9738582740034
 30
0.0
 11
1248.824241269064
 21
-117.9738582740034
 31
0.0
  0
INSERT
  5
9B77
330
97D6
100
AcDbEntity
  8
1
  6
Continuous
 62
     4
370
    -2
100
AcDbBlockReference
  2
_OPEN
 10
1237.324241269063
 20
-117.9738582740034
 30
0.0
 41
2.0
 42
2.0
 43
2.0
 50
180.0
  0
INSERT
  5
9B78
330
97D6
100
AcDbEntity
  8
1
  6
Continuous
 62
     4
370
    -2
100
AcDbBlockReference
  2
_OPEN
 10
1250.824241269064
 20
-117.9738582740034
 30
0.0
 41
2.0
 42
2.0
 43
2.0
  0
MTEXT
  5
9B79
330
97D6
100
AcDbEntity
  8
1
  6
Continuous
 62
     4
100
AcDbMText
 10
1244.074241269064
 20
-116.7238582740034
 30
0.0
 40
2.5
 41
0.0
 71
     5
 72
     1
  1
\A1; 13.5 
 73
     1
 44
1.0
1001
ACAD
1000
MTEXTBEGIN
1070
    73
1070
     1
1070
    44
1040
1.0
1070
    74
1070
     0
1000
MTEXTEND
  0
POINT
  5
9B7A
330
97D6
100
AcDbEntity
  8
DEFPOINTS
  6
Continuous
 62
     0
100
AcDbPoint
 10
1237.324241269063
 20
-82.44128077400342
 30
0.0
  0
POINT
  5
9B7B
330
97D6
100
AcDbEntity
  8
DEFPOINTS
  6
Continuous
 62
     0
100
AcDbPoint
 10
1250.824241269064
 20
-78.19128077400335
 30
0.0
  0
POINT
  5
9B7C
330
97D6
100
AcDbEntity
  8
DEFPOINTS
  6
Continuous
 62
     0
100
AcDbPoint
 10
1250.824241269064
 20
-117.9738582740034
 30
0.0
  0
ENDBLK
  5
97D8
330
97D6
100
AcDbEntity
  8
0
100
AcDbBlockEnd
  0
BLOCK
  5
97E4
330
97E3
100
AcDbEntity
  8
0
100
AcDbBlockBegin
  2
*D68
 70
     1
 10
0.0
 20
0.0
 30
0.0
  3
*D68
  1

  0
LINE
  5
9B7D
330
97E3
100
AcDbEntity
  8
1
  6
Continuous
 62
     4
370
    -2
100
AcDbLine
 10
1284.324241269063
 20
-83.44128077400341
 30
0.0
 11
1284.324241269063
 21
-118.9738582740034
 31
0.0
  0
LINE
  5
9B7E
330
97E3
100
AcDbEntity
  8
1
  6
Continuous
 62
     4
370
    -2
100
AcDbLine
 10
1287.324241269063
 20
-83.44128077400341
 30
0.0
 11
1287.324241269063
 21
-118.9738582740034
 31
0.0
  0
LINE
  5
9B7F
330
97E3
100
AcDbEntity
  8
1
  6
Continuous
 62
     4
370
    -2
100
AcDbLine
 10
1282.324241269063
 20
-117.9738582740034
 30
0.0
 11
1280.324241269063
 21
-117.9738582740034
 31
0.0
  0
LINE
  5
9B80
330
97E3
100
AcDbEntity
  8
1
  6
Continuous
 62
     4
370
    -2
100
AcDbLine
 10
1289.324241269063
 20
-117.9738582740034
 30
0.0
 11
1294.49090793573
 21
-117.9738582740034
 31
0.0
  0
INSERT
  5
9B81
330
97E3
100
AcDbEntity
  8
1
  6
Continuous
 62
     4
370
    -2
100
AcDbBlockReference
  2
_OPEN
 10
1284.324241269063
 20
-117.9738582740034
 30
0.0
 41
2.0
 42
2.0
 43
2.0
  0
INSERT
  5
9B82
330
97E3
100
AcDbEntity
  8
1
  6
Continuous
 62
     4
370
    -2
100
AcDbBlockReference
  2
_OPEN
 10
1287.324241269063
 20
-117.9738582740034
 30
0.0
 41
2.0
 42
2.0
 43
2.0
 50
180.0
  0
MTEXT
  5
9B83
330
97E3
100
AcDbEntity
  8
1
  6
Continuous
 62
     4
100
AcDbMText
 10
1292.907574602397
 20
-116.7238582740034
 30
0.0
 40
2.5
 41
0.0
 71
     5
 72
     1
  1
\A1; 3 
 73
     1
 44
1.0
1001
ACAD
1000
MTEXTBEGIN
1070
    73
1070
     1
1070
    44
1040
1.0
1070
    74
1070
     0
1000
MTEXTEND
  0
POINT
  5
9B84
330
97E3
100
AcDbEntity
  8
DEFPOINTS
  6
Continuous
 62
     0
100
AcDbPoint
 10
1284.324241269063
 20
-82.44128077400342
 30
0.0
  0
POINT
  5
9B85
330
97E3
100
AcDbEntity
  8
DEFPOINTS
  6
Continuous
 62
     0
100
AcDbPoint
 10
1287.324241269063
 20
-82.44128077400342
 30
0.0
  0
POINT
  5
9B86
330
97E3
100
AcDbEntity
  8
DEFPOINTS
  6
Continuous
 62
     0
100
AcDbPoint
 10
1287.324241269063
 20
-117.9738582740034
 30
0.0
  0
ENDBLK
  5
97E5
330
97E3
100
AcDbEntity
  8
0
100
AcDbBlockEnd
  0
BLOCK
  5
97F1
330
97F0
100
AcDbEntity
  8
0
100
AcDbBlockBegin
  2
*D69
 70
     1
 10
0.0
 20
0.0
 30
0.0
  3
*D69
  1

  0
LINE
  5
9B87
330
97F0
100
AcDbEntity
  8
1
  6
Continuous
 62
     4
370
    -2
100
AcDbLine
 10
1287.324241269063
 20
-83.44128077400341
 30
0.0
 11
1287.324241269063
 21
-118.9738582740034
 31
0.0
  0
LINE
  5
9B88
330
97F0
100
AcDbEntity
  8
1
  6
Continuous
 62
     4
370
    -2
100
AcDbLine
 10
1300.824241269064
 20
-79.19128077400336
 30
0.0
 11
1300.824241269064
 21
-118.9738582740034
 31
0.0
  0
LINE
  5
9B89
330
97F0
100
AcDbEntity
  8
1
  6
Continuous
 62
     4
370
    -2
100
AcDbLine
 10
1289.324241269063
 20
-117.9738582740034
 30
0.0
 11
1298.824241269064
 21
-117.9738582740034
 31
0.0
  0
INSERT
  5
9B8A
330
97F0
100
AcDbEntity
  8
1
  6
Continuous
 62
     4
370
    -2
100
AcDbBlockReference
  2
_OPEN
 10
1287.324241269063
 20
-117.9738582740034
 30
0.0
 41
2.0
 42
2.0
 43
2.0
 50
180.0
  0
INSERT
  5
9B8B
330
97F0
100
AcDbEntity
  8
1
  6
Continuous
 62
     4
370
    -2
100
AcDbBlockReference
  2
_OPEN
 10
1300.824241269064
 20
-117.9738582740034
 30
0.0
 41
2.0
 42
2.0
 43
2.0
  0
MTEXT
  5
9B8C
330
97F0
100
AcDbEntity
  8
1
  6
Continuous
 62
     4
100
AcDbMText
 10
1294.074241269064
 20
-116.7238582740034
 30
0.0
 40
2.5
 41
0.0
 71
     5
 72
     1
  1
\A1; 13.5 
 73
     1
 44
1.0
1001
ACAD
1000
MTEXTBEGIN
1070
    73
1070
     1
1070
    44
1040
1.0
1070
    74
1070
     0
1000
MTEXTEND
  0
POINT
  5
9B8D
330
97F0
100
AcDbEntity
  8
DEFPOINTS
  6
Continuous
 62
     0
100
AcDbPoint
 10
1287.324241269063
 20
-82.44128077400342
 30
0.0
  0
POINT
  5
9B8E
330
97F0
100
AcDbEntity
  8
DEFPOINTS
  6
Continuous
 62
     0
100
AcDbPoint
 10
1300.824241269064
 20
-78.19128077400335
 30
0.0
  0
POINT
  5
9B8F
330
97F0
100
AcDbEntity
  8
DEFPOINTS
  6
Continuous
 62
     0
100
AcDbPoint
 10
1300.824241269064
 20
-117.9738582740034
 30
0.0
  0
ENDBLK
  5
97F2
330
97F0
100
AcDbEntity
  8
0
100
AcDbBlockEnd
  0
BLOCK
  5
97FE
330
97FD
100
AcDbEntity
  8
0
100
AcDbBlockBegin
  2
*D70
 70
     1
 10
0.0
 20
0.0
 30
0.0
  3
*D70
  1

  0
LINE
  5
9B90
330
97FD
100
AcDbEntity
  8
1
  6
Continuous
 62
     4
370
    -2
100
AcDbLine
 10
1280.074241269064
 20
-72.19128077400336
 30
0.0
 11
1280.074241269064
 21
-51.9667732740034
 31
0.0
  0
LINE
  5
9B91
330
97FD
100
AcDbEntity
  8
1
  6
Continuous
 62
     4
370
    -2
100
AcDbLine
 10
1291.574241269063
 20
-72.19128077400336
 30
0.0
 11
1291.574241269063
 21
-51.9667732740034
 31
0.0
  0
LINE
  5
9B92
330
97FD
100
AcDbEntity
  8
1
  6
Continuous
 62
     4
370
    -2
100
AcDbLine
 10
1282.074241269064
 20
-52.9667732740034
 30
0.0
 11
1289.574241269063
 21
-52.9667732740034
 31
0.0
  0
INSERT
  5
9B93
330
97FD
100
AcDbEntity
  8
1
  6
Continuous
 62
     4
370
    -2
100
AcDbBlockReference
  2
_OPEN
 10
1280.074241269064
 20
-52.9667732740034
 30
0.0
 41
2.0
 42
2.0
 43
2.0
 50
180.0
  0
INSERT
  5
9B94
330
97FD
100
AcDbEntity
  8
1
  6
Continuous
 62
     4
370
    -2
100
AcDbBlockReference
  2
_OPEN
 10
1291.574241269063
 20
-52.9667732740034
 30
0.0
 41
2.0
 42
2.0
 43
2.0
  0
MTEXT
  5
9B95
330
97FD
100
AcDbEntity
  8
1
  6
Continuous
 62
     4
100
AcDbMText
 10
1285.824241269064
 20
-51.7167732740034
 30
0.0
 40
2.5
 41
0.0
 71
     5
 72
     1
  1
\A1; 11.5 
 73
     1
 44
1.0
1001
ACAD
1000
MTEXTBEGIN
1070
    73
1070
     1
1070
    44
1040
1.0
1070
    74
1070
     0
1000
MTEXTEND
  0
POINT
  5
9B96
330
97FD
100
AcDbEntity
  8
DEFPOINTS
  6
Continuous
 62
     0
100
AcDbPoint
 10
1280.074241269064
 20
-73.19128077400335
 30
0.0
  0
POINT
  5
9B97
330
97FD
100
AcDbEntity
  8
DEFPOINTS
  6
Continuous
 62
     0
100
AcDbPoint
 10
1291.574241269063
 20
-73.19128077400335
 30
0.0
  0
POINT
  5
9B98
330
97FD
100
AcDbEntity
  8
DEFPOINTS
  6
Continuous
 62
     0
100
AcDbPoint
 10
1291.574241269063
 20
-52.9667732740034
 30
0.0
  0
ENDBLK
  5
97FF
330
97FD
100
AcDbEntity
  8
0
100
AcDbBlockEnd
  0
BLOCK
  5
980B
330
980A
100
AcDbEntity
  8
0
100
AcDbBlockBegin
  2
*D71
 70
     1
 10
0.0
 20
0.0
 30
0.0
  3
*D71
  1

  0
LINE
  5
9B99
330
980A
100
AcDbEntity
  8
1
  6
Continuous
 62
     4
370
    -2
100
AcDbLine
 10
1137.824241269063
 20
-89.69128077400341
 30
0.0
 11
1137.824241269063
 21
-137.7238582740034
 31
0.0
  0
LINE
  5
9B9A
330
980A
100
AcDbEntity
  8
1
  6
Continuous
 62
     4
370
    -2
100
AcDbLine
 10
1198.824241269064
 20
-89.69128077400341
 30
0.0
 11
1198.824241269064
 21
-137.7238582740034
 31
0.0
  0
LINE
  5
9B9B
330
980A
100
AcDbEntity
  8
1
  6
Continuous
 62
     4
370
    -2
100
AcDbLine
 10
1139.824241269063
 20
-136.7238582740034
 30
0.0
 11
1196.824241269064
 21
-136.7238582740034
 31
0.0
  0
INSERT
  5
9B9C
330
980A
100
AcDbEntity
  8
1
  6
Continuous
 62
     4
370
    -2
100
AcDbBlockReference
  2
_OPEN
 10
1137.824241269063
 20
-136.7238582740034
 30
0.0
 41
2.0
 42
2.0
 43
2.0
 50
180.0
  0
INSERT
  5
9B9D
330
980A
100
AcDbEntity
  8
1
  6
Continuous
 62
     4
370
    -2
100
AcDbBlockReference
  2
_OPEN
 10
1198.824241269064
 20
-136.7238582740034
 30
0.0
 41
2.0
 42
2.0
 43
2.0
  0
MTEXT
  5
9B9E
330
980A
100
AcDbEntity
  8
1
  6
Continuous
 62
     4
100
AcDbMText
 10
1168.324241269064
 20
-135.4738582740034
 30
0.0
 40
2.5
 41
0.0
 71
     5
 72
     1
  1
\A1; 61 
 73
     1
 44
1.0
1001
ACAD
1000
MTEXTBEGIN
1070
    73
1070
     1
1070
    44
1040
1.0
1070
    74
1070
     0
1000
MTEXTEND
  0
POINT
  5
9B9F
330
980A
100
AcDbEntity
  8
DEFPOINTS
  6
Continuous
 62
     0
100
AcDbPoint
 10
1137.824241269063
 20
-88.69128077400343
 30
0.0
  0
POINT
  5
9BA0
330
980A
100
AcDbEntity
  8
DEFPOINTS
  6
Continuous
 62
     0
100
AcDbPoint
 10
1198.824241269064
 20
-88.69128077400343
 30
0.0
  0
POINT
  5
9BA1
330
980A
100
AcDbEntity
  8
DEFPOINTS
  6
Continuous
 62
     0
100
AcDbPoint
 10
1198.824241269064
 20
-136.7238582740034
 30
0.0
  0
ENDBLK
  5
980C
330
980A
100
AcDbEntity
  8
0
100
AcDbBlockEnd
  0
BLOCK
  5
9817
330
9816
100
AcDbEntity
  8
0
100
AcDbBlockBegin
  2
*D72
 70
     1
 10
0.0
 20
0.0
 30
0.0
  3
*D72
  1

  0
LINE
  5
9BA2
330
9816
100
AcDbEntity
  8
1
  6
Continuous
 62
     4
370
    -2
100
AcDbLine
 10
830.8242412690637
 20
-34.69128077400342
 30
0.0
 11
830.8242412690637
 21
-43.97385827400341
 31
0.0
  0
LINE
  5
9BA3
330
9816
100
AcDbEntity
  8
1
  6
Continuous
 62
     4
370
    -2
100
AcDbLine
 10
852.8242412690635
 20
-34.69128077400342
 30
0.0
 11
852.8242412690635
 21
-43.97385827400341
 31
0.0
  0
LINE
  5
9BA4
330
9816
100
AcDbEntity
  8
1
  6
Continuous
 62
     4
370
    -2
100
AcDbLine
 10
832.8242412690636
 20
-42.97385827400342
 30
0.0
 11
850.8242412690636
 21
-42.97385827400342
 31
0.0
  0
INSERT
  5
9BA5
330
9816
100
AcDbEntity
  8
1
  6
Continuous
 62
     4
370
    -2
100
AcDbBlockReference
  2
_OPEN
 10
830.8242412690637
 20
-42.97385827400342
 30
0.0
 41
2.0
 42
2.0
 43
2.0
 50
180.0
  0
INSERT
  5
9BA6
330
9816
100
AcDbEntity
  8
1
  6
Continuous
 62
     4
370
    -2
100
AcDbBlockReference
  2
_OPEN
 10
852.8242412690635
 20
-42.97385827400342
 30
0.0
 41
2.0
 42
2.0
 43
2.0
  0
MTEXT
  5
9BA7
330
9816
100
AcDbEntity
  8
1
  6
Continuous
 62
     4
100
AcDbMText
 10
841.8242412690636
 20
-41.72385827400342
 30
0.0
 40
2.5
 41
0.0
 71
     5
 72
     1
  1
\A1; 22 
 73
     1
 44
1.0
1001
ACAD
1000
MTEXTBEGIN
1070
    73
1070
     1
1070
    44
1040
1.0
1070
    74
1070
     0
1000
MTEXTEND
  0
POINT
  5
9BA8
330
9816
100
AcDbEntity
  8
DEFPOINTS
  6
Continuous
 62
     0
100
AcDbPoint
 10
830.8242412690637
 20
-33.69128077400342
 30
0.0
  0
POINT
  5
9BA9
330
9816
100
AcDbEntity
  8
DEFPOINTS
  6
Continuous
 62
     0
100
AcDbPoint
 10
852.8242412690635
 20
-33.69128077400342
 30
0.0
  0
POINT
  5
9BAA
330
9816
100
AcDbEntity
  8
DEFPOINTS
  6
Continuous
 62
     0
100
AcDbPoint
 10
852.8242412690635
 20
-42.97385827400342
 30
0.0
  0
ENDBLK
  5
9818
330
9816
100
AcDbEntity
  8
0
100
AcDbBlockEnd
  0
BLOCK
  5
9823
330
9822
100
AcDbEntity
  8
0
100
AcDbBlockBegin
  2
*D73
 70
     1
 10
0.0
 20
0.0
 30
0.0
  3
*D73
  1

  0
LINE
  5
9CFF
330
9822
100
AcDbEntity
  8
30
 62
     0
370
    -2
100
AcDbLine
 10
170.5415450433529
 20
84.50000000000009
 30
0.0
 11
170.5415450433529
 21
107.4999999999999
 31
0.0
  0
LINE
  5
9D00
330
9822
100
AcDbEntity
  8
30
 62
     0
370
    -2
100
AcDbLine
 10
222.0415450433534
 20
97.99999999999997
 30
0.0
 11
222.0415450433534
 21
107.4999999999999
 31
0.0
  0
LINE
  5
9D01
330
9822
100
AcDbEntity
  8
30
 62
     0
370
    -2
100
AcDbLine
 10
172.5415450433529
 20
106.9999999999999
 30
0.0
 11
220.0415450433534
 21
106.9999999999999
 31
0.0
  0
INSERT
  5
9D02
330
9822
100
AcDbEntity
  8
30
 62
     0
370
    -2
100
AcDbBlockReference
  2
_OPEN
 10
170.5415450433529
 20
106.9999999999999
 30
0.0
 41
2.0
 42
2.0
 43
2.0
 50
180.0
  0
INSERT
  5
9D03
330
9822
100
AcDbEntity
  8
30
 62
     0
370
    -2
100
AcDbBlockReference
  2
_OPEN
 10
222.0415450433534
 20
106.9999999999999
 30
0.0
 41
2.0
 42
2.0
 43
2.0
  0
MTEXT
  5
9D04
330
9822
100
AcDbEntity
  8
30
 62
     0
100
AcDbMText
 10
196.291545043353
 20
109.9999999999999
 30
0.0
 40
4.0
 41
0.0
 71
     5
 72
     1
  1
\A1; 51.5 
 73
     1
 44
1.0
1001
ACAD
1000
MTEXTBEGIN
1070
    73
1070
     1
1070
    44
1040
1.0
1070
    74
1070
     0
1000
MTEXTEND
  0
POINT
  5
9D05
330
9822
100
AcDbEntity
  8
DEFPOINTS
 62
     0
100
AcDbPoint
 10
170.5415450433529
 20
83.50000000000013
 30
0.0
  0
POINT
  5
9D06
330
9822
100
AcDbEntity
  8
DEFPOINTS
 62
     0
100
AcDbPoint
 10
222.0415450433534
 20
96.99999999999995
 30
0.0
  0
POINT
  5
9D07
330
9822
100
AcDbEntity
  8
DEFPOINTS
 62
     0
100
AcDbPoint
 10
222.0415450433534
 20
106.9999999999999
 30
0.0
  0
ENDBLK
  5
9824
330
9822
100
AcDbEntity
  8
0
100
AcDbBlockEnd
  0
BLOCK
  5
982F
330
982E
100
AcDbEntity
  8
0
100
AcDbBlockBegin
  2
*D74
 70
     1
 10
0.0
 20
0.0
 30
0.0
  3
*D74
  1

  0
LINE
  5
9BB4
330
982E
100
AcDbEntity
  8
1
  6
Continuous
 62
     4
370
    -2
100
AcDbLine
 10
1106.824241269063
 20
-8.691280774003416
 30
0.0
 11
1106.824241269063
 21
-212.7238582740034
 31
0.0
  0
LINE
  5
9BB5
330
982E
100
AcDbEntity
  8
1
  6
Continuous
 62
     4
370
    -2
100
AcDbLine
 10
1198.824241269064
 20
-88.69128077400343
 30
0.0
 11
1198.824241269064
 21
-212.7238582740034
 31
0.0
  0
LINE
  5
9BB6
330
982E
100
AcDbEntity
  8
1
  6
Continuous
 62
     4
370
    -2
100
AcDbLine
 10
1108.824241269063
 20
-211.7238582740034
 30
0.0
 11
1196.824241269064
 21
-211.7238582740034
 31
0.0
  0
INSERT
  5
9BB7
330
982E
100
AcDbEntity
  8
1
  6
Continuous
 62
     4
370
    -2
100
AcDbBlockReference
  2
_OPEN
 10
1106.824241269063
 20
-211.7238582740034
 30
0.0
 41
2.0
 42
2.0
 43
2.0
 50
180.0
  0
INSERT
  5
9BB8
330
982E
100
AcDbEntity
  8
1
  6
Continuous
 62
     4
370
    -2
100
AcDbBlockReference
  2
_OPEN
 10
1198.824241269064
 20
-211.7238582740034
 30
0.0
 41
2.0
 42
2.0
 43
2.0
  0
MTEXT
  5
9BB9
330
982E
100
AcDbEntity
  8
1
  6
Continuous
 62
     4
100
AcDbMText
 10
1152.824241269064
 20
-210.4738582740034
 30
0.0
 40
2.5
 41
0.0
 71
     5
 72
     1
  1
\A1; 92 
 73
     1
 44
1.0
1001
ACAD
1000
MTEXTBEGIN
1070
    73
1070
     1
1070
    44
1040
1.0
1070
    74
1070
     0
1000
MTEXTEND
  0
POINT
  5
9BBA
330
982E
100
AcDbEntity
  8
DEFPOINTS
  6
Continuous
 62
     0
100
AcDbPoint
 10
1106.824241269063
 20
-8.691280774003416
 30
0.0
  0
POINT
  5
9BBB
330
982E
100
AcDbEntity
  8
DEFPOINTS
  6
Continuous
 62
     0
100
AcDbPoint
 10
1198.824241269064
 20
-88.69128077400343
 30
0.0
  0
POINT
  5
9BBC
330
982E
100
AcDbEntity
  8
DEFPOINTS
  6
Continuous
 62
     0
100
AcDbPoint
 10
1198.824241269064
 20
-211.7238582740034
 30
0.0
  0
ENDBLK
  5
9830
330
982E
100
AcDbEntity
  8
0
100
AcDbBlockEnd
  0
BLOCK
  5
983B
330
983A
100
AcDbEntity
  8
0
100
AcDbBlockBegin
  2
*D75
 70
     1
 10
0.0
 20
0.0
 30
0.0
  3
*D75
  1

  0
LINE
  5
9BBD
330
983A
100
AcDbEntity
  8
1
  6
Continuous
 62
     4
370
    -2
100
AcDbLine
 10
1198.824241269064
 20
-109.1912807740034
 30
0.0
 11
1198.824241269064
 21
-137.7238582740034
 31
0.0
  0
LINE
  5
9BBE
330
983A
100
AcDbEntity
  8
1
  6
Continuous
 62
     4
370
    -2
100
AcDbLine
 10
1250.824241269064
 20
-76.69128077400336
 30
0.0
 11
1250.824241269064
 21
-137.7238582740034
 31
0.0
  0
LINE
  5
9BBF
330
983A
100
AcDbEntity
  8
1
  6
Continuous
 62
     4
370
    -2
100
AcDbLine
 10
1200.824241269064
 20
-136.7238582740034
 30
0.0
 11
1248.824241269064
 21
-136.7238582740034
 31
0.0
  0
INSERT
  5
9BC0
330
983A
100
AcDbEntity
  8
1
  6
Continuous
 62
     4
370
    -2
100
AcDbBlockReference
  2
_OPEN
 10
1198.824241269064
 20
-136.7238582740034
 30
0.0
 41
2.0
 42
2.0
 43
2.0
 50
180.0
  0
INSERT
  5
9BC1
330
983A
100
AcDbEntity
  8
1
  6
Continuous
 62
     4
370
    -2
100
AcDbBlockReference
  2
_OPEN
 10
1250.824241269064
 20
-136.7238582740034
 30
0.0
 41
2.0
 42
2.0
 43
2.0
  0
MTEXT
  5
9BC2
330
983A
100
AcDbEntity
  8
1
  6
Continuous
 62
     4
100
AcDbMText
 10
1224.824241269064
 20
-135.4738582740034
 30
0.0
 40
2.5
 41
0.0
 71
     5
 72
     1
  1
\A1; 52 
 73
     1
 44
1.0
1001
ACAD
1000
MTEXTBEGIN
1070
    73
1070
     1
1070
    44
1040
1.0
1070
    74
1070
     0
1000
MTEXTEND
  0
POINT
  5
9BC3
330
983A
100
AcDbEntity
  8
DEFPOINTS
  6
Continuous
 62
     0
100
AcDbPoint
 10
1198.824241269064
 20
-108.1912807740034
 30
0.0
  0
POINT
  5
9BC4
330
983A
100
AcDbEntity
  8
DEFPOINTS
  6
Continuous
 62
     0
100
AcDbPoint
 10
1250.824241269064
 20
-75.69128077400335
 30
0.0
  0
POINT
  5
9BC5
330
983A
100
AcDbEntity
  8
DEFPOINTS
  6
Continuous
 62
     0
100
AcDbPoint
 10
1250.824241269064
 20
-136.7238582740034
 30
0.0
  0
ENDBLK
  5
983C
330
983A
100
AcDbEntity
  8
0
100
AcDbBlockEnd
  0
BLOCK
  5
9847
330
9846
100
AcDbEntity
  8
0
100
AcDbBlockBegin
  2
*D76
 70
     1
 10
0.0
 20
0.0
 30
0.0
  3
*D76
  1

  0
LINE
  5
9BC6
330
9846
100
AcDbEntity
  8
1
  6
Continuous
 62
     4
370
    -2
100
AcDbLine
 10
1198.824241269064
 20
-109.1912807740034
 30
0.0
 11
1198.824241269064
 21
-156.4738582740034
 31
0.0
  0
LINE
  5
9BC7
330
9846
100
AcDbEntity
  8
1
  6
Continuous
 62
     4
370
    -2
100
AcDbLine
 10
1300.824241269064
 20
-76.69128077400336
 30
0.0
 11
1300.824241269064
 21
-156.4738582740034
 31
0.0
  0
LINE
  5
9BC8
330
9846
100
AcDbEntity
  8
1
  6
Continuous
 62
     4
370
    -2
100
AcDbLine
 10
1200.824241269064
 20
-155.4738582740034
 30
0.0
 11
1298.824241269064
 21
-155.4738582740034
 31
0.0
  0
INSERT
  5
9BC9
330
9846
100
AcDbEntity
  8
1
  6
Continuous
 62
     4
370
    -2
100
AcDbBlockReference
  2
_OPEN
 10
1198.824241269064
 20
-155.4738582740034
 30
0.0
 41
2.0
 42
2.0
 43
2.0
 50
180.0
  0
INSERT
  5
9BCA
330
9846
100
AcDbEntity
  8
1
  6
Continuous
 62
     4
370
    -2
100
AcDbBlockReference
  2
_OPEN
 10
1300.824241269064
 20
-155.4738582740034
 30
0.0
 41
2.0
 42
2.0
 43
2.0
  0
MTEXT
  5
9BCB
330
9846
100
AcDbEntity
  8
1
  6
Continuous
 62
     4
100
AcDbMText
 10
1249.824241269064
 20
-154.2238582740034
 30
0.0
 40
2.5
 41
0.0
 71
     5
 72
     1
  1
\A1; 102 
 73
     1
 44
1.0
1001
ACAD
1000
MTEXTBEGIN
1070
    73
1070
     1
1070
    44
1040
1.0
1070
    74
1070
     0
1000
MTEXTEND
  0
POINT
  5
9BCC
330
9846
100
AcDbEntity
  8
DEFPOINTS
  6
Continuous
 62
     0
100
AcDbPoint
 10
1198.824241269064
 20
-108.1912807740034
 30
0.0
  0
POINT
  5
9BCD
330
9846
100
AcDbEntity
  8
DEFPOINTS
  6
Continuous
 62
     0
100
AcDbPoint
 10
1300.824241269064
 20
-75.69128077400335
 30
0.0
  0
POINT
  5
9BCE
330
9846
100
AcDbEntity
  8
DEFPOINTS
  6
Continuous
 62
     0
100
AcDbPoint
 10
1300.824241269064
 20
-155.4738582740034
 30
0.0
  0
ENDBLK
  5
9848
330
9846
100
AcDbEntity
  8
0
100
AcDbBlockEnd
  0
BLOCK
  5
9853
330
9852
100
AcDbEntity
  8
0
100
AcDbBlockBegin
  2
*D77
 70
     1
 10
0.0
 20
0.0
 30
0.0
  3
*D77
  1

  0
LINE
  5
9BCF
330
9852
100
AcDbEntity
  8
1
  6
Continuous
 62
     4
370
    -2
100
AcDbLine
 10
1220.824241269064
 20
-67.69128077400342
 30
0.0
 11
1220.824241269064
 21
-41.9738582740034
 31
0.0
  0
LINE
  5
9BD0
330
9852
100
AcDbEntity
  8
1
  6
Continuous
 62
     4
370
    -2
100
AcDbLine
 10
1234.324241269063
 20
-76.44128077400342
 30
0.0
 11
1234.324241269063
 21
-41.9738582740034
 31
0.0
  0
LINE
  5
9BD1
330
9852
100
AcDbEntity
  8
1
  6
Continuous
 62
     4
370
    -2
100
AcDbLine
 10
1222.824241269064
 20
-42.97385827400342
 30
0.0
 11
1232.324241269063
 21
-42.97385827400342
 31
0.0
  0
INSERT
  5
9BD2
330
9852
100
AcDbEntity
  8
1
  6
Continuous
 62
     4
370
    -2
100
AcDbBlockReference
  2
_OPEN
 10
1220.824241269064
 20
-42.97385827400342
 30
0.0
 41
2.0
 42
2.0
 43
2.0
 50
180.0
  0
INSERT
  5
9BD3
330
9852
100
AcDbEntity
  8
1
  6
Continuous
 62
     4
370
    -2
100
AcDbBlockReference
  2
_OPEN
 10
1234.324241269063
 20
-42.97385827400342
 30
0.0
 41
2.0
 42
2.0
 43
2.0
  0
MTEXT
  5
9BD4
330
9852
100
AcDbEntity
  8
1
  6
Continuous
 62
     4
100
AcDbMText
 10
1227.574241269064
 20
-41.72385827400342
 30
0.0
 40
2.5
 41
0.0
 71
     5
 72
     1
  1
\A1; 13.5 
 73
     1
 44
1.0
1001
ACAD
1000
MTEXTBEGIN
1070
    73
1070
     1
1070
    44
1040
1.0
1070
    74
1070
     0
1000
MTEXTEND
  0
POINT
  5
9BD5
330
9852
100
AcDbEntity
  8
DEFPOINTS
  6
Continuous
 62
     0
100
AcDbPoint
 10
1220.824241269064
 20
-68.69128077400342
 30
0.0
  0
POINT
  5
9BD6
330
9852
100
AcDbEntity
  8
DEFPOINTS
  6
Continuous
 62
     0
100
AcDbPoint
 10
1234.324241269063
 20
-77.44128077400342
 30
0.0
  0
POINT
  5
9BD7
330
9852
100
AcDbEntity
  8
DEFPOINTS
  6
Continuous
 62
     0
100
AcDbPoint
 10
1234.324241269063
 20
-42.97385827400342
 30
0.0
  0
ENDBLK
  5
9854
330
9852
100
AcDbEntity
  8
0
100
AcDbBlockEnd
  0
BLOCK
  5
9860
330
985F
100
AcDbEntity
  8
0
100
AcDbBlockBegin
  2
*D78
 70
     1
 10
0.0
 20
0.0
 30
0.0
  3
*D78
  1

  0
LINE
  5
9BD8
330
985F
100
AcDbEntity
  8
1
  6
Continuous
 62
     4
370
    -2
100
AcDbLine
 10
1119.324241269063
 20
13.80871922599658
 30
0.0
 11
1062.924266269064
 21
13.8087192259966
 31
0.0
  0
LINE
  5
9BD9
330
985F
100
AcDbEntity
  8
1
  6
Continuous
 62
     4
370
    -2
100
AcDbLine
 10
1119.324241269063
 20
-31.19128077400342
 30
0.0
 11
1062.924266269064
 21
-31.1912807740034
 31
0.0
  0
LINE
  5
9BDA
330
985F
100
AcDbEntity
  8
1
  6
Continuous
 62
     4
370
    -2
100
AcDbLine
 10
1063.924266269064
 20
11.8087192259966
 30
0.0
 11
1063.924266269064
 21
-5.857947440670066
 31
0.0
  0
LINE
  5
9BDB
330
985F
100
AcDbEntity
  8
1
  6
Continuous
 62
     4
370
    -2
100
AcDbLine
 10
1063.924266269064
 20
-29.1912807740034
 30
0.0
 11
1063.924266269064
 21
-11.52461410733673
 31
0.0
  0
INSERT
  5
9BDC
330
985F
100
AcDbEntity
  8
1
  6
Continuous
 62
     4
370
    -2
100
AcDbBlockReference
  2
_OPEN
 10
1063.924266269064
 20
13.8087192259966
 30
0.0
 41
2.0
 42
2.0
 43
2.0
 50
90.0
  0
INSERT
  5
9BDD
330
985F
100
AcDbEntity
  8
1
  6
Continuous
 62
     4
370
    -2
100
AcDbBlockReference
  2
_OPEN
 10
1063.924266269064
 20
-31.1912807740034
 30
0.0
 41
2.0
 42
2.0
 43
2.0
 50
270.0
  0
MTEXT
  5
9BDE
330
985F
100
AcDbEntity
  8
1
  6
Continuous
 62
     4
100
AcDbMText
 10
1063.924266269064
 20
-8.69128077400323
 30
0.0
 40
2.5
 41
0.0
 71
     5
 72
     1
  1
\A1; 45 
 11
0.0000000000000001
 21
1.0
 31
0.0
 73
     1
 44
1.0
1001
ACAD
1000
MTEXTBEGIN
1070
    73
1070
     1
1070
    44
1040
1.0
1070
    74
1070
     0
1000
MTEXTEND
  0
POINT
  5
9BDF
330
985F
100
AcDbEntity
  8
DEFPOINTS
  6
Continuous
 62
     0
100
AcDbPoint
 10
1120.324241269063
 20
13.80871922599658
 30
0.0
  0
POINT
  5
9BE0
330
985F
100
AcDbEntity
  8
DEFPOINTS
  6
Continuous
 62
     0
100
AcDbPoint
 10
1120.324241269063
 20
-31.19128077400342
 30
0.0
  0
POINT
  5
9BE1
330
985F
100
AcDbEntity
  8
DEFPOINTS
  6
Continuous
 62
     0
100
AcDbPoint
 10
1063.924266269064
 20
-31.1912807740034
 30
0.0
  0
ENDBLK
  5
9861
330
985F
100
AcDbEntity
  8
0
100
AcDbBlockEnd
  0
BLOCK
  5
986D
330
986C
100
AcDbEntity
  8
0
100
AcDbBlockBegin
  2
*D79
 70
     1
 10
0.0
 20
0.0
 30
0.0
  3
*D79
  1

  0
LINE
  5
9BE2
330
986C
100
AcDbEntity
  8
1
  6
Continuous
 62
     4
370
    -2
100
AcDbLine
 10
851.324241269064
 20
73.80871922599658
 30
0.0
 11
745.7859637690638
 21
73.80871922599658
 31
0.0
  0
LINE
  5
9BE3
330
986C
100
AcDbEntity
  8
1
  6
Continuous
 62
     4
370
    -2
100
AcDbLine
 10
793.3242412690637
 20
-86.19128077400343
 30
0.0
 11
745.7859637690638
 21
-86.19128077400343
 31
0.0
  0
LINE
  5
9BE4
330
986C
100
AcDbEntity
  8
1
  6
Continuous
 62
     4
370
    -2
100
AcDbLine
 10
746.7859637690637
 20
71.80871922599658
 30
0.0
 11
746.7859637690637
 21
-2.73294744067007
 31
0.0
  0
LINE
  5
9BE5
330
986C
100
AcDbEntity
  8
1
  6
Continuous
 62
     4
370
    -2
100
AcDbLine
 10
746.7859637690637
 20
-84.19128077400342
 30
0.0
 11
746.7859637690637
 21
-9.649614107336738
 31
0.0
  0
INSERT
  5
9BE6
330
986C
100
AcDbEntity
  8
1
  6
Continuous
 62
     4
370
    -2
100
AcDbBlockReference
  2
_OPEN
 10
746.7859637690637
 20
73.80871922599658
 30
0.0
 41
2.0
 42
2.0
 43
2.0
 50
90.0
  0
INSERT
  5
9BE7
330
986C
100
AcDbEntity
  8
1
  6
Continuous
 62
     4
370
    -2
100
AcDbBlockReference
  2
_OPEN
 10
746.7859637690637
 20
-86.19128077400343
 30
0.0
 41
2.0
 42
2.0
 43
2.0
 50
270.0
  0
MTEXT
  5
9BE8
330
986C
100
AcDbEntity
  8
1
  6
Continuous
 62
     4
100
AcDbMText
 10
746.7859637690637
 20
-6.191280774003283
 30
0.0
 40
2.5
 41
0.0
 71
     5
 72
     1
  1
\A1; 160 
 11
0.0000000000000001
 21
1.0
 31
0.0
 73
     1
 44
1.0
1001
ACAD
1000
MTEXTBEGIN
1070
    73
1070
     1
1070
    44
1040
1.0
1070
    74
1070
     0
1000
MTEXTEND
  0
POINT
  5
9BE9
330
986C
100
AcDbEntity
  8
DEFPOINTS
  6
Continuous
 62
     0
100
AcDbPoint
 10
852.324241269064
 20
73.80871922599658
 30
0.0
  0
POINT
  5
9BEA
330
986C
100
AcDbEntity
  8
DEFPOINTS
  6
Continuous
 62
     0
100
AcDbPoint
 10
794.3242412690636
 20
-86.19128077400343
 30
0.0
  0
POINT
  5
9BEB
330
986C
100
AcDbEntity
  8
DEFPOINTS
  6
Continuous
 62
     0
100
AcDbPoint
 10
746.7859637690637
 20
-86.19128077400343
 30
0.0
  0
ENDBLK
  5
986E
330
986C
100
AcDbEntity
  8
0
100
AcDbBlockEnd
  0
BLOCK
  5
987A
330
9879
100
AcDbEntity
  8
0
100
AcDbBlockBegin
  2
*D80
 70
     1
 10
0.0
 20
0.0
 30
0.0
  3
*D80
  1

  0
LINE
  5
9BEC
330
9879
100
AcDbEntity
  8
1
  6
Continuous
 62
     4
370
    -2
100
AcDbLine
 10
871.824241269064
 20
74.80871922599658
 30
0.0
 11
960.2859637690638
 21
74.80871922599658
 31
0.0
  0
LINE
  5
9BED
330
9879
100
AcDbEntity
  8
1
  6
Continuous
 62
     4
370
    -2
100
AcDbLine
 10
920.3242412690636
 20
68.80871922599658
 30
0.0
 11
960.2859637690638
 21
68.80871922599657
 31
0.0
  0
LINE
  5
9BEE
330
9879
100
AcDbEntity
  8
1
  6
Continuous
 62
     4
370
    -2
100
AcDbLine
 10
959.2859637690635
 20
72.80871922599658
 30
0.0
 11
959.2859637690635
 21
70.80871922599655
 31
0.0
  0
LINE
  5
9BEF
330
9879
100
AcDbEntity
  8
1
  6
Continuous
 62
     4
370
    -2
100
AcDbLine
 10
959.2859637690635
 20
68.80871922599657
 30
0.0
 11
959.2859637690635
 21
66.80871922599656
 31
0.0
  0
INSERT
  5
9BF0
330
9879
100
AcDbEntity
  8
1
  6
Continuous
 62
     4
370
    -2
100
AcDbBlockReference
  2
_OPEN
 10
959.2859637690635
 20
74.80871922599658
 30
0.0
 41
2.0
 42
2.0
 43
2.0
 50
90.0
  0
INSERT
  5
9BF1
330
9879
100
AcDbEntity
  8
1
  6
Continuous
 62
     4
370
    -2
100
AcDbBlockReference
  2
_OPEN
 10
959.2859637690635
 20
68.80871922599657
 30
0.0
 41
2.0
 42
2.0
 43
2.0
 50
270.0
  0
MTEXT
  5
9BF2
330
9879
100
AcDbEntity
  8
1
  6
Continuous
 62
     4
100
AcDbMText
 10
957.7026304357303
 20
66.80871922599672
 30
0.0
 40
2.5
 41
0.0
 71
     5
 72
     1
  1
\A1; 6 
 11
0.0000000000000001
 21
1.0
 31
0.0
 73
     1
 44
1.0
1001
ACAD
1000
MTEXTBEGIN
1070
    73
1070
     1
1070
    44
1040
1.0
1070
    74
1070
     0
1000
MTEXTEND
  0
POINT
  5
9BF3
330
9879
100
AcDbEntity
  8
DEFPOINTS
  6
Continuous
 62
     0
100
AcDbPoint
 10
870.8242412690641
 20
74.80871922599658
 30
0.0
  0
POINT
  5
9BF4
330
9879
100
AcDbEntity
  8
DEFPOINTS
  6
Continuous
 62
     0
100
AcDbPoint
 10
919.3242412690635
 20
68.80871922599658
 30
0.0
  0
POINT
  5
9BF5
330
9879
100
AcDbEntity
  8
DEFPOINTS
  6
Continuous
 62
     0
100
AcDbPoint
 10
959.2859637690635
 20
68.80871922599657
 30
0.0
  0
ENDBLK
  5
987B
330
9879
100
AcDbEntity
  8
0
100
AcDbBlockEnd
  0
BLOCK
  5
9887
330
9886
100
AcDbEntity
  8
0
100
AcDbBlockBegin
  2
*D81
 70
     1
 10
0.0
 20
0.0
 30
0.0
  3
*D81
  1

  0
LINE
  5
9BF6
330
9886
100
AcDbEntity
  8
1
  6
Continuous
 62
     4
370
    -2
100
AcDbLine
 10
1304.324241269064
 20
55.80871922599661
 30
0.0
 11
1322.785963769064
 21
55.80871922599661
 31
0.0
  0
LINE
  5
9BF7
330
9886
100
AcDbEntity
  8
1
  6
Continuous
 62
     4
370
    -2
100
AcDbLine
 10
1304.324241269064
 20
60.80871922599661
 30
0.0
 11
1322.785963769064
 21
60.80871922599661
 31
0.0
  0
LINE
  5
9BF8
330
9886
100
AcDbEntity
  8
1
  6
Continuous
 62
     4
370
    -2
100
AcDbLine
 10
1321.785963769064
 20
57.80871922599661
 30
0.0
 11
1321.785963769064
 21
58.80871922599661
 31
0.0
  0
LINE
  5
9BF9
330
9886
100
AcDbEntity
  8
1
  6
Continuous
 62
     4
370
    -2
100
AcDbLine
 10
1321.785963769064
 20
60.80871922599661
 30
0.0
 11
1321.785963769064
 21
62.80871922599661
 31
0.0
  0
INSERT
  5
9BFA
330
9886
100
AcDbEntity
  8
1
  6
Continuous
 62
     4
370
    -2
100
AcDbBlockReference
  2
_OPEN
 10
1321.785963769064
 20
55.80871922599661
 30
0.0
 41
2.0
 42
2.0
 43
2.0
 50
270.0
  0
INSERT
  5
9BFB
330
9886
100
AcDbEntity
  8
1
  6
Continuous
 62
     4
370
    -2
100
AcDbBlockReference
  2
_OPEN
 10
1321.785963769064
 20
60.80871922599661
 30
0.0
 41
2.0
 42
2.0
 43
2.0
 50
90.0
  0
MTEXT
  5
9BFC
330
9886
100
AcDbEntity
  8
1
  6
Continuous
 62
     4
100
AcDbMText
 10
1323.369297102397
 20
62.80871922599683
 30
0.0
 40
2.5
 41
0.0
 71
     5
 72
     1
  1
\A1; 5 
 11
0.0000000000000001
 21
1.0
 31
0.0
 73
     1
 44
1.0
1001
ACAD
1000
MTEXTBEGIN
1070
    73
1070
     1
1070
    44
1040
1.0
1070
    74
1070
     0
1000
MTEXTEND
  0
POINT
  5
9BFD
330
9886
100
AcDbEntity
  8
DEFPOINTS
  6
Continuous
 62
     0
100
AcDbPoint
 10
1303.324241269064
 20
55.80871922599661
 30
0.0
  0
POINT
  5
9BFE
330
9886
100
AcDbEntity
  8
DEFPOINTS
  6
Continuous
 62
     0
100
AcDbPoint
 10
1303.324241269064
 20
60.80871922599661
 30
0.0
  0
POINT
  5
9BFF
330
9886
100
AcDbEntity
  8
DEFPOINTS
  6
Continuous
 62
     0
100
AcDbPoint
 10
1321.785963769064
 20
60.80871922599661
 30
0.0
  0
ENDBLK
  5
9888
330
9886
100
AcDbEntity
  8
0
100
AcDbBlockEnd
  0
BLOCK
  5
9894
330
9893
100
AcDbEntity
  8
0
100
AcDbBlockBegin
  2
*D82
 70
     1
 10
0.0
 20
0.0
 30
0.0
  3
*D82
  1

  0
LINE
  5
9C00
330
9893
100
AcDbEntity
  8
1
  6
Continuous
 62
     4
370
    -2
100
AcDbLine
 10
1280.824241269063
 20
-71.44128077400342
 30
0.0
 11
1273.285963769064
 21
-71.44128077400342
 31
0.0
  0
LINE
  5
9C01
330
9893
100
AcDbEntity
  8
1
  6
Continuous
 62
     4
370
    -2
100
AcDbLine
 10
1280.824241269063
 20
-79.94128077400342
 30
0.0
 11
1273.285963769064
 21
-79.94128077400342
 31
0.0
  0
LINE
  5
9C02
330
9893
100
AcDbEntity
  8
1
  6
Continuous
 62
     4
370
    -2
100
AcDbLine
 10
1274.285963769064
 20
-69.44128077400342
 30
0.0
 11
1274.285963769064
 21
-67.44128077400342
 31
0.0
  0
LINE
  5
9C03
330
9893
100
AcDbEntity
  8
1
  6
Continuous
 62
     4
370
    -2
100
AcDbLine
 10
1274.285963769064
 20
-81.94128077400341
 30
0.0
 11
1274.285963769064
 21
-83.94128077400342
 31
0.0
  0
INSERT
  5
9C04
330
9893
100
AcDbEntity
  8
1
  6
Continuous
 62
     4
370
    -2
100
AcDbBlockReference
  2
_OPEN
 10
1274.285963769064
 20
-71.44128077400342
 30
0.0
 41
2.0
 42
2.0
 43
2.0
 50
270.0
  0
INSERT
  5
9C05
330
9893
100
AcDbEntity
  8
1
  6
Continuous
 62
     4
370
    -2
100
AcDbBlockReference
  2
_OPEN
 10
1274.285963769064
 20
-79.94128077400342
 30
0.0
 41
2.0
 42
2.0
 43
2.0
 50
90.0
  0
MTEXT
  5
9C06
330
9893
100
AcDbEntity
  8
1
  6
Continuous
 62
     4
100
AcDbMText
 10
1274.285963769064
 20
-75.6912807740032
 30
0.0
 40
2.5
 41
0.0
 71
     5
 72
     1
  1
\A1; 8.5 
 11
0.0000000000000001
 21
1.0
 31
0.0
 73
     1
 44
1.0
1001
ACAD
1000
MTEXTBEGIN
1070
    73
1070
     1
1070
    44
1040
1.0
1070
    74
1070
     0
1000
MTEXTEND
  0
POINT
  5
9C07
330
9893
100
AcDbEntity
  8
DEFPOINTS
  6
Continuous
 62
     0
100
AcDbPoint
 10
1281.824241269063
 20
-71.44128077400342
 30
0.0
  0
POINT
  5
9C08
330
9893
100
AcDbEntity
  8
DEFPOINTS
  6
Continuous
 62
     0
100
AcDbPoint
 10
1281.824241269063
 20
-79.94128077400342
 30
0.0
  0
POINT
  5
9C09
330
9893
100
AcDbEntity
  8
DEFPOINTS
  6
Continuous
 62
     0
100
AcDbPoint
 10
1274.285963769064
 20
-79.94128077400342
 30
0.0
  0
ENDBLK
  5
9895
330
9893
100
AcDbEntity
  8
0
100
AcDbBlockEnd
  0
BLOCK
  5
98A1
330
98A0
100
AcDbEntity
  8
0
100
AcDbBlockBegin
  2
*D83
 70
     1
 10
0.0
 20
0.0
 30
0.0
  3
*D83
  1

  0
LINE
  5
9C0A
330
98A0
100
AcDbEntity
  8
1
  6
Continuous
 62
     4
370
    -2
100
AcDbLine
 10
1127.324241269064
 20
-59.69128077400341
 30
0.0
 11
1025.424266269064
 21
-59.69128077400339
 31
0.0
  0
LINE
  5
9C0B
330
98A0
100
AcDbEntity
  8
1
  6
Continuous
 62
     4
370
    -2
100
AcDbLine
 10
1127.324241269064
 20
42.3087192259966
 30
0.0
 11
1025.424266269064
 21
42.30871922599662
 31
0.0
  0
LINE
  5
9C0C
330
98A0
100
AcDbEntity
  8
1
  6
Continuous
 62
     4
370
    -2
100
AcDbLine
 10
1026.424266269064
 20
-57.69128077400338
 30
0.0
 11
1026.424266269064
 21
-12.14961410733671
 31
0.0
  0
LINE
  5
9C0D
330
98A0
100
AcDbEntity
  8
1
  6
Continuous
 62
     4
370
    -2
100
AcDbLine
 10
1026.424266269064
 20
40.30871922599661
 30
0.0
 11
1026.424266269064
 21
-5.232947440670048
 31
0.0
  0
INSERT
  5
9C0E
330
98A0
100
AcDbEntity
  8
1
  6
Continuous
 62
     4
370
    -2
100
AcDbBlockReference
  2
_OPEN
 10
1026.424266269064
 20
-59.69128077400339
 30
0.0
 41
2.0
 42
2.0
 43
2.0
 50
270.0
  0
INSERT
  5
9C0F
330
98A0
100
AcDbEntity
  8
1
  6
Continuous
 62
     4
370
    -2
100
AcDbBlockReference
  2
_OPEN
 10
1026.424266269064
 20
42.30871922599662
 30
0.0
 41
2.0
 42
2.0
 43
2.0
 50
90.0
  0
MTEXT
  5
9C10
330
98A0
100
AcDbEntity
  8
1
  6
Continuous
 62
     4
100
AcDbMText
 10
1026.424266269064
 20
-8.691280774003216
 30
0.0
 40
2.5
 41
0.0
 71
     5
 72
     1
  1
\A1; 102 
 11
0.0000000000000001
 21
1.0
 31
0.0
 73
     1
 44
1.0
1001
ACAD
1000
MTEXTBEGIN
1070
    73
1070
     1
1070
    44
1040
1.0
1070
    74
1070
     0
1000
MTEXTEND
  0
POINT
  5
9C11
330
98A0
100
AcDbEntity
  8
DEFPOINTS
  6
Continuous
 62
     0
100
AcDbPoint
 10
1128.324241269064
 20
-59.69128077400341
 30
0.0
  0
POINT
  5
9C12
330
98A0
100
AcDbEntity
  8
DEFPOINTS
  6
Continuous
 62
     0
100
AcDbPoint
 10
1128.324241269064
 20
42.3087192259966
 30
0.0
  0
POINT
  5
9C13
330
98A0
100
AcDbEntity
  8
DEFPOINTS
  6
Continuous
 62
     0
100
AcDbPoint
 10
1026.424266269064
 20
42.30871922599662
 30
0.0
  0
ENDBLK
  5
98A2
330
98A0
100
AcDbEntity
  8
0
100
AcDbBlockEnd
  0
BLOCK
  5
98AE
330
98AD
100
AcDbEntity
  8
0
100
AcDbBlockBegin
  2
*D84
 70
     1
 10
0.0
 20
0.0
 30
0.0
  3
*D84
  1

  0
LINE
  5
9C14
330
98AD
100
AcDbEntity
  8
1
  6
Continuous
 62
     4
370
    -2
100
AcDbLine
 10
1123.324241269063
 20
-33.69128077400342
 30
0.0
 11
1044.174266269064
 21
-33.6912807740034
 31
0.0
  0
LINE
  5
9C15
330
98AD
100
AcDbEntity
  8
1
  6
Continuous
 62
     4
370
    -2
100
AcDbLine
 10
1123.324241269063
 20
16.30871922599658
 30
0.0
 11
1044.174266269064
 21
16.3087192259966
 31
0.0
  0
LINE
  5
9C16
330
98AD
100
AcDbEntity
  8
1
  6
Continuous
 62
     4
370
    -2
100
AcDbLine
 10
1045.174266269063
 20
-31.69128077400339
 30
0.0
 11
1045.174266269063
 21
-11.31628077400339
 31
0.0
  0
LINE
  5
9C17
330
98AD
100
AcDbEntity
  8
1
  6
Continuous
 62
     4
370
    -2
100
AcDbLine
 10
1045.174266269063
 20
14.3087192259966
 30
0.0
 11
1045.174266269063
 21
-6.066280774003393
 31
0.0
  0
INSERT
  5
9C18
330
98AD
100
AcDbEntity
  8
1
  6
Continuous
 62
     4
370
    -2
100
AcDbBlockReference
  2
_OPEN
 10
1045.174266269063
 20
-33.6912807740034
 30
0.0
 41
2.0
 42
2.0
 43
2.0
 50
270.0
  0
INSERT
  5
9C19
330
98AD
100
AcDbEntity
  8
1
  6
Continuous
 62
     4
370
    -2
100
AcDbBlockReference
  2
_OPEN
 10
1045.174266269063
 20
16.3087192259966
 30
0.0
 41
2.0
 42
2.0
 43
2.0
 50
90.0
  0
MTEXT
  5
9C1A
330
98AD
100
AcDbEntity
  8
1
  6
Continuous
 62
     4
100
AcDbMText
 10
1045.174266269063
 20
-8.691280774003226
 30
0.0
 40
2.5
 41
0.0
 71
     5
 72
     1
  1
\A1; 50 
 11
0.0000000000000001
 21
1.0
 31
0.0
 73
     1
 44
1.0
1001
ACAD
1000
MTEXTBEGIN
1070
    73
1070
     1
1070
    44
1040
1.0
1070
    74
1070
     0
1000
MTEXTEND
  0
POINT
  5
9C1B
330
98AD
100
AcDbEntity
  8
DEFPOINTS
  6
Continuous
 62
     0
100
AcDbPoint
 10
1124.324241269063
 20
-33.69128077400342
 30
0.0
  0
POINT
  5
9C1C
330
98AD
100
AcDbEntity
  8
DEFPOINTS
  6
Continuous
 62
     0
100
AcDbPoint
 10
1124.324241269063
 20
16.30871922599658
 30
0.0
  0
POINT
  5
9C1D
330
98AD
100
AcDbEntity
  8
DEFPOINTS
  6
Continuous
 62
     0
100
AcDbPoint
 10
1045.174266269063
 20
16.3087192259966
 30
0.0
  0
ENDBLK
  5
98AF
330
98AD
100
AcDbEntity
  8
0
100
AcDbBlockEnd
  0
BLOCK
  5
98BB
330
98BA
100
AcDbEntity
  8
0
100
AcDbBlockBegin
  2
*D85
 70
     1
 10
0.0
 20
0.0
 30
0.0
  3
*D85
  1

  0
LINE
  5
9C1E
330
98BA
100
AcDbEntity
  8
1
  6
Continuous
 62
     4
370
    -2
100
AcDbLine
 10
920.3242412690636
 20
-86.19128077400343
 30
0.0
 11
960.2859637690638
 21
-86.19128077400343
 31
0.0
  0
LINE
  5
9C1F
330
98BA
100
AcDbEntity
  8
1
  6
Continuous
 62
     4
370
    -2
100
AcDbLine
 10
920.3242412690636
 20
68.80871922599658
 30
0.0
 11
960.2859637690638
 21
68.80871922599657
 31
0.0
  0
LINE
  5
9C20
330
98BA
100
AcDbEntity
  8
1
  6
Continuous
 62
     4
370
    -2
100
AcDbLine
 10
959.2859637690635
 20
-84.19128077400342
 30
0.0
 11
959.2859637690635
 21
-12.3579474406701
 31
0.0
  0
LINE
  5
9C21
330
98BA
100
AcDbEntity
  8
1
  6
Continuous
 62
     4
370
    -2
100
AcDbLine
 10
959.2859637690635
 20
66.80871922599656
 30
0.0
 11
959.2859637690635
 21
-5.024614107336764
 31
0.0
  0
INSERT
  5
9C22
330
98BA
100
AcDbEntity
  8
1
  6
Continuous
 62
     4
370
    -2
100
AcDbBlockReference
  2
_OPEN
 10
959.2859637690635
 20
-86.19128077400343
 30
0.0
 41
2.0
 42
2.0
 43
2.0
 50
270.0
  0
INSERT
  5
9C23
330
98BA
100
AcDbEntity
  8
1
  6
Continuous
 62
     4
370
    -2
100
AcDbBlockReference
  2
_OPEN
 10
959.2859637690635
 20
68.80871922599657
 30
0.0
 41
2.0
 42
2.0
 43
2.0
 50
90.0
  0
MTEXT
  5
9C24
330
98BA
100
AcDbEntity
  8
1
  6
Continuous
 62
     4
100
AcDbMText
 10
959.2859637690635
 20
-8.691280774003276
 30
0.0
 40
2.5
 41
0.0
 71
     5
 72
     1
  1
\A1; 155 
 11
0.0000000000000001
 21
1.0
 31
0.0
 73
     1
 44
1.0
1001
ACAD
1000
MTEXTBEGIN
1070
    73
1070
     1
1070
    44
1040
1.0
1070
    74
1070
     0
1000
MTEXTEND
  0
POINT
  5
9C25
330
98BA
100
AcDbEntity
  8
DEFPOINTS
  6
Continuous
 62
     0
100
AcDbPoint
 10
919.3242412690635
 20
-86.19128077400343
 30
0.0
  0
POINT
  5
9C26
330
98BA
100
AcDbEntity
  8
DEFPOINTS
  6
Continuous
 62
     0
100
AcDbPoint
 10
919.3242412690635
 20
68.80871922599658
 30
0.0
  0
POINT
  5
9C27
330
98BA
100
AcDbEntity
  8
DEFPOINTS
  6
Continuous
 62
     0
100
AcDbPoint
 10
959.2859637690635
 20
68.80871922599657
 30
0.0
  0
ENDBLK
  5
98BC
330
98BA
100
AcDbEntity
  8
0
100
AcDbBlockEnd
  0
BLOCK
  5
98C8
330
98C7
100
AcDbEntity
  8
0
100
AcDbBlockBegin
  2
*D86
 70
     1
 10
0.0
 20
0.0
 30
0.0
  3
*D86
  1

  0
LINE
  5
9C28
330
98C7
100
AcDbEntity
  8
1
  6
Continuous
 62
     4
370
    -2
100
AcDbLine
 10
1302.180648769063
 20
-83.69128077400342
 30
0.0
 11
1322.785963769064
 21
-83.69128077400345
 31
0.0
  0
LINE
  5
9C29
330
98C7
100
AcDbEntity
  8
1
  6
Continuous
 62
     4
370
    -2
100
AcDbLine
 10
1302.180648769063
 20
-67.69128077400342
 30
0.0
 11
1322.785963769064
 21
-67.69128077400343
 31
0.0
  0
LINE
  5
9C2A
330
98C7
100
AcDbEntity
  8
1
  6
Continuous
 62
     4
370
    -2
100
AcDbLine
 10
1321.785963769064
 20
-81.69128077400342
 30
0.0
 11
1321.785963769064
 21
-78.10794744067009
 31
0.0
  0
LINE
  5
9C2B
330
98C7
100
AcDbEntity
  8
1
  6
Continuous
 62
     4
370
    -2
100
AcDbLine
 10
1321.785963769064
 20
-69.69128077400343
 30
0.0
 11
1321.785963769064
 21
-73.27461410733675
 31
0.0
  0
INSERT
  5
9C2C
330
98C7
100
AcDbEntity
  8
1
  6
Continuous
 62
     4
370
    -2
100
AcDbBlockReference
  2
_OPEN
 10
1321.785963769064
 20
-83.69128077400345
 30
0.0
 41
2.0
 42
2.0
 43
2.0
 50
270.0
  0
INSERT
  5
9C2D
330
98C7
100
AcDbEntity
  8
1
  6
Continuous
 62
     4
370
    -2
100
AcDbBlockReference
  2
_OPEN
 10
1321.785963769064
 20
-67.69128077400343
 30
0.0
 41
2.0
 42
2.0
 43
2.0
 50
90.0
  0
MTEXT
  5
9C2E
330
98C7
100
AcDbEntity
  8
1
  6
Continuous
 62
     4
100
AcDbMText
 10
1321.785963769064
 20
-75.6912807740032
 30
0.0
 40
2.5
 41
0.0
 71
     5
 72
     1
  1
\A1; 16 
 11
0.0000000000000001
 21
1.0
 31
0.0
 73
     1
 44
1.0
1001
ACAD
1000
MTEXTBEGIN
1070
    73
1070
     1
1070
    44
1040
1.0
1070
    74
1070
     0
1000
MTEXTEND
  0
POINT
  5
9C2F
330
98C7
100
AcDbEntity
  8
DEFPOINTS
  6
Continuous
 62
     0
100
AcDbPoint
 10
1301.180648769063
 20
-83.69128077400342
 30
0.0
  0
POINT
  5
9C30
330
98C7
100
AcDbEntity
  8
DEFPOINTS
  6
Continuous
 62
     0
100
AcDbPoint
 10
1301.180648769063
 20
-67.69128077400342
 30
0.0
  0
POINT
  5
9C31
330
98C7
100
AcDbEntity
  8
DEFPOINTS
  6
Continuous
 62
     0
100
AcDbPoint
 10
1321.785963769064
 20
-67.69128077400343
 30
0.0
  0
ENDBLK
  5
98C9
330
98C7
100
AcDbEntity
  8
0
100
AcDbBlockEnd
  0
BLOCK
  5
98D5
330
98D4
100
AcDbEntity
  8
0
100
AcDbBlockBegin
  2
*D87
 70
     1
 10
0.0
 20
0.0
 30
0.0
  3
*D87
  1

  0
LINE
  5
9C32
330
98D4
100
AcDbEntity
  8
1
  6
Continuous
 62
     4
370
    -2
100
AcDbLine
 10
1372.824241269063
 20
-75.69128077400335
 30
0.0
 11
1347.785963769064
 21
-75.69128077400335
 31
0.0
  0
LINE
  5
9C33
330
98D4
100
AcDbEntity
  8
1
  6
Continuous
 62
     4
370
    -2
100
AcDbLine
 10
1372.824241269063
 20
58.30871922599659
 30
0.0
 11
1347.785963769064
 21
58.30871922599659
 31
0.0
  0
LINE
  5
9C34
330
98D4
100
AcDbEntity
  8
1
  6
Continuous
 62
     4
370
    -2
100
AcDbLine
 10
1346.785963769064
 20
-73.69128077400336
 30
0.0
 11
1346.785963769064
 21
-12.35794744067004
 31
0.0
  0
LINE
  5
9C35
330
98D4
100
AcDbEntity
  8
1
  6
Continuous
 62
     4
370
    -2
100
AcDbLine
 10
1346.785963769064
 20
56.30871922599659
 30
0.0
 11
1346.785963769064
 21
-5.024614107336711
 31
0.0
  0
INSERT
  5
9C36
330
98D4
100
AcDbEntity
  8
1
  6
Continuous
 62
     4
370
    -2
100
AcDbBlockReference
  2
_OPEN
 10
1346.785963769064
 20
-75.69128077400335
 30
0.0
 41
2.0
 42
2.0
 43
2.0
 50
270.0
  0
INSERT
  5
9C37
330
98D4
100
AcDbEntity
  8
1
  6
Continuous
 62
     4
370
    -2
100
AcDbBlockReference
  2
_OPEN
 10
1346.785963769064
 20
58.30871922599659
 30
0.0
 41
2.0
 42
2.0
 43
2.0
 50
90.0
  0
MTEXT
  5
9C38
330
98D4
100
AcDbEntity
  8
1
  6
Continuous
 62
     4
100
AcDbMText
 10
1346.785963769064
 20
-8.691280774003161
 30
0.0
 40
2.5
 41
0.0
 71
     5
 72
     1
  1
\A1; 134 
 11
0.0000000000000001
 21
1.0
 31
0.0
 73
     1
 44
1.0
1001
ACAD
1000
MTEXTBEGIN
1070
    73
1070
     1
1070
    44
1040
1.0
1070
    74
1070
     0
1000
MTEXTEND
  0
POINT
  5
9C39
330
98D4
100
AcDbEntity
  8
DEFPOINTS
  6
Continuous
 62
     0
100
AcDbPoint
 10
1327.824241269063
 20
-75.69128077400335
 30
0.0
  0
POINT
  5
9C3A
330
98D4
100
AcDbEntity
  8
DEFPOINTS
  6
Continuous
 62
     0
100
AcDbPoint
 10
1327.824241269063
 20
58.30871922599661
 30
0.0
  0
POINT
  5
9C3B
330
98D4
100
AcDbEntity
  8
DEFPOINTS
  6
Continuous
 62
     0
100
AcDbPoint
 10
1346.785963769064
 20
58.30871922599659
 30
0.0
  0
ENDBLK
  5
98D6
330
98D4
100
AcDbEntity
  8
0
100
AcDbBlockEnd
  0
BLOCK
  5
98E2
330
98E1
100
AcDbEntity
  8
0
100
AcDbBlockBegin
  2
*D88
 70
     1
 10
0.0
 20
0.0
 30
0.0
  3
*D88
  1

  0
LINE
  5
9C3C
330
98E1
100
AcDbEntity
  8
5
  6
Continuous
 62
     4
370
    -2
100
AcDbLine
 10
846.4287809859222
 20
50.98715544810159
 30
0.0
 11
851.6977133425795
 21
54.19123559671624
 31
0.0
  0
MTEXT
  5
9C3D
102
{ACAD_XDICTIONARY
360
9D89
102
}
330
98E1
100
AcDbEntity
  8
5
  6
Continuous
 62
     4
100
AcDbMText
 10
847.559349995209
 20
53.13764178682088
 30
0.0
 40
2.5
 41
0.0
 71
     5
 72
     1
  1
\A1;\U+22058
 11
0.8544214632417414
 21
0.5195805646402122
 31
0.0
 73
     1
 44
1.0
1001
ACAD
1000
MTEXTBEGIN
1070
    73
1070
     1
1070
    44
1040
1.0
1070
    74
1070
     0
1000
MTEXTEND
  0
INSERT
  5
9C3E
330
98E1
100
AcDbEntity
  8
5
  6
Continuous
 62
     4
370
    -2
100
AcDbBlockReference
  2
_OPEN
 10
853.4065562690631
 20
55.23039672599669
 30
0.0
 41
2.0
 42
2.0
 43
2.0
 50
31.30412080804002
  0
LINE
  5
9C3F
330
98E1
100
AcDbEntity
  8
5
  6
Continuous
 62
     4
370
    -2
100
AcDbLine
 10
856.7342425190634
 20
57.30871922599654
 30
0.0
 11
856.9142425190634
 21
57.30871922599658
 31
0.0
  0
LINE
  5
9C40
330
98E1
100
AcDbEntity
  8
5
  6
Continuous
 62
     4
370
    -2
100
AcDbLine
 10
856.8242425190634
 20
57.2187192259965
 30
0.0
 11
856.8242425190632
 21
57.3987192259965
 31
0.0
  0
POINT
  5
9C41
330
98E1
100
AcDbEntity
  8
DEFPOINTS
  6
Continuous
 62
     0
100
AcDbPoint
 10
853.4065562690631
 20
55.23039672599669
 30
0.0
  0
POINT
  5
9C42
330
98E1
100
AcDbEntity
  8
DEFPOINTS
  6
Continuous
 62
     0
100
AcDbPoint
 10
860.2419287690635
 20
59.38704172599647
 30
0.0
  0
ENDBLK
  5
98E3
330
98E1
100
AcDbEntity
  8
0
100
AcDbBlockEnd
  0
BLOCK
  5
9C46
330
9C45
100
AcDbEntity
  8
0
100
AcDbBlockBegin
  2
*D89
 70
     1
 10
0.0
 20
0.0
 30
0.0
  3
*D89
  1

  0
LINE
  5
9C9F
330
9C45
100
AcDbEntity
  8
30
 62
     0
370
    -2
100
AcDbLine
 10
13.00000000000023
 20
83.49999999999992
 30
0.0
 11
-60.44766848119385
 21
83.49999999999996
 31
0.0
  0
LINE
  5
9CA0
330
9C45
100
AcDbEntity
  8
30
 62
     0
370
    -2
100
AcDbLine
 10
-46.0
 20
77.49999999999992
 30
0.0
 11
-60.44766848119387
 21
77.49999999999992
 31
0.0
  0
LINE
  5
9CA1
330
9C45
100
AcDbEntity
  8
30
 62
     0
370
    -2
100
AcDbLine
 10
-59.94766848119386
 20
81.49999999999996
 30
0.0
 11
-59.94766848119386
 21
79.49999999999993
 31
0.0
  0
INSERT
  5
9CA2
330
9C45
100
AcDbEntity
  8
30
 62
     0
370
    -2
100
AcDbBlockReference
  2
_OPEN
 10
-59.94766848119386
 20
83.49999999999996
 30
0.0
 41
2.0
 42
2.0
 43
2.0
 50
90.0
  0
INSERT
  5
9CA3
330
9C45
100
AcDbEntity
  8
30
 62
     0
370
    -2
100
AcDbBlockReference
  2
_OPEN
 10
-59.94766848119386
 20
77.49999999999992
 30
0.0
 41
2.0
 42
2.0
 43
2.0
 50
270.0
  0
MTEXT
  5
9CA4
330
9C45
100
AcDbEntity
  8
30
 62
     0
100
AcDbMText
 10
-62.94766848119387
 20
79.49999999999993
 30
0.0
 40
4.0
 41
0.0
 71
     5
 72
     1
  1
\A1; 6 
 11
0.0000000000000001
 21
1.0
 31
0.0
 73
     1
 44
1.0
1001
ACAD
1000
MTEXTBEGIN
1070
    73
1070
     1
1070
    44
1040
1.0
1070
    74
1070
     0
1000
MTEXTEND
  0
POINT
  5
9CA5
330
9C45
100
AcDbEntity
  8
DEFPOINTS
 62
     0
100
AcDbPoint
 10
14.00000000000023
 20
83.49999999999992
 30
0.0
  0
POINT
  5
9CA6
330
9C45
100
AcDbEntity
  8
DEFPOINTS
 62
     0
100
AcDbPoint
 10
-45.0
 20
77.49999999999992
 30
0.0
  0
POINT
  5
9CA7
330
9C45
100
AcDbEntity
  8
DEFPOINTS
 62
     0
100
AcDbPoint
 10
-59.94766848119386
 20
77.49999999999992
 30
0.0
  0
ENDBLK
  5
9C47
330
9C45
100
AcDbEntity
  8
0
100
AcDbBlockEnd
  0
BLOCK
  5
9CB3
330
9CB2
100
AcDbEntity
  8
0
100
AcDbBlockBegin
  2
*D90
 70
     1
 10
0.0
 20
0.0
 30
0.0
  3
*D90
  1

  0
LINE
  5
9CD0
330
9CB2
100
AcDbEntity
  8
30
 62
     0
370
    -2
100
AcDbLine
 10
27.50000000000023
 20
83.49999999999992
 30
0.0
 11
90.44766848119387
 21
83.49999999999992
 31
0.0
  0
LINE
  5
9CD1
330
9CB2
100
AcDbEntity
  8
30
 62
     0
370
    -2
100
AcDbLine
 10
76.0
 20
77.49999999999992
 30
0.0
 11
90.44766848119387
 21
77.49999999999992
 31
0.0
  0
LINE
  5
9CD2
330
9CB2
100
AcDbEntity
  8
30
 62
     0
370
    -2
100
AcDbLine
 10
89.94766848119388
 20
81.49999999999993
 30
0.0
 11
89.94766848119388
 21
79.49999999999993
 31
0.0
  0
INSERT
  5
9CD3
330
9CB2
100
AcDbEntity
  8
30
 62
     0
370
    -2
100
AcDbBlockReference
  2
_OPEN
 10
89.94766848119388
 20
83.49999999999992
 30
0.0
 41
2.0
 42
2.0
 43
2.0
 50
90.0
  0
INSERT
  5
9CD4
330
9CB2
100
AcDbEntity
  8
30
 62
     0
370
    -2
100
AcDbBlockReference
  2
_OPEN
 10
89.94766848119388
 20
77.49999999999992
 30
0.0
 41
2.0
 42
2.0
 43
2.0
 50
270.0
  0
MTEXT
  5
9CD5
330
9CB2
100
AcDbEntity
  8
30
 62
     0
100
AcDbMText
 10
86.94766848119387
 20
79.49999999999993
 30
0.0
 40
4.0
 41
0.0
 71
     5
 72
     1
  1
\A1; 6 
 11
0.0000000000000001
 21
1.0
 31
0.0
 73
     1
 44
1.0
1001
ACAD
1000
MTEXTBEGIN
1070
    73
1070
     1
1070
    44
1040
1.0
1070
    74
1070
     0
1000
MTEXTEND
  0
POINT
  5
9CD6
330
9CB2
100
AcDbEntity
  8
DEFPOINTS
 62
     0
100
AcDbPoint
 10
26.50000000000023
 20
83.49999999999992
 30
0.0
  0
POINT
  5
9CD7
330
9CB2
100
AcDbEntity
  8
DEFPOINTS
 62
     0
100
AcDbPoint
 10
75.0
 20
77.49999999999992
 30
0.0
  0
POINT
  5
9CD8
330
9CB2
100
AcDbEntity
  8
DEFPOINTS
 62
     0
100
AcDbPoint
 10
89.94766848119388
 20
77.49999999999992
 30
0.0
  0
ENDBLK
  5
9CB4
330
9CB2
100
AcDbEntity
  8
0
100
AcDbBlockEnd
  0
ENDSEC
  0
SECTION
  2
ENTITIES
  0
LINE
  5
B4
330
1E
100
AcDbEntity
  8
16
100
AcDbLine
 10
0.0
 20
-105.0883879261506
 30
0.0
 11
0.0
 21
86.25
 31
0.0
  0
LINE
  5
B5
330
1E
100
AcDbEntity
  8
16
100
AcDbLine
 10
89.74013214434672
 20
0.0000000000000089
 30
0.0
 11
-56.60868885537141
 21
0.0
 31
0.0
  0
MTEXT
  5
BF3
330
1E
100
AcDbEntity
  8
24
  6
Continuous
100
AcDbMText
 10
142.1181906098743
 20
192.5
 30
0.0
 40
3.0
 41
0.0
 71
     1
 72
     1
  1
\A1;
 73
     1
 44
1.0
1001
ACAD
1000
MTEXTBEGIN
1070
    73
1070
     1
1070
    44
1040
1.0
1070
    74
1070
     0
1000
MTEXTEND
  0
LINE
  5
1C9A
330
1E
100
AcDbEntity
  8
16
100
AcDbLine
 10
0.0
 20
126.8811670622457
 30
0.0
 11
0.0
 21
269.3811670622458
 31
0.0
  0
LINE
  5
1C9B
330
1E
100
AcDbEntity
  8
16
100
AcDbLine
 10
280.529464512613
 20
0.0
 30
0.0
 11
121.0450763366921
 21
0.0
 31
0.0
  0
LINE
  5
2260
330
1E
100
AcDbEntity
  8
16
100
AcDbLine
 10
89.90743607736431
 20
-235.0
 30
0.0
 11
-67.93042662644572
 21
-235.0
 31
0.0
  0
LINE
  5
2261
330
1E
100
AcDbEntity
  8
16
100
AcDbLine
 10
0.0
 20
-317.4374692359974
 30
0.0
 11
0.0
 21
-149.5
 31
0.0
  0
LINE
  5
819E
330
1E
100
AcDbEntity
  8
10
100
AcDbLine
 10
-45.0
 20
-77.5
 30
0.0
 11
75.0
 21
-77.5
 31
0.0
  0
LINE
  5
819F
330
1E
100
AcDbEntity
  8
10
100
AcDbLine
 10
75.0
 20
77.49999999999992
 30
0.0
 11
-45.0
 21
77.49999999999992
 31
0.0
  0
LINE
  5
81A0
330
1E
100
AcDbEntity
  8
10
100
AcDbLine
 10
-45.0
 20
50.99999999999988
 30
0.0
 11
75.0
 21
50.99999999999988
 31
0.0
  0
LINE
  5
81A1
330
1E
100
AcDbEntity
  8
10
100
AcDbLine
 10
-45.0
 20
-51.00000000000003
 30
0.0
 11
75.0
 21
-51.00000000000003
 31
0.0
  0
LINE
  5
81A3
330
1E
100
AcDbEntity
  8
17
100
AcDbLine
 10
53.00000000000006
 20
66.99999999999993
 30
0.0
 11
67.00000000000001
 21
66.99999999999993
 31
0.0
  0
LINE
  5
81A4
330
1E
100
AcDbEntity
  8
17
100
AcDbLine
 10
53.00000000000006
 20
-67.0
 30
0.0
 11
67.00000000000001
 21
-67.0
 31
0.0
  0
ARC
  5
81A5
330
1E
100
AcDbEntity
  8
10
100
AcDbCircle
 10
63.75
 20
65.99999999999988
 30
0.0
 40
5.0
100
AcDbArc
 50
270.0
 51
0.0
  0
ARC
  5
81A6
330
1E
100
AcDbEntity
  8
10
100
AcDbCircle
 10
-63.75
 20
-66.00000000000003
 30
0.0
 40
5.0
210
0.0
220
0.0
230
-1.0
100
AcDbArc
 50
90.0
 51
180.0
  0
CIRCLE
  5
81A7
330
1E
100
AcDbEntity
  8
10
100
AcDbCircle
 10
60.0
 20
36.75
 30
0.0
 40
8.0
  0
DIMENSION
  5
81A8
330
1E
100
AcDbEntity
  8
30
100
AcDbDimension
  2
*D1
 10
75.00000000000003
 20
-95.05260904743506
 30
0.0
 11
15.0
 21
-92.05260904743502
 31
0.0
 70
    32
 71
     5
 42
-1.0
  3
STANDARD
100
AcDbAlignedDimension
 13
-45.0
 23
-77.5
 33
0.0
 14
75.00000000000003
 24
-77.5
 34
0.0
 50
180.0
100
AcDbRotatedDimension
  0
LINE
  5
81A9
330
1E
100
AcDbEntity
  8
10
100
AcDbLine
 10
-45.0
 20
77.49999999999992
 30
0.0
 11
-45.0
 21
-77.5
 31
0.0
  0
LINE
  5
81AA
330
1E
100
AcDbEntity
  8
17
100
AcDbLine
 10
-30.0
 20
-74.00000000000003
 30
0.0
 11
-30.0
 21
-60.0
 31
0.0
  0
LINE
  5
81AB
330
1E
100
AcDbEntity
  8
17
100
AcDbLine
 10
30.0
 20
-74.00000000000003
 30
0.0
 11
30.0
 21
-60.0
 31
0.0
  0
LINE
  5
81AC
330
1E
100
AcDbEntity
  8
17
100
AcDbLine
 10
60.0
 20
-74.00000000000003
 30
0.0
 11
60.0
 21
-60.0
 31
0.0
  0
LINE
  5
81AD
330
1E
100
AcDbEntity
  8
12
100
AcDbLine
 10
-15.0
 20
-60.49999999999982
 30
0.0
 11
-15.0
 21
-71.49999999999981
 31
0.0
  0
LINE
  5
81AE
330
1E
100
AcDbEntity
  8
12
100
AcDbLine
 10
15.0
 20
-60.49999999999982
 30
0.0
 11
15.0
 21
-71.49999999999981
 31
0.0
  0
ARC
  5
81AF
330
1E
100
AcDbEntity
  8
10
100
AcDbCircle
 10
3.75
 20
-66.00000000000003
 30
0.0
 40
5.0
210
0.0
220
0.0
230
-1.0
100
AcDbArc
 50
0.0
 51
90.0
  0
ARC
  5
81B0
330
1E
100
AcDbEntity
  8
10
100
AcDbCircle
 10
-3.75
 20
-66.00000000000003
 30
0.0
 40
5.0
210
0.0
220
0.0
230
-1.0
100
AcDbArc
 50
90.0
 51
180.0
  0
ARC
  5
81B1
330
1E
100
AcDbEntity
  8
10
100
AcDbCircle
 10
-26.25
 20
-66.00000000000003
 30
0.0
 40
5.0
100
AcDbArc
 50
0.0
 51
90.0
  0
ARC
  5
81B2
330
1E
100
AcDbEntity
  8
10
100
AcDbCircle
 10
-33.75
 20
-66.00000000000003
 30
0.0
 40
5.0
100
AcDbArc
 50
90.0
 51
180.0
  0
ARC
  5
81B3
330
1E
100
AcDbEntity
  8
10
100
AcDbCircle
 10
-26.25
 20
-66.00000000000003
 30
0.0
 40
5.0
210
0.0
220
0.0
230
-1.0
100
AcDbArc
 50
0.0
 51
90.0
  0
ARC
  5
81B4
330
1E
100
AcDbEntity
  8
10
100
AcDbCircle
 10
-33.75
 20
-66.00000000000003
 30
0.0
 40
5.0
210
0.0
220
0.0
230
-1.0
100
AcDbArc
 50
90.0
 51
180.0
  0
ARC
  5
81B5
330
1E
100
AcDbEntity
  8
10
100
AcDbCircle
 10
-56.25
 20
-66.00000000000003
 30
0.0
 40
5.0
210
0.0
220
0.0
230
-1.0
100
AcDbArc
 50
0.0
 51
90.0
  0
LINE
  5
81B6
330
1E
100
AcDbEntity
  8
12
100
AcDbLine
 10
9.5
 20
-65.99999999999984
 30
0.0
 11
20.50000000000005
 21
-65.99999999999984
 31
0.0
  0
CIRCLE
  5
81B7
330
1E
100
AcDbEntity
  8
12
100
AcDbCircle
 10
-15.0
 20
-65.99999999999984
 30
0.0
 40
4.0
210
0.0
220
0.0
230
-1.0
  0
LINE
  5
81B8
330
1E
100
AcDbEntity
  8
12
100
AcDbLine
 10
-20.5
 20
-65.99999999999984
 30
0.0
 11
-9.499999999999943
 21
-65.99999999999984
 31
0.0
  0
CIRCLE
  5
81B9
330
1E
100
AcDbEntity
  8
12
100
AcDbCircle
 10
15.0
 20
-65.99999999999984
 30
0.0
 40
4.0
210
0.0
220
0.0
230
-1.0
  0
LINE
  5
81BA
330
1E
100
AcDbEntity
  8
17
100
AcDbLine
 10
-23.0
 20
-67.0
 30
0.0
 11
-37.0
 21
-67.0
 31
0.0
  0
CIRCLE
  5
81BB
330
1E
100
AcDbEntity
  8
24
100
AcDbCircle
 10
-30.0
 20
-67.0
 30
0.0
 40
5.0
  0
LINE
  5
81BC
330
1E
100
AcDbEntity
  8
10
100
AcDbLine
 10
-38.75
 20
-66.00000000000003
 30
0.0
 11
-38.75
 21
-77.5
 31
0.0
  0
LINE
  5
81BD
330
1E
100
AcDbEntity
  8
10
100
AcDbLine
 10
-21.25
 20
-66.00000000000003
 30
0.0
 11
-21.25
 21
-77.5
 31
0.0
  0
LINE
  5
81BE
330
1E
100
AcDbEntity
  8
17
100
AcDbLine
 10
-6.999999999999943
 20
-67.0
 30
0.0
 11
7.0
 21
-67.0
 31
0.0
  0
CIRCLE
  5
81BF
330
1E
100
AcDbEntity
  8
24
100
AcDbCircle
 10
0.0
 20
-67.0
 30
0.0
 40
5.0
  0
LINE
  5
81C0
330
1E
100
AcDbEntity
  8
10
100
AcDbLine
 10
-8.75
 20
-66.00000000000003
 30
0.0
 11
-8.75
 21
-77.5
 31
0.0
  0
LINE
  5
81C1
330
1E
100
AcDbEntity
  8
10
100
AcDbLine
 10
8.75
 20
-66.00000000000003
 30
0.0
 11
8.75
 21
-77.5
 31
0.0
  0
LINE
  5
81C2
330
1E
100
AcDbEntity
  8
17
100
AcDbLine
 10
23.00000000000006
 20
-67.0
 30
0.0
 11
37.00000000000002
 21
-67.0
 31
0.0
  0
CIRCLE
  5
81C3
330
1E
100
AcDbEntity
  8
24
100
AcDbCircle
 10
30.0
 20
-67.0
 30
0.0
 40
5.0
  0
LINE
  5
81C4
330
1E
100
AcDbEntity
  8
10
100
AcDbLine
 10
21.25
 20
-66.00000000000003
 30
0.0
 11
21.25
 21
-77.5
 31
0.0
  0
LINE
  5
81C5
330
1E
100
AcDbEntity
  8
10
100
AcDbLine
 10
38.75
 20
-66.00000000000003
 30
0.0
 11
38.75
 21
-77.5
 31
0.0
  0
LINE
  5
81C6
330
1E
100
AcDbEntity
  8
10
100
AcDbLine
 10
51.25
 20
-66.00000000000003
 30
0.0
 11
51.25
 21
-77.5
 31
0.0
  0
CIRCLE
  5
81C7
330
1E
100
AcDbEntity
  8
24
100
AcDbCircle
 10
60.0
 20
-67.0
 30
0.0
 40
5.0
  0
LINE
  5
81C8
330
1E
100
AcDbEntity
  8
10
100
AcDbLine
 10
-42.0
 20
24.99999999999995
 30
0.0
 11
42.00000000000001
 21
24.99999999999995
 31
0.0
  0
LINE
  5
81C9
330
1E
100
AcDbEntity
  8
10
100
AcDbLine
 10
-42.0
 20
-25.0
 30
0.0
 11
42.00000000000001
 21
-25.0
 31
0.0
  0
DIMENSION
  5
81CA
330
1E
100
AcDbEntity
  8
30
100
AcDbDimension
  2
*D2
 10
42.00000000000001
 20
32.59950840068008
 30
0.0
 11
0.0000000000000144
 21
35.59950840068009
 31
0.0
 70
    32
 71
     5
 42
-1.0
  3
STANDARD
100
AcDbAlignedDimension
 13
-42.0
 23
24.99999999999996
 33
0.0
 14
42.00000000000001
 24
24.99999999999996
 34
0.0
100
AcDbRotatedDimension
  0
LINE
  5
81CB
330
1E
100
AcDbEntity
  8
10
100
AcDbLine
 10
-42.0
 20
24.99999999999995
 30
0.0
 11
-42.0
 21
-25.0
 31
0.0
  0
LINE
  5
81CC
330
1E
100
AcDbEntity
  8
10
100
AcDbLine
 10
11.0
 20
24.99999999999995
 30
0.0
 11
11.0
 21
-25.0
 31
0.0
  0
LINE
  5
81CD
330
1E
100
AcDbEntity
  8
10
100
AcDbLine
 10
-11.0
 20
24.99999999999995
 30
0.0
 11
-11.0
 21
-25.0
 31
0.0
  0
LINE
  5
81CE
330
1E
100
AcDbEntity
  8
10
100
AcDbLine
 10
-6.999999999999943
 20
-18.50000000000003
 30
0.0
 11
-6.999999999999943
 21
20.1548687058103
 31
0.0
  0
LINE
  5
81CF
330
1E
100
AcDbEntity
  8
10
100
AcDbLine
 10
7.0
 20
-18.50000000000003
 30
0.0
 11
7.000000000000111
 21
20.1548687058103
 31
0.0
  0
LINE
  5
81D0
330
1E
100
AcDbEntity
  8
10
100
AcDbLine
 10
42.00000000000001
 20
24.99999999999995
 30
0.0
 11
42.00000000000001
 21
-25.0
 31
0.0
  0
LINE
  5
81D1
330
1E
100
AcDbEntity
  8
10
100
AcDbLine
 10
-33.75
 20
-61.00000000000003
 30
0.0
 11
-26.25
 21
-61.00000000000003
 31
0.0
  0
LINE
  5
81D2
330
1E
100
AcDbEntity
  8
10
100
AcDbLine
 10
3.75
 20
-61.00000000000003
 30
0.0
 11
-3.75
 21
-61.00000000000003
 31
0.0
  0
LINE
  5
81D3
330
1E
100
AcDbEntity
  8
10
100
AcDbLine
 10
-6.999999999999943
 20
-18.50000000000003
 30
0.0
 11
7.0
 21
-18.50000000000003
 31
0.0
  0
LINE
  5
81D4
330
1E
100
AcDbEntity
  8
10
100
AcDbLine
 10
7.0
 20
15.23995644007658
 30
0.0
 11
-6.999999999999943
 21
15.23995644007658
 31
0.0
  0
LINE
  5
81D5
330
1E
100
AcDbEntity
  8
10
100
AcDbLine
 10
7.0
 20
6.840789306861437
 30
0.0
 11
-6.99999999999909
 21
6.840789306861492
 31
0.0
  0
LINE
  5
81D6
330
1E
100
AcDbEntity
  8
10
100
AcDbLine
 10
33.75
 20
-61.00000000000003
 30
0.0
 11
26.25
 21
-61.00000000000003
 31
0.0
  0
LINE
  5
81D7
330
1E
100
AcDbEntity
  8
10
100
AcDbLine
 10
63.75
 20
-61.00000000000003
 30
0.0
 11
56.25
 21
-61.00000000000003
 31
0.0
  0
LINE
  5
81D8
330
1E
100
AcDbEntity
  8
12
100
AcDbLine
 10
9.5
 20
65.99999999999977
 30
0.0
 11
20.50000000000005
 21
65.99999999999977
 31
0.0
  0
CIRCLE
  5
81D9
330
1E
100
AcDbEntity
  8
12
100
AcDbCircle
 10
15.0
 20
65.99999999999977
 30
0.0
 40
4.0
  0
LINE
  5
81DA
330
1E
100
AcDbEntity
  8
10
100
AcDbLine
 10
7.0
 20
20.1548687058103
 30
0.0
 11
-7.000000000000909
 21
20.1548687058103
 31
0.0
  0
LINE
  5
81DB
330
1E
100
AcDbEntity
  8
12
100
AcDbLine
 10
-20.5
 20
65.99999999999977
 30
0.0
 11
-9.499999999999943
 21
65.99999999999977
 31
0.0
  0
CIRCLE
  5
81DC
330
1E
100
AcDbEntity
  8
12
100
AcDbCircle
 10
-15.0
 20
65.99999999999977
 30
0.0
 40
4.0
  0
LINE
  5
81DD
330
1E
100
AcDbEntity
  8
10
100
AcDbLine
 10
-21.25
 20
65.99999999999988
 30
0.0
 11
-21.25
 21
77.49999999999992
 31
0.0
  0
LINE
  5
81DE
330
1E
100
AcDbEntity
  8
10
100
AcDbLine
 10
-38.75
 20
65.99999999999988
 30
0.0
 11
-38.75
 21
77.49999999999992
 31
0.0
  0
LINE
  5
81DF
330
1E
100
AcDbEntity
  8
17
100
AcDbLine
 10
-23.0
 20
66.99999999999993
 30
0.0
 11
-37.0
 21
66.99999999999993
 31
0.0
  0
LINE
  5
81E0
330
1E
100
AcDbEntity
  8
10
100
AcDbLine
 10
-33.75
 20
60.99999999999988
 30
0.0
 11
-26.25
 21
60.99999999999988
 31
0.0
  0
CIRCLE
  5
81E1
330
1E
100
AcDbEntity
  8
24
100
AcDbCircle
 10
-30.0
 20
66.99999999999993
 30
0.0
 40
5.0
  0
LINE
  5
81E2
330
1E
100
AcDbEntity
  8
17
100
AcDbLine
 10
-30.0
 20
73.99999999999995
 30
0.0
 11
-30.0
 21
59.99999999999993
 31
0.0
  0
ARC
  5
81E3
330
1E
100
AcDbEntity
  8
10
100
AcDbCircle
 10
33.75
 20
65.99999999999988
 30
0.0
 40
5.0
210
0.0
220
0.0
230
-1.0
100
AcDbArc
 50
270.0
 51
0.0
  0
LINE
  5
81E4
330
1E
100
AcDbEntity
  8
12
100
AcDbLine
 10
-15.0
 20
60.49999999999972
 30
0.0
 11
-15.0
 21
71.4999999999997
 31
0.0
  0
ARC
  5
81E5
330
1E
100
AcDbEntity
  8
10
100
AcDbCircle
 10
26.25
 20
65.99999999999988
 30
0.0
 40
5.0
210
0.0
220
0.0
230
-1.0
100
AcDbArc
 50
180.0
 51
270.0
  0
LINE
  5
81E6
330
1E
100
AcDbEntity
  8
10
100
AcDbLine
 10
-8.75
 20
65.99999999999988
 30
0.0
 11
-8.75
 21
77.49999999999992
 31
0.0
  0
LINE
  5
81E7
330
1E
100
AcDbEntity
  8
10
100
AcDbLine
 10
8.75
 20
65.99999999999988
 30
0.0
 11
8.75
 21
77.49999999999992
 31
0.0
  0
LINE
  5
81E8
330
1E
100
AcDbEntity
  8
17
100
AcDbLine
 10
-6.999999999999943
 20
66.99999999999993
 30
0.0
 11
7.0
 21
66.99999999999993
 31
0.0
  0
LINE
  5
81E9
330
1E
100
AcDbEntity
  8
10
100
AcDbLine
 10
3.75
 20
60.99999999999988
 30
0.0
 11
-3.75
 21
60.99999999999988
 31
0.0
  0
CIRCLE
  5
81EA
330
1E
100
AcDbEntity
  8
24
100
AcDbCircle
 10
0.0
 20
66.99999999999993
 30
0.0
 40
5.0
  0
ARC
  5
81EB
330
1E
100
AcDbEntity
  8
10
100
AcDbCircle
 10
-3.75
 20
65.99999999999988
 30
0.0
 40
5.0
100
AcDbArc
 50
180.0
 51
270.0
  0
ARC
  5
81EC
330
1E
100
AcDbEntity
  8
10
100
AcDbCircle
 10
3.75
 20
65.99999999999988
 30
0.0
 40
5.0
100
AcDbArc
 50
270.0
 51
0.0
  0
LINE
  5
81ED
330
1E
100
AcDbEntity
  8
10
100
AcDbLine
 10
56.50000000000005
 20
31.75
 30
0.0
 11
56.50000000000005
 21
41.74999999999999
 31
0.0
  0
LINE
  5
81EE
330
1E
100
AcDbEntity
  8
10
100
AcDbLine
 10
63.5
 20
31.75
 30
0.0
 11
63.5
 21
41.74999999999999
 31
0.0
  0
LINE
  5
81EF
330
1E
100
AcDbEntity
  8
10
100
AcDbLine
 10
56.50000000000005
 20
34.93198051533912
 30
0.0
 11
57.5
 21
35.93198051533921
 31
0.0
  0
LINE
  5
81F0
330
1E
100
AcDbEntity
  8
10
100
AcDbLine
 10
56.50000000000005
 20
35.28553390593244
 30
0.0
 11
57.5
 21
36.28553390593243
 31
0.0
  0
LINE
  5
81F1
330
1E
100
AcDbEntity
  8
10
100
AcDbLine
 10
60.25863071718433
 20
35.50863071718428
 30
0.0
 11
60.97666340046266
 21
36.22666340046267
 31
0.0
  0
LINE
  5
81F2
330
1E
100
AcDbEntity
  8
10
100
AcDbLine
 10
60.40421152507571
 20
35.30065813448243
 30
0.0
 11
61.12224420835412
 21
36.0186908177609
 31
0.0
  0
LINE
  5
81F3
330
1E
100
AcDbEntity
  8
10
100
AcDbLine
 10
60.54979233296699
 20
35.09268555178048
 30
0.0
 11
61.26782501624552
 21
35.81071823505883
 31
0.0
  0
LINE
  5
81F4
330
1E
100
AcDbEntity
  8
10
100
AcDbLine
 10
57.5
 20
39.44953174173333
 30
0.0
 11
57.5
 21
31.75
 31
0.0
  0
LINE
  5
81F5
330
1E
100
AcDbEntity
  8
10
100
AcDbLine
 10
62.5
 20
34.05046825826662
 30
0.0
 11
62.5
 21
41.74999999999999
 31
0.0
  0
LINE
  5
81F6
330
1E
100
AcDbEntity
  8
10
100
AcDbLine
 10
57.11032778078674
 20
41.74999999999999
 30
0.0
 11
62.5
 21
34.05046825826662
 31
0.0
  0
LINE
  5
81F7
330
1E
100
AcDbEntity
  8
10
100
AcDbLine
 10
57.5
 20
39.44953174173333
 30
0.0
 11
62.88967221921332
 21
31.75
 31
0.0
  0
LINE
  5
81F8
330
1E
100
AcDbEntity
  8
10
100
AcDbLine
 10
62.5
 20
35.62867965644047
 30
0.0
 11
63.5
 21
36.6286796564405
 31
0.0
  0
LINE
  5
81F9
330
1E
100
AcDbEntity
  8
10
100
AcDbLine
 10
62.5
 20
35.27512626584711
 30
0.0
 11
63.5
 21
36.27512626584719
 31
0.0
  0
LINE
  5
81FA
330
1E
100
AcDbEntity
  8
10
100
AcDbLine
 10
62.5
 20
34.92157287525396
 30
0.0
 11
63.5
 21
35.92157287525389
 31
0.0
  0
LINE
  5
81FB
330
1E
100
AcDbEntity
  8
10
100
AcDbLine
 10
56.50000000000005
 20
31.75
 30
0.0
 11
57.5
 21
31.75
 31
0.0
  0
LINE
  5
81FC
330
1E
100
AcDbEntity
  8
10
100
AcDbLine
 10
56.50000000000005
 20
31.75
 30
0.0
 11
57.5
 21
32.75
 31
0.0
  0
LINE
  5
81FD
330
1E
100
AcDbEntity
  8
10
100
AcDbLine
 10
56.50000000000005
 20
32.10355339059322
 30
0.0
 11
57.5
 21
33.10355339059317
 31
0.0
  0
LINE
  5
81FE
330
1E
100
AcDbEntity
  8
10
100
AcDbLine
 10
56.50000000000005
 20
32.45710678118644
 30
0.0
 11
57.5
 21
33.45710678118644
 31
0.0
  0
LINE
  5
81FF
330
1E
100
AcDbEntity
  8
10
100
AcDbLine
 10
56.50000000000005
 20
32.81066017177966
 30
0.0
 11
57.5
 21
33.81066017177966
 31
0.0
  0
LINE
  5
8200
330
1E
100
AcDbEntity
  8
10
100
AcDbLine
 10
56.50000000000005
 20
33.16421356237288
 30
0.0
 11
57.5
 21
34.16421356237288
 31
0.0
  0
LINE
  5
8201
330
1E
100
AcDbEntity
  8
10
100
AcDbLine
 10
56.50000000000005
 20
33.51776695296615
 30
0.0
 11
57.5
 21
34.51776695296617
 31
0.0
  0
LINE
  5
8202
330
1E
100
AcDbEntity
  8
10
100
AcDbLine
 10
56.50000000000005
 20
33.87132034355937
 30
0.0
 11
57.5
 21
34.87132034355939
 31
0.0
  0
LINE
  5
8203
330
1E
100
AcDbEntity
  8
10
100
AcDbLine
 10
56.50000000000005
 20
34.22487373415258
 30
0.0
 11
57.5
 21
35.22487373415272
 31
0.0
  0
LINE
  5
8204
330
1E
100
AcDbEntity
  8
10
100
AcDbLine
 10
56.50000000000005
 20
34.5784271247459
 30
0.0
 11
57.5
 21
35.57842712474585
 31
0.0
  0
LINE
  5
8205
330
1E
100
AcDbEntity
  8
10
100
AcDbLine
 10
56.8535533905934
 20
31.75
 30
0.0
 11
57.5
 21
32.39644660940665
 31
0.0
  0
LINE
  5
8206
330
1E
100
AcDbEntity
  8
10
100
AcDbLine
 10
57.20710678118654
 20
31.75
 30
0.0
 11
57.5
 21
32.04289321881343
 31
0.0
  0
LINE
  5
8207
330
1E
100
AcDbEntity
  8
10
100
AcDbLine
 10
63.5
 20
31.75
 30
0.0
 11
62.88967221921339
 21
31.75
 31
0.0
  0
LINE
  5
8208
330
1E
100
AcDbEntity
  8
10
100
AcDbLine
 10
61.56885798820646
 20
33.63687747286707
 30
0.0
 11
62.28689067148478
 21
34.35491015614548
 31
0.0
  0
LINE
  5
8209
330
1E
100
AcDbEntity
  8
10
100
AcDbLine
 10
61.71443879609775
 20
33.42890489016513
 30
0.0
 11
62.43247147937615
 21
34.14693757344355
 31
0.0
  0
LINE
  5
820A
330
1E
100
AcDbEntity
  8
10
100
AcDbLine
 10
61.86001960398903
 20
33.22093230746322
 30
0.0
 11
63.5
 21
34.86091270347424
 31
0.0
  0
LINE
  5
820B
330
1E
100
AcDbEntity
  8
10
100
AcDbLine
 10
62.0056004118804
 20
33.01295972476133
 30
0.0
 11
63.5
 21
34.5073593128809
 31
0.0
  0
LINE
  5
820C
330
1E
100
AcDbEntity
  8
10
100
AcDbLine
 10
62.15118121977184
 20
32.80498714205942
 30
0.0
 11
63.5
 21
34.1538059222878
 31
0.0
  0
LINE
  5
820D
330
1E
100
AcDbEntity
  8
10
100
AcDbLine
 10
62.29676202766308
 20
32.59701455935749
 30
0.0
 11
63.5
 21
33.80025253169459
 31
0.0
  0
LINE
  5
820E
330
1E
100
AcDbEntity
  8
10
100
AcDbLine
 10
62.44234283555442
 20
32.38904197665557
 30
0.0
 11
63.5
 21
33.44669914110125
 31
0.0
  0
LINE
  5
820F
330
1E
100
AcDbEntity
  8
10
100
AcDbLine
 10
62.58792364344571
 20
32.18106939395372
 30
0.0
 11
63.5
 21
33.09314575050803
 31
0.0
  0
LINE
  5
8210
330
1E
100
AcDbEntity
  8
10
100
AcDbLine
 10
62.73350445133715
 20
31.97309681125179
 30
0.0
 11
63.5
 21
32.73959235991481
 31
0.0
  0
LINE
  5
8211
330
1E
100
AcDbEntity
  8
10
100
AcDbLine
 10
62.86396103067858
 20
31.75
 30
0.0
 11
63.5
 21
32.38603896932143
 31
0.0
  0
LINE
  5
8212
330
1E
100
AcDbEntity
  8
10
100
AcDbLine
 10
63.2175144212718
 20
31.75
 30
0.0
 11
63.5
 21
32.0324855787282
 31
0.0
  0
LINE
  5
8213
330
1E
100
AcDbEntity
  8
10
100
AcDbLine
 10
60.69537314085835
 20
34.88471296907857
 30
0.0
 11
61.41340582413675
 21
35.60274565235689
 31
0.0
  0
LINE
  5
8214
330
1E
100
AcDbEntity
  8
10
100
AcDbLine
 10
60.84095394874971
 20
34.67674038637665
 30
0.0
 11
61.55898663202805
 21
35.39477306965506
 31
0.0
  0
LINE
  5
8215
330
1E
100
AcDbEntity
  8
10
100
AcDbLine
 10
60.98653475664107
 20
34.46876780367471
 30
0.0
 11
61.70456743991934
 21
35.18680048695313
 31
0.0
  0
LINE
  5
8216
330
1E
100
AcDbEntity
  8
10
100
AcDbLine
 10
61.13211556453236
 20
34.26079522097285
 30
0.0
 11
61.85014824781077
 21
34.97882790425126
 31
0.0
  0
LINE
  5
8217
330
1E
100
AcDbEntity
  8
10
100
AcDbLine
 10
61.2776963724238
 20
34.05282263827093
 30
0.0
 11
61.99572905570215
 21
34.77085532154939
 31
0.0
  0
LINE
  5
8218
330
1E
100
AcDbEntity
  8
10
100
AcDbLine
 10
61.42327718031504
 20
33.844850055569
 30
0.0
 11
62.1413098635935
 21
34.5628827388474
 31
0.0
  0
LINE
  5
8219
330
1E
100
AcDbEntity
  8
10
100
AcDbLine
 10
62.5
 20
34.56801948466068
 30
0.0
 11
63.5
 21
35.56801948466068
 31
0.0
  0
LINE
  5
821A
330
1E
100
AcDbEntity
  8
10
100
AcDbLine
 10
62.5
 20
34.21446609406746
 30
0.0
 11
63.5
 21
35.21446609406739
 31
0.0
  0
LINE
  5
821B
330
1E
100
AcDbEntity
  8
10
100
AcDbLine
 10
59.239565061945
 20
36.96443879609761
 30
0.0
 11
59.9575977452234
 21
37.68247147937603
 31
0.0
  0
LINE
  5
821C
330
1E
100
AcDbEntity
  8
10
100
AcDbLine
 10
59.38514586983629
 20
36.75646621339569
 30
0.0
 11
60.10317855311479
 21
37.47449889667411
 31
0.0
  0
LINE
  5
821D
330
1E
100
AcDbEntity
  8
10
100
AcDbLine
 10
59.53072667772772
 20
36.54849363069383
 30
0.0
 11
60.24875936100613
 21
37.26652631397218
 31
0.0
  0
LINE
  5
821E
330
1E
100
AcDbEntity
  8
10
100
AcDbLine
 10
59.67630748561902
 20
36.34052104799197
 30
0.0
 11
60.39434016889737
 21
37.05855373127032
 31
0.0
  0
LINE
  5
821F
330
1E
100
AcDbEntity
  8
10
100
AcDbLine
 10
59.82188829351031
 20
36.13254846528997
 30
0.0
 11
60.53992097678872
 21
36.85058114856838
 31
0.0
  0
LINE
  5
8220
330
1E
100
AcDbEntity
  8
10
100
AcDbLine
 10
56.50000000000005
 20
41.74999999999999
 30
0.0
 11
57.11032778078674
 21
41.74999999999999
 31
0.0
  0
LINE
  5
8221
330
1E
100
AcDbEntity
  8
10
100
AcDbLine
 10
56.50000000000005
 20
35.6390872965257
 30
0.0
 11
57.5
 21
36.63908729652563
 31
0.0
  0
LINE
  5
8222
330
1E
100
AcDbEntity
  8
10
100
AcDbLine
 10
56.50000000000005
 20
35.99264068711892
 30
0.0
 11
57.5
 21
36.99264068711892
 31
0.0
  0
LINE
  5
8223
330
1E
100
AcDbEntity
  8
10
100
AcDbLine
 10
56.50000000000005
 20
36.34619407771214
 30
0.0
 11
57.5
 21
37.34619407771214
 31
0.0
  0
LINE
  5
8224
330
1E
100
AcDbEntity
  8
10
100
AcDbLine
 10
56.50000000000005
 20
36.69974746830551
 30
0.0
 11
57.5
 21
37.69974746830529
 31
0.0
  0
LINE
  5
8225
330
1E
100
AcDbEntity
  8
10
100
AcDbLine
 10
56.50000000000005
 20
37.05330085889864
 30
0.0
 11
57.5
 21
38.05330085889865
 31
0.0
  0
LINE
  5
8226
330
1E
100
AcDbEntity
  8
10
100
AcDbLine
 10
56.50000000000005
 20
37.40685424949194
 30
0.0
 11
57.5
 21
38.40685424949197
 31
0.0
  0
LINE
  5
8227
330
1E
100
AcDbEntity
  8
10
100
AcDbLine
 10
56.50000000000005
 20
37.76040764008515
 30
0.0
 11
57.5
 21
38.76040764008518
 31
0.0
  0
LINE
  5
8228
330
1E
100
AcDbEntity
  8
10
100
AcDbLine
 10
56.50000000000005
 20
38.11396103067838
 30
0.0
 11
57.5
 21
39.1139610306784
 31
0.0
  0
LINE
  5
8229
330
1E
100
AcDbEntity
  8
10
100
AcDbLine
 10
56.50000000000005
 20
38.46751442127168
 30
0.0
 11
58.21062805052742
 21
40.17814247179908
 31
0.0
  0
LINE
  5
822A
330
1E
100
AcDbEntity
  8
10
100
AcDbLine
 10
56.50000000000005
 20
38.82106781186482
 30
0.0
 11
58.06504724263604
 21
40.38611505450094
 31
0.0
  0
LINE
  5
822B
330
1E
100
AcDbEntity
  8
10
100
AcDbLine
 10
56.50000000000005
 20
39.17462120245819
 30
0.0
 11
57.91946643474464
 21
40.59408763720279
 31
0.0
  0
LINE
  5
822C
330
1E
100
AcDbEntity
  8
10
100
AcDbLine
 10
56.50000000000005
 20
39.52817459305141
 30
0.0
 11
57.77388562685331
 21
40.8020602199048
 31
0.0
  0
LINE
  5
822D
330
1E
100
AcDbEntity
  8
10
100
AcDbLine
 10
56.50000000000005
 20
39.88172798364468
 30
0.0
 11
57.62830481896196
 21
41.01003280260658
 31
0.0
  0
LINE
  5
822E
330
1E
100
AcDbEntity
  8
10
100
AcDbLine
 10
56.50000000000005
 20
40.2352813742379
 30
0.0
 11
57.48272401107072
 21
41.21800538530851
 31
0.0
  0
LINE
  5
822F
330
1E
100
AcDbEntity
  8
10
100
AcDbLine
 10
56.50000000000005
 20
40.5888347648312
 30
0.0
 11
57.33714320317929
 21
41.42597796801044
 31
0.0
  0
LINE
  5
8230
330
1E
100
AcDbEntity
  8
10
100
AcDbLine
 10
56.50000000000005
 20
40.94238815542442
 30
0.0
 11
57.191562395288
 21
41.63395055071231
 31
0.0
  0
LINE
  5
8231
330
1E
100
AcDbEntity
  8
10
100
AcDbLine
 10
56.50000000000005
 20
41.29594154601764
 30
0.0
 11
56.95405845398233
 21
41.74999999999999
 31
0.0
  0
LINE
  5
8232
330
1E
100
AcDbEntity
  8
10
100
AcDbLine
 10
56.50000000000005
 20
41.64949493661086
 30
0.0
 11
56.60050506338905
 21
41.74999999999999
 31
0.0
  0
LINE
  5
8233
330
1E
100
AcDbEntity
  8
10
100
AcDbLine
 10
58.51166102248836
 20
38.00430170960725
 30
0.0
 11
59.22969370576676
 21
38.72233439288567
 31
0.0
  0
LINE
  5
8234
330
1E
100
AcDbEntity
  8
10
100
AcDbLine
 10
58.36608021459696
 20
38.21227429230913
 30
0.0
 11
59.08411289787546
 21
38.93030697558754
 31
0.0
  0
LINE
  5
8235
330
1E
100
AcDbEntity
  8
10
100
AcDbLine
 10
58.65724183037976
 20
37.79632912690532
 30
0.0
 11
59.37527451365802
 21
38.51436181018375
 31
0.0
  0
LINE
  5
8236
330
1E
100
AcDbEntity
  8
10
100
AcDbLine
 10
58.80282263827104
 20
37.5883565442034
 30
0.0
 11
59.52085532154939
 21
38.30638922748176
 31
0.0
  0
LINE
  5
8237
330
1E
100
AcDbEntity
  8
10
100
AcDbLine
 10
58.94840344616227
 20
37.38038396150142
 30
0.0
 11
59.66643612944075
 21
38.09841664477989
 31
0.0
  0
LINE
  5
8238
330
1E
100
AcDbEntity
  8
10
100
AcDbLine
 10
59.09398425405356
 20
37.17241137879954
 30
0.0
 11
59.81201693733203
 21
37.89044406207796
 31
0.0
  0
LINE
  5
8239
330
1E
100
AcDbEntity
  8
10
100
AcDbLine
 10
58.22049940670575
 20
38.42024687501106
 30
0.0
 11
58.93853208998399
 21
39.13827955828939
 31
0.0
  0
LINE
  5
823A
330
1E
100
AcDbEntity
  8
10
100
AcDbLine
 10
58.07491859881428
 20
38.62821945771298
 30
0.0
 11
58.79295128209264
 21
39.34625214099138
 31
0.0
  0
LINE
  5
823B
330
1E
100
AcDbEntity
  8
10
100
AcDbLine
 10
57.92933779092294
 20
38.83619204041496
 30
0.0
 11
58.64737047420135
 21
39.55422472369331
 31
0.0
  0
LINE
  5
823C
330
1E
100
AcDbEntity
  8
10
100
AcDbLine
 10
57.78375698303165
 20
39.04416462311676
 30
0.0
 11
58.50178966631006
 21
39.76219730639515
 31
0.0
  0
LINE
  5
823D
330
1E
100
AcDbEntity
  8
10
100
AcDbLine
 10
57.63817617514035
 20
39.25213720581869
 30
0.0
 11
58.35620885841876
 21
39.97016988909701
 31
0.0
  0
LINE
  5
823E
330
1E
100
AcDbEntity
  8
10
100
AcDbLine
 10
62.5
 20
41.74999999999999
 30
0.0
 11
63.5
 21
41.74999999999999
 31
0.0
  0
LINE
  5
823F
330
1E
100
AcDbEntity
  8
10
100
AcDbLine
 10
59.96746910140174
 20
35.92457588258821
 30
0.0
 11
60.68550178468007
 21
36.64260856586654
 31
0.0
  0
LINE
  5
8240
330
1E
100
AcDbEntity
  8
10
100
AcDbLine
 10
60.11304990929295
 20
35.71660329988612
 30
0.0
 11
60.83108259257144
 21
36.43463598316461
 31
0.0
  0
LINE
  5
8241
330
1E
100
AcDbEntity
  8
10
100
AcDbLine
 10
62.5
 20
40.57842712474584
 30
0.0
 11
63.5
 21
41.57842712474592
 31
0.0
  0
LINE
  5
8242
330
1E
100
AcDbEntity
  8
10
100
AcDbLine
 10
62.5
 20
40.22487373415271
 30
0.0
 11
63.5
 21
41.2248737341527
 31
0.0
  0
LINE
  5
8243
330
1E
100
AcDbEntity
  8
10
100
AcDbLine
 10
62.5
 20
39.87132034355939
 30
0.0
 11
63.5
 21
40.87132034355943
 31
0.0
  0
LINE
  5
8244
330
1E
100
AcDbEntity
  8
10
100
AcDbLine
 10
62.5
 20
39.51776695296617
 30
0.0
 11
63.5
 21
40.51776695296621
 31
0.0
  0
LINE
  5
8245
330
1E
100
AcDbEntity
  8
10
100
AcDbLine
 10
62.5
 20
39.16421356237297
 30
0.0
 11
63.5
 21
40.16421356237299
 31
0.0
  0
LINE
  5
8246
330
1E
100
AcDbEntity
  8
10
100
AcDbLine
 10
62.5
 20
38.81066017177966
 30
0.0
 11
63.5
 21
39.81066017177969
 31
0.0
  0
LINE
  5
8247
330
1E
100
AcDbEntity
  8
10
100
AcDbLine
 10
62.5
 20
38.45710678118644
 30
0.0
 11
63.5
 21
39.45710678118647
 31
0.0
  0
LINE
  5
8248
330
1E
100
AcDbEntity
  8
10
100
AcDbLine
 10
62.5
 20
38.10355339059315
 30
0.0
 11
63.5
 21
39.10355339059309
 31
0.0
  0
LINE
  5
8249
330
1E
100
AcDbEntity
  8
10
100
AcDbLine
 10
62.5
 20
37.39644660940671
 30
0.0
 11
63.5
 21
38.39644660940671
 31
0.0
  0
LINE
  5
824A
330
1E
100
AcDbEntity
  8
10
100
AcDbLine
 10
62.5
 20
37.75
 30
0.0
 11
63.5
 21
38.74999999999993
 31
0.0
  0
LINE
  5
824B
330
1E
100
AcDbEntity
  8
10
100
AcDbLine
 10
62.5
 20
37.04289321881343
 30
0.0
 11
63.5
 21
38.04289321881345
 31
0.0
  0
LINE
  5
824C
330
1E
100
AcDbEntity
  8
10
100
AcDbLine
 10
62.5
 20
36.68933982822021
 30
0.0
 11
63.5
 21
37.68933982822022
 31
0.0
  0
LINE
  5
824D
330
1E
100
AcDbEntity
  8
10
100
AcDbLine
 10
62.5
 20
36.335786437627
 30
0.0
 11
63.5
 21
37.335786437627
 31
0.0
  0
LINE
  5
824E
330
1E
100
AcDbEntity
  8
10
100
AcDbLine
 10
62.5
 20
35.9822330470337
 30
0.0
 11
63.5
 21
36.98223304703372
 31
0.0
  0
LINE
  5
824F
330
1E
100
AcDbEntity
  8
10
100
AcDbLine
 10
62.5
 20
40.93198051533926
 30
0.0
 11
63.31801948466065
 21
41.74999999999999
 31
0.0
  0
LINE
  5
8250
330
1E
100
AcDbEntity
  8
10
100
AcDbLine
 10
62.5
 20
41.28553390593242
 30
0.0
 11
62.96446609406763
 21
41.74999999999999
 31
0.0
  0
LINE
  5
8251
330
1E
100
AcDbEntity
  8
10
100
AcDbLine
 10
62.5
 20
41.6390872965257
 30
0.0
 11
62.61091270347435
 21
41.74999999999999
 31
0.0
  0
LINE
  5
8252
330
1E
100
AcDbEntity
  8
10
100
AcDbLine
 10
21.25
 20
65.99999999999988
 30
0.0
 11
21.25
 21
77.49999999999992
 31
0.0
  0
LINE
  5
8253
330
1E
100
AcDbEntity
  8
10
100
AcDbLine
 10
38.75
 20
65.99999999999988
 30
0.0
 11
38.75
 21
77.49999999999992
 31
0.0
  0
LINE
  5
8254
330
1E
100
AcDbEntity
  8
17
100
AcDbLine
 10
23.00000000000006
 20
66.99999999999993
 30
0.0
 11
37.00000000000002
 21
66.99999999999993
 31
0.0
  0
LINE
  5
8255
330
1E
100
AcDbEntity
  8
10
100
AcDbLine
 10
33.75
 20
60.99999999999988
 30
0.0
 11
26.25
 21
60.99999999999988
 31
0.0
  0
CIRCLE
  5
8256
330
1E
100
AcDbEntity
  8
24
100
AcDbCircle
 10
30.0
 20
66.99999999999993
 30
0.0
 40
5.0
  0
LINE
  5
8257
330
1E
100
AcDbEntity
  8
12
100
AcDbLine
 10
15.0
 20
71.50000000000024
 30
0.0
 11
15.0
 21
60.50000000000022
 31
0.0
  0
ARC
  5
8258
330
1E
100
AcDbEntity
  8
10
100
AcDbCircle
 10
26.25
 20
65.99999999999988
 30
0.0
 40
5.0
100
AcDbArc
 50
180.0
 51
270.0
  0
LINE
  5
8259
330
1E
100
AcDbEntity
  8
17
100
AcDbLine
 10
30.0
 20
73.99999999999995
 30
0.0
 11
30.0
 21
59.99999999999993
 31
0.0
  0
ARC
  5
825A
330
1E
100
AcDbEntity
  8
10
100
AcDbCircle
 10
33.75
 20
65.99999999999988
 30
0.0
 40
5.0
100
AcDbArc
 50
270.0
 51
0.0
  0
LINE
  5
825B
330
1E
100
AcDbEntity
  8
10
100
AcDbLine
 10
51.25
 20
65.99999999999988
 30
0.0
 11
51.25
 21
77.49999999999992
 31
0.0
  0
ARC
  5
825C
330
1E
100
AcDbEntity
  8
10
100
AcDbCircle
 10
56.25
 20
65.99999999999988
 30
0.0
 40
5.0
100
AcDbArc
 50
180.0
 51
270.0
  0
LINE
  5
825D
330
1E
100
AcDbEntity
  8
17
100
AcDbLine
 10
60.0
 20
73.99999999999995
 30
0.0
 11
60.0
 21
59.99999999999993
 31
0.0
  0
CIRCLE
  5
825E
330
1E
100
AcDbEntity
  8
24
100
AcDbCircle
 10
60.0
 20
66.99999999999993
 30
0.0
 40
5.0
  0
LINE
  5
825F
330
1E
100
AcDbEntity
  8
10
100
AcDbLine
 10
63.75
 20
60.99999999999988
 30
0.0
 11
56.25
 21
60.99999999999988
 31
0.0
  0
LINE
  5
8260
330
1E
100
AcDbEntity
  8
10
100
AcDbLine
 10
75.0
 20
-77.5
 30
0.0
 11
75.0
 21
77.49999999999992
 31
0.0
  0
LINE
  5
8262
330
1E
100
AcDbEntity
  8
10
100
AcDbLine
 10
68.75
 20
-66.00000000000003
 30
0.0
 11
68.75
 21
-77.5
 31
0.0
  0
LINE
  5
8263
330
1E
100
AcDbEntity
  8
10
100
AcDbLine
 10
68.75
 20
65.99999999999988
 30
0.0
 11
68.75
 21
77.49999999999992
 31
0.0
  0
LINE
  5
8349
330
1E
100
AcDbEntity
  8
21
100
AcDbLine
 10
2.499999999999772
 20
269.3811670622456
 30
0.0
 11
2.499999999999772
 21
304.8811670622456
 31
0.0
  0
LINE
  5
834B
330
1E
100
AcDbEntity
  8
21
100
AcDbLine
 10
62.49999999999977
 20
269.3811670622456
 30
0.0
 11
62.49999999999977
 21
304.8811670622456
 31
0.0
  0
LINE
  5
834C
330
1E
100
AcDbEntity
  8
21
100
AcDbLine
 10
57.49999999999977
 20
269.3811670622456
 30
0.0
 11
57.49999999999977
 21
304.8811670622456
 31
0.0
  0
LINE
  5
834D
330
1E
100
AcDbEntity
  8
0
100
AcDbLine
 10
59.99999999999977
 20
197.8811670622456
 30
0.0
 11
59.99999999999977
 21
309.8811670622457
 31
0.0
  0
LINE
  5
834E
330
1E
100
AcDbEntity
  8
21
100
AcDbLine
 10
-2.500000000000226
 20
269.3811670622456
 30
0.0
 11
-2.500000000000226
 21
304.8811670622456
 31
0.0
  0
LINE
  5
8352
330
1E
100
AcDbEntity
  8
21
100
AcDbLine
 10
6.249999999999772
 20
289.8811670622457
 30
0.0
 11
-6.250000000000227
 21
289.8811670622457
 31
0.0
  0
LINE
  5
8355
330
1E
100
AcDbEntity
  8
21
100
AcDbLine
 10
2.499999999999772
 20
304.8811670622456
 30
0.0
 11
-2.500000000000226
 21
304.8811670622456
 31
0.0
  0
LINE
  5
8356
330
1E
100
AcDbEntity
  8
21
100
AcDbLine
 10
2.499999999999772
 20
304.8811670622456
 30
0.0
 11
-2.500000000000226
 21
304.8811670622456
 31
0.0
  0
LINE
  5
8357
330
1E
100
AcDbEntity
  8
21
100
AcDbLine
 10
2.499999999999772
 20
274.8811670622456
 30
0.0
 11
-2.500000000000226
 21
274.8811670622456
 31
0.0
  0
LINE
  5
8358
330
1E
100
AcDbEntity
  8
21
100
AcDbLine
 10
62.49999999999977
 20
304.8811670622456
 30
0.0
 11
57.49999999999977
 21
304.8811670622456
 31
0.0
  0
LINE
  5
8359
330
1E
100
AcDbEntity
  8
21
100
AcDbLine
 10
62.49999999999977
 20
304.8811670622456
 30
0.0
 11
57.49999999999977
 21
304.8811670622456
 31
0.0
  0
LINE
  5
835A
330
1E
100
AcDbEntity
  8
21
100
AcDbLine
 10
62.49999999999977
 20
274.8811670622456
 30
0.0
 11
57.49999999999977
 21
274.8811670622456
 31
0.0
  0
LINE
  5
835B
330
1E
100
AcDbEntity
  8
21
100
AcDbLine
 10
66.24999999999977
 20
289.8811670622457
 30
0.0
 11
53.74999999999977
 21
289.8811670622457
 31
0.0
  0
LINE
  5
835C
330
1E
100
AcDbEntity
  8
21
100
AcDbLine
 10
7.124999999999772
 20
269.3811670622456
 30
0.0
 11
-7.125000000000227
 21
269.3811670622456
 31
0.0
  0
LINE
  5
835D
330
1E
100
AcDbEntity
  8
10
100
AcDbLine
 10
75.0
 20
141.8811670622458
 30
0.0
 11
-45.0
 21
141.8811670622458
 31
0.0
  0
LINE
  5
835E
330
1E
100
AcDbEntity
  8
10
100
AcDbLine
 10
41.99999999999953
 20
130.8811670622457
 30
0.0
 11
-41.99999999999977
 21
130.8811670622457
 31
0.0
  0
LINE
  5
835F
330
1E
100
AcDbEntity
  8
0
100
AcDbLine
 10
75.0
 20
202.8811670622456
 30
0.0
 11
-45.0
 21
202.8811670622456
 31
0.0
  0
LINE
  5
8360
330
1E
100
AcDbEntity
  8
10
100
AcDbLine
 10
10.99999999999976
 20
126.8811670622457
 30
0.0
 11
-10.99999999999976
 21
126.8811670622457
 31
0.0
  0
LINE
  5
8361
330
1E
100
AcDbEntity
  8
10
100
AcDbLine
 10
75.0
 20
134.8811670622455
 30
0.0
 11
-45.0
 21
134.8811670622455
 31
0.0
  0
LINE
  5
8362
330
1E
100
AcDbEntity
  8
10
100
AcDbLine
 10
7.0
 20
114.8859132626504
 30
0.0
 11
-7.0
 21
114.8859132626504
 31
0.0
  0
LINE
  5
8366
330
1E
100
AcDbEntity
  8
10
100
AcDbLine
 10
-15.0
 20
130.8811670622457
 30
0.0
 11
-15.0
 21
202.8811670622456
 31
0.0
  0
LINE
  5
8367
330
1E
100
AcDbEntity
  8
10
100
AcDbLine
 10
-45.0
 20
134.8811670622455
 30
0.0
 11
-45.0
 21
202.8811670622456
 31
0.0
  0
LINE
  5
8368
330
1E
100
AcDbEntity
  8
21
100
AcDbLine
 10
-7.125000000000227
 20
202.8811670622456
 30
0.0
 11
-7.125000000000227
 21
269.3811670622456
 31
0.0
  0
LINE
  5
8369
330
1E
100
AcDbEntity
  8
21
100
AcDbLine
 10
-27.50000000000023
 20
219.3811670622456
 30
0.0
 11
-27.50000000000023
 21
254.8811670622456
 31
0.0
  0
LINE
  5
836A
330
1E
100
AcDbEntity
  8
21
100
AcDbLine
 10
-32.50000000000023
 20
219.3811670622456
 30
0.0
 11
-32.50000000000023
 21
254.8811670622456
 31
0.0
  0
LINE
  5
836B
330
1E
100
AcDbEntity
  8
21
100
AcDbLine
 10
-30.00000000000023
 20
197.8811670622456
 30
0.0
 11
-30.00000000000023
 21
259.8811670622456
 31
0.0
  0
LINE
  5
836C
330
1E
100
AcDbEntity
  8
21
100
AcDbLine
 10
-27.50000000000023
 20
254.8811670622456
 30
0.0
 11
-32.50000000000023
 21
254.8811670622456
 31
0.0
  0
LINE
  5
836D
330
1E
100
AcDbEntity
  8
21
100
AcDbLine
 10
-23.75000000000022
 20
239.8811670622456
 30
0.0
 11
-36.25000000000023
 21
239.8811670622456
 31
0.0
  0
LINE
  5
836E
330
1E
100
AcDbEntity
  8
21
100
AcDbLine
 10
-37.12500000000023
 20
202.8811670622456
 30
0.0
 11
-37.12500000000023
 21
219.3811670622456
 31
0.0
  0
LINE
  5
836F
330
1E
100
AcDbEntity
  8
21
100
AcDbLine
 10
-22.87500000000022
 20
202.8811670622456
 30
0.0
 11
-22.87500000000022
 21
219.3811670622456
 31
0.0
  0
LINE
  5
8370
330
1E
100
AcDbEntity
  8
21
100
AcDbLine
 10
-22.87500000000022
 20
219.3811670622456
 30
0.0
 11
-37.12500000000023
 21
219.3811670622456
 31
0.0
  0
LINE
  5
8371
330
1E
100
AcDbEntity
  8
21
100
AcDbLine
 10
-27.50000000000023
 20
224.8811670622457
 30
0.0
 11
-32.50000000000023
 21
224.8811670622457
 31
0.0
  0
LINE
  5
8372
330
1E
100
AcDbEntity
  8
12
100
AcDbLine
 10
-13.0
 20
210.8811670622456
 30
0.0
 11
-17.0
 21
210.8811670622456
 31
0.0
  0
LINE
  5
8373
330
1E
100
AcDbEntity
  8
12
100
AcDbLine
 10
-17.0
 20
202.8811670622456
 30
0.0
 11
-17.0
 21
210.8811670622456
 31
0.0
  0
LINE
  5
8374
330
1E
100
AcDbEntity
  8
12
100
AcDbLine
 10
-13.0
 20
202.8811670622456
 30
0.0
 11
-13.0
 21
210.8811670622456
 31
0.0
  0
LINE
  5
8375
330
1E
100
AcDbEntity
  8
10
100
AcDbLine
 10
-42.00000000000009
 20
130.8811670622457
 30
0.0
 11
-42.00000000000009
 21
134.8811670622455
 31
0.0
  0
LINE
  5
8376
330
1E
100
AcDbEntity
  8
10
100
AcDbLine
 10
-11.00000000000022
 20
126.8811670622457
 30
0.0
 11
-11.00000000000022
 21
130.8811670622457
 31
0.0
  0
LINE
  5
8377
330
1E
100
AcDbEntity
  8
10
100
AcDbLine
 10
-7.0
 20
126.8811670622457
 30
0.0
 11
-7.0
 21
114.8859132626503
 31
0.0
  0
LINE
  5
837A
330
1E
100
AcDbEntity
  8
10
100
AcDbLine
 10
45.0
 20
202.8811670622456
 30
0.0
 11
45.0
 21
134.8811670622455
 31
0.0
  0
LINE
  5
837B
330
1E
100
AcDbEntity
  8
10
100
AcDbLine
 10
75.0
 20
202.8811670622456
 30
0.0
 11
75.0
 21
134.8811670622455
 31
0.0
  0
LINE
  5
837C
330
1E
100
AcDbEntity
  8
21
100
AcDbLine
 10
67.12499999999977
 20
269.3811670622456
 30
0.0
 11
52.87499999999977
 21
269.3811670622456
 31
0.0
  0
LINE
  5
837D
330
1E
100
AcDbEntity
  8
21
100
AcDbLine
 10
7.124999999999772
 20
202.8811670622456
 30
0.0
 11
7.124999999999772
 21
269.3811670622456
 31
0.0
  0
LINE
  5
837E
330
1E
100
AcDbEntity
  8
21
100
AcDbLine
 10
52.87499999999977
 20
202.8811670622456
 30
0.0
 11
52.87499999999977
 21
269.3811670622456
 31
0.0
  0
LINE
  5
837F
330
1E
100
AcDbEntity
  8
21
100
AcDbLine
 10
32.49999999999977
 20
219.3811670622456
 30
0.0
 11
32.49999999999977
 21
254.8811670622456
 31
0.0
  0
LINE
  5
8380
330
1E
100
AcDbEntity
  8
21
100
AcDbLine
 10
27.49999999999977
 20
219.3811670622456
 30
0.0
 11
27.49999999999977
 21
254.8811670622456
 31
0.0
  0
LINE
  5
8381
330
1E
100
AcDbEntity
  8
21
100
AcDbLine
 10
29.99999999999977
 20
197.8811670622456
 30
0.0
 11
29.99999999999977
 21
259.8811670622456
 31
0.0
  0
LINE
  5
8382
330
1E
100
AcDbEntity
  8
21
100
AcDbLine
 10
32.49999999999977
 20
254.8811670622456
 30
0.0
 11
27.49999999999977
 21
254.8811670622456
 31
0.0
  0
LINE
  5
8383
330
1E
100
AcDbEntity
  8
21
100
AcDbLine
 10
36.24999999999977
 20
239.8811670622456
 30
0.0
 11
23.74999999999977
 21
239.8811670622456
 31
0.0
  0
LINE
  5
8384
330
1E
100
AcDbEntity
  8
21
100
AcDbLine
 10
37.12499999999977
 20
219.3811670622456
 30
0.0
 11
22.87499999999977
 21
219.3811670622456
 31
0.0
  0
LINE
  5
8385
330
1E
100
AcDbEntity
  8
21
100
AcDbLine
 10
32.49999999999977
 20
224.8811670622457
 30
0.0
 11
27.49999999999977
 21
224.8811670622457
 31
0.0
  0
LINE
  5
8386
330
1E
100
AcDbEntity
  8
21
100
AcDbLine
 10
22.87499999999977
 20
202.8811670622456
 30
0.0
 11
22.87499999999977
 21
219.3811670622456
 31
0.0
  0
LINE
  5
8387
330
1E
100
AcDbEntity
  8
12
100
AcDbLine
 10
13.0
 20
210.8811670622456
 30
0.0
 11
17.0
 21
210.8811670622456
 31
0.0
  0
LINE
  5
8388
330
1E
100
AcDbEntity
  8
12
100
AcDbLine
 10
17.0
 20
202.8811670622456
 30
0.0
 11
17.0
 21
210.8811670622456
 31
0.0
  0
LINE
  5
8389
330
1E
100
AcDbEntity
  8
12
100
AcDbLine
 10
13.0
 20
202.8811670622456
 30
0.0
 11
13.0
 21
210.8811670622456
 31
0.0
  0
LINE
  5
838A
330
1E
100
AcDbEntity
  8
21
100
AcDbLine
 10
37.12499999999977
 20
202.8811670622456
 30
0.0
 11
37.12499999999977
 21
219.3811670622456
 31
0.0
  0
LINE
  5
838B
330
1E
100
AcDbEntity
  8
21
100
AcDbLine
 10
67.12499999999977
 20
202.8811670622456
 30
0.0
 11
67.12499999999977
 21
269.3811670622456
 31
0.0
  0
LINE
  5
838C
330
1E
100
AcDbEntity
  8
0
100
AcDbLine
 10
94.49999999999954
 20
202.8811670622456
 30
0.0
 11
75.0
 21
202.8811670622456
 31
0.0
  0
LINE
  5
838D
330
1E
100
AcDbEntity
  8
10
100
AcDbLine
 10
7.0
 20
126.8811670622457
 30
0.0
 11
7.0
 21
114.8859132626503
 31
0.0
  0
LINE
  5
838E
330
1E
100
AcDbEntity
  8
10
100
AcDbLine
 10
10.99999999999976
 20
126.8811670622457
 30
0.0
 11
10.99999999999976
 21
130.8811670622457
 31
0.0
  0
LINE
  5
838F
330
1E
100
AcDbEntity
  8
10
100
AcDbLine
 10
42.0
 20
130.8811670622457
 30
0.0
 11
42.0
 21
134.8811670622455
 31
0.0
  0
LINE
  5
8391
330
1E
100
AcDbEntity
  8
18
100
AcDbLine
 10
94.49999999999954
 20
206.0811670622456
 30
0.0
 11
-64.50000000000009
 21
206.0811670622456
 31
0.0
  0
LINE
  5
8392
330
1E
100
AcDbEntity
  8
18
100
AcDbLine
 10
-45.0
 20
202.8811670622456
 30
0.0
 11
-64.5
 21
202.8811670622456
 31
0.0
  0
DIMENSION
  5
8393
330
1E
100
AcDbEntity
  8
30
100
AcDbDimension
  2
*D3
 10
119.0867224927879
 20
202.8811670622456
 30
0.0
 11
116.0867224927879
 21
206.8811670622456
 31
0.0
 70
    32
 71
     5
 42
-1.0
  3
STANDARD
100
AcDbAlignedDimension
 13
17.00000000000011
 23
210.8811670622456
 33
0.0
 14
94.49999999999954
 24
202.8811670622456
 34
0.0
 50
90.0
100
AcDbRotatedDimension
1001
ACAD
1000
DSTYLE
1002
{
1070
   340
1005
11
1002
}
  0
LINE
  5
85CB
330
1E
100
AcDbEntity
  8
0
100
AcDbLine
 10
238.5415450433535
 20
-59.875
 30
0.0
 11
238.5415450433535
 21
-74.12500000000003
 31
0.0
  0
LINE
  5
85CC
330
1E
100
AcDbEntity
  8
10
100
AcDbLine
 10
222.0415450433534
 20
77.5000000000001
 30
0.0
 11
222.0415450433534
 21
-77.5
 31
0.0
  0
LINE
  5
85CD
330
1E
100
AcDbEntity
  8
10
100
AcDbLine
 10
161.0415450433536
 20
-51.00000000000003
 30
0.0
 11
161.0415450433536
 21
-77.5
 31
0.0
  0
LINE
  5
85CE
330
1E
100
AcDbEntity
  8
18
100
AcDbLine
 10
225.2415450433536
 20
96.99999999999995
 30
0.0
 11
225.2415450433536
 21
-97.0
 31
0.0
  0
LINE
  5
85CF
330
1E
100
AcDbEntity
  8
0
100
AcDbLine
 10
288.5415450433536
 20
-59.875
 30
0.0
 11
288.5415450433536
 21
-74.12500000000003
 31
0.0
  0
LINE
  5
85D0
330
1E
100
AcDbEntity
  8
17
100
AcDbLine
 10
259.0415450433535
 20
-54.00000000000003
 30
0.0
 11
259.0415450433535
 21
-80.0
 31
0.0
  0
LINE
  5
85D1
330
1E
100
AcDbEntity
  8
17
100
AcDbLine
 10
309.0415450433535
 20
-54.00000000000003
 30
0.0
 11
309.0415450433535
 21
-80.0
 31
0.0
  0
ARC
  5
85D2
330
1E
100
AcDbEntity
  8
0
100
AcDbCircle
 10
258.0415450433535
 20
-67.0
 30
0.0
 40
16.0
100
AcDbArc
 50
329.999999999999
 51
30.00000000000099
  0
ARC
  5
85D3
330
1E
100
AcDbEntity
  8
0
100
AcDbCircle
 10
308.0415450433536
 20
-67.0
 30
0.0
 40
16.0
100
AcDbArc
 50
329.999999999999
 51
30.00000000000099
  0
ARC
  5
85D4
330
1E
100
AcDbEntity
  8
0
100
AcDbCircle
 10
-262.9558253627314
 20
-69.00000000000003
 30
0.0
 40
20.0
210
0.0
220
0.0
230
-1.0
100
AcDbArc
 50
18.96557498884839
 51
30.00000000000099
  0
ARC
  5
85D5
330
1E
100
AcDbEntity
  8
0
100
AcDbCircle
 10
-312.9558253627314
 20
-69.00000000000003
 30
0.0
 40
20.0
210
0.0
220
0.0
230
-1.0
100
AcDbArc
 50
18.96557498884839
 51
30.00000000000099
  0
DIMENSION
  5
85D6
330
1E
100
AcDbEntity
  8
30
100
AcDbDimension
  2
*D5
 10
348.1282675361418
 20
-59.00000000000003
 30
0.0
 11
345.1282675361418
 21
-66.99999999999995
 31
0.0
 70
    32
 71
     5
 42
-1.0
  3
STANDARD
100
AcDbAlignedDimension
 13
321.8979515039046
 23
-75.0
 33
0.0
 14
321.8979515039046
 24
-59.00000000000003
 34
0.0
 50
270.0
100
AcDbRotatedDimension
  0
DIMENSION
  5
85D8
330
1E
100
AcDbEntity
  8
30
100
AcDbDimension
  2
*D6
 10
259.0415450433535
 20
-34.90049159931984
 30
0.0
 11
251.5415450433535
 21
-31.90049159931986
 31
0.0
 70
    32
 71
     5
 42
-1.0
  3
STANDARD
100
AcDbAlignedDimension
 13
244.0415450433536
 23
-59.99999998350003
 33
0.0
 14
259.0415450433535
 24
-64.49999998350003
 34
0.0
100
AcDbRotatedDimension
  0
DIMENSION
  5
85D9
330
1E
100
AcDbEntity
  8
30
100
AcDbDimension
  2
*D7
 10
222.0415450433535
 20
-121.1323124432112
 30
0.0
 11
188.0415450433535
 21
-118.1323124432112
 31
0.0
 70
    32
 71
     5
 42
-1.0
  3
STANDARD
100
AcDbAlignedDimension
 13
154.0415450433536
 23
-51.00000000000003
 33
0.0
 14
222.0415450433535
 24
-77.5
 34
0.0
 50
180.0
100
AcDbRotatedDimension
  0
DIMENSION
  5
85DA
330
1E
100
AcDbEntity
  8
30
100
AcDbDimension
  2
*D8
 10
222.0415450433535
 20
-142.3823124432113
 30
0.0
 11
186.0415450433535
 21
-139.3823124432112
 31
0.0
 70
    32
 71
     5
 42
-1.0
  3
STANDARD
100
AcDbAlignedDimension
 13
150.0415450433536
 23
-25.00000000000003
 33
0.0
 14
222.0415450433535
 24
-77.5
 34
0.0
 50
180.0
100
AcDbRotatedDimension
  0
DIMENSION
  5
85DB
330
1E
100
AcDbEntity
  8
30
100
AcDbDimension
  2
*D9
 10
150.0415450433536
 20
-142.3823124432113
 30
0.0
 11
156.3748783766868
 21
-139.3823124432112
 31
0.0
 70
    32
 71
     5
 42
-1.0
  3
STANDARD
100
AcDbAlignedDimension
 13
146.0415450433536
 23
-25.00000000000003
 33
0.0
 14
150.0415450433536
 24
-25.00000000000003
 34
0.0
 50
180.0
100
AcDbRotatedDimension
  0
LINE
  5
85DC
330
1E
100
AcDbEntity
  8
0
100
AcDbLine
 10
217.0415450433535
 20
-67.0
 30
0.0
 11
334.0415450433535
 21
-67.0
 31
0.0
  0
ARC
  5
85DD
330
1E
100
AcDbEntity
  8
0
100
AcDbCircle
 10
262.9558253627314
 20
-65.0
 30
0.0
 40
20.0
100
AcDbArc
 50
198.9655749888484
 51
210.0000000000008
  0
DIMENSION
  5
85DE
330
1E
100
AcDbEntity
  8
30
100
AcDbDimension
  2
*D10
 10
274.0415450433535
 20
-101.1323124432112
 30
0.0
 11
248.0415450433536
 21
-98.1323124432113
 31
0.0
 70
    32
 71
     5
 42
-1.0
  3
STANDARD
100
AcDbAlignedDimension
 13
222.0415450433535
 23
-97.00000000000002
 33
0.0
 14
274.0415450433535
 24
-67.0
 34
0.0
 50
180.0
100
AcDbRotatedDimension
  0
DIMENSION
  5
85DF
330
1E
100
AcDbEntity
  8
30
100
AcDbDimension
  2
*D11
 10
324.0415450433536
 20
-121.1323124432112
 30
0.0
 11
273.0415450433535
 21
-118.1323124432112
 31
0.0
 70
    32
 71
     5
 42
-1.0
  3
STANDARD
100
AcDbAlignedDimension
 13
222.0415450433535
 23
-97.00000000000002
 33
0.0
 14
324.0415450433536
 24
-67.0
 34
0.0
 50
180.0
100
AcDbRotatedDimension
  0
LINE
  5
85E1
330
1E
100
AcDbEntity
  8
10
100
AcDbLine
 10
161.0415450433536
 20
-77.5
 30
0.0
 11
222.0415450433534
 21
-77.5
 31
0.0
  0
DIMENSION
  5
85E2
330
1E
100
AcDbEntity
  8
30
100
AcDbDimension
  2
*D12
 10
222.0415450433535
 20
-101.1323124432112
 30
0.0
 11
191.5415450433535
 21
-98.1323124432113
 31
0.0
 70
    32
 71
     5
 42
-1.0
  3
STANDARD
100
AcDbAlignedDimension
 13
161.0415450433536
 23
-77.5
 33
0.0
 14
222.0415450433535
 24
-77.5
 34
0.0
 50
180.0
100
AcDbRotatedDimension
  0
LINE
  5
85E4
330
1E
100
AcDbEntity
  8
0
100
AcDbLine
 10
222.0415450433534
 20
-77.5
 30
0.0
 11
222.0415450433534
 21
-97.00000000000002
 31
0.0
  0
LINE
  5
85E5
330
1E
100
AcDbEntity
  8
0
100
AcDbLine
 10
222.0415450433534
 20
-74.12500000000003
 30
0.0
 11
245.1587926044314
 21
-74.12500000000003
 31
0.0
  0
LINE
  5
85E6
330
1E
100
AcDbEntity
  8
0
100
AcDbLine
 10
238.5415450433535
 20
-71.50000000000003
 30
0.0
 11
244.0415450433536
 21
-71.50000000000003
 31
0.0
  0
LINE
  5
85E7
330
1E
100
AcDbEntity
  8
0
100
AcDbLine
 10
238.5415450433535
 20
-62.5
 30
0.0
 11
244.0415450433536
 21
-62.5
 31
0.0
  0
LINE
  5
85E8
330
1E
100
AcDbEntity
  8
0
100
AcDbLine
 10
295.6353172870425
 20
-75.0
 30
0.0
 11
321.8979515039046
 21
-75.0
 31
0.0
  0
DIMENSION
  5
85E9
330
1E
100
AcDbEntity
  8
30
100
AcDbDimension
  2
*D13
 10
274.0415450433535
 20
-91.35521683906722
 30
0.0
 11
266.5415450433535
 21
-88.35521683906723
 31
0.0
 70
    32
 71
     5
 42
-1.0
  3
STANDARD
100
AcDbAlignedDimension
 13
259.0415450433535
 23
-69.50000001650002
 33
0.0
 14
274.0415450433535
 24
-76.28708784337162
 34
0.0
 50
180.0
100
AcDbRotatedDimension
  0
LINE
  5
85EA
330
1E
100
AcDbEntity
  8
0
100
AcDbLine
 10
245.6353172870425
 20
-75.0
 30
0.0
 11
271.8979515039046
 21
-75.0
 31
0.0
  0
CIRCLE
  5
85EB
330
1E
100
AcDbEntity
  8
24
100
AcDbCircle
 10
259.0415450433535
 20
-67.0
 30
0.0
 40
4.25
  0
LINE
  5
85EC
330
1E
100
AcDbEntity
  8
0
100
AcDbLine
 10
272.3675484986094
 20
-74.12500000000003
 30
0.0
 11
288.5415450433536
 21
-74.12500000000003
 31
0.0
  0
LINE
  5
85ED
330
1E
100
AcDbEntity
  8
0
100
AcDbLine
 10
288.5415450433536
 20
-71.50000000000003
 30
0.0
 11
294.0415450433535
 21
-71.50000000000003
 31
0.0
  0
ARC
  5
85EE
330
1E
100
AcDbEntity
  8
0
100
AcDbCircle
 10
312.9558253627314
 20
-65.0
 30
0.0
 40
20.0
100
AcDbArc
 50
198.9655749888484
 51
210.0000000000008
  0
LINE
  5
85EF
330
1E
100
AcDbEntity
  8
0
100
AcDbLine
 10
288.5415450433536
 20
-62.5
 30
0.0
 11
294.0415450433535
 21
-62.5
 31
0.0
  0
DIMENSION
  5
85F0
330
1E
100
AcDbEntity
  8
30
100
AcDbDimension
  2
*D14
 10
324.0415450433536
 20
-81.13231244321132
 30
0.0
 11
316.5415450433536
 21
-78.1323124432113
 31
0.0
 70
    32
 71
     5
 42
-1.0
  3
STANDARD
100
AcDbAlignedDimension
 13
309.0415450433535
 23
-69.50000001650002
 33
0.0
 14
324.0415450433536
 24
-76.28708784337162
 34
0.0
 50
180.0
100
AcDbRotatedDimension
  0
CIRCLE
  5
85F1
330
1E
100
AcDbEntity
  8
24
100
AcDbCircle
 10
309.0415450433535
 20
-67.0
 30
0.0
 40
4.25
  0
LINE
  5
85F2
330
1E
100
AcDbEntity
  8
0
100
AcDbLine
 10
222.0415450433534
 20
74.12499999999987
 30
0.0
 11
288.5415450433536
 21
74.12499999999987
 31
0.0
  0
LINE
  5
85F3
330
1E
100
AcDbEntity
  8
0
100
AcDbLine
 10
222.0415450433534
 20
59.87499999999993
 30
0.0
 11
288.5415450433536
 21
59.87499999999993
 31
0.0
  0
LINE
  5
85F4
330
1E
100
AcDbEntity
  8
0
100
AcDbLine
 10
217.0415450433535
 20
66.99999999999993
 30
0.0
 11
334.0415450433535
 21
66.99999999999993
 31
0.0
  0
LINE
  5
85F5
330
1E
100
AcDbEntity
  8
0
100
AcDbLine
 10
238.5415450433535
 20
69.49999999999993
 30
0.0
 11
274.0415450433535
 21
69.49999999999993
 31
0.0
  0
LINE
  5
85F6
330
1E
100
AcDbEntity
  8
0
100
AcDbLine
 10
238.5415450433535
 20
64.49999999999993
 30
0.0
 11
274.0415450433535
 21
64.49999999999993
 31
0.0
  0
LINE
  5
85F9
330
1E
100
AcDbEntity
  8
18
100
AcDbLine
 10
222.0415450433534
 20
96.99999999999995
 30
0.0
 11
222.0415450433534
 21
77.5000000000001
 31
0.0
  0
LINE
  5
85FB
330
1E
100
AcDbEntity
  8
10
100
AcDbLine
 10
146.0415450433536
 20
6.840789306861211
 30
0.0
 11
134.0462912437581
 21
15.23995644007658
 31
0.0
  0
LINE
  5
85FC
330
1E
100
AcDbEntity
  8
10
100
AcDbLine
 10
146.0415450433536
 20
14.16543683943
 30
0.0
 11
137.4877498618644
 21
20.1548687058106
 31
0.0
  0
LINE
  5
85FF
330
1E
100
AcDbEntity
  8
10
100
AcDbLine
 10
134.0462912437581
 20
15.23995644007658
 30
0.0
 11
137.4877498618644
 21
20.1548687058106
 31
0.0
  0
ARC
  5
8602
330
1E
100
AcDbEntity
  8
0
100
AcDbCircle
 10
161.0415450433536
 20
0.0
 30
0.0
 40
31.0
100
AcDbArc
 50
150.5534441956586
 51
180.0
  0
LINE
  5
8603
330
1E
100
AcDbEntity
  8
10
100
AcDbLine
 10
154.0415450433536
 20
50.99999999999988
 30
0.0
 11
154.0415450433536
 21
-51.00000000000003
 31
0.0
  0
LINE
  5
8604
330
1E
100
AcDbEntity
  8
10
100
AcDbLine
 10
150.0415450433536
 20
24.99999999999995
 30
0.0
 11
150.0415450433536
 21
-25.0
 31
0.0
  0
LINE
  5
8605
330
1E
100
AcDbEntity
  8
10
100
AcDbLine
 10
146.0415450433536
 20
24.99999999999995
 30
0.0
 11
146.0415450433536
 21
-25.0
 31
0.0
  0
LINE
  5
8606
330
1E
100
AcDbEntity
  8
10
100
AcDbLine
 10
154.0415450433536
 20
-51.00000000000003
 30
0.0
 11
161.0415450433536
 21
-51.00000000000003
 31
0.0
  0
LINE
  5
8607
330
1E
100
AcDbEntity
  8
10
100
AcDbLine
 10
146.0415450433536
 20
-25.0
 30
0.0
 11
154.0415450433536
 21
-25.0
 31
0.0
  0
LINE
  5
8608
330
1E
100
AcDbEntity
  8
0
100
AcDbLine
 10
222.0415450433534
 20
-59.875
 30
0.0
 11
245.1587926044314
 21
-59.875
 31
0.0
  0
LINE
  5
8609
330
1E
100
AcDbEntity
  8
10
100
AcDbLine
 10
161.0415450433536
 20
77.5000000000001
 30
0.0
 11
222.0415450433534
 21
77.5000000000001
 31
0.0
  0
LINE
  5
860A
330
1E
100
AcDbEntity
  8
10
100
AcDbLine
 10
161.0415450433536
 20
77.5000000000001
 30
0.0
 11
161.0415450433536
 21
50.99999999999988
 31
0.0
  0
LINE
  5
860B
330
1E
100
AcDbEntity
  8
10
100
AcDbLine
 10
146.0415450433536
 20
24.99999999999995
 30
0.0
 11
154.0415450433536
 21
24.99999999999995
 31
0.0
  0
LINE
  5
860C
330
1E
100
AcDbEntity
  8
10
100
AcDbLine
 10
154.0415450433536
 20
50.99999999999988
 30
0.0
 11
161.0415450433536
 21
50.99999999999988
 31
0.0
  0
LINE
  5
860D
330
1E
100
AcDbEntity
  8
0
100
AcDbLine
 10
238.5415450433535
 20
74.12499999999987
 30
0.0
 11
238.5415450433535
 21
59.87499999999993
 31
0.0
  0
LINE
  5
860E
330
1E
100
AcDbEntity
  8
0
100
AcDbLine
 10
244.0415450433536
 20
69.49999999999993
 30
0.0
 11
244.0415450433536
 21
64.49999999999993
 31
0.0
  0
LINE
  5
860F
330
1E
100
AcDbEntity
  8
0
100
AcDbLine
 10
295.6353172870425
 20
-59.00000000000003
 30
0.0
 11
321.8979515039046
 21
-59.00000000000003
 31
0.0
  0
LINE
  5
8610
330
1E
100
AcDbEntity
  8
0
100
AcDbLine
 10
245.6353172870425
 20
-59.00000000000003
 30
0.0
 11
271.8979515039046
 21
-59.00000000000003
 31
0.0
  0
LINE
  5
8611
330
1E
100
AcDbEntity
  8
0
100
AcDbLine
 10
272.3675484986094
 20
-59.875
 30
0.0
 11
288.5415450433536
 21
-59.875
 31
0.0
  0
LINE
  5
8612
330
1E
100
AcDbEntity
  8
0
100
AcDbLine
 10
288.5415450433536
 20
64.49999999999993
 30
0.0
 11
324.0415450433536
 21
64.49999999999993
 31
0.0
  0
LINE
  5
8613
330
1E
100
AcDbEntity
  8
0
100
AcDbLine
 10
288.5415450433536
 20
69.49999999999993
 30
0.0
 11
324.0415450433536
 21
69.49999999999993
 31
0.0
  0
LINE
  5
8614
330
1E
100
AcDbEntity
  8
17
100
AcDbLine
 10
259.0415450433535
 20
73.24999999999993
 30
0.0
 11
259.0415450433535
 21
60.74999999999992
 31
0.0
  0
LINE
  5
8615
330
1E
100
AcDbEntity
  8
0
100
AcDbLine
 10
274.0415450433535
 20
69.49999999999993
 30
0.0
 11
274.0415450433535
 21
64.49999999999993
 31
0.0
  0
LINE
  5
8616
330
1E
100
AcDbEntity
  8
0
100
AcDbLine
 10
288.5415450433536
 20
74.12499999999987
 30
0.0
 11
288.5415450433536
 21
59.87499999999993
 31
0.0
  0
LINE
  5
8617
330
1E
100
AcDbEntity
  8
0
100
AcDbLine
 10
294.0415450433535
 20
69.49999999999993
 30
0.0
 11
294.0415450433535
 21
64.49999999999993
 31
0.0
  0
DIMENSION
  5
8618
330
1E
100
AcDbEntity
  8
30
100
AcDbDimension
  2
*D4
 10
348.0191311370207
 20
69.49999999999993
 30
0.0
 11
348.0191311370207
 21
75.83333333333333
 31
0.0
 70
   160
 71
     5
 42
-1.0
  3
STANDARD
100
AcDbAlignedDimension
 13
324.0415450433536
 23
64.49999999999993
 33
0.0
 14
324.0415450433536
 24
69.49999999999993
 34
0.0
 50
270.0
100
AcDbRotatedDimension
1001
ACAD
1000
DSTYLE
1002
{
1070
   172
1070
     1
1002
}
  0
LINE
  5
8619
330
1E
100
AcDbEntity
  8
17
100
AcDbLine
 10
309.0415450433535
 20
73.24999999999993
 30
0.0
 11
309.0415450433535
 21
60.74999999999992
 31
0.0
  0
LINE
  5
861A
330
1E
100
AcDbEntity
  8
0
100
AcDbLine
 10
324.0415450433536
 20
69.49999999999993
 30
0.0
 11
324.0415450433536
 21
64.49999999999993
 31
0.0
  0
DIMENSION
  5
87E8
330
1E
100
AcDbEntity
  8
30
100
AcDbDimension
  2
*D15
 10
-0.0000000000002268
 20
313.4340221653557
 30
0.0
 11
-15.00000000000022
 21
316.4340221653556
 31
0.0
 70
    32
 71
     5
 42
-1.0
  3
STANDARD
100
AcDbAlignedDimension
 13
-30.00000000000023
 23
259.8811670622456
 33
0.0
 14
-0.0000000000002274
 24
304.8811670622456
 34
0.0
100
AcDbRotatedDimension
1001
ACAD
1000
DSTYLE
1002
{
1070
    79
1070
     3
1002
}
  0
DIMENSION
  5
87F5
330
1E
100
AcDbEntity
  8
30
100
AcDbDimension
  2
*D16
 10
29.99999999999977
 20
313.4340221653557
 30
0.0
 11
14.99999999999976
 21
316.4340221653556
 31
0.0
 70
    32
 71
     5
 42
-1.0
  3
STANDARD
100
AcDbAlignedDimension
 13
-0.0000000000002274
 23
304.8811670622456
 33
0.0
 14
29.99999999999977
 24
259.8811670622456
 34
0.0
100
AcDbRotatedDimension
1001
ACAD
1000
DSTYLE
1002
{
1070
   287
1070
     4
1070
   279
1070
     1
1070
    79
1070
     3
1002
}
  0
DIMENSION
  5
8802
330
1E
100
AcDbEntity
  8
30
100
AcDbDimension
  2
*D17
 10
59.99999999999977
 20
313.4340221653557
 30
0.0
 11
44.99999999999977
 21
316.4340221653556
 31
0.0
 70
    32
 71
     5
 42
-1.0
  3
STANDARD
100
AcDbAlignedDimension
 13
29.99999999999977
 23
259.8811670622456
 33
0.0
 14
59.99999999999977
 24
309.8811670622457
 34
0.0
100
AcDbRotatedDimension
1001
ACAD
1000
DSTYLE
1002
{
1070
   287
1070
     4
1070
   279
1070
     1
1070
    79
1070
     3
1002
}
  0
DIMENSION
  5
883C
330
1E
100
AcDbEntity
  8
30
100
AcDbDimension
  2
*D18
 10
-79.89493462656309
 20
-77.5
 30
0.0
 11
-82.89493462656308
 21
2.499999999999969
 31
0.0
 70
    32
 71
     5
 42
159.9999999999999
  3
STANDARD
100
AcDbAlignedDimension
 13
13.00000000000023
 23
82.49999999999992
 33
0.0
 14
-45.0
 24
-77.5
 34
0.0
 50
90.0
100
AcDbRotatedDimension
1001
ACAD
1000
DSTYLE
1002
{
1070
    79
1070
     3
1002
}
  0
DIMENSION
  5
8852
330
1E
100
AcDbEntity
  8
30
100
AcDbDimension
  2
*D19
 10
-69.33461828766349
 20
-51.00000000000002
 30
0.0
 11
-72.33461828766349
 21
-0.0000000000000735
 31
0.0
 70
    32
 71
     5
 42
-1.0
  3
STANDARD
100
AcDbAlignedDimension
 13
-45.0
 23
50.99999999999988
 33
0.0
 14
-45.0
 24
-51.00000000000003
 34
0.0
 50
90.0
100
AcDbRotatedDimension
1001
ACAD
1000
DSTYLE
1002
{
1070
    79
1070
     3
1002
}
  0
DIMENSION
  5
885F
330
1E
100
AcDbEntity
  8
30
100
AcDbDimension
  2
*D20
 10
-59.9476684811939
 20
-25.0
 30
0.0
 11
-62.94766848119389
 21
-0.000000000000035
 31
0.0
 70
    32
 71
     5
 42
-1.0
  3
STANDARD
100
AcDbAlignedDimension
 13
-42.0
 23
24.99999999999995
 33
0.0
 14
-42.0
 24
-25.0
 34
0.0
 50
90.0
100
AcDbRotatedDimension
1001
ACAD
1000
DSTYLE
1002
{
1070
    79
1070
     3
1002
}
  0
DIMENSION
  5
8D3E
330
1E
100
AcDbEntity
  8
30
100
AcDbDimension
  2
*D21
 10
222.0415450433535
 20
-155.1114571606904
 30
0.0
 11
176.0415450433535
 21
-152.1114571606904
 31
0.0
 70
    32
 71
     5
 42
-1.0
  3
STANDARD
100
AcDbAlignedDimension
 13
130.0415450433536
 23
0.0000000000000038
 33
0.0
 14
222.0415450433535
 24
-142.8823124432113
 34
0.0
100
AcDbRotatedDimension
  0
DIMENSION
  5
8D63
330
1E
100
AcDbEntity
  8
30
100
AcDbDimension
  2
*D22
 10
364.0609929336934
 20
-67.00000000000001
 30
0.0
 11
361.0609929336933
 21
0.0000000000000207
 31
0.0
 70
    32
 71
     5
 42
-1.0
  3
STANDARD
100
AcDbAlignedDimension
 13
334.0415450433535
 23
66.99999999999993
 33
0.0
 14
334.0415450433535
 24
-67.0
 34
0.0
 50
90.0
100
AcDbRotatedDimension
  0
LINE
  5
928D
330
1E
100
AcDbEntity
  8
18
 48
2.0
100
AcDbLine
 10
-45.0
 20
-157.5
 30
0.0
 11
-45.0
 21
-312.5
 31
0.0
  0
LINE
  5
928E
330
1E
100
AcDbEntity
  8
18
 48
2.0
100
AcDbLine
 10
75.0
 20
-312.5
 30
0.0
 11
75.0
 21
-157.5
 31
0.0
  0
LINE
  5
928F
330
1E
100
AcDbEntity
  8
22
100
AcDbLine
 10
30.0
 20
-290.0
 30
0.0
 11
30.0
 21
-314.0
 31
0.0
  0
LINE
  5
9290
330
1E
100
AcDbEntity
  8
22
100
AcDbLine
 10
-30.0
 20
-290.0
 30
0.0
 11
-30.0
 21
-314.0
 31
0.0
  0
LINE
  5
9291
330
1E
100
AcDbEntity
  8
22
100
AcDbLine
 10
60.0
 20
-290.0
 30
0.0
 11
60.0
 21
-314.0
 31
0.0
  0
CIRCLE
  5
9292
330
1E
100
AcDbEntity
  8
22
100
AcDbCircle
 10
-60.0
 20
-302.0
 30
0.0
 40
9.0
210
0.0
220
0.0
230
-1.0
  0
CIRCLE
  5
9293
330
1E
100
AcDbEntity
  8
22
100
AcDbCircle
 10
0.0
 20
-302.0
 30
0.0
 40
9.0
210
0.0
220
0.0
230
-1.0
  0
CIRCLE
  5
9294
330
1E
100
AcDbEntity
  8
22
100
AcDbCircle
 10
-30.0
 20
-302.0
 30
0.0
 40
9.0
210
0.0
220
0.0
230
-1.0
  0
CIRCLE
  5
9295
330
1E
100
AcDbEntity
  8
22
100
AcDbCircle
 10
30.0
 20
-302.0
 30
0.0
 40
9.0
210
0.0
220
0.0
230
-1.0
  0
DIMENSION
  5
9297
330
1E
100
AcDbEntity
  8
30
100
AcDbDimension
  2
*D23
 10
116.1399438671997
 20
-168.0
 30
0.0
 11
113.1399438671996
 21
-235.0
 31
0.0
 70
    32
 71
     5
 42
-1.0
  3
STANDARD
100
AcDbAlignedDimension
 13
62.50000001650003
 23
-302.0
 33
0.0
 14
62.50000001650003
 24
-168.0
 34
0.0
 50
270.0
100
AcDbRotatedDimension
  0
LINE
  5
9298
330
1E
100
AcDbEntity
  8
18
 48
2.0
100
AcDbLine
 10
-45.0
 20
-312.5
 30
0.0
 11
75.0
 21
-312.5
 31
0.0
  0
LINE
  5
9299
330
1E
100
AcDbEntity
  8
22
100
AcDbLine
 10
-41.99999999999977
 20
-302.0
 30
0.0
 11
72.00000000000024
 21
-302.0
 31
0.0
  0
LINE
  5
929A
330
1E
100
AcDbEntity
  8
22
100
AcDbLine
 10
-18.99999999999977
 20
-301.0
 30
0.0
 11
-10.99999999999976
 21
-301.0
 31
0.0
  0
CIRCLE
  5
929B
330
1E
100
AcDbEntity
  8
12
100
AcDbCircle
 10
15.0
 20
-301.0
 30
0.0
 40
2.0
210
0.0
220
0.0
230
-1.0
  0
LINE
  5
929C
330
1E
100
AcDbEntity
  8
22
100
AcDbLine
 10
-15.00000000000158
 20
-296.9999999999998
 30
0.0
 11
-15.00000000000158
 21
-304.9999999999998
 31
0.0
  0
LINE
  5
929D
330
1E
100
AcDbEntity
  8
22
100
AcDbLine
 10
11.00000000000022
 20
-301.0
 30
0.0
 11
19.00000000000022
 21
-301.0
 31
0.0
  0
CIRCLE
  5
929E
330
1E
100
AcDbEntity
  8
12
100
AcDbCircle
 10
-15.0
 20
-301.0
 30
0.0
 40
2.0
210
0.0
220
0.0
230
-1.0
  0
LINE
  5
929F
330
1E
100
AcDbEntity
  8
22
100
AcDbLine
 10
14.99999999999841
 20
-296.9999999999998
 30
0.0
 11
14.99999999999841
 21
-304.9999999999998
 31
0.0
  0
LINE
  5
92A0
330
1E
100
AcDbEntity
  8
18
 48
2.0
100
AcDbLine
 10
75.0
 20
-157.5
 30
0.0
 11
-45.0
 21
-157.5
 31
0.0
  0
LINE
  5
92A1
330
1E
100
AcDbEntity
  8
22
100
AcDbLine
 10
-41.99999999999977
 20
-168.0
 30
0.0
 11
72.00000000000024
 21
-168.0
 31
0.0
  0
LINE
  5
92A2
330
1E
100
AcDbEntity
  8
22
100
AcDbLine
 10
-30.0
 20
-156.0
 30
0.0
 11
-30.0
 21
-180.0
 31
0.0
  0
CIRCLE
  5
92A3
330
1E
100
AcDbEntity
  8
22
100
AcDbCircle
 10
-30.0
 20
-168.0
 30
0.0
 40
9.0
  0
LINE
  5
92A4
330
1E
100
AcDbEntity
  8
22
100
AcDbLine
 10
-15.00000000000158
 20
-173.0000000000002
 30
0.0
 11
-15.00000000000158
 21
-165.0000000000002
 31
0.0
  0
CIRCLE
  5
92A5
330
1E
100
AcDbEntity
  8
12
100
AcDbCircle
 10
-15.0
 20
-169.0
 30
0.0
 40
2.0
  0
LINE
  5
92A6
330
1E
100
AcDbEntity
  8
22
100
AcDbLine
 10
-18.99999999999977
 20
-169.0
 30
0.0
 11
-10.99999999999976
 21
-169.0
 31
0.0
  0
LINE
  5
92A7
330
1E
100
AcDbEntity
  8
22
100
AcDbLine
 10
30.0
 20
-156.0
 30
0.0
 11
30.0
 21
-180.0
 31
0.0
  0
LINE
  5
92A8
330
1E
100
AcDbEntity
  8
22
100
AcDbLine
 10
11.00000000000022
 20
-169.0
 30
0.0
 11
19.00000000000022
 21
-169.0
 31
0.0
  0
CIRCLE
  5
92A9
330
1E
100
AcDbEntity
  8
12
100
AcDbCircle
 10
15.0
 20
-169.0
 30
0.0
 40
2.0
  0
CIRCLE
  5
92AA
330
1E
100
AcDbEntity
  8
22
100
AcDbCircle
 10
0.0
 20
-168.0
 30
0.0
 40
9.0
  0
LINE
  5
92AB
330
1E
100
AcDbEntity
  8
22
100
AcDbLine
 10
14.99999999999841
 20
-173.0000000000002
 30
0.0
 11
14.99999999999841
 21
-165.0000000000002
 31
0.0
  0
CIRCLE
  5
92AC
330
1E
100
AcDbEntity
  8
22
100
AcDbCircle
 10
30.0
 20
-168.0
 30
0.0
 40
9.0
  0
LINE
  5
92AD
330
1E
100
AcDbEntity
  8
22
100
AcDbLine
 10
60.0
 20
-156.0
 30
0.0
 11
60.0
 21
-180.0
 31
0.0
  0
CIRCLE
  5
92AE
330
1E
100
AcDbEntity
  8
22
100
AcDbCircle
 10
60.0
 20
-168.0
 30
0.0
 40
9.0
  0
LEADER
  5
92DA
330
1E
100
AcDbEntity
  8
30
100
AcDbLeader
  3
STANDARD
 76
     3
 10
-15.00000000000158
 20
-167.0
 30
0.0
 10
-22.07844622925903
 20
-140.0564045549737
 30
0.0
 10
-35.23329131204899
 20
-140.0564045549737
 30
0.0
1001
ACAD
1000
DSTYLE
1002
{
1070
     5
1000
OPEN
1070
    77
1070
     0
1070
    79
1070
     3
1070
   147
1040
1.0
1002
}
  0
TEXT
  5
92DB
330
1E
100
AcDbEntity
  8
30
100
AcDbText
 10
-33.90451773441919
 20
-139.3927796677433
 30
0.0
 40
5.0
  1
M4
  7
STANDARD1
100
AcDbText
  0
LEADER
  5
92DC
330
1E
100
AcDbEntity
  8
30
100
AcDbLeader
  3
STANDARD
 76
     3
 10
-34.33150370606607
 20
-309.8887041697705
 30
0.0
 10
-39.7794711630604
 20
-321.1703174697388
 30
0.0
 10
-59.44530045930425
 20
-321.1703174697388
 30
0.0
1001
ACAD
1000
DSTYLE
1002
{
1070
     5
1000
OPEN
1070
    77
1070
     0
1070
    79
1070
     3
1070
   147
1040
1.0
1002
}
  0
TEXT
  5
92DD
330
1E
100
AcDbEntity
  8
30
100
AcDbText
 10
-55.19322641465169
 20
-320.1085183023666
 30
0.0
 40
5.0
  1
%%c18
  7
STANDARD1
100
AcDbText
  0
DIMENSION
  5
92DE
330
1E
100
AcDbEntity
  8
30
100
AcDbDimension
  2
*D24
 10
14.9999999999984
 20
-330.0941269446008
 30
0.0
 11
-0.0000000000015932
 21
-327.0941269446008
 31
0.0
 70
    32
 71
     5
 42
-1.0
  3
STANDARD
100
AcDbAlignedDimension
 13
-15.00000000000158
 23
-304.9999999999998
 33
0.0
 14
14.99999999999841
 24
-304.9999999999998
 34
0.0
100
AcDbRotatedDimension
  0
DIMENSION
  5
92F4
330
1E
100
AcDbEntity
  8
30
100
AcDbDimension
  2
*D25
 10
-0.0000000000000014
 20
-339.7034767486354
 30
0.0
 11
-15.0
 21
-336.7034767486353
 31
0.0
 70
    32
 71
     5
 42
-1.0
  3
STANDARD
100
AcDbAlignedDimension
 13
-30.0
 23
-314.0
 33
0.0
 14
0.0
 24
-317.4374692359974
 34
0.0
100
AcDbRotatedDimension
1001
ACAD
1000
DSTYLE
1002
{
1070
    79
1070
     3
1002
}
  0
DIMENSION
  5
9301
330
1E
100
AcDbEntity
  8
30
100
AcDbDimension
  2
*D26
 10
30.0
 20
-339.7034767486354
 30
0.0
 11
15.0
 21
-336.7034767486353
 31
0.0
 70
    32
 71
     5
 42
-1.0
  3
STANDARD
100
AcDbAlignedDimension
 13
0.0
 23
-317.4374692359974
 33
0.0
 14
30.0
 24
-314.0
 34
0.0
100
AcDbRotatedDimension
1001
ACAD
1000
DSTYLE
1002
{
1070
   287
1070
     4
1070
   279
1070
     1
1070
    79
1070
     3
1002
}
  0
DIMENSION
  5
930E
330
1E
100
AcDbEntity
  8
30
100
AcDbDimension
  2
*D27
 10
60.0
 20
-339.7034767486354
 30
0.0
 11
45.0
 21
-336.7034767486353
 31
0.0
 70
    32
 71
     5
 42
-1.0
  3
STANDARD
100
AcDbAlignedDimension
 13
30.0
 23
-314.0
 33
0.0
 14
60.0
 24
-314.0
 34
0.0
100
AcDbRotatedDimension
1001
ACAD
1000
DSTYLE
1002
{
1070
   287
1070
     4
1070
   279
1070
     1
1070
    79
1070
     3
1002
}
  0
DIMENSION
  5
931B
330
1E
100
AcDbEntity
  8
30
100
AcDbDimension
  2
*D28
 10
100.7473398081974
 20
-301.0
 30
0.0
 11
97.74733980819753
 21
-235.0
 31
0.0
 70
    32
 71
     5
 42
-1.0
  3
STANDARD
100
AcDbAlignedDimension
 13
19.00000000000022
 23
-169.0
 33
0.0
 14
19.00000000000022
 24
-301.0
 34
0.0
 50
90.0
100
AcDbRotatedDimension
1001
ACAD
1000
DSTYLE
1002
{
1070
    79
1070
     3
1002
}
  0
LEADER
  5
933A
330
1E
100
AcDbEntity
  8
30
100
AcDbLeader
  3
STANDARD
 76
     3
 10
259.0415450433535
 20
-63.49999998350003
 30
0.0
 10
272.972983731351
 20
-45.65132818552386
 30
0.0
 10
300.6048603186799
 20
-45.65132818552386
 30
0.0
1001
ACAD
1000
DSTYLE
1002
{
1070
     5
1000
OPEN
1070
    77
1070
     0
1070
    79
1070
     3
1070
   147
1040
1.0
1002
}
  0
TEXT
  5
933B
330
1E
100
AcDbEntity
  8
30
100
AcDbText
 10
277.170230319256
 20
-44.60321862834007
 30
0.0
 40
4.0
  1
%%c8.5
  7
STANDARD1
100
AcDbText
  0
MTEXT
  5
93BB
330
1E
100
AcDbEntity
  8
30
100
AcDbMText
 10
207.6073071889027
 20
249.153367099658
 30
0.0
 40
5.0
 41
140.0557
 71
     1
 72
     5
  1
S50-GD 4P RC\PS100-ND 4P RC
  7
STANDARD1
 73
     1
 44
1.0
1001
ACAD
1000
MTEXTBEGIN
1070
    73
1070
     1
1070
    44
1040
1.0
1070
    74
1070
     0
1000
MTEXTEND
  0
DIMENSION
  5
9762
330
1E
100
AcDbEntity
  8
30
100
AcDbDimension
  2
*D73
 10
222.0415450433534
 20
106.9999999999999
 30
0.0
 11
196.291545043353
 21
109.9999999999999
 31
0.0
 70
    32
  1
 <> 
 71
     5
 42
51.5000000000005
  3
STANDARD
100
AcDbAlignedDimension
 13
170.5415450433529
 23
83.50000000000013
 33
0.0
 14
222.0415450433534
 24
96.99999999999995
 34
0.0
100
AcDbRotatedDimension
1001
ACAD
1000
DSTYLE
1002
{
1070
    79
1070
     3
1070
   279
1070
     1
1002
}
  0
LWPOLYLINE
  5
9C43
330
1E
100
AcDbEntity
  8
10
100
AcDbPolyline
 90
       16
 70
     0
 43
0.0
 10
74.99999999999976
 20
77.49999999999992
 10
74.99999999999976
 20
78.49999999999996
 42
0.4142135623730951
 10
74.00000000000024
 20
79.49999999999995
 10
26.50000000000023
 20
79.49999999999995
 10
26.50000000000023
 20
83.49999999999992
 10
24.49999999999977
 20
83.49999999999992
 10
24.49999999999977
 20
79.49999999999995
 10
20.50000000000023
 20
79.49999999999995
 10
20.50000000000023
 20
82.49999999999992
 42
0.4142135623730951
 10
19.49999999999977
 20
83.49999999999992
 10
14.00000000000023
 20
83.49999999999992
 42
0.4142135623730951
 10
13.00000000000023
 20
82.49999999999992
 10
13.00000000000023
 20
79.49999999999995
 10
-44.0
 20
79.49999999999995
 42
0.4142135623730951
 10
-45.0
 20
78.49999999999993
 10
-45.0
 20
77.49999999999992
  0
DIMENSION
  5
9CB1
330
1E
100
AcDbEntity
  8
30
100
AcDbDimension
  2
*D90
 10
89.94766848119388
 20
77.49999999999992
 30
0.0
 11
89.94766848119388
 21
79.49999999999993
 31
0.0
 70
   160
  1
 <> 
 71
     0
 72
     0
 41
0.0
 42
6.0
  3
STANDARD
100
AcDbAlignedDimension
 13
26.50000000000023
 23
83.49999999999992
 33
0.0
 14
75.0
 24
77.49999999999992
 34
0.0
 50
90.0
100
AcDbRotatedDimension
1001
ACAD
1000
DSTYLE
1002
{
1070
    79
1070
     3
1002
}
  0
LWPOLYLINE
  5
9CD9
330
1E
100
AcDbEntity
  8
10
100
AcDbPolyline
 90
        4
 70
     1
 43
0.0
 10
170.5415450433529
 20
77.5000000000001
 10
222.0415450433534
 20
77.5000000000001
 10
222.0415450433534
 20
83.50000000000013
 10
170.5415450433529
 20
83.50000000000013
  0
VIEWPORT
  5
9AC
102
{ACAD_XDICTIONARY
360
9D5C
102
}
330
1A
100
AcDbEntity
 67
     1
  8
0
  6
Continuous
100
AcDbViewport
 10
171.9995348790992
 20
144.1384735538403
 30
0.0
 40
488.8676857773511
 41
292.3514905034161
 68
     1
 69
     1
 12
171.9995348790992
 22
144.1384735538403
 13
0.0
 23
0.0
 14
10.0
 24
10.0
 15
10.0
 25
10.0
 16
0.0
 26
0.0
 36
1.0
 17
0.0
 27
0.0
 37
0.0
 42
50.0
 43
0.0
 44
0.0
 45
292.3514905034161
 50
0.0
 51
0.0
 72
   100
 90
    32800
  1

281
     0
 71
     1
 74
     0
110
0.0
120
0.0
130
0.0
111
1.0
121
0.0
131
0.0
112
0.0
122
1.0
132
0.0
 79
     0
146
0.0
  0
ENDSEC
  0
SECTION
  2
OBJECTS
  0
DICTIONARY
  5
C
330
0
100
AcDbDictionary
281
     1
  3
ACAD_COLOR
350
93F2
  3
ACAD_GROUP
350
D
  3
ACAD_LAYOUT
350
19
  3
ACAD_MATERIAL
350
93C5
  3
ACAD_MLEADERSTYLE
350
9417
  3
ACAD_MLINESTYLE
350
16
  3
ACAD_PLOTSETTINGS
350
18
  3
ACAD_PLOTSTYLENAME
350
E
  3
ACAD_SCALELIST
350
93F5
  3
ACAD_TABLESTYLE
350
93F3
  3
ACAD_VISUALSTYLE
350
93DE
  3
ACADDIM
350
92CE
  3
ACDB_RECOMPOSE_DATA
350
9D5A
  3
ACDBVARIABLEDICTIONARY
350
5B5E
  3
ASE_INDEX_DICTIONARY
350
9430
  3
DWGPROPS
350
9D5B
  0
DICTIONARY
  5
941B
330
10
100
AcDbDictionary
280
     1
281
     1
  3
ADSK_XREC_LAYER_RECONCILED
360
941C
  0
DICTIONARY
  5
941D
330
2F
100
AcDbDictionary
280
     1
281
     1
  3
ADSK_XREC_LAYER_RECONCILED
360
941E
  0
DICTIONARY
  5
941F
330
31
100
AcDbDictionary
280
     1
281
     1
  3
ADSK_XREC_LAYER_RECONCILED
360
9420
  0
DICTIONARY
  5
9421
330
35
100
AcDbDictionary
280
     1
281
     1
  3
ADSK_XREC_LAYER_RECONCILED
360
9422
  0
DICTIONARY
  5
9423
330
36
100
AcDbDictionary
280
     1
281
     1
  3
ADSK_XREC_LAYER_RECONCILED
360
9424
  0
DICTIONARY
  5
9425
330
3D
100
AcDbDictionary
280
     1
281
     1
  3
ADSK_XREC_LAYER_RECONCILED
360
9426
  0
DICTIONARY
  5
9427
330
3A2
100
AcDbDictionary
280
     1
281
     1
  3
ADSK_XREC_LAYER_RECONCILED
360
9428
  0
DICTIONARY
  5
9429
330
3BBA
100
AcDbDictionary
280
     1
281
     1
  3
ADSK_XREC_LAYER_RECONCILED
360
942A
  0
DICTIONARY
  5
942B
330
3BBB
100
AcDbDictionary
280
     1
281
     1
  3
ADSK_XREC_LAYER_RECONCILED
360
942C
  0
DICTIONARY
  5
942D
330
40E3
100
AcDbDictionary
280
     1
281
     1
  3
ADSK_XREC_LAYER_RECONCILED
360
942E
  0
DICTIONARY
  5
178
330
1E
100
AcDbDictionary
280
     1
281
     1
  3
ACAD_LAYOUTSELFREF
360
938C
  0
DICTIONARY
  5
17A
330
1A
100
AcDbDictionary
280
     1
281
     1
  3
ACAD_LAYOUTSELFREF
360
938B
  0
DICTIONARY
  5
9D89
330
9C3D
100
AcDbDictionary
280
     1
281
     1
  3
ACAD_MTEXT_RT
360
9D8A
  0
DICTIONARY
  5
9D5C
330
9AC
100
AcDbDictionary
280
     1
281
     1
  3
ACAD_XREC_ROUNDTRIP
360
9D5D
  0
DICTIONARY
  5
93F2
102
{ACAD_REACTORS
330
C
102
}
330
C
100
AcDbDictionary
281
     1
  0
DICTIONARY
  5
D
102
{ACAD_REACTORS
330
C
102
}
330
C
100
AcDbDictionary
281
     1
  0
DICTIONARY
  5
19
102
{ACAD_REACTORS
330
C
102
}
330
C
100
AcDbDictionary
281
     1
  3
Model
350
93B8
  3
ﾚｲｱｳﾄ1
350
93B9
  0
DICTIONARY
  5
93C5
102
{ACAD_REACTORS
330
C
102
}
330
C
100
AcDbDictionary
281
     1
  3
ByBlock
350
93CE
  3
ByLayer
350
93C6
  3
Global
350
93D6
  0
DICTIONARY
  5
9417
102
{ACAD_REACTORS
330
C
102
}
330
C
100
AcDbDictionary
281
     1
  3
Standard
350
9418
  0
DICTIONARY
  5
16
102
{ACAD_REACTORS
330
C
102
}
330
C
100
AcDbDictionary
281
     1
  3
STANDARD
350
17
  0
DICTIONARY
  5
18
102
{ACAD_REACTORS
330
C
102
}
330
C
100
AcDbDictionary
281
     1
  0
ACDBDICTIONARYWDFLT
  5
E
102
{ACAD_REACTORS
330
C
102
}
330
C
100
AcDbDictionary
281
     1
  3
Normal
350
F
100
AcDbDictionaryWithDefault
340
F
  0
DICTIONARY
  5
93F5
102
{ACAD_REACTORS
330
C
102
}
330
C
100
AcDbDictionary
281
     1
  3
A0
350
93F6
  3
A1
350
93F7
  3
A2
350
93F8
  3
A3
350
93F9
  3
A4
350
93FA
  3
A5
350
93FB
  3
A6
350
93FC
  3
A7
350
93FD
  3
A8
350
93FE
  3
A9
350
93FF
  3
B0
350
9400
  3
B1
350
9401
  3
B2
350
9402
  3
B3
350
9403
  3
B4
350
9404
  3
B5
350
9405
  3
B6
350
9406
  3
B7
350
9407
  3
B8
350
9408
  3
B9
350
9409
  3
C0
350
940A
  3
C1
350
940B
  3
C2
350
940C
  3
C3
350
940D
  3
C4
350
940E
  3
C5
350
940F
  3
C6
350
9410
  3
C7
350
9411
  3
C8
350
9412
  3
C9
350
9413
  3
D0
350
9414
  3
D1
350
9415
  3
D2
350
9416
  0
DICTIONARY
  5
93F3
102
{ACAD_REACTORS
330
C
102
}
330
C
100
AcDbDictionary
281
     1
  3
Standard
350
93F4
  0
DICTIONARY
  5
93DE
102
{ACAD_REACTORS
330
C
102
}
330
C
100
AcDbDictionary
281
     1
  3
2dWireframe
350
93E4
  3
3D Hidden
350
93E6
  3
3dWireframe
350
93E5
  3
Basic
350
93E3
  3
Brighten
350
93EA
  3
ColorChange
350
93EE
  3
Conceptual
350
93E7
  3
Dim
350
93E9
  3
EdgeColorOff
350
93F1
  3
Facepattern
350
93ED
  3
Flat
350
93DF
  3
FlatWithEdges
350
93E0
  3
Gouraud
350
93E1
  3
GouraudWithEdges
350
93E2
  3
JitterOff
350
93EF
  3
Linepattern
350
93EC
  3
OverhangOff
350
93F0
  3
Realistic
350
93E8
  3
Thicken
350
93EB
  0
XRECORD
  5
92CE
102
{ACAD_REACTORS
330
C
102
}
330
C
100
AcDbXrecord
280
     1
 90
   990106
  3

 60
     0
 61
     0
 62
     1
 63
     3
 64
     0
 65
     0
 66
     0
 67
     3
 68
     1
 69
     0
 70
     0
 71
     0
 72
     0
 40
0.0
170
     0
  0
XRECORD
  5
9D5A
102
{ACAD_REACTORS
330
C
102
}
330
C
100
AcDbXrecord
280
     1
 90
        1
330
93F4
  0
DICTIONARY
  5
5B5E
102
{ACAD_REACTORS
330
C
102
}
330
C
100
AcDbDictionary
281
     1
  3
CANNOSCALE
350
9435
  3
CMLEADERSTYLE
350
9434
  3
CTABLESTYLE
350
9433
  3
DIMASSOC
350
5B5F
  3
INDEXCTL
350
9437
  3
SORTENTS
350
9436
  3
XCLIPFRAME
350
9D58
  0
DICTIONARY
  5
9430
102
{ACAD_REACTORS
330
C
102
}
330
C
100
AcDbDictionary
281
     1
  3
ASEBlockHierarchyIndexRecord
350
9432
1001
DCO15
1040
1734070658.796
  0
XRECORD
  5
9D5B
102
{ACAD_REACTORS
330
C
102
}
330
C
100
AcDbXrecord
280
     1
  1
DWGPROPS COOKIE
  2

  3

  4

  6

  7

  8
cadm
  9

300
=
301
=
302
=
303
=
304
=
305
=
306
=
307
=
308
=
309
=
 40
1.442433425925925
 41
2452286.555658658
 42
2455873.474106435
  1

 90
        0
  0
XRECORD
  5
941C
102
{ACAD_REACTORS
330
941B
102
}
330
941B
100
AcDbXrecord
280
     1
290
     1
  0
XRECORD
  5
941E
102
{ACAD_REACTORS
330
941D
102
}
330
941D
100
AcDbXrecord
280
     1
290
     1
  0
XRECORD
  5
9420
102
{ACAD_REACTORS
330
941F
102
}
330
941F
100
AcDbXrecord
280
     1
290
     1
  0
XRECORD
  5
9422
102
{ACAD_REACTORS
330
9421
102
}
330
9421
100
AcDbXrecord
280
     1
290
     1
  0
XRECORD
  5
9424
102
{ACAD_REACTORS
330
9423
102
}
330
9423
100
AcDbXrecord
280
     1
290
     1
  0
XRECORD
  5
9426
102
{ACAD_REACTORS
330
9425
102
}
330
9425
100
AcDbXrecord
280
     1
290
     1
  0
XRECORD
  5
9428
102
{ACAD_REACTORS
330
9427
102
}
330
9427
100
AcDbXrecord
280
     1
290
     1
  0
XRECORD
  5
942A
102
{ACAD_REACTORS
330
9429
102
}
330
9429
100
AcDbXrecord
280
     1
290
     1
  0
XRECORD
  5
942C
102
{ACAD_REACTORS
330
942B
102
}
330
942B
100
AcDbXrecord
280
     1
290
     1
  0
XRECORD
  5
942E
102
{ACAD_REACTORS
330
942D
102
}
330
942D
100
AcDbXrecord
280
     1
290
     1
  0
XRECORD
  5
938C
102
{ACAD_REACTORS
330
178
102
}
330
178
100
AcDbXrecord
280
     1
340
1E
  0
XRECORD
  5
938B
102
{ACAD_REACTORS
330
17A
102
}
330
17A
100
AcDbXrecord
280
     1
340
1A
  0
XRECORD
  5
9D8A
102
{ACAD_REACTORS
330
9D89
102
}
330
9D89
100
AcDbXrecord
280
     1
 40
4461.0
  1
\A1;\U+22058
  0
XRECORD
  5
9D5D
102
{ACAD_REACTORS
330
9D5C
102
}
330
9D5C
100
AcDbXrecord
280
     1
102
SHADEPLOT
 70
     0
  0
LAYOUT
  5
93B8
102
{ACAD_XDICTIONARY
360
9D5E
102
}
102
{ACAD_REACTORS
330
19
102
}
330
19
100
AcDbPlotSettings
  1

  2
Canon LBP3800 LIPSLX
  4
A4
  6

 40
5.873749732971191
 41
5.873747825622558
 42
5.873748779296875
 43
5.873748779296875
 44
209.9733276367187
 45
296.9259948730469
 46
9.211698939850748
 47
10.84733604517791
 48
0.0
 49
0.0
140
0.0
141
0.0
142
1.0
143
2.5
 70
 11940
 72
     1
 73
     0
 74
     1
  7
monochrome.ctb
 75
     0
147
0.4391557157846579
148
84.9302304718949
149
340.233235153182
100
AcDbLayout
  1
Model
 70
     1
 71
     0
 10
0.0
 20
0.0
 11
12.0
 21
9.0
 12
0.0
 22
0.0
 32
0.0
 14
0.0
 24
0.0
 34
0.0
 15
0.0
 25
0.0
 35
0.0
146
0.0
 13
0.0
 23
0.0
 33
0.0
 16
1.0
 26
0.0
 36
0.0
 17
0.0
 27
1.0
 37
0.0
 76
     0
330
1E
331
93BE
1001
ACAD_PSEXT
1000
Canon LBP3800 LIPSLX
1000
Canon LBP3800 LIPSLX
1000
IP_192.168.54.50
1000

1070
     0
  0
LAYOUT
  5
93B9
102
{ACAD_XDICTIONARY
360
9D60
102
}
102
{ACAD_REACTORS
330
19
102
}
330
19
100
AcDbPlotSettings
  1

  2
Canon LBP3800 LIPSLX
  4

  6

 40
0.0
 41
0.0
 42
0.0
 43
0.0
 44
0.0
 45
0.0
 46
0.0
 47
0.0
 48
0.0
 49
0.0
140
0.0
141
0.0
142
1.0
143
1.0
 70
   688
 72
     0
 73
     0
 74
     5
  7
monochrome.ctb
 75
    16
147
1.0
148
0.0
149
0.0
100
AcDbLayout
  1
ﾚｲｱｳﾄ1
 70
     1
 71
     1
 10
-5.873748779296875
 20
-5.873749732971191
 11
204.0995788574218
 21
291.1369009017943
 12
0.0
 22
0.0
 32
0.0
 14
4.273573370203961
 24
5.205246163471485
 34
0.0
 15
194.6100952986349
 25
283.0697008572913
 35
0.0
146
0.0
 13
0.0
 23
0.0
 33
0.0
 16
1.0
 26
0.0
 36
0.0
 17
0.0
 27
1.0
 37
0.0
 76
     0
330
1A
331
9AC
  0
MATERIAL
  5
93CE
102
{ACAD_XDICTIONARY
360
93CF
102
}
102
{ACAD_REACTORS
330
93C5
102
}
330
93C5
100
AcDbMaterial
  1
ByBlock
 72
     0
 43
0.0208333333333333
 43
0.0
 43
0.0
 43
0.0
 43
0.0
 43
0.0208333333333333
 43
0.0
 43
0.0
 43
0.0
 43
0.0
 43
1.0
 43
0.0
 43
0.0
 43
0.0
 43
0.0
 43
1.0
 77
     0
 47
0.0208333333333333
 47
0.0
 47
0.0
 47
0.0
 47
0.0
 47
0.0208333333333333
 47
0.0
 47
0.0
 47
0.0
 47
0.0
 47
1.0
 47
0.0
 47
0.0
 47
0.0
 47
0.0
 47
1.0
171
     0
 49
0.0208333333333333
 49
0.0
 49
0.0
 49
0.0
 49
0.0
 49
0.0208333333333333
 49
0.0
 49
0.0
 49
0.0
 49
0.0
 49
1.0
 49
0.0
 49
0.0
 49
0.0
 49
0.0
 49
1.0
175
     0
142
0.0208333333333333
142
0.0
142
0.0
142
0.0
142
0.0
142
0.0208333333333333
142
0.0
142
0.0
142
0.0
142
0.0
142
1.0
142
0.0
142
0.0
142
0.0
142
0.0
142
1.0
179
     0
144
0.0208333333333333
144
0.0
144
0.0
144
0.0
144
0.0
144
0.0208333333333333
144
0.0
144
0.0
144
0.0
144
0.0
144
1.0
144
0.0
144
0.0
144
0.0
144
0.0
144
1.0
147
0.0208333333333333
147
0.0
147
0.0
147
0.0
147
0.0
147
0.0208333333333333
147
0.0
147
0.0
147
0.0
147
0.0
147
1.0
147
0.0
147
0.0
147
0.0
147
0.0
147
1.0
  0
MATERIAL
  5
93C6
102
{ACAD_XDICTIONARY
360
93C7
102
}
102
{ACAD_REACTORS
330
93C5
102
}
330
93C5
100
AcDbMaterial
  1
ByLayer
 72
     0
 43
0.0208333333333333
 43
0.0
 43
0.0
 43
0.0
 43
0.0
 43
0.0208333333333333
 43
0.0
 43
0.0
 43
0.0
 43
0.0
 43
1.0
 43
0.0
 43
0.0
 43
0.0
 43
0.0
 43
1.0
 77
     0
 47
0.0208333333333333
 47
0.0
 47
0.0
 47
0.0
 47
0.0
 47
0.0208333333333333
 47
0.0
 47
0.0
 47
0.0
 47
0.0
 47
1.0
 47
0.0
 47
0.0
 47
0.0
 47
0.0
 47
1.0
171
     0
 49
0.0208333333333333
 49
0.0
 49
0.0
 49
0.0
 49
0.0
 49
0.0208333333333333
 49
0.0
 49
0.0
 49
0.0
 49
0.0
 49
1.0
 49
0.0
 49
0.0
 49
0.0
 49
0.0
 49
1.0
175
     0
142
0.0208333333333333
142
0.0
142
0.0
142
0.0
142
0.0
142
0.0208333333333333
142
0.0
142
0.0
142
0.0
142
0.0
142
1.0
142
0.0
142
0.0
142
0.0
142
0.0
142
1.0
179
     0
144
0.0208333333333333
144
0.0
144
0.0
144
0.0
144
0.0
144
0.0208333333333333
144
0.0
144
0.0
144
0.0
144
0.0
144
1.0
144
0.0
144
0.0
144
0.0
144
0.0
144
1.0
147
0.0208333333333333
147
0.0
147
0.0
147
0.0
147
0.0
147
0.0208333333333333
147
0.0
147
0.0
147
0.0
147
0.0
147
1.0
147
0.0
147
0.0
147
0.0
147
0.0
147
1.0
  0
MATERIAL
  5
93D6
102
{ACAD_XDICTIONARY
360
93D7
102
}
102
{ACAD_REACTORS
330
93C5
102
}
330
93C5
100
AcDbMaterial
  1
Global
 72
     0
 43
0.0208333333333333
 43
0.0
 43
0.0
 43
0.0
 43
0.0
 43
0.0208333333333333
 43
0.0
 43
0.0
 43
0.0
 43
0.0
 43
1.0
 43
0.0
 43
0.0
 43
0.0
 43
0.0
 43
1.0
 77
     0
 47
0.0208333333333333
 47
0.0
 47
0.0
 47
0.0
 47
0.0
 47
0.0208333333333333
 47
0.0
 47
0.0
 47
0.0
 47
0.0
 47
1.0
 47
0.0
 47
0.0
 47
0.0
 47
0.0
 47
1.0
171
     0
 49
0.0208333333333333
 49
0.0
 49
0.0
 49
0.0
 49
0.0
 49
0.0208333333333333
 49
0.0
 49
0.0
 49
0.0
 49
0.0
 49
1.0
 49
0.0
 49
0.0
 49
0.0
 49
0.0
 49
1.0
175
     0
142
0.0208333333333333
142
0.0
142
0.0
142
0.0
142
0.0
142
0.0208333333333333
142
0.0
142
0.0
142
0.0
142
0.0
142
1.0
142
0.0
142
0.0
142
0.0
142
0.0
142
1.0
179
     0
144
0.0208333333333333
144
0.0
144
0.0
144
0.0
144
0.0
144
0.0208333333333333
144
0.0
144
0.0
144
0.0
144
0.0
144
1.0
144
0.0
144
0.0
144
0.0
144
0.0
144
1.0
147
0.0208333333333333
147
0.0
147
0.0
147
0.0
147
0.0
147
0.0208333333333333
147
0.0
147
0.0
147
0.0
147
0.0
147
1.0
147
0.0
147
0.0
147
0.0
147
0.0
147
1.0
  0
MLEADERSTYLE
  5
9418
102
{ACAD_REACTORS
330
9417
102
}
330
9417
100
AcDbMLeaderStyle
170
     2
171
     1
172
     0
 90
        2
 40
0.0
 41
0.0
173
     1
 91
-1056964608
340
13
 92
       -2
290
     1
 42
0.09
291
     1
 43
0.36
  3
Standard
 44
0.18
300

342
11
174
     1
178
     6
175
     1
176
     0
 93
-1056964608
 45
0.18
292
     0
297
     0
 46
0.18
 94
-1056964608
 47
1.0
 49
1.0
140
1.0
293
     1
141
0.0
294
     1
177
     0
142
1.0
295
     0
296
     0
143
0.125
1001
ACAD_MLEADERVER
1070
     2
  0
MLINESTYLE
  5
17
102
{ACAD_REACTORS
330
16
102
}
330
16
100
AcDbMlineStyle
  2
STANDARD
 70
     0
  3

 62
   256
 51
90.0
 52
90.0
 71
     2
 49
0.5
 62
   256
  6
BYLAYER
 49
-0.5
 62
   256
  6
BYLAYER
  0
ACDBPLACEHOLDER
  5
F
102
{ACAD_REACTORS
330
E
102
}
330
E
  0
SCALE
  5
93F6
102
{ACAD_REACTORS
330
93F5
102
}
330
93F5
100
AcDbScale
 70
     0
300
1:1
140
1.0
141
1.0
290
     1
  0
SCALE
  5
93F7
102
{ACAD_REACTORS
330
93F5
102
}
330
93F5
100
AcDbScale
 70
     0
300
1:2
140
1.0
141
2.0
290
     0
  0
SCALE
  5
93F8
102
{ACAD_REACTORS
330
93F5
102
}
330
93F5
100
AcDbScale
 70
     0
300
1:4
140
1.0
141
4.0
290
     0
  0
SCALE
  5
93F9
102
{ACAD_REACTORS
330
93F5
102
}
330
93F5
100
AcDbScale
 70
     0
300
1:5
140
1.0
141
5.0
290
     0
  0
SCALE
  5
93FA
102
{ACAD_REACTORS
330
93F5
102
}
330
93F5
100
AcDbScale
 70
     0
300
1:8
140
1.0
141
8.0
290
     0
  0
SCALE
  5
93FB
102
{ACAD_REACTORS
330
93F5
102
}
330
93F5
100
AcDbScale
 70
     0
300
1:10
140
1.0
141
10.0
290
     0
  0
SCALE
  5
93FC
102
{ACAD_REACTORS
330
93F5
102
}
330
93F5
100
AcDbScale
 70
     0
300
1:16
140
1.0
141
16.0
290
     0
  0
SCALE
  5
93FD
102
{ACAD_REACTORS
330
93F5
102
}
330
93F5
100
AcDbScale
 70
     0
300
1:20
140
1.0
141
20.0
290
     0
  0
SCALE
  5
93FE
102
{ACAD_REACTORS
330
93F5
102
}
330
93F5
100
AcDbScale
 70
     0
300
1:30
140
1.0
141
30.0
290
     0
  0
SCALE
  5
93FF
102
{ACAD_REACTORS
330
93F5
102
}
330
93F5
100
AcDbScale
 70
     0
300
1:40
140
1.0
141
40.0
290
     0
  0
SCALE
  5
9400
102
{ACAD_REACTORS
330
93F5
102
}
330
93F5
100
AcDbScale
 70
     0
300
1:50
140
1.0
141
50.0
290
     0
  0
SCALE
  5
9401
102
{ACAD_REACTORS
330
93F5
102
}
330
93F5
100
AcDbScale
 70
     0
300
1:100
140
1.0
141
100.0
290
     0
  0
SCALE
  5
9402
102
{ACAD_REACTORS
330
93F5
102
}
330
93F5
100
AcDbScale
 70
     0
300
2:1
140
2.0
141
1.0
290
     0
  0
SCALE
  5
9403
102
{ACAD_REACTORS
330
93F5
102
}
330
93F5
100
AcDbScale
 70
     0
300
4:1
140
4.0
141
1.0
290
     0
  0
SCALE
  5
9404
102
{ACAD_REACTORS
330
93F5
102
}
330
93F5
100
AcDbScale
 70
     0
300
8:1
140
8.0
141
1.0
290
     0
  0
SCALE
  5
9405
102
{ACAD_REACTORS
330
93F5
102
}
330
93F5
100
AcDbScale
 70
     0
300
10:1
140
10.0
141
1.0
290
     0
  0
SCALE
  5
9406
102
{ACAD_REACTORS
330
93F5
102
}
330
93F5
100
AcDbScale
 70
     0
300
100:1
140
100.0
141
1.0
290
     0
  0
SCALE
  5
9407
102
{ACAD_REACTORS
330
93F5
102
}
330
93F5
100
AcDbScale
 70
     0
300
1/128" = 1'-0"
140
0.0078125
141
12.0
290
     0
  0
SCALE
  5
9408
102
{ACAD_REACTORS
330
93F5
102
}
330
93F5
100
AcDbScale
 70
     0
300
1/64" = 1'-0"
140
0.015625
141
12.0
290
     0
  0
SCALE
  5
9409
102
{ACAD_REACTORS
330
93F5
102
}
330
93F5
100
AcDbScale
 70
     0
300
1/32" = 1'-0"
140
0.03125
141
12.0
290
     0
  0
SCALE
  5
940A
102
{ACAD_REACTORS
330
93F5
102
}
330
93F5
100
AcDbScale
 70
     0
300
1/16" = 1'-0"
140
0.0625
141
12.0
290
     0
  0
SCALE
  5
940B
102
{ACAD_REACTORS
330
93F5
102
}
330
93F5
100
AcDbScale
 70
     0
300
3/32" = 1'-0"
140
0.09375
141
12.0
290
     0
  0
SCALE
  5
940C
102
{ACAD_REACTORS
330
93F5
102
}
330
93F5
100
AcDbScale
 70
     0
300
1/8" = 1'-0"
140
0.125
141
12.0
290
     0
  0
SCALE
  5
940D
102
{ACAD_REACTORS
330
93F5
102
}
330
93F5
100
AcDbScale
 70
     0
300
3/16" = 1'-0"
140
0.1875
141
12.0
290
     0
  0
SCALE
  5
940E
102
{ACAD_REACTORS
330
93F5
102
}
330
93F5
100
AcDbScale
 70
     0
300
1/4" = 1'-0"
140
0.25
141
12.0
290
     0
  0
SCALE
  5
940F
102
{ACAD_REACTORS
330
93F5
102
}
330
93F5
100
AcDbScale
 70
     0
300
3/8" = 1'-0"
140
0.375
141
12.0
290
     0
  0
SCALE
  5
9410
102
{ACAD_REACTORS
330
93F5
102
}
330
93F5
100
AcDbScale
 70
     0
300
1/2" = 1'-0"
140
0.5
141
12.0
290
     0
  0
SCALE
  5
9411
102
{ACAD_REACTORS
330
93F5
102
}
330
93F5
100
AcDbScale
 70
     0
300
3/4" = 1'-0"
140
0.75
141
12.0
290
     0
  0
SCALE
  5
9412
102
{ACAD_REACTORS
330
93F5
102
}
330
93F5
100
AcDbScale
 70
     0
300
1" = 1'-0"
140
1.0
141
12.0
290
     0
  0
SCALE
  5
9413
102
{ACAD_REACTORS
330
93F5
102
}
330
93F5
100
AcDbScale
 70
     0
300
1-1/2" = 1'-0"
140
1.5
141
12.0
290
     0
  0
SCALE
  5
9414
102
{ACAD_REACTORS
330
93F5
102
}
330
93F5
100
AcDbScale
 70
     0
300
3" = 1'-0"
140
3.0
141
12.0
290
     0
  0
SCALE
  5
9415
102
{ACAD_REACTORS
330
93F5
102
}
330
93F5
100
AcDbScale
 70
     0
300
6" = 1'-0"
140
6.0
141
12.0
290
     0
  0
SCALE
  5
9416
102
{ACAD_REACTORS
330
93F5
102
}
330
93F5
100
AcDbScale
 70
     0
300
1'-0" = 1'-0"
140
12.0
141
12.0
290
     0
  0
TABLESTYLE
  5
93F4
102
{ACAD_XDICTIONARY
360
9D08
102
}
102
{ACAD_REACTORS
330
93F3
102
}
330
93F3
100
AcDbTableStyle
  3
Standard
 70
     0
 71
     0
 40
0.06
 41
0.06
280
     0
281
     0
  7
STANDARD
140
0.18
170
     2
 62
     0
 63
     7
283
     0
274
    -2
284
     1
 64
     0
275
    -2
285
     1
 65
     0
276
    -2
286
     1
 66
     0
277
    -2
287
     1
 67
     0
278
    -2
288
     1
 68
     0
279
    -2
289
     1
 69
     0
  7
STANDARD
140
0.25
170
     5
 62
     0
 63
     7
283
     0
274
    -2
284
     1
 64
     0
275
    -2
285
     1
 65
     0
276
    -2
286
     1
 66
     0
277
    -2
287
     1
 67
     0
278
    -2
288
     1
 68
     0
279
    -2
289
     1
 69
     0
  7
STANDARD
140
0.18
170
     5
 62
     0
 63
     7
283
     0
274
    -2
284
     1
 64
     0
275
    -2
285
     1
 65
     0
276
    -2
286
     1
 66
     0
277
    -2
287
     1
 67
     0
278
    -2
288
     1
 68
     0
279
    -2
289
     1
 69
     0
  0
VISUALSTYLE
  5
93E4
102
{ACAD_XDICTIONARY
360
9D6C
102
}
102
{ACAD_REACTORS
330
93DE
102
}
330
93DE
100
AcDbVisualStyle
  2

 70
     4
 71
     0
 72
     2
 73
     0
 90
        0
 40
-0.6
 41
-30.0
 62
     5
 63
     7
 74
     1
 91
        4
 64
     7
 65
   257
 75
     1
175
     1
 42
1.0
 92
        0
 66
   257
 43
1.0
 76
     1
 77
     6
 78
     2
 67
     7
 79
     5
170
     0
171
     0
290
     0
174
     0
 93
        1
 44
0.0
173
     0
291
     0
 45
0.0
1001
ACAD
1000
AcDbSavedByObjectVersion
1070
     0
  0
VISUALSTYLE
  5
93E6
102
{ACAD_XDICTIONARY
360
9D70
102
}
102
{ACAD_REACTORS
330
93DE
102
}
330
93DE
100
AcDbVisualStyle
  2

 70
     6
 71
     1
 72
     2
 73
     2
 90
        0
 40
-0.6
 41
-30.0
 62
     5
 63
     7
 74
     2
 91
        2
 64
     7
 65
   257
 75
     2
175
     1
 42
179.0
 92
        0
 66
   257
 43
1.0
 76
     1
 77
     6
 78
     2
 67
     7
 79
     3
170
     0
171
     0
290
     0
174
     0
 93
        1
 44
0.0
173
     0
291
     0
 45
0.0
1001
ACAD
1000
AcDbSavedByObjectVersion
1070
     0
  0
VISUALSTYLE
  5
93E5
102
{ACAD_XDICTIONARY
360
9D6E
102
}
102
{ACAD_REACTORS
330
93DE
102
}
330
93DE
100
AcDbVisualStyle
  2

 70
     5
 71
     0
 72
     2
 73
     0
 90
        0
 40
-0.6
 41
-30.0
 62
     5
 63
     7
 74
     1
 91
        4
 64
     7
 65
   257
 75
     1
175
     1
 42
1.0
 92
        0
 66
   257
 43
1.0
 76
     1
 77
     6
 78
     2
 67
     7
 79
     5
170
     0
171
     0
290
     0
174
     0
 93
        1
 44
0.0
173
     0
291
     0
 45
0.0
1001
ACAD
1000
AcDbSavedByObjectVersion
1070
     0
  0
VISUALSTYLE
  5
93E3
102
{ACAD_XDICTIONARY
360
9D6A
102
}
102
{ACAD_REACTORS
330
93DE
102
}
330
93DE
100
AcDbVisualStyle
  2

 70
     7
 71
     1
 72
     0
 73
     1
 90
        0
 40
-0.6
 41
-30.0
 62
     5
 63
     7
 74
     0
 91
        4
 64
     7
 65
   257
 75
     1
175
     1
 42
1.0
 92
        8
 66
     7
 43
1.0
 76
     1
 77
     6
 78
     2
 67
     7
 79
     5
170
     0
171
     0
290
     0
174
     0
 93
        1
 44
0.0
173
     0
291
     1
 45
0.0
1001
ACAD
1000
AcDbSavedByObjectVersion
1070
     0
  0
VISUALSTYLE
  5
93EA
102
{ACAD_XDICTIONARY
360
9D78
102
}
102
{ACAD_REACTORS
330
93DE
102
}
330
93DE
100
AcDbVisualStyle
  2

 70
    12
 71
     2
 72
     2
 73
     0
 90
        0
 40
-0.6
 41
-30.0
 62
     5
 63
     7
 74
     1
 91
        4
 64
     7
 65
   257
 75
     1
175
     1
 42
1.0
 92
        8
 66
     7
 43
1.0
 76
     1
 77
     6
 78
     2
 67
     7
 79
     5
170
     0
171
     0
290
     0
174
     0
 93
        1
 44
50.0
173
     0
291
     1
 45
0.0
1001
ACAD
1000
AcDbSavedByObjectVersion
1070
     0
  0
VISUALSTYLE
  5
93EE
102
{ACAD_XDICTIONARY
360
9D80
102
}
102
{ACAD_REACTORS
330
93DE
102
}
330
93DE
100
AcDbVisualStyle
  2

 70
    16
 71
     2
 72
     2
 73
     3
 90
        0
 40
-0.6
 41
-30.0
 62
     5
 63
     8
 74
     1
 91
        4
 64
     7
 65
   257
 75
     1
175
     1
 42
1.0
 92
        8
 66
     8
 43
1.0
 76
     1
 77
     6
 78
     2
 67
     7
 79
     5
170
     0
171
     0
290
     0
174
     0
 93
        1
 44
0.0
173
     0
291
     1
 45
0.0
1001
ACAD
1000
AcDbSavedByObjectVersion
1070
     0
  0
VISUALSTYLE
  5
93E7
102
{ACAD_XDICTIONARY
360
9D72
102
}
102
{ACAD_REACTORS
330
93DE
102
}
330
93DE
100
AcDbVisualStyle
  2

 70
     9
 71
     3
 72
     2
 73
     0
 90
        0
 40
-0.6
 41
-30.0
 62
     5
 63
     7
 74
     2
 91
        2
 64
     7
 65
   257
 75
     1
175
     1
 42
179.0
 92
        8
 66
     7
 43
1.0
 76
     1
 77
     6
 78
     2
 67
     7
 79
     3
170
     0
171
     0
290
     0
174
     0
 93
        1
 44
0.0
173
     0
291
     0
 45
0.0
1001
ACAD
1000
AcDbSavedByObjectVersion
1070
     0
  0
VISUALSTYLE
  5
93E9
102
{ACAD_XDICTIONARY
360
9D76
102
}
102
{ACAD_REACTORS
330
93DE
102
}
330
93DE
100
AcDbVisualStyle
  2

 70
    11
 71
     2
 72
     2
 73
     0
 90
        0
 40
-0.6
 41
-30.0
 62
     5
 63
     7
 74
     1
 91
        4
 64
     7
 65
   257
 75
     1
175
     1
 42
1.0
 92
        8
 66
     7
 43
1.0
 76
     1
 77
     6
 78
     2
 67
     7
 79
     5
170
     0
171
     0
290
     0
174
     0
 93
        1
 44
-50.0
173
     0
291
     1
 45
0.0
1001
ACAD
1000
AcDbSavedByObjectVersion
1070
     0
  0
VISUALSTYLE
  5
93F1
102
{ACAD_XDICTIONARY
360
9D86
102
}
102
{ACAD_REACTORS
330
93DE
102
}
330
93DE
100
AcDbVisualStyle
  2

 70
    22
 71
     2
 72
     2
 73
     0
 90
        0
 40
-0.6
 41
-30.0
 62
     5
 63
     7
 74
     1
 91
        4
 64
     7
 65
   257
 75
     1
175
     1
 42
1.0
 92
        8
 66
     7
 43
1.0
 76
     1
 77
     6
 78
     2
 67
     7
 79
     5
170
     0
171
     0
290
     0
174
     0
 93
        1
 44
0.0
173
     0
291
     1
 45
0.0
1001
ACAD
1000
AcDbSavedByObjectVersion
1070
     0
  0
VISUALSTYLE
  5
93ED
102
{ACAD_XDICTIONARY
360
9D7E
102
}
102
{ACAD_REACTORS
330
93DE
102
}
330
93DE
100
AcDbVisualStyle
  2

 70
    15
 71
     2
 72
     2
 73
     0
 90
        0
 40
-0.6
 41
-30.0
 62
     5
 63
     7
 74
     1
 91
        4
 64
     7
 65
   257
 75
     1
175
     1
 42
1.0
 92
        8
 66
     7
 43
1.0
 76
     1
 77
     6
 78
     2
 67
     7
 79
     5
170
     0
171
     0
290
     0
174
     0
 93
        1
 44
0.0
173
     0
291
     1
 45
0.0
1001
ACAD
1000
AcDbSavedByObjectVersion
1070
     0
  0
VISUALSTYLE
  5
93DF
102
{ACAD_XDICTIONARY
360
9D62
102
}
102
{ACAD_REACTORS
330
93DE
102
}
330
93DE
100
AcDbVisualStyle
  2

 70
     0
 71
     2
 72
     1
 73
     1
 90
        2
 40
-0.6
 41
30.0
 62
     5
 63
     7
 74
     0
 91
        4
 64
     7
 65
   257
 75
     1
175
     1
 42
1.0
 92
        8
 66
     7
 43
1.0
 76
     1
 77
     6
 78
     2
 67
     7
 79
     5
170
     0
171
     0
290
     0
174
     0
 93
       13
 44
0.0
173
     0
291
     1
 45
0.0
1001
ACAD
1000
AcDbSavedByObjectVersion
1070
     0
  0
VISUALSTYLE
  5
93E0
102
{ACAD_XDICTIONARY
360
9D64
102
}
102
{ACAD_REACTORS
330
93DE
102
}
330
93DE
100
AcDbVisualStyle
  2

 70
     1
 71
     2
 72
     1
 73
     1
 90
        2
 40
-0.6
 41
30.0
 62
     5
 63
     7
 74
     1
 91
        4
 64
     7
 65
   257
 75
     1
175
     1
 42
1.0
 92
        0
 66
   257
 43
1.0
 76
     1
 77
     6
 78
     2
 67
     7
 79
     5
170
     0
171
     0
290
     0
174
     0
 93
       13
 44
0.0
173
     0
291
     1
 45
0.0
1001
ACAD
1000
AcDbSavedByObjectVersion
1070
     0
  0
VISUALSTYLE
  5
93E1
102
{ACAD_XDICTIONARY
360
9D66
102
}
102
{ACAD_REACTORS
330
93DE
102
}
330
93DE
100
AcDbVisualStyle
  2

 70
     2
 71
     2
 72
     2
 73
     1
 90
        2
 40
-0.6
 41
30.0
 62
     5
 63
     7
 74
     0
 91
        4
 64
     7
 65
   257
 75
     1
175
     1
 42
1.0
 92
        0
 66
     7
 43
1.0
 76
     1
 77
     6
 78
     2
 67
     7
 79
     5
170
     0
171
     0
290
     0
174
     0
 93
       13
 44
0.0
173
     0
291
     1
 45
0.0
1001
ACAD
1000
AcDbSavedByObjectVersion
1070
     0
  0
VISUALSTYLE
  5
93E2
102
{ACAD_XDICTIONARY
360
9D68
102
}
102
{ACAD_REACTORS
330
93DE
102
}
330
93DE
100
AcDbVisualStyle
  2

 70
     3
 71
     2
 72
     2
 73
     1
 90
        2
 40
-0.6
 41
30.0
 62
     5
 63
     7
 74
     1
 91
        4
 64
     7
 65
   257
 75
     1
175
     1
 42
1.0
 92
        0
 66
   257
 43
1.0
 76
     1
 77
     6
 78
     2
 67
     7
 79
     5
170
     0
171
     0
290
     0
174
     0
 93
       13
 44
0.0
173
     0
291
     1
 45
0.0
1001
ACAD
1000
AcDbSavedByObjectVersion
1070
     0
  0
VISUALSTYLE
  5
93EF
102
{ACAD_XDICTIONARY
360
9D82
102
}
102
{ACAD_REACTORS
330
93DE
102
}
330
93DE
100
AcDbVisualStyle
  2

 70
    20
 71
     2
 72
     2
 73
     0
 90
        0
 40
-0.6
 41
-30.0
 62
     5
 63
     7
 74
     1
 91
        4
 64
     7
 65
   257
 75
     1
175
     1
 42
1.0
 92
       10
 66
     7
 43
1.0
 76
     1
 77
     6
 78
     2
 67
     7
 79
     5
170
     0
171
     0
290
     0
174
     0
 93
        1
 44
0.0
173
     0
291
     1
 45
0.0
1001
ACAD
1000
AcDbSavedByObjectVersion
1070
     0
  0
VISUALSTYLE
  5
93EC
102
{ACAD_XDICTIONARY
360
9D7C
102
}
102
{ACAD_REACTORS
330
93DE
102
}
330
93DE
100
AcDbVisualStyle
  2

 70
    14
 71
     2
 72
     2
 73
     0
 90
        0
 40
-0.6
 41
-30.0
 62
     5
 63
     7
 74
     1
 91
        4
 64
     7
 65
   257
 75
     7
175
     7
 42
1.0
 92
        8
 66
     7
 43
1.0
 76
     1
 77
     6
 78
     2
 67
     7
 79
     5
170
     0
171
     0
290
     0
174
     0
 93
        1
 44
0.0
173
     0
291
     1
 45
0.0
1001
ACAD
1000
AcDbSavedByObjectVersion
1070
     0
  0
VISUALSTYLE
  5
93F0
102
{ACAD_XDICTIONARY
360
9D84
102
}
102
{ACAD_REACTORS
330
93DE
102
}
330
93DE
100
AcDbVisualStyle
  2

 70
    21
 71
     2
 72
     2
 73
     0
 90
        0
 40
-0.6
 41
-30.0
 62
     5
 63
     7
 74
     1
 91
        4
 64
     7
 65
   257
 75
     1
175
     1
 42
1.0
 92
        9
 66
     7
 43
1.0
 76
     1
 77
     6
 78
     2
 67
     7
 79
     5
170
     0
171
     0
290
     0
174
     0
 93
        1
 44
0.0
173
     0
291
     1
 45
0.0
1001
ACAD
1000
AcDbSavedByObjectVersion
1070
     0
  0
VISUALSTYLE
  5
93E8
102
{ACAD_XDICTIONARY
360
9D74
102
}
102
{ACAD_REACTORS
330
93DE
102
}
330
93DE
100
AcDbVisualStyle
  2

 70
     8
 71
     2
 72
     2
 73
     0
 90
        0
 40
-0.6
 41
-30.0
 62
     5
 63
     7
 74
     1
 91
        0
 64
     7
 65
   257
 75
     1
175
     1
 42
1.0
 92
        8
 66
     8
 43
1.0
 76
     1
 77
     6
 78
     2
 67
     7
 79
     5
170
     0
171
     0
290
     0
174
     0
 93
       13
 44
0.0
173
     0
291
     0
 45
0.0
1001
ACAD
1000
AcDbSavedByObjectVersion
1070
     0
  0
VISUALSTYLE
  5
93EB
102
{ACAD_XDICTIONARY
360
9D7A
102
}
102
{ACAD_REACTORS
330
93DE
102
}
330
93DE
100
AcDbVisualStyle
  2

 70
    13
 71
     2
 72
     2
 73
     0
 90
        0
 40
-0.6
 41
-30.0
 62
     5
 63
     7
 74
     1
 91
        4
 64
     7
 65
   257
 75
     1
175
     1
 42
1.0
 92
       12
 66
     7
 43
1.0
 76
     1
 77
     6
 78
     2
 67
     7
 79
     5
170
     0
171
     0
290
     0
174
     0
 93
        1
 44
0.0
173
     0
291
     1
 45
0.0
1001
ACAD
1000
AcDbSavedByObjectVersion
1070
     0
  0
DICTIONARYVAR
  5
9435
102
{ACAD_REACTORS
330
5B5E
102
}
330
5B5E
100
DictionaryVariables
280
     0
  1
1:1
  0
DICTIONARYVAR
  5
9434
102
{ACAD_REACTORS
330
5B5E
102
}
330
5B5E
100
DictionaryVariables
280
     0
  1
STANDARD
  0
DICTIONARYVAR
  5
9433
102
{ACAD_REACTORS
330
5B5E
102
}
330
5B5E
100
DictionaryVariables
280
     0
  1
STANDARD
  0
DICTIONARYVAR
  5
5B5F
102
{ACAD_REACTORS
330
5B5E
102
}
330
5B5E
100
DictionaryVariables
280
     0
  1
1
  0
DICTIONARYVAR
  5
9437
102
{ACAD_REACTORS
330
5B5E
102
}
330
5B5E
100
DictionaryVariables
280
     0
  1
0
  0
DICTIONARYVAR
  5
9436
102
{ACAD_REACTORS
330
5B5E
102
}
330
5B5E
100
DictionaryVariables
280
     0
  1
127
  0
DICTIONARYVAR
  5
9D58
102
{ACAD_REACTORS
330
5B5E
102
}
330
5B5E
100
DictionaryVariables
280
     0
  1
2
  0
XRECORD
  5
9432
102
{ACAD_REACTORS
330
9430
102
}
330
9430
100
AcDbXrecord
280
     1
330
8C16
330
8C17
330
8C0D
330
8C0E
330
8C04
330
8C05
330
9355
330
9356
330
8BFB
330
8BFC
330
8BF2
330
8BF3
330
8D01
330
8D02
330
8D0A
330
8D0B
330
8D1D
330
8D1E
330
8CE6
330
8CE7
330
8CEF
330
8CF0
330
8D13
330
8D14
330
8D38
330
8D39
330
9334
330
9335
330
8B96
330
8B97
330
9390
330
9391
330
9399
330
939A
330
9CCA
330
9CCB
330
8B72
330
8B73
330
8B69
330
8B6A
330
8D4E
330
8D4F
330
8D73
330
8D74
330
932B
330
932C
330
92EE
330
92EF
330
92F9
330
92FA
330
93A2
330
93A3
330
93AB
330
93AC
330
9320
330
9321
330
9B2D
330
9B2E
330
9B36
330
9B37
330
9B40
330
9B41
330
9B49
330
9B4A
330
9B53
330
9B54
330
9B5C
330
9B5D
330
9B65
330
9B66
330
9B6E
330
9B6F
330
9B77
330
9B78
330
9B81
330
9B82
330
9B8A
330
9B8B
330
9B93
330
9B94
330
9B9C
330
9B9D
330
9BA5
330
9BA6
330
9D02
330
9D03
330
9BB7
330
9BB8
330
9BC0
330
9BC1
330
9BC9
330
9BCA
330
9BD2
330
9BD3
330
9BDC
330
9BDD
330
9BE6
330
9BE7
330
9BF0
330
9BF1
330
9BFA
330
9BFB
330
9C04
330
9C05
330
9C0E
330
9C0F
330
9C18
330
9C19
330
9C22
330
9C23
330
9C2C
330
9C2D
330
9C36
330
9C37
330
9C3E
330
9CA2
330
9CA3
330
9CD3
330
9CD4
  0
DICTIONARY
  5
9D5E
330
93B8
100
AcDbDictionary
280
     1
281
     1
  3
ACAD_XREC_ROUNDTRIP
360
9D5F
  0
DICTIONARY
  5
9D60
330
93B9
100
AcDbDictionary
280
     1
281
     1
  3
ACAD_XREC_ROUNDTRIP
360
9D61
  0
DICTIONARY
  5
93CF
330
93CE
100
AcDbDictionary
280
     1
281
     1
  3
ACAD_XREC_ROUNDTRIP
360
9D13
  3
BUMPTILE
360
93D1
  3
DIFFUSETILE
360
93D0
  3
OPACITYTILE
360
93D4
  3
REFLECTIONTILE
360
93D3
  3
REFRACTIONTILE
360
93D5
  3
SPECULARTILE
360
93D2
  0
DICTIONARY
  5
93C7
330
93C6
100
AcDbDictionary
280
     1
281
     1
  3
ACAD_XREC_ROUNDTRIP
360
9D12
  3
BUMPTILE
360
93C9
  3
DIFFUSETILE
360
93C8
  3
OPACITYTILE
360
93CC
  3
REFLECTIONTILE
360
93CB
  3
REFRACTIONTILE
360
93CD
  3
SPECULARTILE
360
93CA
  0
DICTIONARY
  5
93D7
330
93D6
100
AcDbDictionary
280
     1
281
     1
  3
ACAD_XREC_ROUNDTRIP
360
9D14
  3
BUMPTILE
360
93D9
  3
DIFFUSETILE
360
93D8
  3
OPACITYTILE
360
93DC
  3
REFLECTIONTILE
360
93DB
  3
REFRACTIONTILE
360
93DD
  3
SPECULARTILE
360
93DA
  0
DICTIONARY
  5
9D08
330
93F4
100
AcDbDictionary
280
     1
281
     1
  3
ACAD_ROUNDTRIP_2008_TABLESTYLE_CELLSTYLEMAP
360
9D59
  3
ACAD_XREC_ROUNDTRIP
360
9D88
  0
DICTIONARY
  5
9D6C
330
93E4
100
AcDbDictionary
280
     1
281
     1
  3
ACAD_XREC_ROUNDTRIP
360
9D6D
  0
DICTIONARY
  5
9D70
330
93E6
100
AcDbDictionary
280
     1
281
     1
  3
ACAD_XREC_ROUNDTRIP
360
9D71
  0
DICTIONARY
  5
9D6E
330
93E5
100
AcDbDictionary
280
     1
281
     1
  3
ACAD_XREC_ROUNDTRIP
360
9D6F
  0
DICTIONARY
  5
9D6A
330
93E3
100
AcDbDictionary
280
     1
281
     1
  3
ACAD_XREC_ROUNDTRIP
360
9D6B
  0
DICTIONARY
  5
9D78
330
93EA
100
AcDbDictionary
280
     1
281
     1
  3
ACAD_XREC_ROUNDTRIP
360
9D79
  0
DICTIONARY
  5
9D80
330
93EE
100
AcDbDictionary
280
     1
281
     1
  3
ACAD_XREC_ROUNDTRIP
360
9D81
  0
DICTIONARY
  5
9D72
330
93E7
100
AcDbDictionary
280
     1
281
     1
  3
ACAD_XREC_ROUNDTRIP
360
9D73
  0
DICTIONARY
  5
9D76
330
93E9
100
AcDbDictionary
280
     1
281
     1
  3
ACAD_XREC_ROUNDTRIP
360
9D77
  0
DICTIONARY
  5
9D86
330
93F1
100
AcDbDictionary
280
     1
281
     1
  3
ACAD_XREC_ROUNDTRIP
360
9D87
  0
DICTIONARY
  5
9D7E
330
93ED
100
AcDbDictionary
280
     1
281
     1
  3
ACAD_XREC_ROUNDTRIP
360
9D7F
  0
DICTIONARY
  5
9D62
330
93DF
100
AcDbDictionary
280
     1
281
     1
  3
ACAD_XREC_ROUNDTRIP
360
9D63
  0
DICTIONARY
  5
9D64
330
93E0
100
AcDbDictionary
280
     1
281
     1
  3
ACAD_XREC_ROUNDTRIP
360
9D65
  0
DICTIONARY
  5
9D66
330
93E1
100
AcDbDictionary
280
     1
281
     1
  3
ACAD_XREC_ROUNDTRIP
360
9D67
  0
DICTIONARY
  5
9D68
330
93E2
100
AcDbDictionary
280
     1
281
     1
  3
ACAD_XREC_ROUNDTRIP
360
9D69
  0
DICTIONARY
  5
9D82
330
93EF
100
AcDbDictionary
280
     1
281
     1
  3
ACAD_XREC_ROUNDTRIP
360
9D83
  0
DICTIONARY
  5
9D7C
330
93EC
100
AcDbDictionary
280
     1
281
     1
  3
ACAD_XREC_ROUNDTRIP
360
9D7D
  0
DICTIONARY
  5
9D84
330
93F0
100
AcDbDictionary
280
     1
281
     1
  3
ACAD_XREC_ROUNDTRIP
360
9D85
  0
DICTIONARY
  5
9D74
330
93E8
100
AcDbDictionary
280
     1
281
     1
  3
ACAD_XREC_ROUNDTRIP
360
9D75
  0
DICTIONARY
  5
9D7A
330
93EB
100
AcDbDictionary
280
     1
281
     1
  3
ACAD_XREC_ROUNDTRIP
360
9D7B
  0
XRECORD
  5
9D5F
102
{ACAD_REACTORS
330
9D5E
102
}
330
9D5E
100
AcDbXrecord
280
     1
102
SHADEPLOT
 70
     0
102
SHADEPLOTRESLEVEL
 70
     2
102
SHADEPLOTCUSTOMDPI
 70
   300
  0
XRECORD
  5
9D61
102
{ACAD_REACTORS
330
9D60
102
}
330
9D60
100
AcDbXrecord
280
     1
102
SHADEPLOT
 70
     0
102
SHADEPLOTRESLEVEL
 70
     2
102
SHADEPLOTCUSTOMDPI
 70
   300
  0
XRECORD
  5
9D13
102
{ACAD_REACTORS
330
93CF
102
}
330
93CF
100
AcDbXrecord
280
     1
102
MATERIAL
148
0.0
149
0.0
149
0.0
 93
        0
 94
      127
282
     0
 72
     0
 77
     0
171
     0
175
     0
179
     0
273
     0
  0
XRECORD
  5
93D1
102
{ACAD_REACTORS
330
93CF
102
}
330
93CF
100
AcDbXrecord
280
     1
270
     1
271
     1
  0
XRECORD
  5
93D0
102
{ACAD_REACTORS
330
93CF
102
}
330
93CF
100
AcDbXrecord
280
     1
270
     1
271
     1
  0
XRECORD
  5
93D4
102
{ACAD_REACTORS
330
93CF
102
}
330
93CF
100
AcDbXrecord
280
     1
270
     1
271
     1
  0
XRECORD
  5
93D3
102
{ACAD_REACTORS
330
93CF
102
}
330
93CF
100
AcDbXrecord
280
     1
270
     1
271
     1
  0
XRECORD
  5
93D5
102
{ACAD_REACTORS
330
93CF
102
}
330
93CF
100
AcDbXrecord
280
     1
270
     1
271
     1
  0
XRECORD
  5
93D2
102
{ACAD_REACTORS
330
93CF
102
}
330
93CF
100
AcDbXrecord
280
     1
270
     1
271
     1
  0
XRECORD
  5
9D12
102
{ACAD_REACTORS
330
93C7
102
}
330
93C7
100
AcDbXrecord
280
     1
102
MATERIAL
148
0.0
149
0.0
149
0.0
 93
        0
 94
      127
282
     0
 72
     0
 77
     0
171
     0
175
     0
179
     0
273
     0
  0
XRECORD
  5
93C9
102
{ACAD_REACTORS
330
93C7
102
}
330
93C7
100
AcDbXrecord
280
     1
270
     1
271
     1
  0
XRECORD
  5
93C8
102
{ACAD_REACTORS
330
93C7
102
}
330
93C7
100
AcDbXrecord
280
     1
270
     1
271
     1
  0
XRECORD
  5
93CC
102
{ACAD_REACTORS
330
93C7
102
}
330
93C7
100
AcDbXrecord
280
     1
270
     1
271
     1
  0
XRECORD
  5
93CB
102
{ACAD_REACTORS
330
93C7
102
}
330
93C7
100
AcDbXrecord
280
     1
270
     1
271
     1
  0
XRECORD
  5
93CD
102
{ACAD_REACTORS
330
93C7
102
}
330
93C7
100
AcDbXrecord
280
     1
270
     1
271
     1
  0
XRECORD
  5
93CA
102
{ACAD_REACTORS
330
93C7
102
}
330
93C7
100
AcDbXrecord
280
     1
270
     1
271
     1
  0
XRECORD
  5
9D14
102
{ACAD_REACTORS
330
93D7
102
}
330
93D7
100
AcDbXrecord
280
     1
102
MATERIAL
148
0.0
149
0.0
149
0.0
 93
        0
 94
      127
282
     0
 72
     0
 77
     0
171
     0
175
     0
179
     0
273
     0
  0
XRECORD
  5
93D9
102
{ACAD_REACTORS
330
93D7
102
}
330
93D7
100
AcDbXrecord
280
     1
270
     1
271
     1
  0
XRECORD
  5
93D8
102
{ACAD_REACTORS
330
93D7
102
}
330
93D7
100
AcDbXrecord
280
     1
270
     1
271
     1
  0
XRECORD
  5
93DC
102
{ACAD_REACTORS
330
93D7
102
}
330
93D7
100
AcDbXrecord
280
     1
270
     1
271
     1
  0
XRECORD
  5
93DB
102
{ACAD_REACTORS
330
93D7
102
}
330
93D7
100
AcDbXrecord
280
     1
270
     1
271
     1
  0
XRECORD
  5
93DD
102
{ACAD_REACTORS
330
93D7
102
}
330
93D7
100
AcDbXrecord
280
     1
270
     1
271
     1
  0
XRECORD
  5
93DA
102
{ACAD_REACTORS
330
93D7
102
}
330
93D7
100
AcDbXrecord
280
     1
270
     1
271
     1
  0
CELLSTYLEMAP
  5
9D59
102
{ACAD_REACTORS
330
9D08
102
}
330
9D08
100
AcDbCellStyleMap
 90
        3
300
CELLSTYLE
  1
TABLEFORMAT_BEGIN
 90
        5
170
     1
 91
        0
 92
    32768
 62
   257
 93
        1
300
CONTENTFORMAT
  1
CONTENTFORMAT_BEGIN
 90
        0
 91
        0
 92
      512
 93
        0
300

 40
0.0
140
1.0
 94
        5
 62
     0
340
11
144
0.25
309
CONTENTFORMAT_END
171
     1
301
MARGIN
  1
CELLMARGIN_BEGIN
 40
0.06
 40
0.06
 40
0.06
 40
0.06
 40
0.18
 40
0.18
309
CELLMARGIN_END
 94
        6
 95
        1
302
GRIDFORMAT
  1
GRIDFORMAT_BEGIN
 90
        0
 91
        1
 62
     0
 92
       -2
340
0
 93
        0
 40
0.045
309
GRIDFORMAT_END
 95
        2
302
GRIDFORMAT
  1
GRIDFORMAT_BEGIN
 90
        0
 91
        1
 62
     0
 92
       -2
340
0
 93
        0
 40
0.045
309
GRIDFORMAT_END
 95
        4
302
GRIDFORMAT
  1
GRIDFORMAT_BEGIN
 90
        0
 91
        1
 62
     0
 92
       -2
340
0
 93
        0
 40
0.045
309
GRIDFORMAT_END
 95
        8
302
GRIDFORMAT
  1
GRIDFORMAT_BEGIN
 90
        0
 91
        1
 62
     0
 92
       -2
340
0
 93
        0
 40
0.045
309
GRIDFORMAT_END
 95
       16
302
GRIDFORMAT
  1
GRIDFORMAT_BEGIN
 90
        0
 91
        1
 62
     0
 92
       -2
340
0
 93
        0
 40
0.045
309
GRIDFORMAT_END
 95
       32
302
GRIDFORMAT
  1
GRIDFORMAT_BEGIN
 90
        0
 91
        1
 62
     0
 92
       -2
340
0
 93
        0
 40
0.045
309
GRIDFORMAT_END
309
TABLEFORMAT_END
  1
CELLSTYLE_BEGIN
 90
        1
 91
        1
300
_TITLE
309
CELLSTYLE_END
300
CELLSTYLE
  1
TABLEFORMAT_BEGIN
 90
        5
170
     1
 91
        0
 92
        0
 62
   257
 93
        1
300
CONTENTFORMAT
  1
CONTENTFORMAT_BEGIN
 90
        0
 91
        0
 92
      512
 93
        0
300

 40
0.0
140
1.0
 94
        5
 62
     0
340
11
144
0.18
309
CONTENTFORMAT_END
171
     1
301
MARGIN
  1
CELLMARGIN_BEGIN
 40
0.06
 40
0.06
 40
0.06
 40
0.06
 40
0.18
 40
0.18
309
CELLMARGIN_END
 94
        6
 95
        1
302
GRIDFORMAT
  1
GRIDFORMAT_BEGIN
 90
        0
 91
        1
 62
     0
 92
       -2
340
0
 93
        0
 40
0.045
309
GRIDFORMAT_END
 95
        2
302
GRIDFORMAT
  1
GRIDFORMAT_BEGIN
 90
        0
 91
        1
 62
     0
 92
       -2
340
0
 93
        0
 40
0.045
309
GRIDFORMAT_END
 95
        4
302
GRIDFORMAT
  1
GRIDFORMAT_BEGIN
 90
        0
 91
        1
 62
     0
 92
       -2
340
0
 93
        0
 40
0.045
309
GRIDFORMAT_END
 95
        8
302
GRIDFORMAT
  1
GRIDFORMAT_BEGIN
 90
        0
 91
        1
 62
     0
 92
       -2
340
0
 93
        0
 40
0.045
309
GRIDFORMAT_END
 95
       16
302
GRIDFORMAT
  1
GRIDFORMAT_BEGIN
 90
        0
 91
        1
 62
     0
 92
       -2
340
0
 93
        0
 40
0.045
309
GRIDFORMAT_END
 95
       32
302
GRIDFORMAT
  1
GRIDFORMAT_BEGIN
 90
        0
 91
        1
 62
     0
 92
       -2
340
0
 93
        0
 40
0.045
309
GRIDFORMAT_END
309
TABLEFORMAT_END
  1
CELLSTYLE_BEGIN
 90
        2
 91
        1
300
_HEADER
309
CELLSTYLE_END
300
CELLSTYLE
  1
TABLEFORMAT_BEGIN
 90
        5
170
     1
 91
        0
 92
        0
 62
   257
 93
        1
300
CONTENTFORMAT
  1
CONTENTFORMAT_BEGIN
 90
        0
 91
        0
 92
      512
 93
        0
300

 40
0.0
140
1.0
 94
        2
 62
     0
340
11
144
0.18
309
CONTENTFORMAT_END
171
     1
301
MARGIN
  1
CELLMARGIN_BEGIN
 40
0.06
 40
0.06
 40
0.06
 40
0.06
 40
0.18
 40
0.18
309
CELLMARGIN_END
 94
        6
 95
        1
302
GRIDFORMAT
  1
GRIDFORMAT_BEGIN
 90
        0
 91
        1
 62
     0
 92
       -2
340
0
 93
        0
 40
0.045
309
GRIDFORMAT_END
 95
        2
302
GRIDFORMAT
  1
GRIDFORMAT_BEGIN
 90
        0
 91
        1
 62
     0
 92
       -2
340
0
 93
        0
 40
0.045
309
GRIDFORMAT_END
 95
        4
302
GRIDFORMAT
  1
GRIDFORMAT_BEGIN
 90
        0
 91
        1
 62
     0
 92
       -2
340
0
 93
        0
 40
0.045
309
GRIDFORMAT_END
 95
        8
302
GRIDFORMAT
  1
GRIDFORMAT_BEGIN
 90
        0
 91
        1
 62
     0
 92
       -2
340
0
 93
        0
 40
0.045
309
GRIDFORMAT_END
 95
       16
302
GRIDFORMAT
  1
GRIDFORMAT_BEGIN
 90
        0
 91
        1
 62
     0
 92
       -2
340
0
 93
        0
 40
0.045
309
GRIDFORMAT_END
 95
       32
302
GRIDFORMAT
  1
GRIDFORMAT_BEGIN
 90
        0
 91
        1
 62
     0
 92
       -2
340
0
 93
        0
 40
0.045
309
GRIDFORMAT_END
309
TABLEFORMAT_END
  1
CELLSTYLE_BEGIN
 90
        3
 91
        2
300
_DATA
309
CELLSTYLE_END
  0
XRECORD
  5
9D88
102
{ACAD_REACTORS
330
9D08
102
}
330
9D08
100
AcDbXrecord
280
     1
102
ACAD_ROUNDTRIP_PRE2007_TABLESTYLE
 90
      512
 91
        0
  1

 92
      512
 93
        0
  2

 94
      512
 95
        0
  3

  0
XRECORD
  5
9D6D
102
{ACAD_REACTORS
330
9D6C
102
}
330
9D6C
100
AcDbXrecord
280
     1
102
RTVSPropertyOp0
 70
     1
102
RTVSPropertyOp1
 70
     1
102
RTVSPropertyOp2
 70
     1
102
RTVSPropertyOp3
 70
     1
102
RTVSPropertyOp4
 70
     1
102
RTVSPropertyOp5
 70
     1
102
RTVSPropertyOp6
 70
     1
102
RTVSPropertyOp7
 70
     1
102
RTVSPropertyOp8
 70
     1
102
RTVSPropertyOp9
 70
     1
102
RTVSPropertyOp10
 70
     1
102
RTVSPropertyOp11
 70
     1
102
RTVSPropertyOp12
 70
     1
102
RTVSPropertyOp13
 70
     1
102
RTVSPropertyOp14
 70
     1
102
RTVSPropertyOp15
 70
     1
102
RTVSPropertyOp16
 70
     1
102
RTVSPropertyOp17
 70
     1
102
RTVSPropertyOp18
 70
     1
102
RTVSPropertyOp19
 70
     1
102
RTVSPropertyOp20
 70
     1
102
RTVSPropertyOp21
 70
     1
102
RTVSPropertyOp22
 70
     1
102
RTVSPropertyOp23
 70
     1
102
RTVSPropertyOp24
 70
     1
102
RTVSPropertyOp25
 70
     1
102
RTVSPropertyOp26
 70
     1
102
RTVSPropertyOp27
 70
     1
  0
XRECORD
  5
9D71
102
{ACAD_REACTORS
330
9D70
102
}
330
9D70
100
AcDbXrecord
280
     1
102
RTVSPropertyOp0
 70
     1
102
RTVSPropertyOp1
 70
     1
102
RTVSPropertyOp2
 70
     1
102
RTVSPropertyOp3
 70
     1
102
RTVSPropertyOp4
 70
     1
102
RTVSPropertyOp5
 70
     1
102
RTVSPropertyOp6
 70
     1
102
RTVSPropertyOp7
 70
     1
102
RTVSPropertyOp8
 70
     1
102
RTVSPropertyOp9
 70
     1
102
RTVSPropertyOp10
 70
     1
102
RTVSPropertyOp11
 70
     1
102
RTVSPropertyOp12
 70
     1
102
RTVSPropertyOp13
 70
     1
102
RTVSPropertyOp14
 70
     1
102
RTVSPropertyOp15
 70
     1
102
RTVSPropertyOp16
 70
     1
102
RTVSPropertyOp17
 70
     1
102
RTVSPropertyOp18
 70
     1
102
RTVSPropertyOp19
 70
     1
102
RTVSPropertyOp20
 70
     1
102
RTVSPropertyOp21
 70
     1
102
RTVSPropertyOp22
 70
     1
102
RTVSPropertyOp23
 70
     1
102
RTVSPropertyOp24
 70
     1
102
RTVSPropertyOp25
 70
     1
102
RTVSPropertyOp26
 70
     1
102
RTVSPropertyOp27
 70
     1
  0
XRECORD
  5
9D6F
102
{ACAD_REACTORS
330
9D6E
102
}
330
9D6E
100
AcDbXrecord
280
     1
102
RTVSPropertyOp0
 70
     1
102
RTVSPropertyOp1
 70
     1
102
RTVSPropertyOp2
 70
     1
102
RTVSPropertyOp3
 70
     1
102
RTVSPropertyOp4
 70
     1
102
RTVSPropertyOp5
 70
     1
102
RTVSPropertyOp6
 70
     1
102
RTVSPropertyOp7
 70
     1
102
RTVSPropertyOp8
 70
     1
102
RTVSPropertyOp9
 70
     1
102
RTVSPropertyOp10
 70
     1
102
RTVSPropertyOp11
 70
     1
102
RTVSPropertyOp12
 70
     1
102
RTVSPropertyOp13
 70
     1
102
RTVSPropertyOp14
 70
     1
102
RTVSPropertyOp15
 70
     1
102
RTVSPropertyOp16
 70
     1
102
RTVSPropertyOp17
 70
     1
102
RTVSPropertyOp18
 70
     1
102
RTVSPropertyOp19
 70
     1
102
RTVSPropertyOp20
 70
     1
102
RTVSPropertyOp21
 70
     1
102
RTVSPropertyOp22
 70
     1
102
RTVSPropertyOp23
 70
     1
102
RTVSPropertyOp24
 70
     1
102
RTVSPropertyOp25
 70
     1
102
RTVSPropertyOp26
 70
     1
102
RTVSPropertyOp27
 70
     1
  0
XRECORD
  5
9D6B
102
{ACAD_REACTORS
330
9D6A
102
}
330
9D6A
100
AcDbXrecord
280
     1
102
RTVSPropertyOp0
 70
     1
102
RTVSPropertyOp1
 70
     1
102
RTVSPropertyOp2
 70
     1
102
RTVSPropertyOp3
 70
     1
102
RTVSPropertyOp4
 70
     1
102
RTVSPropertyOp5
 70
     1
102
RTVSPropertyOp6
 70
     1
102
RTVSPropertyOp7
 70
     1
102
RTVSPropertyOp8
 70
     1
102
RTVSPropertyOp9
 70
     1
102
RTVSPropertyOp10
 70
     1
102
RTVSPropertyOp11
 70
     1
102
RTVSPropertyOp12
 70
     1
102
RTVSPropertyOp13
 70
     1
102
RTVSPropertyOp14
 70
     1
102
RTVSPropertyOp15
 70
     1
102
RTVSPropertyOp16
 70
     1
102
RTVSPropertyOp17
 70
     1
102
RTVSPropertyOp18
 70
     1
102
RTVSPropertyOp19
 70
     1
102
RTVSPropertyOp20
 70
     1
102
RTVSPropertyOp21
 70
     1
102
RTVSPropertyOp22
 70
     1
102
RTVSPropertyOp23
 70
     1
102
RTVSPropertyOp24
 70
     1
102
RTVSPropertyOp25
 70
     1
102
RTVSPropertyOp26
 70
     1
102
RTVSPropertyOp27
 70
     1
  0
XRECORD
  5
9D79
102
{ACAD_REACTORS
330
9D78
102
}
330
9D78
100
AcDbXrecord
280
     1
102
RTVSPropertyOp0
 70
     1
102
RTVSPropertyOp1
 70
     1
102
RTVSPropertyOp2
 70
     1
102
RTVSPropertyOp3
 70
     1
102
RTVSPropertyOp4
 70
     1
102
RTVSPropertyOp5
 70
     1
102
RTVSPropertyOp6
 70
     1
102
RTVSPropertyOp7
 70
     1
102
RTVSPropertyOp8
 70
     1
102
RTVSPropertyOp9
 70
     1
102
RTVSPropertyOp10
 70
     1
102
RTVSPropertyOp11
 70
     1
102
RTVSPropertyOp12
 70
     1
102
RTVSPropertyOp13
 70
     1
102
RTVSPropertyOp14
 70
     1
102
RTVSPropertyOp15
 70
     1
102
RTVSPropertyOp16
 70
     1
102
RTVSPropertyOp17
 70
     1
102
RTVSPropertyOp18
 70
     1
102
RTVSPropertyOp19
 70
     1
102
RTVSPropertyOp20
 70
     1
102
RTVSPropertyOp21
 70
     1
102
RTVSPropertyOp22
 70
     1
102
RTVSPropertyOp23
 70
     1
102
RTVSPropertyOp24
 70
     1
102
RTVSPropertyOp25
 70
     1
102
RTVSPropertyOp26
 70
     1
102
RTVSPropertyOp27
 70
     1
  0
XRECORD
  5
9D81
102
{ACAD_REACTORS
330
9D80
102
}
330
9D80
100
AcDbXrecord
280
     1
102
RTVSPropertyOp0
 70
     1
102
RTVSPropertyOp1
 70
     1
102
RTVSPropertyOp2
 70
     1
102
RTVSPropertyOp3
 70
     1
102
RTVSPropertyOp4
 70
     1
102
RTVSPropertyOp5
 70
     1
102
RTVSPropertyOp6
 70
     1
102
RTVSPropertyOp7
 70
     1
102
RTVSPropertyOp8
 70
     1
102
RTVSPropertyOp9
 70
     1
102
RTVSPropertyOp10
 70
     1
102
RTVSPropertyOp11
 70
     1
102
RTVSPropertyOp12
 70
     1
102
RTVSPropertyOp13
 70
     1
102
RTVSPropertyOp14
 70
     1
102
RTVSPropertyOp15
 70
     1
102
RTVSPropertyOp16
 70
     1
102
RTVSPropertyOp17
 70
     1
102
RTVSPropertyOp18
 70
     1
102
RTVSPropertyOp19
 70
     1
102
RTVSPropertyOp20
 70
     1
102
RTVSPropertyOp21
 70
     1
102
RTVSPropertyOp22
 70
     1
102
RTVSPropertyOp23
 70
     1
102
RTVSPropertyOp24
 70
     1
102
RTVSPropertyOp25
 70
     1
102
RTVSPropertyOp26
 70
     1
102
RTVSPropertyOp27
 70
     1
  0
XRECORD
  5
9D73
102
{ACAD_REACTORS
330
9D72
102
}
330
9D72
100
AcDbXrecord
280
     1
102
RTVSPropertyOp0
 70
     1
102
RTVSPropertyOp1
 70
     1
102
RTVSPropertyOp2
 70
     1
102
RTVSPropertyOp3
 70
     1
102
RTVSPropertyOp4
 70
     1
102
RTVSPropertyOp5
 70
     1
102
RTVSPropertyOp6
 70
     1
102
RTVSPropertyOp7
 70
     1
102
RTVSPropertyOp8
 70
     1
102
RTVSPropertyOp9
 70
     1
102
RTVSPropertyOp10
 70
     1
102
RTVSPropertyOp11
 70
     1
102
RTVSPropertyOp12
 70
     1
102
RTVSPropertyOp13
 70
     1
102
RTVSPropertyOp14
 70
     1
102
RTVSPropertyOp15
 70
     1
102
RTVSPropertyOp16
 70
     1
102
RTVSPropertyOp17
 70
     1
102
RTVSPropertyOp18
 70
     1
102
RTVSPropertyOp19
 70
     1
102
RTVSPropertyOp20
 70
     1
102
RTVSPropertyOp21
 70
     1
102
RTVSPropertyOp22
 70
     1
102
RTVSPropertyOp23
 70
     1
102
RTVSPropertyOp24
 70
     1
102
RTVSPropertyOp25
 70
     1
102
RTVSPropertyOp26
 70
     1
102
RTVSPropertyOp27
 70
     1
  0
XRECORD
  5
9D77
102
{ACAD_REACTORS
330
9D76
102
}
330
9D76
100
AcDbXrecord
280
     1
102
RTVSPropertyOp0
 70
     1
102
RTVSPropertyOp1
 70
     1
102
RTVSPropertyOp2
 70
     1
102
RTVSPropertyOp3
 70
     1
102
RTVSPropertyOp4
 70
     1
102
RTVSPropertyOp5
 70
     1
102
RTVSPropertyOp6
 70
     1
102
RTVSPropertyOp7
 70
     1
102
RTVSPropertyOp8
 70
     1
102
RTVSPropertyOp9
 70
     1
102
RTVSPropertyOp10
 70
     1
102
RTVSPropertyOp11
 70
     1
102
RTVSPropertyOp12
 70
     1
102
RTVSPropertyOp13
 70
     1
102
RTVSPropertyOp14
 70
     1
102
RTVSPropertyOp15
 70
     1
102
RTVSPropertyOp16
 70
     1
102
RTVSPropertyOp17
 70
     1
102
RTVSPropertyOp18
 70
     1
102
RTVSPropertyOp19
 70
     1
102
RTVSPropertyOp20
 70
     1
102
RTVSPropertyOp21
 70
     1
102
RTVSPropertyOp22
 70
     1
102
RTVSPropertyOp23
 70
     1
102
RTVSPropertyOp24
 70
     1
102
RTVSPropertyOp25
 70
     1
102
RTVSPropertyOp26
 70
     1
102
RTVSPropertyOp27
 70
     1
  0
XRECORD
  5
9D87
102
{ACAD_REACTORS
330
9D86
102
}
330
9D86
100
AcDbXrecord
280
     1
102
RTVSPropertyOp0
 70
     0
102
RTVSPropertyOp1
 70
     0
102
RTVSPropertyOp2
 70
     0
102
RTVSPropertyOp3
 70
     0
102
RTVSPropertyOp4
 70
     0
102
RTVSPropertyOp5
 70
     0
102
RTVSPropertyOp6
 70
     0
102
RTVSPropertyOp7
 70
     0
102
RTVSPropertyOp8
 70
     0
102
RTVSPropertyOp9
 70
     0
102
RTVSPropertyOp10
 70
     0
102
RTVSPropertyOp11
 70
     0
102
RTVSPropertyOp12
 70
     0
102
RTVSPropertyOp13
 70
     0
102
RTVSPropertyOp14
 70
     2
102
RTVSPropertyOp15
 70
     0
102
RTVSPropertyOp16
 70
     0
102
RTVSPropertyOp17
 70
     0
102
RTVSPropertyOp18
 70
     0
102
RTVSPropertyOp19
 70
     0
102
RTVSPropertyOp20
 70
     0
102
RTVSPropertyOp21
 70
     0
102
RTVSPropertyOp22
 70
     0
102
RTVSPropertyOp23
 70
     0
102
RTVSPropertyOp24
 70
     0
102
RTVSPropertyOp25
 70
     0
102
RTVSPropertyOp26
 70
     0
102
RTVSPropertyOp27
 70
     0
  0
XRECORD
  5
9D7F
102
{ACAD_REACTORS
330
9D7E
102
}
330
9D7E
100
AcDbXrecord
280
     1
102
RTVSPropertyOp0
 70
     1
102
RTVSPropertyOp1
 70
     1
102
RTVSPropertyOp2
 70
     1
102
RTVSPropertyOp3
 70
     1
102
RTVSPropertyOp4
 70
     1
102
RTVSPropertyOp5
 70
     1
102
RTVSPropertyOp6
 70
     1
102
RTVSPropertyOp7
 70
     1
102
RTVSPropertyOp8
 70
     1
102
RTVSPropertyOp9
 70
     1
102
RTVSPropertyOp10
 70
     1
102
RTVSPropertyOp11
 70
     1
102
RTVSPropertyOp12
 70
     1
102
RTVSPropertyOp13
 70
     1
102
RTVSPropertyOp14
 70
     1
102
RTVSPropertyOp15
 70
     1
102
RTVSPropertyOp16
 70
     1
102
RTVSPropertyOp17
 70
     1
102
RTVSPropertyOp18
 70
     1
102
RTVSPropertyOp19
 70
     1
102
RTVSPropertyOp20
 70
     1
102
RTVSPropertyOp21
 70
     1
102
RTVSPropertyOp22
 70
     1
102
RTVSPropertyOp23
 70
     1
102
RTVSPropertyOp24
 70
     1
102
RTVSPropertyOp25
 70
     1
102
RTVSPropertyOp26
 70
     1
102
RTVSPropertyOp27
 70
     1
  0
XRECORD
  5
9D63
102
{ACAD_REACTORS
330
9D62
102
}
330
9D62
100
AcDbXrecord
280
     1
102
RTVSPropertyOp0
 70
     1
102
RTVSPropertyOp1
 70
     1
102
RTVSPropertyOp2
 70
     1
102
RTVSPropertyOp3
 70
     1
102
RTVSPropertyOp4
 70
     1
102
RTVSPropertyOp5
 70
     1
102
RTVSPropertyOp6
 70
     1
102
RTVSPropertyOp7
 70
     1
102
RTVSPropertyOp8
 70
     1
102
RTVSPropertyOp9
 70
     1
102
RTVSPropertyOp10
 70
     1
102
RTVSPropertyOp11
 70
     1
102
RTVSPropertyOp12
 70
     1
102
RTVSPropertyOp13
 70
     1
102
RTVSPropertyOp14
 70
     1
102
RTVSPropertyOp15
 70
     1
102
RTVSPropertyOp16
 70
     1
102
RTVSPropertyOp17
 70
     1
102
RTVSPropertyOp18
 70
     1
102
RTVSPropertyOp19
 70
     1
102
RTVSPropertyOp20
 70
     1
102
RTVSPropertyOp21
 70
     1
102
RTVSPropertyOp22
 70
     1
102
RTVSPropertyOp23
 70
     1
102
RTVSPropertyOp24
 70
     1
102
RTVSPropertyOp25
 70
     1
102
RTVSPropertyOp26
 70
     1
102
RTVSPropertyOp27
 70
     1
  0
XRECORD
  5
9D65
102
{ACAD_REACTORS
330
9D64
102
}
330
9D64
100
AcDbXrecord
280
     1
102
RTVSPropertyOp0
 70
     1
102
RTVSPropertyOp1
 70
     1
102
RTVSPropertyOp2
 70
     1
102
RTVSPropertyOp3
 70
     1
102
RTVSPropertyOp4
 70
     1
102
RTVSPropertyOp5
 70
     1
102
RTVSPropertyOp6
 70
     1
102
RTVSPropertyOp7
 70
     1
102
RTVSPropertyOp8
 70
     1
102
RTVSPropertyOp9
 70
     1
102
RTVSPropertyOp10
 70
     1
102
RTVSPropertyOp11
 70
     1
102
RTVSPropertyOp12
 70
     1
102
RTVSPropertyOp13
 70
     1
102
RTVSPropertyOp14
 70
     1
102
RTVSPropertyOp15
 70
     1
102
RTVSPropertyOp16
 70
     1
102
RTVSPropertyOp17
 70
     1
102
RTVSPropertyOp18
 70
     1
102
RTVSPropertyOp19
 70
     1
102
RTVSPropertyOp20
 70
     1
102
RTVSPropertyOp21
 70
     1
102
RTVSPropertyOp22
 70
     1
102
RTVSPropertyOp23
 70
     1
102
RTVSPropertyOp24
 70
     1
102
RTVSPropertyOp25
 70
     1
102
RTVSPropertyOp26
 70
     1
102
RTVSPropertyOp27
 70
     1
  0
XRECORD
  5
9D67
102
{ACAD_REACTORS
330
9D66
102
}
330
9D66
100
AcDbXrecord
280
     1
102
RTVSPropertyOp0
 70
     1
102
RTVSPropertyOp1
 70
     1
102
RTVSPropertyOp2
 70
     1
102
RTVSPropertyOp3
 70
     1
102
RTVSPropertyOp4
 70
     1
102
RTVSPropertyOp5
 70
     1
102
RTVSPropertyOp6
 70
     1
102
RTVSPropertyOp7
 70
     1
102
RTVSPropertyOp8
 70
     1
102
RTVSPropertyOp9
 70
     1
102
RTVSPropertyOp10
 70
     1
102
RTVSPropertyOp11
 70
     1
102
RTVSPropertyOp12
 70
     1
102
RTVSPropertyOp13
 70
     1
102
RTVSPropertyOp14
 70
     1
102
RTVSPropertyOp15
 70
     1
102
RTVSPropertyOp16
 70
     1
102
RTVSPropertyOp17
 70
     1
102
RTVSPropertyOp18
 70
     1
102
RTVSPropertyOp19
 70
     1
102
RTVSPropertyOp20
 70
     1
102
RTVSPropertyOp21
 70
     1
102
RTVSPropertyOp22
 70
     1
102
RTVSPropertyOp23
 70
     1
102
RTVSPropertyOp24
 70
     1
102
RTVSPropertyOp25
 70
     1
102
RTVSPropertyOp26
 70
     1
102
RTVSPropertyOp27
 70
     1
  0
XRECORD
  5
9D69
102
{ACAD_REACTORS
330
9D68
102
}
330
9D68
100
AcDbXrecord
280
     1
102
RTVSPropertyOp0
 70
     1
102
RTVSPropertyOp1
 70
     1
102
RTVSPropertyOp2
 70
     1
102
RTVSPropertyOp3
 70
     1
102
RTVSPropertyOp4
 70
     1
102
RTVSPropertyOp5
 70
     1
102
RTVSPropertyOp6
 70
     1
102
RTVSPropertyOp7
 70
     1
102
RTVSPropertyOp8
 70
     1
102
RTVSPropertyOp9
 70
     1
102
RTVSPropertyOp10
 70
     1
102
RTVSPropertyOp11
 70
     1
102
RTVSPropertyOp12
 70
     1
102
RTVSPropertyOp13
 70
     1
102
RTVSPropertyOp14
 70
     1
102
RTVSPropertyOp15
 70
     1
102
RTVSPropertyOp16
 70
     1
102
RTVSPropertyOp17
 70
     1
102
RTVSPropertyOp18
 70
     1
102
RTVSPropertyOp19
 70
     1
102
RTVSPropertyOp20
 70
     1
102
RTVSPropertyOp21
 70
     1
102
RTVSPropertyOp22
 70
     1
102
RTVSPropertyOp23
 70
     1
102
RTVSPropertyOp24
 70
     1
102
RTVSPropertyOp25
 70
     1
102
RTVSPropertyOp26
 70
     1
102
RTVSPropertyOp27
 70
     1
  0
XRECORD
  5
9D83
102
{ACAD_REACTORS
330
9D82
102
}
330
9D82
100
AcDbXrecord
280
     1
102
RTVSPropertyOp0
 70
     0
102
RTVSPropertyOp1
 70
     0
102
RTVSPropertyOp2
 70
     0
102
RTVSPropertyOp3
 70
     0
102
RTVSPropertyOp4
 70
     0
102
RTVSPropertyOp5
 70
     0
102
RTVSPropertyOp6
 70
     0
102
RTVSPropertyOp7
 70
     0
102
RTVSPropertyOp8
 70
     0
102
RTVSPropertyOp9
 70
     0
102
RTVSPropertyOp10
 70
     0
102
RTVSPropertyOp11
 70
     0
102
RTVSPropertyOp12
 70
     0
102
RTVSPropertyOp13
 70
     0
102
RTVSPropertyOp14
 70
     2
102
RTVSPropertyOp15
 70
     0
102
RTVSPropertyOp16
 70
     0
102
RTVSPropertyOp17
 70
     0
102
RTVSPropertyOp18
 70
     0
102
RTVSPropertyOp19
 70
     0
102
RTVSPropertyOp20
 70
     0
102
RTVSPropertyOp21
 70
     0
102
RTVSPropertyOp22
 70
     0
102
RTVSPropertyOp23
 70
     0
102
RTVSPropertyOp24
 70
     0
102
RTVSPropertyOp25
 70
     0
102
RTVSPropertyOp26
 70
     0
102
RTVSPropertyOp27
 70
     0
  0
XRECORD
  5
9D7D
102
{ACAD_REACTORS
330
9D7C
102
}
330
9D7C
100
AcDbXrecord
280
     1
102
RTVSPropertyOp0
 70
     1
102
RTVSPropertyOp1
 70
     1
102
RTVSPropertyOp2
 70
     1
102
RTVSPropertyOp3
 70
     1
102
RTVSPropertyOp4
 70
     1
102
RTVSPropertyOp5
 70
     1
102
RTVSPropertyOp6
 70
     1
102
RTVSPropertyOp7
 70
     1
102
RTVSPropertyOp8
 70
     1
102
RTVSPropertyOp9
 70
     1
102
RTVSPropertyOp10
 70
     1
102
RTVSPropertyOp11
 70
     1
102
RTVSPropertyOp12
 70
     1
102
RTVSPropertyOp13
 70
     1
102
RTVSPropertyOp14
 70
     1
102
RTVSPropertyOp15
 70
     1
102
RTVSPropertyOp16
 70
     1
102
RTVSPropertyOp17
 70
     1
102
RTVSPropertyOp18
 70
     1
102
RTVSPropertyOp19
 70
     1
102
RTVSPropertyOp20
 70
     1
102
RTVSPropertyOp21
 70
     1
102
RTVSPropertyOp22
 70
     1
102
RTVSPropertyOp23
 70
     1
102
RTVSPropertyOp24
 70
     1
102
RTVSPropertyOp25
 70
     1
102
RTVSPropertyOp26
 70
     1
102
RTVSPropertyOp27
 70
     1
  0
XRECORD
  5
9D85
102
{ACAD_REACTORS
330
9D84
102
}
330
9D84
100
AcDbXrecord
280
     1
102
RTVSPropertyOp0
 70
     0
102
RTVSPropertyOp1
 70
     0
102
RTVSPropertyOp2
 70
     0
102
RTVSPropertyOp3
 70
     0
102
RTVSPropertyOp4
 70
     0
102
RTVSPropertyOp5
 70
     0
102
RTVSPropertyOp6
 70
     0
102
RTVSPropertyOp7
 70
     0
102
RTVSPropertyOp8
 70
     0
102
RTVSPropertyOp9
 70
     0
102
RTVSPropertyOp10
 70
     0
102
RTVSPropertyOp11
 70
     0
102
RTVSPropertyOp12
 70
     0
102
RTVSPropertyOp13
 70
     0
102
RTVSPropertyOp14
 70
     2
102
RTVSPropertyOp15
 70
     0
102
RTVSPropertyOp16
 70
     0
102
RTVSPropertyOp17
 70
     0
102
RTVSPropertyOp18
 70
     0
102
RTVSPropertyOp19
 70
     0
102
RTVSPropertyOp20
 70
     0
102
RTVSPropertyOp21
 70
     0
102
RTVSPropertyOp22
 70
     0
102
RTVSPropertyOp23
 70
     0
102
RTVSPropertyOp24
 70
     0
102
RTVSPropertyOp25
 70
     0
102
RTVSPropertyOp26
 70
     0
102
RTVSPropertyOp27
 70
     0
  0
XRECORD
  5
9D75
102
{ACAD_REACTORS
330
9D74
102
}
330
9D74
100
AcDbXrecord
280
     1
102
RTVSPropertyOp0
 70
     1
102
RTVSPropertyOp1
 70
     1
102
RTVSPropertyOp2
 70
     1
102
RTVSPropertyOp3
 70
     1
102
RTVSPropertyOp4
 70
     1
102
RTVSPropertyOp5
 70
     1
102
RTVSPropertyOp6
 70
     1
102
RTVSPropertyOp7
 70
     1
102
RTVSPropertyOp8
 70
     1
102
RTVSPropertyOp9
 70
     1
102
RTVSPropertyOp10
 70
     1
102
RTVSPropertyOp11
 70
     1
102
RTVSPropertyOp12
 70
     1
102
RTVSPropertyOp13
 70
     1
102
RTVSPropertyOp14
 70
     1
102
RTVSPropertyOp15
 70
     1
102
RTVSPropertyOp16
 70
     1
102
RTVSPropertyOp17
 70
     1
102
RTVSPropertyOp18
 70
     1
102
RTVSPropertyOp19
 70
     1
102
RTVSPropertyOp20
 70
     1
102
RTVSPropertyOp21
 70
     1
102
RTVSPropertyOp22
 70
     1
102
RTVSPropertyOp23
 70
     1
102
RTVSPropertyOp24
 70
     1
102
RTVSPropertyOp25
 70
     1
102
RTVSPropertyOp26
 70
     1
102
RTVSPropertyOp27
 70
     1
  0
XRECORD
  5
9D7B
102
{ACAD_REACTORS
330
9D7A
102
}
330
9D7A
100
AcDbXrecord
280
     1
102
RTVSPropertyOp0
 70
     1
102
RTVSPropertyOp1
 70
     1
102
RTVSPropertyOp2
 70
     1
102
RTVSPropertyOp3
 70
     1
102
RTVSPropertyOp4
 70
     1
102
RTVSPropertyOp5
 70
     1
102
RTVSPropertyOp6
 70
     1
102
RTVSPropertyOp7
 70
     1
102
RTVSPropertyOp8
 70
     1
102
RTVSPropertyOp9
 70
     1
102
RTVSPropertyOp10
 70
     1
102
RTVSPropertyOp11
 70
     1
102
RTVSPropertyOp12
 70
     1
102
RTVSPropertyOp13
 70
     1
102
RTVSPropertyOp14
 70
     1
102
RTVSPropertyOp15
 70
     1
102
RTVSPropertyOp16
 70
     1
102
RTVSPropertyOp17
 70
     1
102
RTVSPropertyOp18
 70
     1
102
RTVSPropertyOp19
 70
     1
102
RTVSPropertyOp20
 70
     1
102
RTVSPropertyOp21
 70
     1
102
RTVSPropertyOp22
 70
     1
102
RTVSPropertyOp23
 70
     1
102
RTVSPropertyOp24
 70
     1
102
RTVSPropertyOp25
 70
     1
102
RTVSPropertyOp26
 70
     1
102
RTVSPropertyOp27
 70
     1
  0
ENDSEC
  0
EOF
