  0
SECTION
  2
HEADER
  9
$ACADVER
  1
AC1015
  9
$ACADMAINTVER
 70
    10
  9
$DWGCODEPAGE
  3
ANSI_932
  9
$INSBASE
 10
0.0
 20
0.0
 30
0.0
  9
$EXTMIN
 10
-88.0479927200264
 20
-361.0322413003592
 30
0.0
  9
$EXTMAX
 10
354.4656248643129
 20
321.9820236200753
 30
0.0
  9
$LIMMIN
 10
-296.316999476111
 20
-370.7034300441653
  9
$LIMMAX
 10
623.3128432133979
 20
328.6261559379898
  9
$ORTHOMODE
 70
     1
  9
$REGENMODE
 70
     1
  9
$FILLMODE
 70
     1
  9
$QTEXTMODE
 70
     0
  9
$MIRRTEXT
 70
     1
  9
$LTSCALE
 40
10.0
  9
$ATTMODE
 70
     1
  9
$TEXTSIZE
 40
5.0
  9
$TRACEWID
 40
0.05
  9
$TEXTSTYLE
  7
STANDARD1
  9
$CLAYER
  8
30
  9
$CELTYPE
  6
CONTINUOUS
  9
$CECOLOR
 62
   256
  9
$CELTSCALE
 40
1.0
  9
$DISPSILH
 70
     0
  9
$DIMSCALE
 40
1.0
  9
$DIMASZ
 40
2.0
  9
$DIMEXO
 40
1.0
  9
$DIMDLI
 40
0.5
  9
$DIMRND
 40
0.0
  9
$DIMDLE
 40
0.0
  9
$DIMEXE
 40
0.5
  9
$DIMTP
 40
0.0
  9
$DIMTM
 40
0.0
  9
$DIMTXT
 40
4.0
  9
$DIMCEN
 40
0.09
  9
$DIMTSZ
 40
0.0
  9
$DIMTOL
 70
     0
  9
$DIMLIM
 70
     0
  9
$DIMTIH
 70
     0
  9
$DIMTOH
 70
     1
  9
$DIMSE1
 70
     0
  9
$DIMSE2
 70
     0
  9
$DIMTAD
 70
     3
  9
$DIMZIN
 70
    12
  9
$DIMBLK
  1
OPEN
  9
$DIMASO
 70
     1
  9
$DIMSHO
 70
     1
  9
$DIMPOST
  1

  9
$DIMAPOST
  1

  9
$DIMALT
 70
     0
  9
$DIMALTD
 70
     2
  9
$DIMALTF
 40
25.4
  9
$DIMLFAC
 40
1.0
  9
$DIMTOFL
 70
     0
  9
$DIMTVP
 40
0.0
  9
$DIMTIX
 70
     0
  9
$DIMSOXD
 70
     0
  9
$DIMSAH
 70
     0
  9
$DIMBLK1
  1

  9
$DIMBLK2
  1

  9
$DIMSTYLE
  2
STANDARD
  9
$DIMCLRD
 70
     0
  9
$DIMCLRE
 70
     0
  9
$DIMCLRT
 70
     0
  9
$DIMTFAC
 40
1.0
  9
$DIMGAP
 40
1.0
  9
$DIMJUST
 70
     0
  9
$DIMSD1
 70
     0
  9
$DIMSD2
 70
     0
  9
$DIMTOLJ
 70
     1
  9
$DIMTZIN
 70
     0
  9
$DIMALTZ
 70
     0
  9
$DIMALTTZ
 70
     0
  9
$DIMUPT
 70
     0
  9
$DIMDEC
 70
     1
  9
$DIMTDEC
 70
     1
  9
$DIMALTU
 70
     2
  9
$DIMALTTD
 70
     2
  9
$DIMTXSTY
  7
STANDARD
  9
$DIMAUNIT
 70
     0
  9
$DIMADEC
 70
     0
  9
$DIMALTRND
 40
0.0
  9
$DIMAZIN
 70
     3
  9
$DIMDSEP
 70
    46
  9
$DIMATFIT
 70
     3
  9
$DIMFRAC
 70
     0
  9
$DIMLDRBLK
  1
OPEN
  9
$DIMLUNIT
 70
     2
  9
$DIMLWD
 70
    -2
  9
$DIMLWE
 70
    -2
  9
$DIMTMOVE
 70
     0
  9
$LUNITS
 70
     2
  9
$LUPREC
 70
     4
  9
$SKETCHINC
 40
0.1
  9
$FILLETRAD
 40
0.0
  9
$AUNITS
 70
     0
  9
$AUPREC
 70
     0
  9
$MENU
  1
.
  9
$ELEVATION
 40
0.0
  9
$PELEVATION
 40
0.0
  9
$THICKNESS
 40
0.0
  9
$LIMCHECK
 70
     0
  9
$CHAMFERA
 40
0.0
  9
$CHAMFERB
 40
0.0
  9
$CHAMFERC
 40
0.0
  9
$CHAMFERD
 40
0.0
  9
$SKPOLY
 70
     0
  9
$TDCREATE
 40
2452286.555658657
  9
$TDUCREATE
 40
2452286.180658657
  9
$TDUPDATE
 40
2454908.623921979
  9
$TDUUPDATE
 40
2454908.248921979
  9
$TDINDWG
 40
1.2204972106
  9
$TDUSRTIMER
 40
1.2204964815
  9
$USRTIMER
 70
     1
  9
$ANGBASE
 50
0.0
  9
$ANGDIR
 70
     0
  9
$PDMODE
 70
     0
  9
$PDSIZE
 40
0.0
  9
$PLINEWID
 40
0.0
  9
$SPLFRAME
 70
     0
  9
$SPLINETYPE
 70
     6
  9
$SPLINESEGS
 70
     8
  9
$HANDSEED
  5
7176
  9
$SURFTAB1
 70
     6
  9
$SURFTAB2
 70
     6
  9
$SURFTYPE
 70
     6
  9
$SURFU
 70
     6
  9
$SURFV
 70
     6
  9
$UCSBASE
  2

  9
$UCSNAME
  2

  9
$UCSORG
 10
0.0
 20
0.0
 30
0.0
  9
$UCSXDIR
 10
1.0
 20
0.0
 30
0.0
  9
$UCSYDIR
 10
0.0
 20
1.0
 30
0.0
  9
$UCSORTHOREF
  2

  9
$UCSORTHOVIEW
 70
     0
  9
$UCSORGTOP
 10
0.0
 20
0.0
 30
0.0
  9
$UCSORGBOTTOM
 10
0.0
 20
0.0
 30
0.0
  9
$UCSORGLEFT
 10
0.0
 20
0.0
 30
0.0
  9
$UCSORGRIGHT
 10
0.0
 20
0.0
 30
0.0
  9
$UCSORGFRONT
 10
0.0
 20
0.0
 30
0.0
  9
$UCSORGBACK
 10
0.0
 20
0.0
 30
0.0
  9
$PUCSBASE
  2

  9
$PUCSNAME
  2

  9
$PUCSORG
 10
0.0
 20
0.0
 30
0.0
  9
$PUCSXDIR
 10
1.0
 20
0.0
 30
0.0
  9
$PUCSYDIR
 10
0.0
 20
1.0
 30
0.0
  9
$PUCSORTHOREF
  2

  9
$PUCSORTHOVIEW
 70
     0
  9
$PUCSORGTOP
 10
0.0
 20
0.0
 30
0.0
  9
$PUCSORGBOTTOM
 10
0.0
 20
0.0
 30
0.0
  9
$PUCSORGLEFT
 10
0.0
 20
0.0
 30
0.0
  9
$PUCSORGRIGHT
 10
0.0
 20
0.0
 30
0.0
  9
$PUCSORGFRONT
 10
0.0
 20
0.0
 30
0.0
  9
$PUCSORGBACK
 10
0.0
 20
0.0
 30
0.0
  9
$USERI1
 70
     0
  9
$USERI2
 70
     0
  9
$USERI3
 70
     0
  9
$USERI4
 70
     0
  9
$USERI5
 70
     0
  9
$USERR1
 40
0.0
  9
$USERR2
 40
0.0
  9
$USERR3
 40
0.0
  9
$USERR4
 40
0.0
  9
$USERR5
 40
0.0
  9
$WORLDVIEW
 70
     1
  9
$SHADEDGE
 70
     3
  9
$SHADEDIF
 70
    70
  9
$TILEMODE
 70
     1
  9
$MAXACTVP
 70
    48
  9
$PINSBASE
 10
0.0
 20
0.0
 30
0.0
  9
$PLIMCHECK
 70
     0
  9
$PEXTMIN
 10
4.273573
 20
5.205245999999998
 30
0.0
  9
$PEXTMAX
 10
194.610095
 20
283.0697009999996
 30
0.0
  9
$PLIMMIN
 10
-5.873749
 20
-5.87375
  9
$PLIMMAX
 10
204.099579
 20
291.1369009999999
  9
$UNITMODE
 70
     0
  9
$VISRETAIN
 70
     1
  9
$PLINEGEN
 70
     0
  9
$PSLTSCALE
 70
     1
  9
$TREEDEPTH
 70
  3020
  9
$CMLSTYLE
  2
STANDARD
  9
$CMLJUST
 70
     0
  9
$CMLSCALE
 40
1.0
  9
$PROXYGRAPHICS
 70
     1
  9
$MEASUREMENT
 70
     0
  9
$CELWEIGHT
370
    -1
  9
$ENDCAPS
280
     0
  9
$JOINSTYLE
280
     0
  9
$LWDISPLAY
290
     0
  9
$INSUNITS
 70
     0
  9
$HYPERLINKBASE
  1

  9
$STYLESHEET
  1
KIKI.ctb
  9
$XEDIT
290
     1
  9
$CEPSNTYPE
380
     0
  9
$PSTYLEMODE
290
     1
  9
$FINGERPRINTGUID
  2

  9
$VERSIONGUID
  2
{14559952-83EF-4581-A50D-DA7B249CFDA0}
  9
$EXTNAMES
290
     1
  9
$PSVPSCALE
 40
0.0
  9
$OLESTARTUP
290
     0
  0
ENDSEC
  0
SECTION
  2
CLASSES
  0
CLASS
  1
ACDBDICTIONARYWDFLT
  2
AcDbDictionaryWithDefault
  3
AutoCAD 2000
 90
        0
280
     0
281
     0
  0
CLASS
  1
ACDBPLACEHOLDER
  2
AcDbPlaceHolder
  3
AutoCAD 2000
 90
        0
280
     0
281
     0
  0
CLASS
  1
LAYOUT
  2
AcDbLayout
  3
AutoCAD 2000
 90
        0
280
     0
281
     0
  0
CLASS
  1
LONG_TRANSACTION
  2
AcDbLongTransaction
  3
AutoCAD 2000
 90
    32768
280
     0
281
     0
  0
CLASS
  1
LWPOLYLINE
  2
AcDbPolyline
  3
AutoCAD 2000
 90
    32768
280
     0
281
     1
  0
CLASS
  1
HATCH
  2
AcDbHatch
  3
AutoCAD 2000
 90
    32768
280
     0
281
     1
  0
CLASS
  1
XRECORD
  2
AcDbXrecord
  3
AutoCAD 2000
 90
    32768
280
     0
281
     0
  0
CLASS
  1
LONG_TRANSACTION
  2
AcDbLongTransaction
  3
AutoCAD 2000
 90
    32768
280
     0
281
     0
  0
CLASS
  1
LWPOLYLINE
  2
AcDbPolyline
  3
AutoCAD 2000
 90
    32768
280
     0
281
     1
  0
CLASS
  1
HATCH
  2
AcDbHatch
  3
AutoCAD 2000
 90
    32768
280
     0
281
     1
  0
CLASS
  1
XRECORD
  2
AcDbXrecord
  3
AutoCAD 2000
 90
    32768
280
     0
281
     0
  0
CLASS
  1
LONG_TRANSACTION
  2
AcDbLongTransaction
  3
AutoCAD 2000
 90
    32768
280
     0
281
     0
  0
CLASS
  1
LWPOLYLINE
  2
AcDbPolyline
  3
AutoCAD 2000
 90
    32768
280
     0
281
     1
  0
CLASS
  1
HATCH
  2
AcDbHatch
  3
AutoCAD 2000
 90
    32768
280
     0
281
     1
  0
CLASS
  1
XRECORD
  2
AcDbXrecord
  3
AutoCAD 2000
 90
    32768
280
     0
281
     0
  0
CLASS
  1
LONG_TRANSACTION
  2
AcDbLongTransaction
  3
AutoCAD 2000
 90
    32768
280
     0
281
     0
  0
CLASS
  1
LWPOLYLINE
  2
AcDbPolyline
  3
AutoCAD 2000
 90
    32768
280
     0
281
     1
  0
CLASS
  1
HATCH
  2
AcDbHatch
  3
AutoCAD 2000
 90
    32768
280
     0
281
     1
  0
CLASS
  1
XRECORD
  2
AcDbXrecord
  3
AutoCAD 2000
 90
    32768
280
     0
281
     0
  0
CLASS
  1
LONG_TRANSACTION
  2
AcDbLongTransaction
  3
AutoCAD 2000
 90
    32768
280
     0
281
     0
  0
CLASS
  1
LWPOLYLINE
  2
AcDbPolyline
  3
AutoCAD 2000
 90
    32768
280
     0
281
     1
  0
CLASS
  1
HATCH
  2
AcDbHatch
  3
AutoCAD 2000
 90
    32768
280
     0
281
     1
  0
CLASS
  1
XRECORD
  2
AcDbXrecord
  3
AutoCAD 2000
 90
    32768
280
     0
281
     0
  0
CLASS
  1
LONG_TRANSACTION
  2
AcDbLongTransaction
  3
AutoCAD 2000
 90
    32768
280
     0
281
     0
  0
CLASS
  1
LWPOLYLINE
  2
AcDbPolyline
  3
AutoCAD 2000
 90
    32768
280
     0
281
     1
  0
CLASS
  1
HATCH
  2
AcDbHatch
  3
AutoCAD 2000
 90
    32768
280
     0
281
     1
  0
CLASS
  1
XRECORD
  2
AcDbXrecord
  3
AutoCAD 2000
 90
    32768
280
     0
281
     0
  0
CLASS
  1
LONG_TRANSACTION
  2
AcDbLongTransaction
  3
AutoCAD 2000
 90
    32768
280
     0
281
     0
  0
CLASS
  1
LWPOLYLINE
  2
AcDbPolyline
  3
AutoCAD 2000
 90
    32768
280
     0
281
     1
  0
CLASS
  1
HATCH
  2
AcDbHatch
  3
AutoCAD 2000
 90
    32768
280
     0
281
     1
  0
CLASS
  1
XRECORD
  2
AcDbXrecord
  3
AutoCAD 2000
 90
    32768
280
     0
281
     0
  0
CLASS
  1
LONG_TRANSACTION
  2
AcDbLongTransaction
  3
AutoCAD 2000
 90
    32768
280
     0
281
     0
  0
CLASS
  1
LWPOLYLINE
  2
AcDbPolyline
  3
AutoCAD 2000
 90
    32768
280
     0
281
     1
  0
CLASS
  1
HATCH
  2
AcDbHatch
  3
AutoCAD 2000
 90
    32768
280
     0
281
     1
  0
CLASS
  1
XRECORD
  2
AcDbXrecord
  3
AutoCAD 2000
 90
    32768
280
     0
281
     0
  0
CLASS
  1
LONG_TRANSACTION
  2
AcDbLongTransaction
  3
AutoCAD 2000
 90
    32768
280
     0
281
     0
  0
CLASS
  1
LWPOLYLINE
  2
AcDbPolyline
  3
AutoCAD 2000
 90
    32768
280
     0
281
     1
  0
CLASS
  1
HATCH
  2
AcDbHatch
  3
AutoCAD 2000
 90
    32768
280
     0
281
     1
  0
CLASS
  1
XRECORD
  2
AcDbXrecord
  3
AutoCAD 2000
 90
    32768
280
     0
281
     0
  0
CLASS
  1
LONG_TRANSACTION
  2
AcDbLongTransaction
  3
AutoCAD 2000
 90
    32768
280
     0
281
     0
  0
CLASS
  1
LWPOLYLINE
  2
AcDbPolyline
  3
AutoCAD 2000
 90
    32768
280
     0
281
     1
  0
CLASS
  1
HATCH
  2
AcDbHatch
  3
AutoCAD 2000
 90
    32768
280
     0
281
     1
  0
CLASS
  1
XRECORD
  2
AcDbXrecord
  3
AutoCAD 2000
 90
    32768
280
     0
281
     0
  0
CLASS
  1
LONG_TRANSACTION
  2
AcDbLongTransaction
  3
AutoCAD 2000
 90
    32768
280
     0
281
     0
  0
CLASS
  1
LWPOLYLINE
  2
AcDbPolyline
  3
AutoCAD 2000
 90
    32768
280
     0
281
     1
  0
CLASS
  1
HATCH
  2
AcDbHatch
  3
AutoCAD 2000
 90
    32768
280
     0
281
     1
  0
CLASS
  1
XRECORD
  2
AcDbXrecord
  3
AutoCAD 2000
 90
    32768
280
     0
281
     0
  0
CLASS
  1
LONG_TRANSACTION
  2
AcDbLongTransaction
  3
AutoCAD 2000
 90
    32768
280
     0
281
     0
  0
CLASS
  1
LWPOLYLINE
  2
AcDbPolyline
  3
AutoCAD 2000
 90
    32768
280
     0
281
     1
  0
CLASS
  1
HATCH
  2
AcDbHatch
  3
AutoCAD 2000
 90
    32768
280
     0
281
     1
  0
CLASS
  1
XRECORD
  2
AcDbXrecord
  3
AutoCAD 2000
 90
    32768
280
     0
281
     0
  0
CLASS
  1
LONG_TRANSACTION
  2
AcDbLongTransaction
  3
AutoCAD 2000
 90
    32768
280
     0
281
     0
  0
CLASS
  1
LWPOLYLINE
  2
AcDbPolyline
  3
AutoCAD 2000
 90
    32768
280
     0
281
     1
  0
CLASS
  1
HATCH
  2
AcDbHatch
  3
AutoCAD 2000
 90
    32768
280
     0
281
     1
  0
CLASS
  1
XRECORD
  2
AcDbXrecord
  3
AutoCAD 2000
 90
    32768
280
     0
281
     0
  0
CLASS
  1
LONG_TRANSACTION
  2
AcDbLongTransaction
  3
AutoCAD 2000
 90
    32768
280
     0
281
     0
  0
CLASS
  1
LWPOLYLINE
  2
AcDbPolyline
  3
AutoCAD 2000
 90
    32768
280
     0
281
     1
  0
CLASS
  1
HATCH
  2
AcDbHatch
  3
AutoCAD 2000
 90
    32768
280
     0
281
     1
  0
CLASS
  1
XRECORD
  2
AcDbXrecord
  3
AutoCAD 2000
 90
    32768
280
     0
281
     0
  0
CLASS
  1
LONG_TRANSACTION
  2
AcDbLongTransaction
  3
AutoCAD 2000
 90
    32768
280
     0
281
     0
  0
CLASS
  1
LWPOLYLINE
  2
AcDbPolyline
  3
AutoCAD 2000
 90
    32768
280
     0
281
     1
  0
CLASS
  1
HATCH
  2
AcDbHatch
  3
AutoCAD 2000
 90
    32768
280
     0
281
     1
  0
CLASS
  1
XRECORD
  2
AcDbXrecord
  3
AutoCAD 2000
 90
    32768
280
     0
281
     0
  0
CLASS
  1
LONG_TRANSACTION
  2
AcDbLongTransaction
  3
AutoCAD 2000
 90
    32768
280
     0
281
     0
  0
CLASS
  1
LWPOLYLINE
  2
AcDbPolyline
  3
AutoCAD 2000
 90
    32768
280
     0
281
     1
  0
CLASS
  1
HATCH
  2
AcDbHatch
  3
AutoCAD 2000
 90
    32768
280
     0
281
     1
  0
CLASS
  1
XRECORD
  2
AcDbXrecord
  3
AutoCAD 2000
 90
    32768
280
     0
281
     0
  0
CLASS
  1
LONG_TRANSACTION
  2
AcDbLongTransaction
  3
AutoCAD 2000
 90
    32768
280
     0
281
     0
  0
CLASS
  1
LWPOLYLINE
  2
AcDbPolyline
  3
AutoCAD 2000
 90
    32768
280
     0
281
     1
  0
CLASS
  1
HATCH
  2
AcDbHatch
  3
AutoCAD 2000
 90
    32768
280
     0
281
     1
  0
CLASS
  1
XRECORD
  2
AcDbXrecord
  3
AutoCAD 2000
 90
    32768
280
     0
281
     0
  0
CLASS
  1
LONG_TRANSACTION
  2
AcDbLongTransaction
  3
AutoCAD 2000
 90
    32768
280
     0
281
     0
  0
CLASS
  1
LWPOLYLINE
  2
AcDbPolyline
  3
AutoCAD 2000
 90
    32768
280
     0
281
     1
  0
CLASS
  1
HATCH
  2
AcDbHatch
  3
AutoCAD 2000
 90
    32768
280
     0
281
     1
  0
CLASS
  1
XRECORD
  2
AcDbXrecord
  3
AutoCAD 2000
 90
    32768
280
     0
281
     0
  0
CLASS
  1
LONG_TRANSACTION
  2
AcDbLongTransaction
  3
AutoCAD 2000
 90
    32768
280
     0
281
     0
  0
CLASS
  1
LWPOLYLINE
  2
AcDbPolyline
  3
AutoCAD 2000
 90
    32768
280
     0
281
     1
  0
CLASS
  1
HATCH
  2
AcDbHatch
  3
AutoCAD 2000
 90
    32768
280
     0
281
     1
  0
CLASS
  1
XRECORD
  2
AcDbXrecord
  3
AutoCAD 2000
 90
    32768
280
     0
281
     0
  0
CLASS
  1
LONG_TRANSACTION
  2
AcDbLongTransaction
  3
AutoCAD 2000
 90
    32768
280
     0
281
     0
  0
CLASS
  1
LWPOLYLINE
  2
AcDbPolyline
  3
AutoCAD 2000
 90
    32768
280
     0
281
     1
  0
CLASS
  1
HATCH
  2
AcDbHatch
  3
AutoCAD 2000
 90
    32768
280
     0
281
     1
  0
CLASS
  1
XRECORD
  2
AcDbXrecord
  3
AutoCAD 2000
 90
    32768
280
     0
281
     0
  0
CLASS
  1
LONG_TRANSACTION
  2
AcDbLongTransaction
  3
AutoCAD 2000
 90
    32768
280
     0
281
     0
  0
CLASS
  1
LWPOLYLINE
  2
AcDbPolyline
  3
AutoCAD 2000
 90
    32768
280
     0
281
     1
  0
CLASS
  1
HATCH
  2
AcDbHatch
  3
AutoCAD 2000
 90
    32768
280
     0
281
     1
  0
CLASS
  1
XRECORD
  2
AcDbXrecord
  3
AutoCAD 2000
 90
    32768
280
     0
281
     0
  0
CLASS
  1
LONG_TRANSACTION
  2
AcDbLongTransaction
  3
AutoCAD 2000
 90
    32768
280
     0
281
     0
  0
CLASS
  1
LWPOLYLINE
  2
AcDbPolyline
  3
AutoCAD 2000
 90
    32768
280
     0
281
     1
  0
CLASS
  1
HATCH
  2
AcDbHatch
  3
AutoCAD 2000
 90
    32768
280
     0
281
     1
  0
CLASS
  1
XRECORD
  2
AcDbXrecord
  3
AutoCAD 2000
 90
    32768
280
     0
281
     0
  0
CLASS
  1
LONG_TRANSACTION
  2
AcDbLongTransaction
  3
AutoCAD 2000
 90
    32768
280
     0
281
     0
  0
CLASS
  1
LWPOLYLINE
  2
AcDbPolyline
  3
AutoCAD 2000
 90
    32768
280
     0
281
     1
  0
CLASS
  1
HATCH
  2
AcDbHatch
  3
AutoCAD 2000
 90
    32768
280
     0
281
     1
  0
CLASS
  1
XRECORD
  2
AcDbXrecord
  3
AutoCAD 2000
 90
    32768
280
     0
281
     0
  0
CLASS
  1
LONG_TRANSACTION
  2
AcDbLongTransaction
  3
AutoCAD 2000
 90
    32768
280
     0
281
     0
  0
CLASS
  1
LWPOLYLINE
  2
AcDbPolyline
  3
AutoCAD 2000
 90
    32768
280
     0
281
     1
  0
CLASS
  1
HATCH
  2
AcDbHatch
  3
AutoCAD 2000
 90
    32768
280
     0
281
     1
  0
CLASS
  1
XRECORD
  2
AcDbXrecord
  3
AutoCAD 2000
 90
    32768
280
     0
281
     0
  0
CLASS
  1
LONG_TRANSACTION
  2
AcDbLongTransaction
  3
AutoCAD 2000
 90
    32768
280
     0
281
     0
  0
CLASS
  1
LWPOLYLINE
  2
AcDbPolyline
  3
AutoCAD 2000
 90
    32768
280
     0
281
     1
  0
CLASS
  1
HATCH
  2
AcDbHatch
  3
AutoCAD 2000
 90
    32768
280
     0
281
     1
  0
CLASS
  1
XRECORD
  2
AcDbXrecord
  3
AutoCAD 2000
 90
    32768
280
     0
281
     0
  0
CLASS
  1
LONG_TRANSACTION
  2
AcDbLongTransaction
  3
AutoCAD 2000
 90
    32768
280
     0
281
     0
  0
CLASS
  1
LWPOLYLINE
  2
AcDbPolyline
  3
AutoCAD 2000
 90
    32768
280
     0
281
     1
  0
CLASS
  1
HATCH
  2
AcDbHatch
  3
AutoCAD 2000
 90
    32768
280
     0
281
     1
  0
CLASS
  1
XRECORD
  2
AcDbXrecord
  3
AutoCAD 2000
 90
    32768
280
     0
281
     0
  0
CLASS
  1
LONG_TRANSACTION
  2
AcDbLongTransaction
  3
AutoCAD 2000
 90
    32768
280
     0
281
     0
  0
CLASS
  1
LWPOLYLINE
  2
AcDbPolyline
  3
AutoCAD 2000
 90
    32768
280
     0
281
     1
  0
CLASS
  1
HATCH
  2
AcDbHatch
  3
AutoCAD 2000
 90
    32768
280
     0
281
     1
  0
CLASS
  1
XRECORD
  2
AcDbXrecord
  3
AutoCAD 2000
 90
    32768
280
     0
281
     0
  0
CLASS
  1
LONG_TRANSACTION
  2
AcDbLongTransaction
  3
AutoCAD 2000
 90
    32768
280
     0
281
     0
  0
CLASS
  1
LWPOLYLINE
  2
AcDbPolyline
  3
AutoCAD 2000
 90
    32768
280
     0
281
     1
  0
CLASS
  1
HATCH
  2
AcDbHatch
  3
AutoCAD 2000
 90
    32768
280
     0
281
     1
  0
CLASS
  1
XRECORD
  2
AcDbXrecord
  3
AutoCAD 2000
 90
    32768
280
     0
281
     0
  0
CLASS
  1
LONG_TRANSACTION
  2
AcDbLongTransaction
  3
AutoCAD 2000
 90
    32768
280
     0
281
     0
  0
CLASS
  1
LWPOLYLINE
  2
AcDbPolyline
  3
AutoCAD 2000
 90
    32768
280
     0
281
     1
  0
CLASS
  1
HATCH
  2
AcDbHatch
  3
AutoCAD 2000
 90
    32768
280
     0
281
     1
  0
CLASS
  1
XRECORD
  2
AcDbXrecord
  3
AutoCAD 2000
 90
    32768
280
     0
281
     0
  0
CLASS
  1
LONG_TRANSACTION
  2
AcDbLongTransaction
  3
AutoCAD 2000
 90
    32768
280
     0
281
     0
  0
CLASS
  1
LWPOLYLINE
  2
AcDbPolyline
  3
AutoCAD 2000
 90
    32768
280
     0
281
     1
  0
CLASS
  1
HATCH
  2
AcDbHatch
  3
AutoCAD 2000
 90
    32768
280
     0
281
     1
  0
CLASS
  1
XRECORD
  2
AcDbXrecord
  3
AutoCAD 2000
 90
    32768
280
     0
281
     0
  0
CLASS
  1
LONG_TRANSACTION
  2
AcDbLongTransaction
  3
AutoCAD 2000
 90
    32768
280
     0
281
     0
  0
CLASS
  1
LWPOLYLINE
  2
AcDbPolyline
  3
AutoCAD 2000
 90
    32768
280
     0
281
     1
  0
CLASS
  1
HATCH
  2
AcDbHatch
  3
AutoCAD 2000
 90
    32768
280
     0
281
     1
  0
CLASS
  1
XRECORD
  2
AcDbXrecord
  3
AutoCAD 2000
 90
    32768
280
     0
281
     0
  0
CLASS
  1
LONG_TRANSACTION
  2
AcDbLongTransaction
  3
AutoCAD 2000
 90
    32768
280
     0
281
     0
  0
CLASS
  1
LWPOLYLINE
  2
AcDbPolyline
  3
AutoCAD 2000
 90
    32768
280
     0
281
     1
  0
CLASS
  1
HATCH
  2
AcDbHatch
  3
AutoCAD 2000
 90
    32768
280
     0
281
     1
  0
CLASS
  1
XRECORD
  2
AcDbXrecord
  3
AutoCAD 2000
 90
    32768
280
     0
281
     0
  0
CLASS
  1
LONG_TRANSACTION
  2
AcDbLongTransaction
  3
AutoCAD 2000
 90
    32768
280
     0
281
     0
  0
CLASS
  1
LWPOLYLINE
  2
AcDbPolyline
  3
AutoCAD 2000
 90
    32768
280
     0
281
     1
  0
CLASS
  1
HATCH
  2
AcDbHatch
  3
AutoCAD 2000
 90
    32768
280
     0
281
     1
  0
CLASS
  1
XRECORD
  2
AcDbXrecord
  3
AutoCAD 2000
 90
    32768
280
     0
281
     0
  0
CLASS
  1
DICTIONARYVAR
  2
AcDbDictionaryVar
  3
AutoCAD 2000
 90
        0
280
     0
281
     0
  0
CLASS
  1
LONG_TRANSACTION
  2
AcDbLongTransaction
  3
AutoCAD 2000
 90
    32768
280
     0
281
     0
  0
CLASS
  1
LWPOLYLINE
  2
AcDbPolyline
  3
AutoCAD 2000
 90
    32768
280
     0
281
     1
  0
CLASS
  1
HATCH
  2
AcDbHatch
  3
AutoCAD 2000
 90
    32768
280
     0
281
     1
  0
CLASS
  1
XRECORD
  2
AcDbXrecord
  3
AutoCAD 2000
 90
    32768
280
     0
281
     0
  0
CLASS
  1
LONG_TRANSACTION
  2
AcDbLongTransaction
  3
AutoCAD 2000
 90
    32768
280
     0
281
     0
  0
CLASS
  1
LWPOLYLINE
  2
AcDbPolyline
  3
AutoCAD 2000
 90
    32768
280
     0
281
     1
  0
CLASS
  1
HATCH
  2
AcDbHatch
  3
AutoCAD 2000
 90
    32768
280
     0
281
     1
  0
CLASS
  1
XRECORD
  2
AcDbXrecord
  3
AutoCAD 2000
 90
    32768
280
     0
281
     0
  0
CLASS
  1
LONG_TRANSACTION
  2
AcDbLongTransaction
  3
AutoCAD 2000
 90
    32768
280
     0
281
     0
  0
CLASS
  1
LWPOLYLINE
  2
AcDbPolyline
  3
AutoCAD 2000
 90
    32768
280
     0
281
     1
  0
CLASS
  1
HATCH
  2
AcDbHatch
  3
AutoCAD 2000
 90
    32768
280
     0
281
     1
  0
CLASS
  1
XRECORD
  2
AcDbXrecord
  3
AutoCAD 2000
 90
    32768
280
     0
281
     0
  0
CLASS
  1
LONG_TRANSACTION
  2
AcDbLongTransaction
  3
AutoCAD 2000
 90
    32768
280
     0
281
     0
  0
CLASS
  1
LWPOLYLINE
  2
AcDbPolyline
  3
AutoCAD 2000
 90
    32768
280
     0
281
     1
  0
CLASS
  1
HATCH
  2
AcDbHatch
  3
AutoCAD 2000
 90
    32768
280
     0
281
     1
  0
CLASS
  1
XRECORD
  2
AcDbXrecord
  3
AutoCAD 2000
 90
    32768
280
     0
281
     0
  0
CLASS
  1
LONG_TRANSACTION
  2
AcDbLongTransaction
  3
AutoCAD 2000
 90
    32768
280
     0
281
     0
  0
CLASS
  1
LWPOLYLINE
  2
AcDbPolyline
  3
AutoCAD 2000
 90
    32768
280
     0
281
     1
  0
CLASS
  1
HATCH
  2
AcDbHatch
  3
AutoCAD 2000
 90
    32768
280
     0
281
     1
  0
CLASS
  1
XRECORD
  2
AcDbXrecord
  3
AutoCAD 2000
 90
    32768
280
     0
281
     0
  0
CLASS
  1
LONG_TRANSACTION
  2
AcDbLongTransaction
  3
AutoCAD 2000
 90
    32768
280
     0
281
     0
  0
CLASS
  1
LWPOLYLINE
  2
AcDbPolyline
  3
AutoCAD 2000
 90
    32768
280
     0
281
     1
  0
CLASS
  1
HATCH
  2
AcDbHatch
  3
AutoCAD 2000
 90
    32768
280
     0
281
     1
  0
CLASS
  1
XRECORD
  2
AcDbXrecord
  3
AutoCAD 2000
 90
    32768
280
     0
281
     0
  0
ENDSEC
  0
SECTION
  2
TABLES
  0
TABLE
  2
VPORT
  5
8
330
0
100
AcDbSymbolTable
 70
     3
  0
VPORT
  5
7175
330
8
100
AcDbSymbolTableRecord
100
AcDbViewportTableRecord
  2
*Active
 70
     0
 10
0.0
 20
0.0
 11
1.0
 21
1.0
 12
273.560489114626
 22
219.5510285445148
 13
0.0
 23
0.0
 14
1.0
 24
1.0
 15
10.0
 25
10.0
 16
0.0
 26
0.0
 36
1.0
 17
0.0
 27
0.0
 37
0.0
 40
196.6919214283691
 41
1.700716845878136
 42
50.0
 43
0.0
 44
0.0
 50
0.0
 51
0.0
 71
     0
 72
   100
 73
     1
 74
     1
 75
     0
 76
     0
 77
     0
 78
     0
281
     0
 65
     1
110
0.0
120
0.0
130
0.0
111
1.0
121
0.0
131
0.0
112
0.0
122
1.0
132
0.0
 79
     0
146
0.0
  0
ENDTAB
  0
TABLE
  2
LTYPE
  5
5
330
0
100
AcDbSymbolTable
 70
     5
  0
LTYPE
  5
13
330
5
100
AcDbSymbolTableRecord
100
AcDbLinetypeTableRecord
  2
BYBLOCK
 70
     0
  3

 72
    65
 73
     0
 40
0.0
  0
LTYPE
  5
14
330
5
100
AcDbSymbolTableRecord
100
AcDbLinetypeTableRecord
  2
BYLAYER
 70
     0
  3

 72
    65
 73
     0
 40
0.0
  0
LTYPE
  5
15
330
5
100
AcDbSymbolTableRecord
100
AcDbLinetypeTableRecord
  2
CONTINUOUS
 70
     0
  3
Solid line
 72
    65
 73
     0
 40
0.0
  0
LTYPE
  5
22
330
5
100
AcDbSymbolTableRecord
100
AcDbLinetypeTableRecord
  2
CONTINOUS
 70
     0
  3
Solid line
 72
    65
 73
     0
 40
0.0
  0
LTYPE
  5
23
330
5
100
AcDbSymbolTableRecord
100
AcDbLinetypeTableRecord
  2
DASHED
 70
     0
  3
__ __ __ __ __ __ __ __ __ __ __ __ __ __ __
 72
    65
 73
     2
 40
0.75
 49
0.5
 74
     0
 49
-0.25
 74
     0
  0
LTYPE
  5
24
330
5
100
AcDbSymbolTableRecord
100
AcDbLinetypeTableRecord
  2
DASHDOT
 70
     0
  3
__ . __ . __ . __ . __ . __ . __ . __ . __ . __
 72
    65
 73
     4
 40
1.0
 49
0.5
 74
     0
 49
-0.25
 74
     0
 49
0.0
 74
     0
 49
-0.25
 74
     0
  0
LTYPE
  5
4C47
330
5
100
AcDbSymbolTableRecord
100
AcDbLinetypeTableRecord
  2
DIVIDE
 70
     0
  3
Divide ____ . . ____ . . ____ . . ____ . . ____
 72
    65
 73
     6
 40
1.25
 49
0.5
 74
     0
 49
-0.25
 74
     0
 49
0.0
 74
     0
 49
-0.25
 74
     0
 49
0.0
 74
     0
 49
-0.25
 74
     0
  0
ENDTAB
  0
TABLE
  2
LAYER
  5
2
330
0
100
AcDbSymbolTable
 70
    12
  0
LAYER
  5
10
330
2
100
AcDbSymbolTableRecord
100
AcDbLayerTableRecord
  2
0
 70
     0
 62
     7
  6
CONTINOUS
370
    -3
390
F
  0
LAYER
  5
2F
330
2
100
AcDbSymbolTableRecord
100
AcDbLayerTableRecord
  2
10
 70
     0
 62
     4
  6
CONTINOUS
370
    -3
390
F
  0
LAYER
  5
31
330
2
100
AcDbSymbolTableRecord
100
AcDbLayerTableRecord
  2
12
 70
     0
 62
     3
  6
CONTINOUS
370
    -3
390
F
  0
LAYER
  5
35
330
2
100
AcDbSymbolTableRecord
100
AcDbLayerTableRecord
  2
16
 70
     0
 62
     6
  6
DASHDOT
370
    -3
390
F
  0
LAYER
  5
38
330
2
100
AcDbSymbolTableRecord
100
AcDbLayerTableRecord
  2
19
 70
     0
 62
     7
  6
CONTINOUS
370
    -3
390
F
  0
LAYER
  5
3C
330
2
100
AcDbSymbolTableRecord
100
AcDbLayerTableRecord
  2
11
 70
     0
 62
     1
  6
CONTINOUS
370
    -3
390
F
  0
LAYER
  5
3D
330
2
100
AcDbSymbolTableRecord
100
AcDbLayerTableRecord
  2
24
 70
     0
 62
     2
  6
CONTINOUS
370
    -3
390
F
  0
LAYER
  5
3A2
330
2
100
AcDbSymbolTableRecord
100
AcDbLayerTableRecord
  2
30
 70
     0
 62
     9
  6
CONTINUOUS
370
    -3
390
F
  0
LAYER
  5
3A4
330
2
100
AcDbSymbolTableRecord
100
AcDbLayerTableRecord
  2
DEFPOINTS
 70
     0
 62
     7
  6
CONTINUOUS
290
     0
370
    -3
390
F
  0
LAYER
  5
3BBA
330
2
100
AcDbSymbolTableRecord
100
AcDbLayerTableRecord
  2
18
 70
     0
 62
     5
  6
DIVIDE
370
    -3
390
F
  0
LAYER
  5
5117
330
2
100
AcDbSymbolTableRecord
100
AcDbLayerTableRecord
  2
TOP
 70
     0
 62
     7
  6
CONTINUOUS
370
    -3
390
F
  0
LAYER
  5
64C0
330
2
100
AcDbSymbolTableRecord
100
AcDbLayerTableRecord
  2
5
 70
     0
 62
     7
  6
CONTINUOUS
370
    -3
390
F
  0
ENDTAB
  0
TABLE
  2
STYLE
  5
3
330
0
100
AcDbSymbolTable
 70
     3
  0
STYLE
  5
11
330
3
100
AcDbSymbolTableRecord
100
AcDbTextStyleTableRecord
  2
STANDARD
 70
     0
 40
0.0
 41
1.0
 50
0.0
 71
     0
 42
2.0
  3
txt.shx
  4
bigfont.shx
  0
STYLE
  5
42
330
3
100
AcDbSymbolTableRecord
100
AcDbTextStyleTableRecord
  2
STANDARD1
 70
     0
 40
0.0
 41
1.0
 50
0.0
 71
     0
 42
5.0
  3
MONOTXT
  4
BIGFONT
  0
STYLE
  5
5016
330
3
100
AcDbSymbolTableRecord
100
AcDbTextStyleTableRecord
  2
UGMTXT
 70
     0
 40
0.0
 41
1.0
 50
0.0
 71
     0
 42
0.2
  3
ugmtxt
  4
bigfont
  0
ENDTAB
  0
TABLE
  2
VIEW
  5
6
330
0
100
AcDbSymbolTable
 70
     3
  0
VIEW
  5
230C
330
6
100
AcDbSymbolTableRecord
100
AcDbViewTableRecord
  2
OLE1
 70
     0
 40
148.912488
 10
429.497628
 20
2.560627
 41
103.145806
 11
0.0
 21
0.0
 31
1.0
 12
0.0
 22
0.0
 32
0.0
 42
50.0
 43
0.0
 44
0.0
 50
0.0
 71
     0
281
     0
 72
     0
  0
VIEW
  5
230E
330
6
100
AcDbSymbolTableRecord
100
AcDbViewTableRecord
  2
OLE2
 70
     0
 40
170.778692
 10
322.66497
 20
-5.978304
 41
102.467215
 11
0.0
 21
0.0
 31
1.0
 12
0.0
 22
0.0
 32
0.0
 42
50.0
 43
0.0
 44
0.0
 50
0.0
 71
     0
281
     0
 72
     0
  0
VIEW
  5
23AA
330
6
100
AcDbSymbolTableRecord
100
AcDbViewTableRecord
  2
OLE3
 70
     0
 40
591.7897389999998
 10
84.79698199999999
 20
-46.09335999999998
 41
388.792096
 11
0.0
 21
0.0
 31
1.0
 12
0.0
 22
0.0
 32
0.0
 42
50.0
 43
0.0
 44
0.0
 50
0.0
 71
     0
281
     0
 72
     0
  0
ENDTAB
  0
TABLE
  2
UCS
  5
7
330
0
100
AcDbSymbolTable
 70
     0
  0
ENDTAB
  0
TABLE
  2
APPID
  5
9
330
0
100
AcDbSymbolTable
 70
     2
  0
APPID
  5
12
330
9
100
AcDbSymbolTableRecord
100
AcDbRegAppTableRecord
  2
ACAD
 70
     0
  0
APPID
  5
ECD
330
9
100
AcDbSymbolTableRecord
100
AcDbRegAppTableRecord
  2
CONTENTBLOCKICON
 70
     0
  0
ENDTAB
  0
TABLE
  2
DIMSTYLE
  5
A
330
0
100
AcDbSymbolTable
 70
     1
100
AcDbDimStyleTable
 71
     0
  0
DIMSTYLE
105
175
102
{ACAD_REACTORS
330
62D4
330
62D3
330
62F8
330
62D2
330
658E
330
657D
330
657C
330
6592
330
65B0
330
65AC
330
67C1
330
6571
330
6575
330
6573
330
6570
330
6593
330
63B5
330
68B3
330
68C0
330
68CD
330
696A
330
6977
330
6FEB
330
6FD9
330
6FDF
102
}
330
A
100
AcDbSymbolTableRecord
100
AcDbDimStyleTableRecord
  2
STANDARD
 70
     0
 41
2.0
 42
1.0
 43
0.5
 44
0.5
 73
     0
 77
     3
 78
    12
140
4.0
147
1.0
271
     1
272
     1
340
11
341
3B2
342
3B2
  0
ENDTAB
  0
TABLE
  2
BLOCK_RECORD
  5
1
330
0
100
AcDbSymbolTable
 70
    33
  0
BLOCK_RECORD
  5
1E
102
{ACAD_XDICTIONARY
360
178
102
}
330
1
100
AcDbSymbolTableRecord
100
AcDbBlockTableRecord
  2
*MODEL_SPACE
340
7171
  0
BLOCK_RECORD
  5
1A
102
{ACAD_XDICTIONARY
360
17A
102
}
330
1
100
AcDbSymbolTableRecord
100
AcDbBlockTableRecord
  2
*PAPER_SPACE
340
7172
  0
BLOCK_RECORD
  5
3B2
330
1
100
AcDbSymbolTableRecord
100
AcDbBlockTableRecord
  2
_OPEN
340
0
102
{BLKREFS
331
6ED3
331
6ED4
331
6EB9
331
6EBA
331
6EB0
331
6EB1
331
6EC2
331
6EC3
331
70FA
331
70FB
331
6F1B
331
6F1C
331
6EF7
331
6EF8
331
6F12
331
6F13
331
6F09
331
6F0A
331
6E7A
331
6E7B
331
6E71
331
6E72
331
6F40
331
6F41
331
6F2E
331
6F2F
331
6F00
331
6F01
331
6F37
331
6F38
331
6F49
331
6F4A
331
6F25
331
6F26
331
70F1
331
70F2
331
6EEE
331
6EEF
331
715A
331
715B
331
6EDC
331
6EDD
331
7163
331
7164
331
70E9
331
70D7
331
70D8
331
70E0
331
70E1
102
}
  0
BLOCK_RECORD
  5
6328
330
1
100
AcDbSymbolTableRecord
100
AcDbBlockTableRecord
  2
*D1
340
0
  0
BLOCK_RECORD
  5
6334
330
1
100
AcDbSymbolTableRecord
100
AcDbBlockTableRecord
  2
*D2
340
0
  0
BLOCK_RECORD
  5
6340
330
1
100
AcDbSymbolTableRecord
100
AcDbBlockTableRecord
  2
*D3
340
0
  0
BLOCK_RECORD
  5
634C
330
1
100
AcDbSymbolTableRecord
100
AcDbBlockTableRecord
  2
*D4
340
0
  0
BLOCK_RECORD
  5
63CC
330
1
100
AcDbSymbolTableRecord
100
AcDbBlockTableRecord
  2
*D5
340
0
  0
BLOCK_RECORD
  5
6402
330
1
100
AcDbSymbolTableRecord
100
AcDbBlockTableRecord
  2
*U6
340
0
102
{BLKREFS
331
65AF
102
}
  0
BLOCK_RECORD
  5
6406
330
1
100
AcDbSymbolTableRecord
100
AcDbBlockTableRecord
  2
*U7
340
0
102
{BLKREFS
331
65AE
102
}
  0
BLOCK_RECORD
  5
640A
330
1
100
AcDbSymbolTableRecord
100
AcDbBlockTableRecord
  2
*U8
340
0
102
{BLKREFS
331
65BC
102
}
  0
BLOCK_RECORD
  5
640E
330
1
100
AcDbSymbolTableRecord
100
AcDbBlockTableRecord
  2
*U9
340
0
102
{BLKREFS
331
65BB
102
}
  0
BLOCK_RECORD
  5
641D
330
1
100
AcDbSymbolTableRecord
100
AcDbBlockTableRecord
  2
*U10
340
0
102
{BLKREFS
331
65AD
102
}
  0
BLOCK_RECORD
  5
6421
330
1
100
AcDbSymbolTableRecord
100
AcDbBlockTableRecord
  2
*U11
340
0
102
{BLKREFS
331
6574
102
}
  0
BLOCK_RECORD
  5
65BE
330
1
100
AcDbSymbolTableRecord
100
AcDbBlockTableRecord
  2
*D12
340
0
  0
BLOCK_RECORD
  5
65CA
330
1
100
AcDbSymbolTableRecord
100
AcDbBlockTableRecord
  2
*D13
340
0
  0
BLOCK_RECORD
  5
65D6
330
1
100
AcDbSymbolTableRecord
100
AcDbBlockTableRecord
  2
*D14
340
0
  0
BLOCK_RECORD
  5
65E2
330
1
100
AcDbSymbolTableRecord
100
AcDbBlockTableRecord
  2
*D15
340
0
  0
BLOCK_RECORD
  5
65EE
330
1
100
AcDbSymbolTableRecord
100
AcDbBlockTableRecord
  2
*D16
340
0
  0
BLOCK_RECORD
  5
65FA
330
1
100
AcDbSymbolTableRecord
100
AcDbBlockTableRecord
  2
*D17
340
0
  0
BLOCK_RECORD
  5
6606
330
1
100
AcDbSymbolTableRecord
100
AcDbBlockTableRecord
  2
*D18
340
0
  0
BLOCK_RECORD
  5
6612
330
1
100
AcDbSymbolTableRecord
100
AcDbBlockTableRecord
  2
*D19
340
0
  0
BLOCK_RECORD
  5
661E
330
1
100
AcDbSymbolTableRecord
100
AcDbBlockTableRecord
  2
*D20
340
0
  0
BLOCK_RECORD
  5
662A
330
1
100
AcDbSymbolTableRecord
100
AcDbBlockTableRecord
  2
*D21
340
0
  0
BLOCK_RECORD
  5
6636
330
1
100
AcDbSymbolTableRecord
100
AcDbBlockTableRecord
  2
*D22
340
0
  0
BLOCK_RECORD
  5
67C2
330
1
100
AcDbSymbolTableRecord
100
AcDbBlockTableRecord
  2
*D23
340
0
  0
BLOCK_RECORD
  5
68B4
330
1
100
AcDbSymbolTableRecord
100
AcDbBlockTableRecord
  2
*D24
340
0
  0
BLOCK_RECORD
  5
68C1
330
1
100
AcDbSymbolTableRecord
100
AcDbBlockTableRecord
  2
*D25
340
0
  0
BLOCK_RECORD
  5
68CE
330
1
100
AcDbSymbolTableRecord
100
AcDbBlockTableRecord
  2
*D26
340
0
  0
BLOCK_RECORD
  5
696B
330
1
100
AcDbSymbolTableRecord
100
AcDbBlockTableRecord
  2
*D27
340
0
  0
BLOCK_RECORD
  5
6978
330
1
100
AcDbSymbolTableRecord
100
AcDbBlockTableRecord
  2
*D28
340
0
  0
BLOCK_RECORD
  5
6FF9
330
1
100
AcDbSymbolTableRecord
100
AcDbBlockTableRecord
  2
*D29
340
0
  0
BLOCK_RECORD
  5
7004
330
1
100
AcDbSymbolTableRecord
100
AcDbBlockTableRecord
  2
*D30
340
0
  0
BLOCK_RECORD
  5
701C
330
1
100
AcDbSymbolTableRecord
100
AcDbBlockTableRecord
  2
*D31
340
0
  0
BLOCK_RECORD
  5
7100
330
1
100
AcDbSymbolTableRecord
100
AcDbBlockTableRecord
  2
A$C445E2105
340
0
  0
ENDTAB
  0
ENDSEC
  0
SECTION
  2
BLOCKS
  0
BLOCK
  5
1F
330
1E
100
AcDbEntity
  8
0
100
AcDbBlockBegin
  2
*MODEL_SPACE
 70
     0
 10
0.0
 20
0.0
 30
0.0
  3
*MODEL_SPACE
  1

  0
ENDBLK
  5
20
330
1E
100
AcDbEntity
  8
0
100
AcDbBlockEnd
  0
BLOCK
  5
1B
330
1A
100
AcDbEntity
 67
     1
  8
0
100
AcDbBlockBegin
  2
*PAPER_SPACE
 70
     0
 10
0.0
 20
0.0
 30
0.0
  3
*PAPER_SPACE
  1

  0
ENDBLK
  5
1C
330
1A
100
AcDbEntity
 67
     1
  8
0
100
AcDbBlockEnd
  0
BLOCK
  5
3B6
330
3B2
100
AcDbEntity
  8
0
100
AcDbBlockBegin
  2
_OPEN
 70
     0
 10
0.0
 20
0.0
 30
0.0
  3
_OPEN
  1

  0
LINE
  5
3B3
330
3B2
100
AcDbEntity
  8
30
  6
Continuous
 62
     0
100
AcDbLine
 10
-1.0
 20
0.166667
 30
0.0
 11
0.0
 21
0.0
 31
0.0
  0
LINE
  5
3B4
330
3B2
100
AcDbEntity
  8
30
  6
Continuous
 62
     0
100
AcDbLine
 10
-1.0
 20
-0.166667
 30
0.0
 11
0.0
 21
0.0
 31
0.0
  0
LINE
  5
3B5
330
3B2
100
AcDbEntity
  8
30
  6
Continuous
 62
     0
100
AcDbLine
 10
0.0
 20
0.0
 30
0.0
 11
-1.0
 21
0.0
 31
0.0
  0
ENDBLK
  5
3B7
330
3B2
100
AcDbEntity
  8
0
100
AcDbBlockEnd
  0
BLOCK
  5
6332
330
6328
100
AcDbEntity
  8
0
100
AcDbBlockBegin
  2
*D1
 70
     1
 10
0.0
 20
0.0
 30
0.0
  3
*D1
  1

  0
LINE
  5
6ED0
330
6328
100
AcDbEntity
  8
30
  6
Continuous
 62
     0
100
AcDbLine
 10
-48.99999999999998
 20
25.99999999999999
 30
0.0
 11
-48.99999999999998
 21
35.71319198619852
 31
0.0
  0
LINE
  5
6ED1
330
6328
100
AcDbEntity
  8
30
  6
Continuous
 62
     0
100
AcDbLine
 10
49.00000000000003
 20
25.99999999999999
 30
0.0
 11
49.00000000000003
 21
35.71319198619852
 31
0.0
  0
LINE
  5
6ED2
330
6328
100
AcDbEntity
  8
30
  6
Continuous
 62
     0
100
AcDbLine
 10
-46.99999999999998
 20
35.21319198619852
 30
0.0
 11
47.00000000000001
 21
35.21319198619852
 31
0.0
  0
INSERT
  5
6ED3
330
6328
100
AcDbEntity
  8
30
  6
Continuous
 62
     0
100
AcDbBlockReference
  2
_OPEN
 10
-48.99999999999998
 20
35.21319198619852
 30
0.0
 41
2.0
 42
2.0
 43
2.0
 50
180.0
  0
INSERT
  5
6ED4
330
6328
100
AcDbEntity
  8
30
  6
Continuous
 62
     0
100
AcDbBlockReference
  2
_OPEN
 10
49.00000000000003
 20
35.21319198619852
 30
0.0
 41
2.0
 42
2.0
 43
2.0
  0
MTEXT
  5
6ED5
330
6328
100
AcDbEntity
  8
30
  6
Continuous
 62
     0
100
AcDbMText
 10
0.0000000000000215
 20
38.21319198619852
 30
0.0
 40
4.0
 41
0.0
 71
     5
 72
     1
  1
\A1;98
 73
     1
 44
1.0
1001
ACAD
1000
MTEXTBEGIN
1070
    73
1070
     1
1070
    44
1040
1.0
1070
    74
1070
     0
1000
MTEXTEND
  0
POINT
  5
6ED6
330
6328
100
AcDbEntity
  8
DEFPOINTS
  6
Continuous
 62
     0
100
AcDbPoint
 10
-48.99999999999998
 20
25.0
 30
0.0
  0
POINT
  5
6ED7
330
6328
100
AcDbEntity
  8
DEFPOINTS
  6
Continuous
 62
     0
100
AcDbPoint
 10
49.00000000000003
 20
25.0
 30
0.0
  0
POINT
  5
6ED8
330
6328
100
AcDbEntity
  8
DEFPOINTS
  6
Continuous
 62
     0
100
AcDbPoint
 10
49.00000000000003
 20
35.21319198619852
 30
0.0
  0
ENDBLK
  5
6333
330
6328
100
AcDbEntity
  8
0
100
AcDbBlockEnd
  0
BLOCK
  5
633E
330
6334
100
AcDbEntity
  8
0
100
AcDbBlockBegin
  2
*D2
 70
     1
 10
0.0
 20
0.0
 30
0.0
  3
*D2
  1

  0
LINE
  5
6EB6
330
6334
100
AcDbEntity
  8
30
  6
Continuous
 62
     0
100
AcDbLine
 10
-52.5
 20
-83.49999999999999
 30
0.0
 11
-52.5
 21
-130.9544464119911
 31
0.0
  0
LINE
  5
6EB7
330
6334
100
AcDbEntity
  8
30
  6
Continuous
 62
     0
100
AcDbLine
 10
52.50000000000003
 20
-83.49999999999999
 30
0.0
 11
52.50000000000003
 21
-130.9544464119911
 31
0.0
  0
LINE
  5
6EB8
330
6334
100
AcDbEntity
  8
30
  6
Continuous
 62
     0
100
AcDbLine
 10
-50.5
 20
-130.4544464119911
 30
0.0
 11
50.50000000000003
 21
-130.4544464119911
 31
0.0
  0
INSERT
  5
6EB9
330
6334
100
AcDbEntity
  8
30
  6
Continuous
 62
     0
100
AcDbBlockReference
  2
_OPEN
 10
-52.5
 20
-130.4544464119911
 30
0.0
 41
2.0
 42
2.0
 43
2.0
 50
180.0
  0
INSERT
  5
6EBA
330
6334
100
AcDbEntity
  8
30
  6
Continuous
 62
     0
100
AcDbBlockReference
  2
_OPEN
 10
52.50000000000003
 20
-130.4544464119911
 30
0.0
 41
2.0
 42
2.0
 43
2.0
  0
MTEXT
  5
6EBB
330
6334
100
AcDbEntity
  8
30
  6
Continuous
 62
     0
100
AcDbMText
 10
0.0000000000000073
 20
-127.4544464119911
 30
0.0
 40
4.0
 41
0.0
 71
     5
 72
     1
  1
\A1;105
 73
     1
 44
1.0
1001
ACAD
1000
MTEXTBEGIN
1070
    73
1070
     1
1070
    44
1040
1.0
1070
    74
1070
     0
1000
MTEXTEND
  0
POINT
  5
6EBC
330
6334
100
AcDbEntity
  8
DEFPOINTS
  6
Continuous
 62
     0
100
AcDbPoint
 10
-52.5
 20
-82.5
 30
0.0
  0
POINT
  5
6EBD
330
6334
100
AcDbEntity
  8
DEFPOINTS
  6
Continuous
 62
     0
100
AcDbPoint
 10
52.50000000000003
 20
-82.5
 30
0.0
  0
POINT
  5
6EBE
330
6334
100
AcDbEntity
  8
DEFPOINTS
  6
Continuous
 62
     0
100
AcDbPoint
 10
52.50000000000003
 20
-130.4544464119911
 30
0.0
  0
ENDBLK
  5
633F
330
6334
100
AcDbEntity
  8
0
100
AcDbBlockEnd
  0
BLOCK
  5
634A
330
6340
100
AcDbEntity
  8
0
100
AcDbBlockBegin
  2
*D3
 70
     1
 10
0.0
 20
0.0
 30
0.0
  3
*D3
  1

  0
LINE
  5
6EAD
330
6340
100
AcDbEntity
  8
30
  6
Continuous
 62
     0
100
AcDbLine
 10
-34.99999999999999
 20
-75.50000001650001
 30
0.0
 11
-34.99999999999999
 21
-110.9544464119909
 31
0.0
  0
LINE
  5
6EAE
330
6340
100
AcDbEntity
  8
30
  6
Continuous
 62
     0
100
AcDbLine
 10
35.00000000000003
 20
-75.50000001650001
 30
0.0
 11
35.00000000000003
 21
-110.9544464119909
 31
0.0
  0
LINE
  5
6EAF
330
6340
100
AcDbEntity
  8
30
  6
Continuous
 62
     0
100
AcDbLine
 10
-32.99999999999999
 20
-110.454446411991
 30
0.0
 11
33.00000000000002
 21
-110.454446411991
 31
0.0
  0
INSERT
  5
6EB0
330
6340
100
AcDbEntity
  8
30
  6
Continuous
 62
     0
100
AcDbBlockReference
  2
_OPEN
 10
-34.99999999999999
 20
-110.454446411991
 30
0.0
 41
2.0
 42
2.0
 43
2.0
 50
180.0
  0
INSERT
  5
6EB1
330
6340
100
AcDbEntity
  8
30
  6
Continuous
 62
     0
100
AcDbBlockReference
  2
_OPEN
 10
35.00000000000003
 20
-110.454446411991
 30
0.0
 41
2.0
 42
2.0
 43
2.0
  0
MTEXT
  5
6EB2
330
6340
100
AcDbEntity
  8
30
  6
Continuous
 62
     0
100
AcDbMText
 10
0.0000000000000179
 20
-107.454446411991
 30
0.0
 40
4.0
 41
0.0
 71
     5
 72
     1
  1
\A1;70
 73
     1
 44
1.0
1001
ACAD
1000
MTEXTBEGIN
1070
    73
1070
     1
1070
    44
1040
1.0
1070
    74
1070
     0
1000
MTEXTEND
  0
POINT
  5
6EB3
330
6340
100
AcDbEntity
  8
DEFPOINTS
  6
Continuous
 62
     0
100
AcDbPoint
 10
-34.99999999999999
 20
-74.50000001650001
 30
0.0
  0
POINT
  5
6EB4
330
6340
100
AcDbEntity
  8
DEFPOINTS
  6
Continuous
 62
     0
100
AcDbPoint
 10
35.00000000000003
 20
-74.50000001650001
 30
0.0
  0
POINT
  5
6EB5
330
6340
100
AcDbEntity
  8
DEFPOINTS
  6
Continuous
 62
     0
100
AcDbPoint
 10
35.00000000000003
 20
-110.454446411991
 30
0.0
  0
ENDBLK
  5
634B
330
6340
100
AcDbEntity
  8
0
100
AcDbBlockEnd
  0
BLOCK
  5
6356
330
634C
100
AcDbEntity
  8
0
100
AcDbBlockBegin
  2
*D4
 70
     1
 10
0.0
 20
0.0
 30
0.0
  3
*D4
  1

  0
LINE
  5
6EBF
330
634C
100
AcDbEntity
  8
30
  6
Continuous
 62
     0
100
AcDbLine
 10
-10.99999999999999
 20
-25.99999999999999
 30
0.0
 11
-11.0
 21
-40.95444641199118
 31
0.0
  0
LINE
  5
6EC0
330
634C
100
AcDbEntity
  8
30
  6
Continuous
 62
     0
100
AcDbLine
 10
10.99999999999999
 20
-25.99999999999999
 30
0.0
 11
10.99999999999999
 21
-40.95444641199118
 31
0.0
  0
LINE
  5
6EC1
330
634C
100
AcDbEntity
  8
30
  6
Continuous
 62
     0
100
AcDbLine
 10
-9.0
 20
-40.45444641199117
 30
0.0
 11
8.999999999999996
 21
-40.45444641199117
 31
0.0
  0
INSERT
  5
6EC2
330
634C
100
AcDbEntity
  8
30
  6
Continuous
 62
     0
100
AcDbBlockReference
  2
_OPEN
 10
-11.0
 20
-40.45444641199117
 30
0.0
 41
2.0
 42
2.0
 43
2.0
 50
180.0
  0
INSERT
  5
6EC3
330
634C
100
AcDbEntity
  8
30
  6
Continuous
 62
     0
100
AcDbBlockReference
  2
_OPEN
 10
10.99999999999999
 20
-40.45444641199117
 30
0.0
 41
2.0
 42
2.0
 43
2.0
  0
MTEXT
  5
6EC4
330
634C
100
AcDbEntity
  8
30
  6
Continuous
 62
     0
100
AcDbMText
 10
-0.0000000000000016
 20
-37.45444641199117
 30
0.0
 40
4.0
 41
0.0
 71
     5
 72
     1
  1
\A1;22
 73
     1
 44
1.0
1001
ACAD
1000
MTEXTBEGIN
1070
    73
1070
     1
1070
    44
1040
1.0
1070
    74
1070
     0
1000
MTEXTEND
  0
POINT
  5
6EC5
330
634C
100
AcDbEntity
  8
DEFPOINTS
  6
Continuous
 62
     0
100
AcDbPoint
 10
-10.99999999999999
 20
-25.0
 30
0.0
  0
POINT
  5
6EC6
330
634C
100
AcDbEntity
  8
DEFPOINTS
  6
Continuous
 62
     0
100
AcDbPoint
 10
10.99999999999999
 20
-25.0
 30
0.0
  0
POINT
  5
6EC7
330
634C
100
AcDbEntity
  8
DEFPOINTS
  6
Continuous
 62
     0
100
AcDbPoint
 10
10.99999999999999
 20
-40.45444641199117
 30
0.0
  0
ENDBLK
  5
6357
330
634C
100
AcDbEntity
  8
0
100
AcDbBlockEnd
  0
BLOCK
  5
63D6
330
63CC
100
AcDbEntity
  8
0
100
AcDbBlockBegin
  2
*D5
 70
     1
 10
0.0
 20
0.0
 30
0.0
  3
*D5
  1

  0
LINE
  5
70F7
330
63CC
100
AcDbEntity
  8
30
  6
Continuous
 62
     0
100
AcDbLine
 10
-17.49999999999999
 20
-190.5000000165
 30
0.0
 11
-17.5
 21
-360.9544464119909
 31
0.0
  0
LINE
  5
70F8
330
63CC
100
AcDbEntity
  8
30
  6
Continuous
 62
     0
100
AcDbLine
 10
17.49999999999999
 20
-316.5000000164998
 30
0.0
 11
17.49999999999998
 21
-360.9544464119909
 31
0.0
  0
LINE
  5
70F9
330
63CC
100
AcDbEntity
  8
30
  6
Continuous
 62
     0
100
AcDbLine
 10
-15.5
 20
-360.4544464119909
 30
0.0
 11
15.49999999999998
 21
-360.4544464119909
 31
0.0
  0
INSERT
  5
70FA
330
63CC
100
AcDbEntity
  8
30
  6
Continuous
 62
     0
100
AcDbBlockReference
  2
_OPEN
 10
-17.5
 20
-360.4544464119909
 30
0.0
 41
2.0
 42
2.0
 43
2.0
 50
180.0
  0
INSERT
  5
70FB
330
63CC
100
AcDbEntity
  8
30
  6
Continuous
 62
     0
100
AcDbBlockReference
  2
_OPEN
 10
17.49999999999998
 20
-360.4544464119909
 30
0.0
 41
2.0
 42
2.0
 43
2.0
  0
MTEXT
  5
70FC
330
63CC
100
AcDbEntity
  8
30
  6
Continuous
 62
     0
100
AcDbMText
 10
-0.0000000000000069
 20
-357.4544464119909
 30
0.0
 40
4.0
 41
0.0
 71
     5
 72
     1
  1
\A1;35
 73
     1
 44
1.0
1001
ACAD
1000
MTEXTBEGIN
1070
    73
1070
     1
1070
    44
1040
1.0
1070
    74
1070
     0
1000
MTEXTEND
  0
POINT
  5
70FD
330
63CC
100
AcDbEntity
  8
DEFPOINTS
  6
Continuous
 62
     0
100
AcDbPoint
 10
-17.49999999999999
 20
-189.5000000165
 30
0.0
  0
POINT
  5
70FE
330
63CC
100
AcDbEntity
  8
DEFPOINTS
  6
Continuous
 62
     0
100
AcDbPoint
 10
17.49999999999999
 20
-315.5000000164998
 30
0.0
  0
POINT
  5
70FF
330
63CC
100
AcDbEntity
  8
DEFPOINTS
  6
Continuous
 62
     0
100
AcDbPoint
 10
17.49999999999998
 20
-360.4544464119909
 30
0.0
  0
ENDBLK
  5
63D7
330
63CC
100
AcDbEntity
  8
0
100
AcDbBlockEnd
  0
BLOCK
  5
6404
330
6402
100
AcDbEntity
  8
TOP
  6
Continuous
 62
     4
100
AcDbBlockBegin
  2
*U6
 70
     1
 10
0.0
 20
0.0
 30
0.0
  3
*U6
  1

  0
TEXT
  5
6403
330
6402
100
AcDbEntity
  8
TOP
  6
ByBlock
 62
     0
100
AcDbText
 10
241.0
 20
103.4999999999999
 30
0.0
 40
2.500000003799998
  1
25
 41
0.8912499999999965
  7
UGMTXT
100
AcDbText
  0
ENDBLK
  5
6405
330
6402
100
AcDbEntity
  8
0
100
AcDbBlockEnd
  0
BLOCK
  5
6408
330
6406
100
AcDbEntity
  8
TOP
  6
Continuous
 62
     4
100
AcDbBlockBegin
  2
*U7
 70
     1
 10
0.0
 20
0.0
 30
0.0
  3
*U7
  1

  0
TEXT
  5
6407
330
6406
100
AcDbEntity
  8
TOP
  6
ByBlock
 62
     0
100
AcDbText
 10
245.0
 20
103.4999999999999
 30
0.0
 40
2.500000003799998
  1
(max.)
 41
0.8216911764705852
  7
UGMTXT
100
AcDbText
  0
ENDBLK
  5
6409
330
6406
100
AcDbEntity
  8
0
100
AcDbBlockEnd
  0
BLOCK
  5
640C
330
640A
100
AcDbEntity
  8
TOP
  6
Continuous
 62
     4
100
AcDbBlockBegin
  2
*U8
 70
     1
 10
0.0
 20
0.0
 30
0.0
  3
*U8
  1

  0
TEXT
  5
640B
330
640A
100
AcDbEntity
  8
TOP
  6
ByBlock
 62
     0
100
AcDbText
 10
262.5
 20
115.0
 30
0.0
 40
2.500000003799998
  1
10
 50
90.00000000000005
 41
0.8912499999999965
  7
UGMTXT
100
AcDbText
  0
ENDBLK
  5
640D
330
640A
100
AcDbEntity
  8
0
100
AcDbBlockEnd
  0
BLOCK
  5
6410
330
640E
100
AcDbEntity
  8
TOP
  6
Continuous
 62
     4
100
AcDbBlockBegin
  2
*U9
 70
     1
 10
0.0
 20
0.0
 30
0.0
  3
*U9
  1

  0
TEXT
  5
640F
330
640E
100
AcDbEntity
  8
TOP
  6
ByBlock
 62
     0
100
AcDbText
 10
262.5
 20
119.5
 30
0.0
 40
2.500000003799998
  1
(max.)
 50
90.00000000000005
 41
0.8216911764705852
  7
UGMTXT
100
AcDbText
  0
ENDBLK
  5
6411
330
640E
100
AcDbEntity
  8
0
100
AcDbBlockEnd
  0
BLOCK
  5
641F
330
641D
100
AcDbEntity
  8
TOP
  6
Continuous
 62
     4
100
AcDbBlockBegin
  2
*U10
 70
     1
 10
0.0
 20
0.0
 30
0.0
  3
*U10
  1

  0
TEXT
  5
641E
330
641D
100
AcDbEntity
  8
TOP
  6
ByBlock
 62
     0
100
AcDbText
 10
243.0
 20
98.50000000000001
 30
0.0
 40
2.500000003799998
  1
max.t7
 41
0.8216911764705852
  7
UGMTXT
100
AcDbText
  0
ENDBLK
  5
6420
330
641D
100
AcDbEntity
  8
0
100
AcDbBlockEnd
  0
BLOCK
  5
6427
330
6421
100
AcDbEntity
  8
TOP
  6
Continuous
 62
     4
100
AcDbBlockBegin
  2
*U11
 70
     1
 10
0.0
 20
0.0
 30
0.0
  3
*U11
  1

  0
LINE
  5
6422
330
6421
100
AcDbEntity
  8
5
  6
ByBlock
 62
     0
100
AcDbLine
 10
187.4932291666666
 20
140.0
 30
0.0
 11
187.4932291666666
 21
140.0
 31
0.0
  0
LINE
  5
6423
330
6421
100
AcDbEntity
  8
5
  6
ByBlock
 62
     0
100
AcDbLine
 10
212.3871961722488
 20
130.0647232036205
 30
0.0
 11
204.0
 21
140.0
 31
0.0
  0
LINE
  5
6424
330
6421
100
AcDbEntity
  8
5
  6
ByBlock
 62
     0
100
AcDbLine
 10
204.0
 20
140.0
 30
0.0
 11
187.4932291666666
 21
140.0
 31
0.0
  0
SOLID
  5
6425
330
6421
100
AcDbEntity
  8
5
  6
ByBlock
 62
     0
100
AcDbTrace
 10
212.3871961722488
 20
130.0647232036205
 30
0.0
 11
210.8423579767661
 21
131.3779581845569
 31
0.0
 12
211.3517767919608
 22
131.8080011138521
 32
0.0
 13
211.3517767919608
 23
131.8080011138521
 33
0.0
  0
TEXT
  5
6426
330
6421
100
AcDbEntity
  8
TOP
  6
ByBlock
 62
     0
100
AcDbText
 10
187.4932291666666
 20
138.7499999999999
 30
0.0
 40
2.5
  1
 
 41
1.054062499999991
  7
UGMTXT
100
AcDbText
  0
ENDBLK
  5
6428
330
6421
100
AcDbEntity
  8
0
100
AcDbBlockEnd
  0
BLOCK
  5
65C8
330
65BE
100
AcDbEntity
  8
0
100
AcDbBlockBegin
  2
*D12
 70
     1
 10
0.0
 20
0.0
 30
0.0
  3
*D12
  1

  0
LINE
  5
6F18
330
65BE
100
AcDbEntity
  8
30
  6
Continuous
 62
     0
100
AcDbLine
 10
191.2602819584348
 20
-52.00000000000002
 30
0.0
 11
191.2602819584348
 21
-115.7797117119421
 31
0.0
  0
LINE
  5
6F19
330
65BE
100
AcDbEntity
  8
30
  6
Continuous
 62
     0
100
AcDbLine
 10
259.2602819584348
 20
-83.49999999999999
 30
0.0
 11
259.2602819584348
 21
-115.7797117119421
 31
0.0
  0
LINE
  5
6F1A
330
65BE
100
AcDbEntity
  8
30
  6
Continuous
 62
     0
100
AcDbLine
 10
193.2602819584348
 20
-115.2797117119422
 30
0.0
 11
257.2602819584348
 21
-115.2797117119422
 31
0.0
  0
INSERT
  5
6F1B
330
65BE
100
AcDbEntity
  8
30
  6
Continuous
 62
     0
100
AcDbBlockReference
  2
_OPEN
 10
191.2602819584348
 20
-115.2797117119422
 30
0.0
 41
2.0
 42
2.0
 43
2.0
 50
180.0
  0
INSERT
  5
6F1C
330
65BE
100
AcDbEntity
  8
30
  6
Continuous
 62
     0
100
AcDbBlockReference
  2
_OPEN
 10
259.2602819584348
 20
-115.2797117119422
 30
0.0
 41
2.0
 42
2.0
 43
2.0
  0
MTEXT
  5
6F1D
330
65BE
100
AcDbEntity
  8
30
  6
Continuous
 62
     0
100
AcDbMText
 10
225.2602819584348
 20
-112.2797117119421
 30
0.0
 40
4.0
 41
0.0
 71
     5
 72
     1
  1
\A1;68
 73
     1
 44
1.0
1001
ACAD
1000
MTEXTBEGIN
1070
    73
1070
     1
1070
    44
1040
1.0
1070
    74
1070
     0
1000
MTEXTEND
  0
POINT
  5
6F1E
330
65BE
100
AcDbEntity
  8
DEFPOINTS
  6
Continuous
 62
     0
100
AcDbPoint
 10
191.2602819584348
 20
-51.00000000000002
 30
0.0
  0
POINT
  5
6F1F
330
65BE
100
AcDbEntity
  8
DEFPOINTS
  6
Continuous
 62
     0
100
AcDbPoint
 10
259.2602819584348
 20
-82.5
 30
0.0
  0
POINT
  5
6F20
330
65BE
100
AcDbEntity
  8
DEFPOINTS
  6
Continuous
 62
     0
100
AcDbPoint
 10
259.2602819584348
 20
-115.2797117119422
 30
0.0
  0
ENDBLK
  5
65C9
330
65BE
100
AcDbEntity
  8
0
100
AcDbBlockEnd
  0
BLOCK
  5
65D4
330
65CA
100
AcDbEntity
  8
0
100
AcDbBlockBegin
  2
*D13
 70
     1
 10
0.0
 20
0.0
 30
0.0
  3
*D13
  1

  0
LINE
  5
6EF4
330
65CA
100
AcDbEntity
  8
30
  6
Continuous
 62
     0
100
AcDbLine
 10
167.2602819584346
 20
-1.000000000000001
 30
0.0
 11
167.2602819584346
 21
-138.5172213954555
 31
0.0
  0
LINE
  5
6EF5
330
65CA
100
AcDbEntity
  8
30
  6
Continuous
 62
     0
100
AcDbLine
 10
259.2602819584348
 20
-83.49999999999999
 30
0.0
 11
259.2602819584348
 21
-138.5172213954555
 31
0.0
  0
LINE
  5
6EF6
330
65CA
100
AcDbEntity
  8
30
  6
Continuous
 62
     0
100
AcDbLine
 10
169.2602819584346
 20
-138.0172213954554
 30
0.0
 11
257.2602819584348
 21
-138.0172213954554
 31
0.0
  0
INSERT
  5
6EF7
330
65CA
100
AcDbEntity
  8
30
  6
Continuous
 62
     0
100
AcDbBlockReference
  2
_OPEN
 10
167.2602819584346
 20
-138.0172213954554
 30
0.0
 41
2.0
 42
2.0
 43
2.0
 50
180.0
  0
INSERT
  5
6EF8
330
65CA
100
AcDbEntity
  8
30
  6
Continuous
 62
     0
100
AcDbBlockReference
  2
_OPEN
 10
259.2602819584348
 20
-138.0172213954554
 30
0.0
 41
2.0
 42
2.0
 43
2.0
  0
MTEXT
  5
6EF9
330
65CA
100
AcDbEntity
  8
30
  6
Continuous
 62
     0
100
AcDbMText
 10
213.2602819584348
 20
-135.0172213954554
 30
0.0
 40
4.0
 41
0.0
 71
     5
 72
     1
  1
\A1;92
 73
     1
 44
1.0
1001
ACAD
1000
MTEXTBEGIN
1070
    73
1070
     1
1070
    44
1040
1.0
1070
    74
1070
     0
1000
MTEXTEND
  0
POINT
  5
6EFA
330
65CA
100
AcDbEntity
  8
DEFPOINTS
  6
Continuous
 62
     0
100
AcDbPoint
 10
167.2602819584346
 20
-0.0000000000000027
 30
0.0
  0
POINT
  5
6EFB
330
65CA
100
AcDbEntity
  8
DEFPOINTS
  6
Continuous
 62
     0
100
AcDbPoint
 10
259.2602819584348
 20
-82.5
 30
0.0
  0
POINT
  5
6EFC
330
65CA
100
AcDbEntity
  8
DEFPOINTS
  6
Continuous
 62
     0
100
AcDbPoint
 10
259.2602819584348
 20
-138.0172213954554
 30
0.0
  0
ENDBLK
  5
65D5
330
65CA
100
AcDbEntity
  8
0
100
AcDbBlockEnd
  0
BLOCK
  5
65E0
330
65D6
100
AcDbEntity
  8
0
100
AcDbBlockBegin
  2
*D14
 70
     1
 10
0.0
 20
0.0
 30
0.0
  3
*D14
  1

  0
LINE
  5
6F0F
330
65D6
100
AcDbEntity
  8
30
  6
Continuous
 62
     0
100
AcDbLine
 10
187.2602819584348
 20
-26.0
 30
0.0
 11
187.2602819584348
 21
-128.2104650043365
 31
0.0
  0
LINE
  5
6F10
330
65D6
100
AcDbEntity
  8
30
  6
Continuous
 62
     0
100
AcDbLine
 10
259.2602819584348
 20
-83.49999999999999
 30
0.0
 11
259.2602819584348
 21
-128.2104650043365
 31
0.0
  0
LINE
  5
6F11
330
65D6
100
AcDbEntity
  8
30
  6
Continuous
 62
     0
100
AcDbLine
 10
189.2602819584348
 20
-127.7104650043364
 30
0.0
 11
257.2602819584348
 21
-127.7104650043364
 31
0.0
  0
INSERT
  5
6F12
330
65D6
100
AcDbEntity
  8
30
  6
Continuous
 62
     0
100
AcDbBlockReference
  2
_OPEN
 10
187.2602819584348
 20
-127.7104650043364
 30
0.0
 41
2.0
 42
2.0
 43
2.0
 50
180.0
  0
INSERT
  5
6F13
330
65D6
100
AcDbEntity
  8
30
  6
Continuous
 62
     0
100
AcDbBlockReference
  2
_OPEN
 10
259.2602819584348
 20
-127.7104650043364
 30
0.0
 41
2.0
 42
2.0
 43
2.0
  0
MTEXT
  5
6F14
330
65D6
100
AcDbEntity
  8
30
  6
Continuous
 62
     0
100
AcDbMText
 10
223.2602819584348
 20
-124.7104650043364
 30
0.0
 40
4.0
 41
0.0
 71
     5
 72
     1
  1
\A1;72
 73
     1
 44
1.0
1001
ACAD
1000
MTEXTBEGIN
1070
    73
1070
     1
1070
    44
1040
1.0
1070
    74
1070
     0
1000
MTEXTEND
  0
POINT
  5
6F15
330
65D6
100
AcDbEntity
  8
DEFPOINTS
  6
Continuous
 62
     0
100
AcDbPoint
 10
187.2602819584348
 20
-25.0
 30
0.0
  0
POINT
  5
6F16
330
65D6
100
AcDbEntity
  8
DEFPOINTS
  6
Continuous
 62
     0
100
AcDbPoint
 10
259.2602819584348
 20
-82.5
 30
0.0
  0
POINT
  5
6F17
330
65D6
100
AcDbEntity
  8
DEFPOINTS
  6
Continuous
 62
     0
100
AcDbPoint
 10
259.2602819584348
 20
-127.7104650043364
 30
0.0
  0
ENDBLK
  5
65E1
330
65D6
100
AcDbEntity
  8
0
100
AcDbBlockEnd
  0
BLOCK
  5
65EC
330
65E2
100
AcDbEntity
  8
0
100
AcDbBlockBegin
  2
*D15
 70
     1
 10
0.0
 20
0.0
 30
0.0
  3
*D15
  1

  0
LINE
  5
6F06
330
65E2
100
AcDbEntity
  8
30
  6
Continuous
 62
     0
100
AcDbLine
 10
198.2602819584347
 20
-83.49999999999999
 30
0.0
 11
198.2602819584347
 21
-104.6847078385368
 31
0.0
  0
LINE
  5
6F07
330
65E2
100
AcDbEntity
  8
30
  6
Continuous
 62
     0
100
AcDbLine
 10
259.2602819584348
 20
-83.49999999999999
 30
0.0
 11
259.2602819584348
 21
-104.6847078385368
 31
0.0
  0
LINE
  5
6F08
330
65E2
100
AcDbEntity
  8
30
  6
Continuous
 62
     0
100
AcDbLine
 10
200.2602819584347
 20
-104.1847078385367
 30
0.0
 11
257.2602819584348
 21
-104.1847078385367
 31
0.0
  0
INSERT
  5
6F09
330
65E2
100
AcDbEntity
  8
30
  6
Continuous
 62
     0
100
AcDbBlockReference
  2
_OPEN
 10
198.2602819584347
 20
-104.1847078385367
 30
0.0
 41
2.0
 42
2.0
 43
2.0
 50
180.0
  0
INSERT
  5
6F0A
330
65E2
100
AcDbEntity
  8
30
  6
Continuous
 62
     0
100
AcDbBlockReference
  2
_OPEN
 10
259.2602819584348
 20
-104.1847078385367
 30
0.0
 41
2.0
 42
2.0
 43
2.0
  0
MTEXT
  5
6F0B
330
65E2
100
AcDbEntity
  8
30
  6
Continuous
 62
     0
100
AcDbMText
 10
228.7602819584348
 20
-101.1847078385367
 30
0.0
 40
4.0
 41
0.0
 71
     5
 72
     1
  1
\A1;61
 73
     1
 44
1.0
1001
ACAD
1000
MTEXTBEGIN
1070
    73
1070
     1
1070
    44
1040
1.0
1070
    74
1070
     0
1000
MTEXTEND
  0
POINT
  5
6F0C
330
65E2
100
AcDbEntity
  8
DEFPOINTS
  6
Continuous
 62
     0
100
AcDbPoint
 10
198.2602819584347
 20
-82.5
 30
0.0
  0
POINT
  5
6F0D
330
65E2
100
AcDbEntity
  8
DEFPOINTS
  6
Continuous
 62
     0
100
AcDbPoint
 10
259.2602819584348
 20
-82.5
 30
0.0
  0
POINT
  5
6F0E
330
65E2
100
AcDbEntity
  8
DEFPOINTS
  6
Continuous
 62
     0
100
AcDbPoint
 10
259.2602819584348
 20
-104.1847078385367
 30
0.0
  0
ENDBLK
  5
65ED
330
65E2
100
AcDbEntity
  8
0
100
AcDbBlockEnd
  0
BLOCK
  5
65F8
330
65EE
100
AcDbEntity
  8
0
100
AcDbBlockBegin
  2
*D16
 70
     1
 10
0.0
 20
0.0
 30
0.0
  3
*D16
  1

  0
LINE
  5
6E77
330
65EE
100
AcDbEntity
  8
30
  6
Continuous
 62
     0
100
AcDbLine
 10
190.2602819584348
 20
51.0
 30
0.0
 11
123.7572915325626
 21
51.00000000000002
 31
0.0
  0
LINE
  5
6E78
330
65EE
100
AcDbEntity
  8
30
  6
Continuous
 62
     0
100
AcDbLine
 10
190.2602819584348
 20
-51.00000000000002
 30
0.0
 11
123.7572915325626
 21
-51.0
 31
0.0
  0
LINE
  5
6E79
330
65EE
100
AcDbEntity
  8
30
  6
Continuous
 62
     0
100
AcDbLine
 10
124.2572915325625
 20
49.00000000000002
 30
0.0
 11
124.2572915325625
 21
-49.0
 31
0.0
  0
INSERT
  5
6E7A
330
65EE
100
AcDbEntity
  8
30
  6
Continuous
 62
     0
100
AcDbBlockReference
  2
_OPEN
 10
124.2572915325625
 20
51.00000000000002
 30
0.0
 41
2.0
 42
2.0
 43
2.0
 50
90.0
  0
INSERT
  5
6E7B
330
65EE
100
AcDbEntity
  8
30
  6
Continuous
 62
     0
100
AcDbBlockReference
  2
_OPEN
 10
124.2572915325625
 20
-51.0
 30
0.0
 41
2.0
 42
2.0
 43
2.0
 50
270.0
  0
MTEXT
  5
6E7C
330
65EE
100
AcDbEntity
  8
30
  6
Continuous
 62
     0
100
AcDbMText
 10
121.2572915325626
 20
0.0000000000000318
 30
0.0
 40
4.0
 41
0.0
 71
     5
 72
     1
  1
\A1;102
 11
0.0000000000000001
 21
1.0
 31
0.0
 73
     1
 44
1.0
1001
ACAD
1000
MTEXTBEGIN
1070
    73
1070
     1
1070
    44
1040
1.0
1070
    74
1070
     0
1000
MTEXTEND
  0
POINT
  5
6E7D
330
65EE
100
AcDbEntity
  8
DEFPOINTS
  6
Continuous
 62
     0
100
AcDbPoint
 10
191.2602819584348
 20
51.0
 30
0.0
  0
POINT
  5
6E7E
330
65EE
100
AcDbEntity
  8
DEFPOINTS
  6
Continuous
 62
     0
100
AcDbPoint
 10
191.2602819584348
 20
-51.00000000000002
 30
0.0
  0
POINT
  5
6E7F
330
65EE
100
AcDbEntity
  8
DEFPOINTS
  6
Continuous
 62
     0
100
AcDbPoint
 10
124.2572915325625
 20
-51.0
 30
0.0
  0
ENDBLK
  5
65F9
330
65EE
100
AcDbEntity
  8
0
100
AcDbBlockEnd
  0
BLOCK
  5
6604
330
65FA
100
AcDbEntity
  8
0
100
AcDbBlockBegin
  2
*D17
 70
     1
 10
0.0
 20
0.0
 30
0.0
  3
*D17
  1

  0
LINE
  5
6E6E
330
65FA
100
AcDbEntity
  8
30
  6
Continuous
 62
     0
100
AcDbLine
 10
182.2602819584346
 20
24.99999999999999
 30
0.0
 11
142.5072915325625
 21
25.0
 31
0.0
  0
LINE
  5
6E6F
330
65FA
100
AcDbEntity
  8
30
  6
Continuous
 62
     0
100
AcDbLine
 10
182.2602819584346
 20
-25.0
 30
0.0
 11
142.5072915325625
 21
-25.0
 31
0.0
  0
LINE
  5
6E70
330
65FA
100
AcDbEntity
  8
30
  6
Continuous
 62
     0
100
AcDbLine
 10
143.0072915325627
 20
23.0
 30
0.0
 11
143.0072915325627
 21
-22.99999999999998
 31
0.0
  0
INSERT
  5
6E71
330
65FA
100
AcDbEntity
  8
30
  6
Continuous
 62
     0
100
AcDbBlockReference
  2
_OPEN
 10
143.0072915325627
 20
25.0
 30
0.0
 41
2.0
 42
2.0
 43
2.0
 50
90.0
  0
INSERT
  5
6E72
330
65FA
100
AcDbEntity
  8
30
  6
Continuous
 62
     0
100
AcDbBlockReference
  2
_OPEN
 10
143.0072915325627
 20
-25.0
 30
0.0
 41
2.0
 42
2.0
 43
2.0
 50
270.0
  0
MTEXT
  5
6E73
330
65FA
100
AcDbEntity
  8
30
  6
Continuous
 62
     0
100
AcDbMText
 10
140.0072915325627
 20
0.0000000000000271
 30
0.0
 40
4.0
 41
0.0
 71
     5
 72
     1
  1
\A1;50
 11
0.0000000000000001
 21
1.0
 31
0.0
 73
     1
 44
1.0
1001
ACAD
1000
MTEXTBEGIN
1070
    73
1070
     1
1070
    44
1040
1.0
1070
    74
1070
     0
1000
MTEXTEND
  0
POINT
  5
6E74
330
65FA
100
AcDbEntity
  8
DEFPOINTS
  6
Continuous
 62
     0
100
AcDbPoint
 10
183.2602819584345
 20
24.99999999999999
 30
0.0
  0
POINT
  5
6E75
330
65FA
100
AcDbEntity
  8
DEFPOINTS
  6
Continuous
 62
     0
100
AcDbPoint
 10
183.2602819584345
 20
-25.0
 30
0.0
  0
POINT
  5
6E76
330
65FA
100
AcDbEntity
  8
DEFPOINTS
  6
Continuous
 62
     0
100
AcDbPoint
 10
143.0072915325627
 20
-25.0
 30
0.0
  0
ENDBLK
  5
6605
330
65FA
100
AcDbEntity
  8
0
100
AcDbBlockEnd
  0
BLOCK
  5
6610
330
6606
100
AcDbEntity
  8
0
100
AcDbBlockBegin
  2
*D18
 70
     1
 10
0.0
 20
0.0
 30
0.0
  3
*D18
  1

  0
LINE
  5
6F3D
330
6606
100
AcDbEntity
  8
30
  6
Continuous
 62
     0
100
AcDbLine
 10
235.2602819584347
 20
83.50000000000001
 30
0.0
 11
235.2602819584347
 21
110.0455535880087
 31
0.0
  0
LINE
  5
6F3E
330
6606
100
AcDbEntity
  8
30
  6
Continuous
 62
     0
100
AcDbLine
 10
259.2602819584348
 20
83.50000000000001
 30
0.0
 11
259.2602819584348
 21
110.0455535880087
 31
0.0
  0
LINE
  5
6F3F
330
6606
100
AcDbEntity
  8
30
  6
Continuous
 62
     0
100
AcDbLine
 10
237.2602819584347
 20
109.5455535880087
 30
0.0
 11
257.2602819584348
 21
109.5455535880087
 31
0.0
  0
INSERT
  5
6F40
330
6606
100
AcDbEntity
  8
30
  6
Continuous
 62
     0
100
AcDbBlockReference
  2
_OPEN
 10
235.2602819584347
 20
109.5455535880087
 30
0.0
 41
2.0
 42
2.0
 43
2.0
 50
180.0
  0
INSERT
  5
6F41
330
6606
100
AcDbEntity
  8
30
  6
Continuous
 62
     0
100
AcDbBlockReference
  2
_OPEN
 10
259.2602819584348
 20
109.5455535880087
 30
0.0
 41
2.0
 42
2.0
 43
2.0
  0
MTEXT
  5
6F42
330
6606
100
AcDbEntity
  8
30
  6
Continuous
 62
     0
100
AcDbMText
 10
247.2602819584348
 20
112.5455535880087
 30
0.0
 40
4.0
 41
0.0
 71
     5
 72
     1
  1
\A1;24
 73
     1
 44
1.0
1001
ACAD
1000
MTEXTBEGIN
1070
    73
1070
     1
1070
    44
1040
1.0
1070
    74
1070
     0
1000
MTEXTEND
  0
POINT
  5
6F43
330
6606
100
AcDbEntity
  8
DEFPOINTS
  6
Continuous
 62
     0
100
AcDbPoint
 10
235.2602819584347
 20
82.50000000000001
 30
0.0
  0
POINT
  5
6F44
330
6606
100
AcDbEntity
  8
DEFPOINTS
  6
Continuous
 62
     0
100
AcDbPoint
 10
259.2602819584348
 20
82.50000000000001
 30
0.0
  0
POINT
  5
6F45
330
6606
100
AcDbEntity
  8
DEFPOINTS
  6
Continuous
 62
     0
100
AcDbPoint
 10
259.2602819584348
 20
109.5455535880087
 30
0.0
  0
ENDBLK
  5
6611
330
6606
100
AcDbEntity
  8
0
100
AcDbBlockEnd
  0
BLOCK
  5
661C
330
6612
100
AcDbEntity
  8
0
100
AcDbBlockBegin
  2
*D19
 70
     1
 10
0.0
 20
0.0
 30
0.0
  3
*D19
  1

  0
LINE
  5
6F2B
330
6612
100
AcDbEntity
  8
30
  6
Continuous
 62
     0
100
AcDbLine
 10
259.2602819584348
 20
-83.49999999999999
 30
0.0
 11
259.2602819584348
 21
-94.03495377146127
 31
0.0
  0
LINE
  5
6F2C
330
6612
100
AcDbEntity
  8
30
  6
Continuous
 62
     0
100
AcDbLine
 10
267.2602819584345
 20
-66.25000000000003
 30
0.0
 11
267.2602819584345
 21
-94.03495377146127
 31
0.0
  0
LINE
  5
6F2D
330
6612
100
AcDbEntity
  8
30
  6
Continuous
 62
     0
100
AcDbLine
 10
261.2602819584348
 20
-93.53495377146128
 30
0.0
 11
265.2602819584345
 21
-93.53495377146128
 31
0.0
  0
INSERT
  5
6F2E
330
6612
100
AcDbEntity
  8
30
  6
Continuous
 62
     0
100
AcDbBlockReference
  2
_OPEN
 10
259.2602819584348
 20
-93.53495377146128
 30
0.0
 41
2.0
 42
2.0
 43
2.0
 50
180.0
  0
INSERT
  5
6F2F
330
6612
100
AcDbEntity
  8
30
  6
Continuous
 62
     0
100
AcDbBlockReference
  2
_OPEN
 10
267.2602819584345
 20
-93.53495377146128
 30
0.0
 41
2.0
 42
2.0
 43
2.0
  0
MTEXT
  5
6F30
330
6612
100
AcDbEntity
  8
30
  6
Continuous
 62
     0
100
AcDbMText
 10
263.2602819584348
 20
-90.53495377146132
 30
0.0
 40
4.0
 41
0.0
 71
     5
 72
     1
  1
\A1;8
 73
     1
 44
1.0
1001
ACAD
1000
MTEXTBEGIN
1070
    73
1070
     1
1070
    44
1040
1.0
1070
    74
1070
     0
1000
MTEXTEND
  0
POINT
  5
6F31
330
6612
100
AcDbEntity
  8
DEFPOINTS
  6
Continuous
 62
     0
100
AcDbPoint
 10
259.2602819584348
 20
-82.5
 30
0.0
  0
POINT
  5
6F32
330
6612
100
AcDbEntity
  8
DEFPOINTS
  6
Continuous
 62
     0
100
AcDbPoint
 10
267.2602819584345
 20
-65.25000000000003
 30
0.0
  0
POINT
  5
6F33
330
6612
100
AcDbEntity
  8
DEFPOINTS
  6
Continuous
 62
     0
100
AcDbPoint
 10
267.2602819584345
 20
-93.53495377146128
 30
0.0
  0
ENDBLK
  5
661D
330
6612
100
AcDbEntity
  8
0
100
AcDbBlockEnd
  0
BLOCK
  5
6628
330
661E
100
AcDbEntity
  8
0
100
AcDbBlockBegin
  2
*D20
 70
     1
 10
0.0
 20
0.0
 30
0.0
  3
*D20
  1

  0
LINE
  5
6EFD
330
661E
100
AcDbEntity
  8
30
  6
Continuous
 62
     0
100
AcDbLine
 10
214.2602819584348
 20
-68.25000000000001
 30
0.0
 11
214.2602819584348
 21
-94.03495377146127
 31
0.0
  0
LINE
  5
6EFE
330
661E
100
AcDbEntity
  8
30
  6
Continuous
 62
     0
100
AcDbLine
 10
259.2602819584348
 20
-83.49999999999999
 30
0.0
 11
259.2602819584348
 21
-94.03495377146127
 31
0.0
  0
LINE
  5
6EFF
330
661E
100
AcDbEntity
  8
30
  6
Continuous
 62
     0
100
AcDbLine
 10
216.2602819584348
 20
-93.53495377146128
 30
0.0
 11
257.2602819584348
 21
-93.53495377146128
 31
0.0
  0
INSERT
  5
6F00
330
661E
100
AcDbEntity
  8
30
  6
Continuous
 62
     0
100
AcDbBlockReference
  2
_OPEN
 10
214.2602819584348
 20
-93.53495377146128
 30
0.0
 41
2.0
 42
2.0
 43
2.0
 50
180.0
  0
INSERT
  5
6F01
330
661E
100
AcDbEntity
  8
30
  6
Continuous
 62
     0
100
AcDbBlockReference
  2
_OPEN
 10
259.2602819584348
 20
-93.53495377146128
 30
0.0
 41
2.0
 42
2.0
 43
2.0
  0
MTEXT
  5
6F02
330
661E
100
AcDbEntity
  8
30
  6
Continuous
 62
     0
100
AcDbMText
 10
236.7602819584348
 20
-90.53495377146132
 30
0.0
 40
4.0
 41
0.0
 71
     5
 72
     1
  1
\A1;45
 73
     1
 44
1.0
1001
ACAD
1000
MTEXTBEGIN
1070
    73
1070
     1
1070
    44
1040
1.0
1070
    74
1070
     0
1000
MTEXTEND
  0
POINT
  5
6F03
330
661E
100
AcDbEntity
  8
DEFPOINTS
  6
Continuous
 62
     0
100
AcDbPoint
 10
214.2602819584348
 20
-67.25000000000003
 30
0.0
  0
POINT
  5
6F04
330
661E
100
AcDbEntity
  8
DEFPOINTS
  6
Continuous
 62
     0
100
AcDbPoint
 10
259.2602819584348
 20
-82.5
 30
0.0
  0
POINT
  5
6F05
330
661E
100
AcDbEntity
  8
DEFPOINTS
  6
Continuous
 62
     0
100
AcDbPoint
 10
259.2602819584348
 20
-93.53495377146128
 30
0.0
  0
ENDBLK
  5
6629
330
661E
100
AcDbEntity
  8
0
100
AcDbBlockEnd
  0
BLOCK
  5
6634
330
662A
100
AcDbEntity
  8
0
100
AcDbBlockBegin
  2
*D21
 70
     1
 10
0.0
 20
0.0
 30
0.0
  3
*D21
  1

  0
LINE
  5
6F34
330
662A
100
AcDbEntity
  8
30
  6
Continuous
 62
     0
100
AcDbLine
 10
303.2602819584328
 20
47.92504825041532
 30
0.0
 11
303.2602819584328
 21
24.71319198619851
 31
0.0
  0
LINE
  5
6F35
330
662A
100
AcDbEntity
  8
30
  6
Continuous
 62
     0
100
AcDbLine
 10
328.2602819584328
 20
47.92504825041532
 30
0.0
 11
328.2602819584328
 21
24.71319198619851
 31
0.0
  0
LINE
  5
6F36
330
662A
100
AcDbEntity
  8
30
  6
Continuous
 62
     0
100
AcDbLine
 10
305.2602819584328
 20
25.21319198619851
 30
0.0
 11
326.2602819584328
 21
25.21319198619851
 31
0.0
  0
INSERT
  5
6F37
330
662A
100
AcDbEntity
  8
30
  6
Continuous
 62
     0
100
AcDbBlockReference
  2
_OPEN
 10
303.2602819584328
 20
25.21319198619851
 30
0.0
 41
2.0
 42
2.0
 43
2.0
 50
180.0
  0
INSERT
  5
6F38
330
662A
100
AcDbEntity
  8
30
  6
Continuous
 62
     0
100
AcDbBlockReference
  2
_OPEN
 10
328.2602819584328
 20
25.21319198619851
 30
0.0
 41
2.0
 42
2.0
 43
2.0
  0
MTEXT
  5
6F39
330
662A
100
AcDbEntity
  8
30
  6
Continuous
 62
     0
100
AcDbMText
 10
315.7602819584328
 20
28.21319198619851
 30
0.0
 40
4.0
 41
0.0
 71
     5
 72
     1
  1
\A1;25
 73
     1
 44
1.0
1001
ACAD
1000
MTEXTBEGIN
1070
    73
1070
     1
1070
    44
1040
1.0
1070
    74
1070
     0
1000
MTEXTEND
  0
POINT
  5
6F3A
330
662A
100
AcDbEntity
  8
DEFPOINTS
  6
Continuous
 62
     0
100
AcDbPoint
 10
303.2602819584328
 20
48.92504825041531
 30
0.0
  0
POINT
  5
6F3B
330
662A
100
AcDbEntity
  8
DEFPOINTS
  6
Continuous
 62
     0
100
AcDbPoint
 10
328.2602819584328
 20
48.92504825041531
 30
0.0
  0
POINT
  5
6F3C
330
662A
100
AcDbEntity
  8
DEFPOINTS
  6
Continuous
 62
     0
100
AcDbPoint
 10
328.2602819584328
 20
25.21319198619851
 30
0.0
  0
ENDBLK
  5
6635
330
662A
100
AcDbEntity
  8
0
100
AcDbBlockEnd
  0
BLOCK
  5
6640
330
6636
100
AcDbEntity
  8
0
100
AcDbBlockBegin
  2
*D22
 70
     1
 10
0.0
 20
0.0
 30
0.0
  3
*D22
  1

  0
LINE
  5
6F46
330
6636
100
AcDbEntity
  8
30
  6
Continuous
 62
     0
100
AcDbLine
 10
329.2602819584327
 20
48.92504825041531
 30
0.0
 11
339.0828896186868
 21
48.92504825041531
 31
0.0
  0
LINE
  5
6F47
330
6636
100
AcDbEntity
  8
30
  6
Continuous
 62
     0
100
AcDbLine
 10
319.2602819749328
 20
58.92504825041531
 30
0.0
 11
339.0828896186868
 21
58.92504825041531
 31
0.0
  0
LINE
  5
6F48
330
6636
100
AcDbEntity
  8
30
  6
Continuous
 62
     0
100
AcDbLine
 10
338.5828896186868
 20
50.92504825041531
 30
0.0
 11
338.5828896186868
 21
56.92504825041531
 31
0.0
  0
INSERT
  5
6F49
330
6636
100
AcDbEntity
  8
30
  6
Continuous
 62
     0
100
AcDbBlockReference
  2
_OPEN
 10
338.5828896186868
 20
48.92504825041531
 30
0.0
 41
2.0
 42
2.0
 43
2.0
 50
270.0
  0
INSERT
  5
6F4A
330
6636
100
AcDbEntity
  8
30
  6
Continuous
 62
     0
100
AcDbBlockReference
  2
_OPEN
 10
338.5828896186868
 20
58.92504825041531
 30
0.0
 41
2.0
 42
2.0
 43
2.0
 50
90.0
  0
MTEXT
  5
6F4B
330
6636
100
AcDbEntity
  8
30
  6
Continuous
 62
     0
100
AcDbMText
 10
335.5828896186868
 20
53.92504825041537
 30
0.0
 40
4.0
 41
0.0
 71
     5
 72
     1
  1
\A1;10
 11
0.0000000000000001
 21
1.0
 31
0.0
 73
     1
 44
1.0
1001
ACAD
1000
MTEXTBEGIN
1070
    73
1070
     1
1070
    44
1040
1.0
1070
    74
1070
     0
1000
MTEXTEND
  0
POINT
  5
6F4C
330
6636
100
AcDbEntity
  8
DEFPOINTS
  6
Continuous
 62
     0
100
AcDbPoint
 10
328.2602819584328
 20
48.92504825041531
 30
0.0
  0
POINT
  5
6F4D
330
6636
100
AcDbEntity
  8
DEFPOINTS
  6
Continuous
 62
     0
100
AcDbPoint
 10
318.2602819749328
 20
58.92504825041531
 30
0.0
  0
POINT
  5
6F4E
330
6636
100
AcDbEntity
  8
DEFPOINTS
  6
Continuous
 62
     0
100
AcDbPoint
 10
338.5828896186868
 20
58.92504825041531
 30
0.0
  0
ENDBLK
  5
6641
330
6636
100
AcDbEntity
  8
0
100
AcDbBlockEnd
  0
BLOCK
  5
67CD
330
67C2
100
AcDbEntity
  8
0
100
AcDbBlockBegin
  2
*D23
 70
     1
 10
0.0
 20
0.0
 30
0.0
  3
*D23
  1

  0
LINE
  5
6F21
330
67C2
100
AcDbEntity
  8
30
  6
Continuous
 62
     0
100
AcDbLine
 10
183.2602819584345
 20
-26.0
 30
0.0
 11
183.2602819584345
 21
-128.2104650043365
 31
0.0
  0
LINE
  5
6F22
330
67C2
100
AcDbEntity
  8
30
  6
Continuous
 62
     0
100
AcDbLine
 10
187.2602819584348
 20
-26.0
 30
0.0
 11
187.2602819584348
 21
-128.2104650043365
 31
0.0
  0
LINE
  5
6F23
330
67C2
100
AcDbEntity
  8
30
  6
Continuous
 62
     0
100
AcDbLine
 10
181.2602819584346
 20
-127.7104650043364
 30
0.0
 11
179.2602819584345
 21
-127.7104650043364
 31
0.0
  0
LINE
  5
6F24
330
67C2
100
AcDbEntity
  8
30
  6
Continuous
 62
     0
100
AcDbLine
 10
189.2602819584348
 20
-127.7104650043364
 30
0.0
 11
195.9269486251015
 21
-127.7104650043364
 31
0.0
  0
INSERT
  5
6F25
330
67C2
100
AcDbEntity
  8
30
  6
Continuous
 62
     0
100
AcDbBlockReference
  2
_OPEN
 10
183.2602819584345
 20
-127.7104650043364
 30
0.0
 41
2.0
 42
2.0
 43
2.0
  0
INSERT
  5
6F26
330
67C2
100
AcDbEntity
  8
30
  6
Continuous
 62
     0
100
AcDbBlockReference
  2
_OPEN
 10
187.2602819584348
 20
-127.7104650043364
 30
0.0
 41
2.0
 42
2.0
 43
2.0
 50
180.0
  0
MTEXT
  5
6F27
330
67C2
100
AcDbEntity
  8
30
  6
Continuous
 62
     0
100
AcDbMText
 10
193.5936152917681
 20
-124.7104650043364
 30
0.0
 40
4.0
 41
0.0
 71
     5
 72
     1
  1
\A1;4
 73
     1
 44
1.0
1001
ACAD
1000
MTEXTBEGIN
1070
    73
1070
     1
1070
    44
1040
1.0
1070
    74
1070
     0
1000
MTEXTEND
  0
POINT
  5
6F28
330
67C2
100
AcDbEntity
  8
DEFPOINTS
  6
Continuous
 62
     0
100
AcDbPoint
 10
183.2602819584345
 20
-25.0
 30
0.0
  0
POINT
  5
6F29
330
67C2
100
AcDbEntity
  8
DEFPOINTS
  6
Continuous
 62
     0
100
AcDbPoint
 10
187.2602819584348
 20
-25.0
 30
0.0
  0
POINT
  5
6F2A
330
67C2
100
AcDbEntity
  8
DEFPOINTS
  6
Continuous
 62
     0
100
AcDbPoint
 10
187.2602819584348
 20
-127.7104650043364
 30
0.0
  0
ENDBLK
  5
67CE
330
67C2
100
AcDbEntity
  8
0
100
AcDbBlockEnd
  0
BLOCK
  5
68BE
330
68B4
100
AcDbEntity
  8
0
100
AcDbBlockBegin
  2
*D24
 70
     1
 10
0.0
 20
0.0
 30
0.0
  3
*D24
  1

  0
LINE
  5
70EE
330
68B4
100
AcDbEntity
  8
30
  6
Continuous
 62
     0
100
AcDbLine
 10
-10.99999999999999
 20
-186.9999999999999
 30
0.0
 11
99.87132402074372
 21
-186.9999999999999
 31
0.0
  0
LINE
  5
70EF
330
68B4
100
AcDbEntity
  8
30
  6
Continuous
 62
     0
100
AcDbLine
 10
23.99999999999999
 20
-312.9999999999999
 30
0.0
 11
99.87132402074371
 21
-312.9999999999999
 31
0.0
  0
LINE
  5
70F0
330
68B4
100
AcDbEntity
  8
30
  6
Continuous
 62
     0
100
AcDbLine
 10
99.3713240207437
 20
-188.9999999999999
 30
0.0
 11
99.3713240207437
 21
-310.9999999999998
 31
0.0
  0
INSERT
  5
70F1
330
68B4
100
AcDbEntity
  8
30
  6
Continuous
 62
     0
100
AcDbBlockReference
  2
_OPEN
 10
99.3713240207437
 20
-186.9999999999999
 30
0.0
 41
2.0
 42
2.0
 43
2.0
 50
90.0
  0
INSERT
  5
70F2
330
68B4
100
AcDbEntity
  8
30
  6
Continuous
 62
     0
100
AcDbBlockReference
  2
_OPEN
 10
99.3713240207437
 20
-312.9999999999999
 30
0.0
 41
2.0
 42
2.0
 43
2.0
 50
270.0
  0
MTEXT
  5
70F3
330
68B4
100
AcDbEntity
  8
30
  6
Continuous
 62
     0
100
AcDbMText
 10
96.37132402074371
 20
-249.9999999999999
 30
0.0
 40
4.0
 41
0.0
 71
     5
 72
     1
  1
\A1;126
 11
0.0000000000000001
 21
1.0
 31
0.0
 73
     1
 44
1.0
1001
ACAD
1000
MTEXTBEGIN
1070
    73
1070
     1
1070
    44
1040
1.0
1070
    74
1070
     0
1000
MTEXTEND
  0
POINT
  5
70F4
330
68B4
100
AcDbEntity
  8
DEFPOINTS
  6
Continuous
 62
     0
100
AcDbPoint
 10
-11.99999999999999
 20
-186.9999999999999
 30
0.0
  0
POINT
  5
70F5
330
68B4
100
AcDbEntity
  8
DEFPOINTS
  6
Continuous
 62
     0
100
AcDbPoint
 10
22.99999999999998
 20
-312.9999999999999
 30
0.0
  0
POINT
  5
70F6
330
68B4
100
AcDbEntity
  8
DEFPOINTS
  6
Continuous
 62
     0
100
AcDbPoint
 10
99.3713240207437
 20
-312.9999999999999
 30
0.0
  0
ENDBLK
  5
68BF
330
68B4
100
AcDbEntity
  8
0
100
AcDbBlockEnd
  0
BLOCK
  5
68CB
330
68C1
100
AcDbEntity
  8
0
100
AcDbBlockBegin
  2
*D25
 70
     1
 10
0.0
 20
0.0
 30
0.0
  3
*D25
  1

  0
LINE
  5
6EEB
330
68C1
100
AcDbEntity
  8
30
  6
Continuous
 62
     0
100
AcDbLine
 10
-34.99999999999999
 20
278.415875659212
 30
0.0
 11
-34.99999999999999
 21
317.4820236200754
 31
0.0
  0
LINE
  5
6EEC
330
68C1
100
AcDbEntity
  8
30
  6
Continuous
 62
     0
100
AcDbLine
 10
-0.0000000000000008
 20
278.415875659212
 30
0.0
 11
0.0000000000000016
 21
317.4820236200754
 31
0.0
  0
LINE
  5
6EED
330
68C1
100
AcDbEntity
  8
30
  6
Continuous
 62
     0
100
AcDbLine
 10
-32.99999999999999
 20
316.9820236200753
 30
0.0
 11
-1.999999999999998
 21
316.9820236200753
 31
0.0
  0
INSERT
  5
6EEE
330
68C1
100
AcDbEntity
  8
30
  6
Continuous
 62
     0
100
AcDbBlockReference
  2
_OPEN
 10
-34.99999999999999
 20
316.9820236200753
 30
0.0
 41
2.0
 42
2.0
 43
2.0
 50
180.0
  0
INSERT
  5
6EEF
330
68C1
100
AcDbEntity
  8
30
  6
Continuous
 62
     0
100
AcDbBlockReference
  2
_OPEN
 10
0.0000000000000015
 20
316.9820236200753
 30
0.0
 41
2.0
 42
2.0
 43
2.0
  0
MTEXT
  5
6EF0
330
68C1
100
AcDbEntity
  8
30
  6
Continuous
 62
     0
100
AcDbMText
 10
-17.49999999999999
 20
319.9820236200753
 30
0.0
 40
4.0
 41
0.0
 71
     5
 72
     1
  1
\A1;35
 73
     1
 44
1.0
1001
ACAD
1000
MTEXTBEGIN
1070
    73
1070
     1
1070
    44
1040
1.0
1070
    74
1070
     0
1000
MTEXTEND
  0
POINT
  5
6EF1
330
68C1
100
AcDbEntity
  8
DEFPOINTS
  6
Continuous
 62
     0
100
AcDbPoint
 10
-34.99999999999999
 20
277.415875659212
 30
0.0
  0
POINT
  5
6EF2
330
68C1
100
AcDbEntity
  8
DEFPOINTS
  6
Continuous
 62
     0
100
AcDbPoint
 10
-0.0000000000000009
 20
277.415875659212
 30
0.0
  0
POINT
  5
6EF3
330
68C1
100
AcDbEntity
  8
DEFPOINTS
  6
Continuous
 62
     0
100
AcDbPoint
 10
0.0000000000000015
 20
316.9820236200753
 30
0.0
  0
ENDBLK
  5
68CC
330
68C1
100
AcDbEntity
  8
0
100
AcDbBlockEnd
  0
BLOCK
  5
68D8
330
68CE
100
AcDbEntity
  8
0
100
AcDbBlockBegin
  2
*D26
 70
     1
 10
0.0
 20
0.0
 30
0.0
  3
*D26
  1

  0
LINE
  5
7157
330
68CE
100
AcDbEntity
  8
30
  6
Continuous
 62
     0
100
AcDbLine
 10
-0.0000000000000008
 20
278.415875659212
 30
0.0
 11
0.0000000000000016
 21
317.4820236200754
 31
0.0
  0
LINE
  5
7158
330
68CE
100
AcDbEntity
  8
30
  6
Continuous
 62
     0
100
AcDbLine
 10
35.00000000000003
 20
278.415875659212
 30
0.0
 11
35.00000000000003
 21
317.4820236200754
 31
0.0
  0
LINE
  5
7159
330
68CE
100
AcDbEntity
  8
30
  6
Continuous
 62
     0
100
AcDbLine
 10
2.0
 20
316.9820236200753
 30
0.0
 11
33.00000000000003
 21
316.9820236200753
 31
0.0
  0
INSERT
  5
715A
330
68CE
100
AcDbEntity
  8
30
  6
Continuous
 62
     0
100
AcDbBlockReference
  2
_OPEN
 10
0.0000000000000015
 20
316.9820236200753
 30
0.0
 41
2.0
 42
2.0
 43
2.0
 50
180.0
  0
INSERT
  5
715B
330
68CE
100
AcDbEntity
  8
30
  6
Continuous
 62
     0
100
AcDbBlockReference
  2
_OPEN
 10
35.00000000000003
 20
316.9820236200753
 30
0.0
 41
2.0
 42
2.0
 43
2.0
  0
MTEXT
  5
715C
330
68CE
100
AcDbEntity
  8
30
  6
Continuous
 62
     0
100
AcDbMText
 10
17.50000000000001
 20
319.9820236200753
 30
0.0
 40
4.0
 41
0.0
 71
     5
 72
     1
  1
\A1;35
 73
     1
 44
1.0
  0
POINT
  5
715D
330
68CE
100
AcDbEntity
  8
DEFPOINTS
  6
Continuous
 62
     0
100
AcDbPoint
 10
-0.0000000000000009
 20
277.415875659212
 30
0.0
  0
POINT
  5
715E
330
68CE
100
AcDbEntity
  8
DEFPOINTS
  6
Continuous
 62
     0
100
AcDbPoint
 10
35.00000000000003
 20
277.415875659212
 30
0.0
  0
POINT
  5
715F
330
68CE
100
AcDbEntity
  8
DEFPOINTS
  6
Continuous
 62
     0
100
AcDbPoint
 10
35.00000000000003
 20
316.9820236200753
 30
0.0
  0
ENDBLK
  5
68D9
330
68CE
100
AcDbEntity
  8
0
100
AcDbBlockEnd
  0
BLOCK
  5
6975
330
696B
100
AcDbEntity
  8
0
100
AcDbBlockBegin
  2
*D27
 70
     1
 10
0.0
 20
0.0
 30
0.0
  3
*D27
  1

  0
LINE
  5
6ED9
330
696B
100
AcDbEntity
  8
30
  6
Continuous
 62
     0
100
AcDbLine
 10
-20.0
 20
182.4999999999999
 30
0.0
 11
-83.54799272002635
 21
182.4999999999999
 31
0.0
  0
LINE
  5
6EDA
330
696B
100
AcDbEntity
  8
30
  6
Continuous
 62
     0
100
AcDbLine
 10
-53.50000000000001
 20
82.50000000000001
 30
0.0
 11
-83.54799272002637
 21
82.50000000000001
 31
0.0
  0
LINE
  5
6EDB
330
696B
100
AcDbEntity
  8
30
  6
Continuous
 62
     0
100
AcDbLine
 10
-83.04799272002634
 20
180.4999999999999
 30
0.0
 11
-83.04799272002638
 21
84.50000000000001
 31
0.0
  0
INSERT
  5
6EDC
330
696B
100
AcDbEntity
  8
30
  6
Continuous
 62
     0
100
AcDbBlockReference
  2
_OPEN
 10
-83.04799272002634
 20
182.4999999999999
 30
0.0
 41
2.0
 42
2.0
 43
2.0
 50
90.0
  0
INSERT
  5
6EDD
330
696B
100
AcDbEntity
  8
30
  6
Continuous
 62
     0
100
AcDbBlockReference
  2
_OPEN
 10
-83.04799272002638
 20
82.50000000000001
 30
0.0
 41
2.0
 42
2.0
 43
2.0
 50
270.0
  0
MTEXT
  5
6EDE
330
696B
100
AcDbEntity
  8
30
  6
Continuous
 62
     0
100
AcDbMText
 10
-86.04799272002637
 20
132.4999999999999
 30
0.0
 40
4.0
 41
0.0
 71
     5
 72
     1
  1
\A1;100
 11
0.0000000000000001
 21
1.0
 31
0.0
 73
     1
 44
1.0
1001
ACAD
1000
MTEXTBEGIN
1070
    73
1070
     1
1070
    44
1040
1.0
1070
    74
1070
     0
1000
MTEXTEND
  0
POINT
  5
6EDF
330
696B
100
AcDbEntity
  8
DEFPOINTS
  6
Continuous
 62
     0
100
AcDbPoint
 10
-19.0
 20
182.4999999999999
 30
0.0
  0
POINT
  5
6EE0
330
696B
100
AcDbEntity
  8
DEFPOINTS
  6
Continuous
 62
     0
100
AcDbPoint
 10
-52.5
 20
82.50000000000001
 30
0.0
  0
POINT
  5
6EE1
330
696B
100
AcDbEntity
  8
DEFPOINTS
  6
Continuous
 62
     0
100
AcDbPoint
 10
-83.04799272002638
 20
82.50000000000001
 30
0.0
  0
ENDBLK
  5
6976
330
696B
100
AcDbEntity
  8
0
100
AcDbBlockEnd
  0
BLOCK
  5
6982
330
6978
100
AcDbEntity
  8
0
100
AcDbBlockBegin
  2
*D28
 70
     1
 10
0.0
 20
0.0
 30
0.0
  3
*D28
  1

  0
LINE
  5
7160
330
6978
100
AcDbEntity
  8
30
  6
Continuous
 62
     0
100
AcDbLine
 10
-53.50000000000001
 20
82.50000000000001
 30
0.0
 11
-83.54799272002637
 21
82.50000000000001
 31
0.0
  0
LINE
  5
7161
330
6978
100
AcDbEntity
  8
30
  6
Continuous
 62
     0
100
AcDbLine
 10
-53.50000000000001
 20
-82.5
 30
0.0
 11
-83.54799272002642
 21
-82.5
 31
0.0
  0
LINE
  5
7162
330
6978
100
AcDbEntity
  8
30
  6
Continuous
 62
     0
100
AcDbLine
 10
-83.04799272002638
 20
80.50000000000002
 30
0.0
 11
-83.04799272002641
 21
-80.5
 31
0.0
  0
INSERT
  5
7163
330
6978
100
AcDbEntity
  8
30
  6
Continuous
 62
     0
100
AcDbBlockReference
  2
_OPEN
 10
-83.04799272002638
 20
82.50000000000001
 30
0.0
 41
2.0
 42
2.0
 43
2.0
 50
90.0
  0
INSERT
  5
7164
330
6978
100
AcDbEntity
  8
30
  6
Continuous
 62
     0
100
AcDbBlockReference
  2
_OPEN
 10
-83.04799272002641
 20
-82.5
 30
0.0
 41
2.0
 42
2.0
 43
2.0
 50
270.0
  0
MTEXT
  5
7165
330
6978
100
AcDbEntity
  8
30
  6
Continuous
 62
     0
100
AcDbMText
 10
-86.0479927200264
 20
-0.0000000000000017
 30
0.0
 40
4.0
 41
0.0
 71
     5
 72
     1
  1
\A1;165
 11
0.0000000000000001
 21
1.0
 31
0.0
 73
     1
 44
1.0
  0
POINT
  5
7166
330
6978
100
AcDbEntity
  8
DEFPOINTS
  6
Continuous
 62
     0
100
AcDbPoint
 10
-52.5
 20
82.50000000000001
 30
0.0
  0
POINT
  5
7167
330
6978
100
AcDbEntity
  8
DEFPOINTS
  6
Continuous
 62
     0
100
AcDbPoint
 10
-52.5
 20
-82.5
 30
0.0
  0
POINT
  5
7168
330
6978
100
AcDbEntity
  8
DEFPOINTS
  6
Continuous
 62
     0
100
AcDbPoint
 10
-83.04799272002641
 20
-82.5
 30
0.0
  0
ENDBLK
  5
6983
330
6978
100
AcDbEntity
  8
0
100
AcDbBlockEnd
  0
BLOCK
  5
7002
330
6FF9
100
AcDbEntity
  8
0
100
AcDbBlockBegin
  2
*D29
 70
     1
 10
0.0
 20
0.0
 30
0.0
  3
*D29
  1

  0
LINE
  5
70E6
330
6FF9
100
AcDbEntity
  8
30
  6
Continuous
 62
     0
100
AcDbLine
 10
269.4290315443382
 20
-222.1320292601959
 30
0.0
 11
263.0956982110049
 21
-222.1320292601959
 31
0.0
  0
LINE
  5
70E7
330
6FF9
100
AcDbEntity
  8
30
  6
Continuous
 62
     0
100
AcDbLine
 10
263.0956982110049
 20
-222.1320292601959
 30
0.0
 11
261.4574189266028
 21
-223.2792175561173
 31
0.0
  0
MTEXT
  5
70E8
330
6FF9
100
AcDbEntity
  8
30
  6
Continuous
 62
     0
100
AcDbMText
 10
266.7623648776715
 20
-219.1320292601959
 30
0.0
 40
4.0
 41
0.0
 71
     5
 72
     1
  1
\A1;R1
 73
     1
 44
1.0
1001
ACAD
1000
MTEXTBEGIN
1070
    73
1070
     1
1070
    44
1040
1.0
1070
    74
1070
     0
1000
MTEXTEND
  0
INSERT
  5
70E9
330
6FF9
100
AcDbEntity
  8
30
  6
Continuous
 62
     0
100
AcDbBlockReference
  2
_OPEN
 10
259.8191396422008
 20
-224.4264058520389
 30
0.0
 41
2.0
 42
2.0
 43
2.0
 50
215.0012388520234
  0
LINE
  5
70EA
330
6FF9
100
AcDbEntity
  8
30
  6
Continuous
 62
     0
100
AcDbLine
 10
258.9100000000001
 20
-224.9999999999995
 30
0.0
 11
259.0900000000002
 21
-224.9999999999995
 31
0.0
  0
LINE
  5
70EB
330
6FF9
100
AcDbEntity
  8
30
  6
Continuous
 62
     0
100
AcDbLine
 10
259.0
 20
-225.0899999999994
 30
0.0
 11
259.0000000000001
 21
-224.9099999999994
 31
0.0
  0
POINT
  5
70EC
330
6FF9
100
AcDbEntity
  8
DEFPOINTS
  6
Continuous
 62
     0
100
AcDbPoint
 10
259.8191396422008
 20
-224.4264058520389
 30
0.0
  0
POINT
  5
70ED
330
6FF9
100
AcDbEntity
  8
DEFPOINTS
  6
Continuous
 62
     0
100
AcDbPoint
 10
259.0000000000001
 20
-224.9999999999995
 30
0.0
  0
ENDBLK
  5
7003
330
6FF9
100
AcDbEntity
  8
0
100
AcDbBlockEnd
  0
BLOCK
  5
700E
330
7004
100
AcDbEntity
  8
0
100
AcDbBlockBegin
  2
*D30
 70
     1
 10
0.0
 20
0.0
 30
0.0
  3
*D30
  1

  0
LINE
  5
70D4
330
7004
100
AcDbEntity
  8
30
  6
Continuous
 62
     0
100
AcDbLine
 10
260.0
 20
-223.9999999999997
 30
0.0
 11
293.5178303542168
 21
-223.9999999999997
 31
0.0
  0
LINE
  5
70D5
330
7004
100
AcDbEntity
  8
30
  6
Continuous
 62
     0
100
AcDbLine
 10
260.0
 20
-276.0
 30
0.0
 11
293.5178303542168
 21
-276.0
 31
0.0
  0
LINE
  5
70D6
330
7004
100
AcDbEntity
  8
30
  6
Continuous
 62
     0
100
AcDbLine
 10
293.0178303542168
 20
-225.9999999999998
 30
0.0
 11
293.0178303542168
 21
-274.0
 31
0.0
  0
INSERT
  5
70D7
330
7004
100
AcDbEntity
  8
30
  6
Continuous
 62
     0
100
AcDbBlockReference
  2
_OPEN
 10
293.0178303542168
 20
-223.9999999999997
 30
0.0
 41
2.0
 42
2.0
 43
2.0
 50
90.0
  0
INSERT
  5
70D8
330
7004
100
AcDbEntity
  8
30
  6
Continuous
 62
     0
100
AcDbBlockReference
  2
_OPEN
 10
293.0178303542168
 20
-276.0
 30
0.0
 41
2.0
 42
2.0
 43
2.0
 50
270.0
  0
MTEXT
  5
70D9
330
7004
100
AcDbEntity
  8
30
  6
Continuous
 62
     0
100
AcDbMText
 10
290.0178303542169
 20
-249.9999999999999
 30
0.0
 40
4.0
 41
0.0
 71
     5
 72
     1
  1
\A1;52
 11
0.0000000000000001
 21
1.0
 31
0.0
 73
     1
 44
1.0
1001
ACAD
1000
MTEXTBEGIN
1070
    73
1070
     1
1070
    44
1040
1.0
1070
    74
1070
     0
1000
MTEXTEND
  0
POINT
  5
70DA
330
7004
100
AcDbEntity
  8
DEFPOINTS
  6
Continuous
 62
     0
100
AcDbPoint
 10
259.0
 20
-223.9999999999997
 30
0.0
  0
POINT
  5
70DB
330
7004
100
AcDbEntity
  8
DEFPOINTS
  6
Continuous
 62
     0
100
AcDbPoint
 10
259.0
 20
-276.0
 30
0.0
  0
POINT
  5
70DC
330
7004
100
AcDbEntity
  8
DEFPOINTS
  6
Continuous
 62
     0
100
AcDbPoint
 10
293.0178303542168
 20
-276.0
 30
0.0
  0
ENDBLK
  5
700F
330
7004
100
AcDbEntity
  8
0
100
AcDbBlockEnd
  0
BLOCK
  5
7026
330
701C
100
AcDbEntity
  8
0
100
AcDbBlockBegin
  2
*D31
 70
     1
 10
0.0
 20
0.0
 30
0.0
  3
*D31
  1

  0
LINE
  5
70DD
330
701C
100
AcDbEntity
  8
30
  6
Continuous
 62
     0
100
AcDbLine
 10
159.9999999999999
 20
-276.0
 30
0.0
 11
159.9999999999999
 21
-361.0322413003592
 31
0.0
  0
LINE
  5
70DE
330
701C
100
AcDbEntity
  8
30
  6
Continuous
 62
     0
100
AcDbLine
 10
260.0
 20
-276.0
 30
0.0
 11
260.0
 21
-361.0322413003592
 31
0.0
  0
LINE
  5
70DF
330
701C
100
AcDbEntity
  8
30
  6
Continuous
 62
     0
100
AcDbLine
 10
161.9999999999999
 20
-360.5322413003591
 30
0.0
 11
258.0
 21
-360.5322413003591
 31
0.0
  0
INSERT
  5
70E0
330
701C
100
AcDbEntity
  8
30
  6
Continuous
 62
     0
100
AcDbBlockReference
  2
_OPEN
 10
159.9999999999999
 20
-360.5322413003591
 30
0.0
 41
2.0
 42
2.0
 43
2.0
 50
180.0
  0
INSERT
  5
70E1
330
701C
100
AcDbEntity
  8
30
  6
Continuous
 62
     0
100
AcDbBlockReference
  2
_OPEN
 10
260.0
 20
-360.5322413003591
 30
0.0
 41
2.0
 42
2.0
 43
2.0
  0
MTEXT
  5
70E2
330
701C
100
AcDbEntity
  8
30
  6
Continuous
 62
     0
100
AcDbMText
 10
210.0
 20
-357.5322413003592
 30
0.0
 40
4.0
 41
0.0
 71
     5
 72
     1
  1
\A1;100
 73
     1
 44
1.0
1001
ACAD
1000
MTEXTBEGIN
1070
    73
1070
     1
1070
    44
1040
1.0
1070
    74
1070
     0
1000
MTEXTEND
  0
POINT
  5
70E3
330
701C
100
AcDbEntity
  8
DEFPOINTS
  6
Continuous
 62
     0
100
AcDbPoint
 10
159.9999999999999
 20
-275.0
 30
0.0
  0
POINT
  5
70E4
330
701C
100
AcDbEntity
  8
DEFPOINTS
  6
Continuous
 62
     0
100
AcDbPoint
 10
260.0
 20
-275.0
 30
0.0
  0
POINT
  5
70E5
330
701C
100
AcDbEntity
  8
DEFPOINTS
  6
Continuous
 62
     0
100
AcDbPoint
 10
260.0
 20
-360.5322413003591
 30
0.0
  0
ENDBLK
  5
7027
330
701C
100
AcDbEntity
  8
0
100
AcDbBlockEnd
  0
BLOCK
  5
710A
330
7100
100
AcDbEntity
  8
0
100
AcDbBlockBegin
  2
A$C445E2105
 70
     0
 10
0.0
 20
0.0
 30
0.0
  3
A$C445E2105
  1

  0
LINE
  5
7101
330
7100
100
AcDbEntity
  8
18
100
AcDbLine
 10
0.0
 20
-149.320789762729
 30
0.0
 11
0.0
 21
-168.6565627441108
 31
0.0
  0
LINE
  5
7102
330
7100
100
AcDbEntity
  8
18
100
AcDbLine
 10
-2.0
 20
-149.3320714556654
 30
0.0
 11
-2.0
 21
-168.6565627441108
 31
0.0
  0
SPLINE
  5
7103
330
7100
100
AcDbEntity
  8
18
100
AcDbSpline
210
0.0
220
0.0
230
1.0
 70
     8
 71
     3
 72
    12
 73
     8
 74
     0
 42
0.0000000001
 43
0.0000000001
 40
0.0
 40
0.0
 40
0.0
 40
0.0
 40
0.25
 40
0.5
 40
0.75
 40
0.9027560157721172
 40
1.0
 40
1.0
 40
1.0
 40
1.0
 10
-2.0
 20
-168.6565627441108
 30
0.0
 10
-2.156927199068661
 20
-169.8451168340641
 30
0.0
 10
-2.375895985537794
 20
-170.7313802108686
 30
0.0
 10
-2.766872642745909
 20
-171.8424213675986
 30
0.0
 10
-3.354384874598338
 20
-173.2423932746993
 30
0.0
 10
-3.656990826078241
 20
-174.0133128032823
 30
0.0
 10
-3.917431129614498
 20
-174.6921512374922
 30
0.0
 10
-4.102748627815174
 20
-175.2326606072444
 30
0.0
  0
SPLINE
  5
7104
330
7100
100
AcDbEntity
  8
18
100
AcDbSpline
210
0.0
220
0.0
230
1.0
 70
     8
 71
     3
 72
    12
 73
     8
 74
     0
 42
0.0000000001
 43
0.0000000001
 40
0.0
 40
0.0
 40
0.0
 40
0.0
 40
0.25
 40
0.5
 40
0.75
 40
0.9027560157721172
 40
1.0
 40
1.0
 40
1.0
 40
1.0
 10
0.0
 20
-168.6565627441108
 30
0.0
 10
0.1569271990686616
 20
-169.8451168340641
 30
0.0
 10
0.3758959855377952
 20
-170.7313802108686
 30
0.0
 10
0.7668726427459092
 20
-171.8424213675986
 30
0.0
 10
1.354384874598394
 20
-173.2423932746993
 30
0.0
 10
1.656990826078241
 20
-174.0133128032823
 30
0.0
 10
1.917431129614499
 20
-174.6921512374922
 30
0.0
 10
2.10274862781523
 20
-175.2326606072444
 30
0.0
  0
CIRCLE
  5
7105
330
7100
100
AcDbEntity
  8
18
100
AcDbCircle
 10
-1.0
 20
-176.3565627441107
 30
0.0
 40
2.149999999999999
  0
ARC
  5
7106
330
7100
100
AcDbEntity
  8
18
100
AcDbCircle
 10
-1.0
 20
-176.3565627441107
 30
0.0
 40
3.299999999999998
100
AcDbArc
 50
160.0881997351805
 51
19.91180026481935
  0
LINE
  5
7107
330
7100
100
AcDbEntity
  8
18
100
AcDbLine
 10
-2.0
 20
-164.6565627441107
 30
0.0
 11
0.0
 21
-164.6565627441107
 31
0.0
  0
LINE
  5
7108
330
7100
100
AcDbEntity
  8
18
100
AcDbLine
 10
-2.0
 20
-168.6565627441108
 30
0.0
 11
0.0
 21
-168.6565627441108
 31
0.0
  0
LINE
  5
7109
330
7100
100
AcDbEntity
  8
18
100
AcDbLine
 10
-1.0
 20
-164.6565627441107
 30
0.0
 11
-1.0
 21
-168.6565627441108
 31
0.0
  0
ENDBLK
  5
710B
330
7100
100
AcDbEntity
  8
0
100
AcDbBlockEnd
  0
ENDSEC
  0
SECTION
  2
ENTITIES
  0
LINE
  5
B4
330
1E
100
AcDbEntity
  8
16
100
AcDbLine
 10
0.0
 20
-101.8246001220914
 30
0.0
 11
0.0
 21
105.6073578546832
 31
0.0
  0
LINE
  5
B5
330
1E
100
AcDbEntity
  8
16
100
AcDbLine
 10
71.77465564206305
 20
-0.0000000000000027
 30
0.0
 11
-83.90588178115756
 21
-0.0000000000000027
 31
0.0
  0
MTEXT
  5
BF3
330
1E
100
AcDbEntity
  8
24
  6
Continuous
100
AcDbMText
 10
142.118191
 20
177.5
 30
0.0
 40
3.0
 41
0.0
 71
     1
 72
     1
  1
\A1;
 73
     1
 44
1.0
1001
ACAD
1000
MTEXTBEGIN
1070
    73
1070
     1
1070
    44
1040
1.0
1070
    74
1070
     0
1000
MTEXTEND
  0
LINE
  5
1C9A
330
1E
100
AcDbEntity
  8
16
100
AcDbLine
 10
0.0
 20
173.6953512083053
 30
0.0
 11
0.0
 21
316.1953512083052
 31
0.0
  0
LINE
  5
1C9B
330
1E
100
AcDbEntity
  8
16
100
AcDbLine
 10
280.4773679584378
 20
-0.0000000000000027
 30
0.0
 11
117.1776581523497
 21
-0.0000000000000027
 31
0.0
  0
LINE
  5
2260
330
1E
100
AcDbEntity
  8
16
100
AcDbLine
 10
68.90389754940699
 20
-250.0
 30
0.0
 11
-80.54991320158091
 21
-250.0
 31
0.0
  0
LINE
  5
2261
330
1E
100
AcDbEntity
  8
16
100
AcDbLine
 10
0.0
 20
-347.7519397628456
 30
0.0
 11
0.0
 21
-148.6166007905139
 31
0.0
  0
LINE
  5
4C5A
330
1E
100
AcDbEntity
  8
16
100
AcDbLine
 10
88.49441808474184
 20
-0.0000000000000027
 30
0.0
 11
-83.90588178115756
 21
-0.0000000000000027
 31
0.0
  0
TEXT
  5
5C39
330
1E
100
AcDbEntity
  8
30
  6
Continuous
100
AcDbText
 10
290.2984645830388
 20
83.54154432434098
 30
0.0
 40
5.0
  1
%%c9
  7
STANDARD1
100
AcDbText
  0
MTEXT
  5
5C78
330
1E
100
AcDbEntity
  8
30
  6
Continuous
100
AcDbMText
 10
163.4658593933072
 20
90.15025714526428
 30
0.0
 40
4.0
 41
0.0
 71
     9
 72
     1
  1

 73
     1
 44
1.0
1001
ACAD
1000
MTEXTBEGIN
1070
    73
1070
     1
1070
    44
1040
1.0
1070
    74
1070
     0
1000
MTEXTEND
  0
LEADER
  5
5C79
330
1E
100
AcDbEntity
  8
30
  6
Continuous
100
AcDbLeader
  3
STANDARD
 40
4.0
 76
     3
 10
311.5981526098346
 20
62.54225584523794
 30
0.0
 10
302.2621549812772
 20
81.64926198103842
 30
0.0
 10
288.9250114560096
 20
82.09361040007944
 30
0.0
213
0.0
223
2.0
233
0.0
1001
ACAD
1000
DSTYLE
1002
{
1070
     5
1000
OPEN
1070
    77
1070
     0
1070
    79
1070
     3
1070
   147
1040
1.0
1070
   342
1005
3B2
1002
}
  0
LINE
  5
5C86
330
1E
100
AcDbEntity
  8
10
  6
CONTINOUS
100
AcDbLine
 10
-52.49999999999989
 20
235.4158756592119
 30
0.0
 11
-52.5
 21
296.4158756592119
 31
0.0
  0
LINE
  5
5C8A
330
1E
100
AcDbEntity
  8
10
  6
CONTINOUS
100
AcDbLine
 10
52.50000000000003
 20
235.4158756592119
 30
0.0
 11
52.50000000000003
 21
296.4158756592119
 31
0.0
  0
LINE
  5
5C8B
330
1E
100
AcDbEntity
  8
10
  6
CONTINOUS
100
AcDbLine
 10
-48.99999999999986
 20
228.4158756592118
 30
0.0
 11
49.00000000000003
 21
228.4158756592118
 31
0.0
  0
LINE
  5
5C8C
330
1E
100
AcDbEntity
  8
10
  6
CONTINOUS
100
AcDbLine
 10
48.99999999999989
 20
235.4158756592119
 30
0.0
 11
52.50000000000003
 21
235.4158756592119
 31
0.0
  0
LINE
  5
5C8D
330
1E
100
AcDbEntity
  8
10
  6
CONTINOUS
100
AcDbLine
 10
49.00000000000003
 20
228.4158756592118
 30
0.0
 11
49.00000000000003
 21
235.4158756592119
 31
0.0
  0
LINE
  5
5C8E
330
1E
100
AcDbEntity
  8
10
  6
CONTINOUS
100
AcDbLine
 10
-11.52685530275696
 20
220.4158756592119
 30
0.0
 11
10.49104823241427
 21
220.4158756592119
 31
0.0
  0
LINE
  5
5C8F
330
1E
100
AcDbEntity
  8
10
  6
CONTINOUS
100
AcDbLine
 10
-11.52685530275696
 20
224.4158756592119
 30
0.0
 11
10.49104823241427
 21
224.4158756592119
 31
0.0
  0
LINE
  5
5C91
330
1E
100
AcDbEntity
  8
10
  6
CONTINOUS
100
AcDbLine
 10
10.49104823241427
 20
220.4158756592119
 30
0.0
 11
10.49104823241427
 21
228.4158756592118
 31
0.0
  0
LINE
  5
5C95
330
1E
100
AcDbEntity
  8
10
  6
CONTINOUS
100
AcDbLine
 10
-52.49999999999989
 20
235.4158756592119
 30
0.0
 11
-48.99999999999998
 21
235.4158756592119
 31
0.0
  0
LINE
  5
5C96
330
1E
100
AcDbEntity
  8
10
  6
CONTINOUS
100
AcDbLine
 10
-11.52685530275696
 20
220.4158756592119
 30
0.0
 11
-11.52685530275696
 21
228.4158756592118
 31
0.0
  0
LINE
  5
5C97
330
1E
100
AcDbEntity
  8
10
  6
CONTINOUS
100
AcDbLine
 10
-48.99999999999998
 20
228.4158756592118
 30
0.0
 11
-48.99999999999998
 21
235.4158756592119
 31
0.0
  0
LINE
  5
5C98
330
1E
100
AcDbEntity
  8
10
  6
CONTINOUS
100
AcDbLine
 10
-52.5
 20
296.4158756592119
 30
0.0
 11
52.50000000000003
 21
296.4158756592119
 31
0.0
  0
LINE
  5
5CA2
330
1E
100
AcDbEntity
  8
24
  6
CONTINOUS
100
AcDbLine
 10
35.00000000000003
 20
260.2158756592118
 30
0.0
 11
35.00000000000003
 21
277.415875659212
 31
0.0
  0
LINE
  5
5CA3
330
1E
100
AcDbEntity
  8
24
  6
CONTINOUS
100
AcDbLine
 10
24.50000000000001
 20
272.415875659212
 30
0.0
 11
45.50000000000014
 21
272.415875659212
 31
0.0
  0
LINE
  5
5CA4
330
1E
100
AcDbEntity
  8
24
  6
CONTINOUS
100
AcDbLine
 10
27.30000000000009
 20
270.415875659212
 30
0.0
 11
42.70000000000007
 21
270.415875659212
 31
0.0
  0
LINE
  5
5CA5
330
1E
100
AcDbEntity
  8
24
  6
CONTINOUS
100
AcDbLine
 10
30.00000000000003
 20
265.2158756592118
 30
0.0
 11
40.0
 21
265.2158756592118
 31
0.0
  0
LINE
  5
5CA6
330
1E
100
AcDbEntity
  8
24
  6
CONTINOUS
100
AcDbLine
 10
24.50000000000001
 20
274.415875659212
 30
0.0
 11
45.50000000000014
 21
274.415875659212
 31
0.0
  0
LINE
  5
5CA7
330
1E
100
AcDbEntity
  8
24
  6
CONTINOUS
100
AcDbLine
 10
42.70000000000007
 20
270.415875659212
 30
0.0
 11
42.70000000000007
 21
272.415875659212
 31
0.0
  0
ARC
  5
5CA8
330
1E
100
AcDbEntity
  8
24
  6
CONTINOUS
100
AcDbCircle
 10
40.0
 20
267.2158756592116
 30
0.0
 40
2.0
100
AcDbArc
 50
270.0
 51
0.0
  0
LINE
  5
5CA9
330
1E
100
AcDbEntity
  8
24
  6
CONTINOUS
100
AcDbLine
 10
42.00000000000001
 20
267.2158756592116
 30
0.0
 11
42.00000000000001
 21
270.415875659212
 31
0.0
  0
LINE
  5
5CAB
330
1E
100
AcDbEntity
  8
24
  6
CONTINOUS
100
AcDbLine
 10
27.30000000000009
 20
270.415875659212
 30
0.0
 11
27.30000000000009
 21
272.415875659212
 31
0.0
  0
ARC
  5
5CAC
330
1E
100
AcDbEntity
  8
24
  6
CONTINOUS
100
AcDbCircle
 10
30.00000000000003
 20
267.2158756592116
 30
0.0
 40
2.0
100
AcDbArc
 50
180.0
 51
270.0
  0
LINE
  5
5CAD
330
1E
100
AcDbEntity
  8
24
  6
CONTINOUS
100
AcDbLine
 10
28.00000000000002
 20
267.2158756592116
 30
0.0
 11
28.00000000000002
 21
270.415875659212
 31
0.0
  0
LWPOLYLINE
  5
5CCD
330
1E
100
AcDbEntity
  8
10
  6
CONTINOUS
100
AcDbPolyline
 90
        4
 70
     1
 43
0.0
 10
-7.508951767585668
 20
220.4158756592119
 10
6.491048232414271
 20
220.4158756592119
 10
6.491048232414271
 20
212.3438542435155
 10
-7.508951767585668
 20
212.3438542435155
  0
LINE
  5
5F54
330
1E
100
AcDbEntity
  8
24
  6
CONTINOUS
100
AcDbLine
 10
-10.49999999999999
 20
274.415875659212
 30
0.0
 11
10.5000000000001
 21
274.415875659212
 31
0.0
  0
LINE
  5
5F55
330
1E
100
AcDbEntity
  8
24
  6
CONTINOUS
100
AcDbLine
 10
-7.699999999999931
 20
270.415875659212
 30
0.0
 11
7.700000000000045
 21
270.415875659212
 31
0.0
  0
LINE
  5
5F56
330
1E
100
AcDbEntity
  8
24
  6
CONTINOUS
100
AcDbLine
 10
-10.49999999999999
 20
272.415875659212
 30
0.0
 11
10.5000000000001
 21
272.415875659212
 31
0.0
  0
ARC
  5
5F57
330
1E
100
AcDbEntity
  8
24
  6
CONTINOUS
100
AcDbCircle
 10
5.0
 20
267.2158756592116
 30
0.0
 40
2.0
100
AcDbArc
 50
270.0
 51
0.0
  0
LINE
  5
5F58
330
1E
100
AcDbEntity
  8
24
  6
CONTINOUS
100
AcDbLine
 10
-6.999999999999997
 20
267.2158756592116
 30
0.0
 11
-6.999999999999997
 21
270.415875659212
 31
0.0
  0
LINE
  5
5F59
330
1E
100
AcDbEntity
  8
24
  6
CONTINOUS
100
AcDbLine
 10
-0.0000000000000009
 20
260.2158756592118
 30
0.0
 11
-0.0000000000000009
 21
277.415875659212
 31
0.0
  0
LINE
  5
5F5A
330
1E
100
AcDbEntity
  8
24
  6
CONTINOUS
100
AcDbLine
 10
-4.999999999999999
 20
265.2158756592118
 30
0.0
 11
5.0
 21
265.2158756592118
 31
0.0
  0
ARC
  5
5F5B
330
1E
100
AcDbEntity
  8
24
  6
CONTINOUS
100
AcDbCircle
 10
-4.999999999999999
 20
267.2158756592116
 30
0.0
 40
2.0
100
AcDbArc
 50
180.0
 51
270.0
  0
LINE
  5
5F5C
330
1E
100
AcDbEntity
  8
24
  6
CONTINOUS
100
AcDbLine
 10
-7.699999999999931
 20
270.415875659212
 30
0.0
 11
-7.699999999999931
 21
272.415875659212
 31
0.0
  0
LINE
  5
5F5D
330
1E
100
AcDbEntity
  8
24
  6
CONTINOUS
100
AcDbLine
 10
7.0
 20
267.2158756592116
 30
0.0
 11
7.0
 21
270.415875659212
 31
0.0
  0
LINE
  5
5F5E
330
1E
100
AcDbEntity
  8
24
  6
CONTINOUS
100
AcDbLine
 10
7.700000000000045
 20
270.415875659212
 30
0.0
 11
7.700000000000045
 21
272.415875659212
 31
0.0
  0
LINE
  5
5F60
330
1E
100
AcDbEntity
  8
24
  6
CONTINOUS
100
AcDbLine
 10
-39.99999999999999
 20
265.2158756592118
 30
0.0
 11
-29.99999999999999
 21
265.2158756592118
 31
0.0
  0
LINE
  5
5F61
330
1E
100
AcDbEntity
  8
24
  6
CONTINOUS
100
AcDbLine
 10
-45.49999999999999
 20
272.415875659212
 30
0.0
 11
-24.49999999999988
 21
272.415875659212
 31
0.0
  0
LINE
  5
5F62
330
1E
100
AcDbEntity
  8
24
  6
CONTINOUS
100
AcDbLine
 10
-42.69999999999993
 20
270.415875659212
 30
0.0
 11
-27.29999999999995
 21
270.415875659212
 31
0.0
  0
LINE
  5
5F63
330
1E
100
AcDbEntity
  8
24
  6
CONTINOUS
100
AcDbLine
 10
-45.49999999999999
 20
274.415875659212
 30
0.0
 11
-24.49999999999988
 21
274.415875659212
 31
0.0
  0
LINE
  5
5F64
330
1E
100
AcDbEntity
  8
24
  6
CONTINOUS
100
AcDbLine
 10
-34.99999999999999
 20
260.2158756592118
 30
0.0
 11
-34.99999999999999
 21
277.415875659212
 31
0.0
  0
LINE
  5
5F65
330
1E
100
AcDbEntity
  8
24
  6
CONTINOUS
100
AcDbLine
 10
-42.0
 20
267.2158756592116
 30
0.0
 11
-42.0
 21
270.415875659212
 31
0.0
  0
ARC
  5
5F66
330
1E
100
AcDbEntity
  8
24
  6
CONTINOUS
100
AcDbCircle
 10
-39.99999999999986
 20
267.2158756592116
 30
0.0
 40
2.0
100
AcDbArc
 50
180.0
 51
270.0
  0
LINE
  5
5F67
330
1E
100
AcDbEntity
  8
24
  6
CONTINOUS
100
AcDbLine
 10
-42.69999999999993
 20
270.415875659212
 30
0.0
 11
-42.69999999999993
 21
272.415875659212
 31
0.0
  0
LINE
  5
5F68
330
1E
100
AcDbEntity
  8
24
  6
CONTINOUS
100
AcDbLine
 10
-28.0
 20
267.2158756592116
 30
0.0
 11
-28.0
 21
270.415875659212
 31
0.0
  0
ARC
  5
5F69
330
1E
100
AcDbEntity
  8
24
  6
CONTINOUS
100
AcDbCircle
 10
-29.99999999999987
 20
267.2158756592116
 30
0.0
 40
2.0
100
AcDbArc
 50
270.0
 51
0.0
  0
LINE
  5
5F6A
330
1E
100
AcDbEntity
  8
24
  6
CONTINOUS
100
AcDbLine
 10
-27.29999999999995
 20
270.415875659212
 30
0.0
 11
-27.29999999999995
 21
272.415875659212
 31
0.0
  0
MTEXT
  5
6068
330
1E
100
AcDbEntity
  8
30
  6
Continuous
100
AcDbMText
 10
-32.98718375015141
 20
-163.7563795703974
 30
0.0
 40
4.0
 41
0.0
 71
     9
 72
     1
  1

 73
     1
 44
1.0
1001
ACAD
1000
MTEXTBEGIN
1070
    73
1070
     1
1070
    44
1040
1.0
1070
    74
1070
     0
1000
MTEXTEND
  0
DIMENSION
  5
62D2
330
1E
100
AcDbEntity
  8
30
  6
Continuous
100
AcDbDimension
  2
*D1
 10
49.00000000000003
 20
35.21319198619852
 30
0.0
 11
0.0000000000000215
 21
38.21319198619852
 31
0.0
 70
    32
 71
     5
 42
-1.0
  3
STANDARD
100
AcDbAlignedDimension
 13
-48.99999999999998
 23
25.0
 33
0.0
 14
49.00000000000003
 24
25.0
 34
0.0
100
AcDbRotatedDimension
1001
ACAD
1000
DSTYLE
1002
{
1070
    79
1070
     3
1002
}
  0
DIMENSION
  5
62D3
330
1E
100
AcDbEntity
  8
30
  6
Continuous
100
AcDbDimension
  2
*D2
 10
52.50000000000003
 20
-130.4544464119911
 30
0.0
 11
0.0000000000000073
 21
-127.4544464119911
 31
0.0
 70
    32
 71
     5
 42
-1.0
  3
STANDARD
100
AcDbAlignedDimension
 13
-52.5
 23
-82.5
 33
0.0
 14
52.50000000000003
 24
-82.5
 34
0.0
 50
180.0
100
AcDbRotatedDimension
1001
ACAD
1000
DSTYLE
1002
{
1070
    79
1070
     3
1002
}
  0
DIMENSION
  5
62D4
330
1E
100
AcDbEntity
  8
30
  6
Continuous
100
AcDbDimension
  2
*D3
 10
35.00000000000003
 20
-110.454446411991
 30
0.0
 11
0.0000000000000179
 21
-107.454446411991
 31
0.0
 70
    32
 71
     5
 42
-1.0
  3
STANDARD
100
AcDbAlignedDimension
 13
-34.99999999999999
 23
-74.50000001650001
 33
0.0
 14
35.00000000000003
 24
-74.50000001650001
 34
0.0
 50
180.0
100
AcDbRotatedDimension
1001
ACAD
1000
DSTYLE
1002
{
1070
    79
1070
     3
1002
}
  0
LINE
  5
62D5
330
1E
100
AcDbEntity
  8
12
  6
DASHED
100
AcDbLine
 10
12.00000000000001
 20
-63.0
 30
0.0
 11
23.0
 21
-63.0
 31
0.0
  0
LINE
  5
62D6
330
1E
100
AcDbEntity
  8
10
  6
CONTINOUS
100
AcDbLine
 10
-48.99999999999998
 20
-25.0
 30
0.0
 11
49.00000000000003
 21
-25.0
 31
0.0
  0
LINE
  5
62D7
330
1E
100
AcDbEntity
  8
10
  6
CONTINOUS
100
AcDbLine
 10
-52.5
 20
-51.00000000000002
 30
0.0
 11
52.50000000000003
 21
-51.00000000000002
 31
0.0
  0
LINE
  5
62D8
330
1E
100
AcDbEntity
  8
10
  6
CONTINOUS
100
AcDbLine
 10
-52.5
 20
50.99999999999999
 30
0.0
 11
52.50000000000003
 21
50.99999999999999
 31
0.0
  0
LINE
  5
62DA
330
1E
100
AcDbEntity
  8
10
  6
CONTINOUS
100
AcDbLine
 10
52.50000000000003
 20
82.50000000000001
 30
0.0
 11
-52.5
 21
82.50000000000001
 31
0.0
  0
LINE
  5
62DB
330
1E
100
AcDbEntity
  8
10
  6
CONTINOUS
100
AcDbLine
 10
-52.5
 20
-82.5
 30
0.0
 11
52.50000000000003
 21
-82.5
 31
0.0
  0
LINE
  5
62DC
330
1E
100
AcDbEntity
  8
10
  6
CONTINOUS
100
AcDbLine
 10
-48.99999999999998
 20
25.0
 30
0.0
 11
49.00000000000003
 21
25.0
 31
0.0
  0
LINE
  5
62DE
330
1E
100
AcDbEntity
  8
18
100
AcDbLine
 10
16.0
 20
182.4999999999999
 30
0.0
 11
16.0
 21
82.49999999999987
 31
0.0
  0
LINE
  5
62DF
330
1E
100
AcDbEntity
  8
18
100
AcDbLine
 10
-15.99999999999999
 20
182.4999999999999
 30
0.0
 11
-15.99999999999999
 21
82.49999999999987
 31
0.0
  0
LINE
  5
62E0
330
1E
100
AcDbEntity
  8
18
100
AcDbLine
 10
-19.0
 20
182.4999999999999
 30
0.0
 11
-19.0
 21
82.49999999999987
 31
0.0
  0
LINE
  5
62E1
330
1E
100
AcDbEntity
  8
18
100
AcDbLine
 10
19.00000000000003
 20
182.4999999999999
 30
0.0
 11
19.00000000000003
 21
82.49999999999987
 31
0.0
  0
LINE
  5
62E2
330
1E
100
AcDbEntity
  8
10
  6
CONTINOUS
100
AcDbLine
 10
-48.99999999999998
 20
25.0
 30
0.0
 11
-48.99999999999998
 21
-25.0
 31
0.0
  0
LINE
  5
62E4
330
1E
100
AcDbEntity
  8
10
  6
CONTINOUS
100
AcDbLine
 10
10.99999999999999
 20
25.0
 30
0.0
 11
10.99999999999999
 21
-25.0
 31
0.0
  0
LINE
  5
62E5
330
1E
100
AcDbEntity
  8
10
  6
CONTINOUS
100
AcDbLine
 10
-10.99999999999999
 20
25.0
 30
0.0
 11
-10.99999999999999
 21
-25.0
 31
0.0
  0
LINE
  5
62E6
330
1E
100
AcDbEntity
  8
10
  6
CONTINOUS
100
AcDbLine
 10
-52.5
 20
82.50000000000001
 30
0.0
 11
-52.5
 21
-82.5
 31
0.0
  0
LINE
  5
62E7
330
1E
100
AcDbEntity
  8
10
  6
CONTINOUS
100
AcDbLine
 10
-27.99999999999998
 20
-60.0
 30
0.0
 11
-42.00000000000001
 21
-60.0
 31
0.0
  0
LINE
  5
62E8
330
1E
100
AcDbEntity
  8
24
  6
CONTINOUS
100
AcDbLine
 10
-42.00000000000001
 20
-72.00000000000007
 30
0.0
 11
-27.99999999999998
 21
-72.00000000000007
 31
0.0
  0
LINE
  5
62E9
330
1E
100
AcDbEntity
  8
10
  6
CONTINOUS
100
AcDbLine
 10
-47.00000000000001
 20
-82.5
 30
0.0
 11
-47.00000000000001
 21
-65.0
 31
0.0
  0
ARC
  5
62EA
330
1E
100
AcDbEntity
  8
10
  6
CONTINOUS
100
AcDbCircle
 10
42.00000000000001
 20
-65.0
 30
0.0
 40
5.0
210
0.0
220
0.0
230
-1.0
100
AcDbArc
 50
0.0
 51
90.0
  0
CIRCLE
  5
62EB
330
1E
100
AcDbEntity
  8
24
  6
CONTINOUS
100
AcDbCircle
 10
-34.99999999999999
 20
-72.00000000000007
 30
0.0
 40
5.0
  0
LINE
  5
62EC
330
1E
100
AcDbEntity
  8
10
  6
CONTINOUS
100
AcDbLine
 10
-22.99999999999998
 20
-82.5
 30
0.0
 11
-22.99999999999998
 21
-65.0
 31
0.0
  0
LINE
  5
62ED
330
1E
100
AcDbEntity
  8
24
  6
CONTINOUS
100
AcDbLine
 10
-34.99999999999999
 20
-65.0
 30
0.0
 11
-34.99999999999999
 21
-79.00000000000003
 31
0.0
  0
ARC
  5
62EE
330
1E
100
AcDbEntity
  8
10
  6
CONTINOUS
100
AcDbCircle
 10
27.99999999999998
 20
-65.0
 30
0.0
 40
5.0
210
0.0
220
0.0
230
-1.0
100
AcDbArc
 50
90.0
 51
180.0
  0
CIRCLE
  5
62EF
330
1E
100
AcDbEntity
  8
24
  6
CONTINOUS
100
AcDbCircle
 10
0.0
 20
-72.00000000000007
 30
0.0
 40
5.0
  0
LINE
  5
62F0
330
1E
100
AcDbEntity
  8
10
  6
CONTINOUS
100
AcDbLine
 10
7.000000000000013
 20
-60.0
 30
0.0
 11
-6.999999999999997
 21
-60.0
 31
0.0
  0
LINE
  5
62F1
330
1E
100
AcDbEntity
  8
24
  6
CONTINOUS
100
AcDbLine
 10
-6.999999999999997
 20
-72.00000000000007
 30
0.0
 11
7.000000000000013
 21
-72.00000000000007
 31
0.0
  0
LINE
  5
62F2
330
1E
100
AcDbEntity
  8
10
  6
CONTINOUS
100
AcDbLine
 10
-11.99999999999999
 20
-82.5
 30
0.0
 11
-11.99999999999999
 21
-65.0
 31
0.0
  0
ARC
  5
62F3
330
1E
100
AcDbEntity
  8
10
  6
CONTINOUS
100
AcDbCircle
 10
6.999999999999997
 20
-65.0
 30
0.0
 40
5.0
210
0.0
220
0.0
230
-1.0
100
AcDbArc
 50
0.0
 51
90.0
  0
LINE
  5
62F4
330
1E
100
AcDbEntity
  8
10
  6
CONTINOUS
100
AcDbLine
 10
12.00000000000001
 20
-82.5
 30
0.0
 11
12.00000000000001
 21
-65.0
 31
0.0
  0
ARC
  5
62F5
330
1E
100
AcDbEntity
  8
10
  6
CONTINOUS
100
AcDbCircle
 10
-7.000000000000013
 20
-65.0
 30
0.0
 40
5.0
210
0.0
220
0.0
230
-1.0
100
AcDbArc
 50
90.0
 51
180.0
  0
CIRCLE
  5
62F6
330
1E
100
AcDbEntity
  8
12
  6
DASHED
100
AcDbCircle
 10
17.5
 20
-63.0
 30
0.0
 40
4.0
  0
LINE
  5
62F7
330
1E
100
AcDbEntity
  8
12
  6
DASHED
100
AcDbLine
 10
17.5
 20
-57.5
 30
0.0
 11
17.5
 21
-68.50000000000003
 31
0.0
  0
DIMENSION
  5
62F8
330
1E
100
AcDbEntity
  8
30
  6
Continuous
100
AcDbDimension
  2
*D4
 10
10.99999999999999
 20
-40.45444641199117
 30
0.0
 11
-0.0000000000000016
 21
-37.45444641199117
 31
0.0
 70
    32
 71
     5
 42
-1.0
  3
STANDARD
100
AcDbAlignedDimension
 13
-10.99999999999999
 23
-25.0
 33
0.0
 14
10.99999999999999
 24
-25.0
 34
0.0
 50
180.0
100
AcDbRotatedDimension
1001
ACAD
1000
DSTYLE
1002
{
1070
    79
1070
     3
1002
}
  0
LINE
  5
62FA
330
1E
100
AcDbEntity
  8
10
  6
CONTINOUS
100
AcDbLine
 10
-6.999999999999997
 20
-18.49999999999998
 30
0.0
 11
-6.999999999999912
 21
20.1548687058103
 31
0.0
  0
LINE
  5
62FB
330
1E
100
AcDbEntity
  8
10
  6
CONTINOUS
100
AcDbLine
 10
7.000000000000013
 20
-18.49999999999998
 30
0.0
 11
7.000000000000082
 21
20.1548687058103
 31
0.0
  0
LINE
  5
62FC
330
1E
100
AcDbEntity
  8
10
  6
CONTINOUS
100
AcDbLine
 10
-6.999999999999997
 20
-18.49999999999998
 30
0.0
 11
7.000000000000013
 21
-18.49999999999998
 31
0.0
  0
LINE
  5
62FD
330
1E
100
AcDbEntity
  8
10
  6
CONTINOUS
100
AcDbLine
 10
7.000000000000013
 20
6.840789306861549
 30
0.0
 11
-6.999999999999087
 21
6.840789306861549
 31
0.0
  0
LINE
  5
62FE
330
1E
100
AcDbEntity
  8
10
  6
CONTINOUS
100
AcDbLine
 10
7.000000000000013
 20
20.1548687058103
 30
0.0
 11
-7.000000000000892
 21
20.1548687058103
 31
0.0
  0
LINE
  5
62FF
330
1E
100
AcDbEntity
  8
10
  6
CONTINOUS
100
AcDbLine
 10
7.000000000000013
 20
15.23995644007664
 30
0.0
 11
-6.999999999999997
 21
15.23995644007664
 31
0.0
  0
CIRCLE
  5
6300
330
1E
100
AcDbEntity
  8
12
  6
DASHED
100
AcDbCircle
 10
-17.49999999999999
 20
63.0
 30
0.0
 40
4.0
  0
LINE
  5
6301
330
1E
100
AcDbEntity
  8
12
  6
DASHED
100
AcDbLine
 10
-22.99999999999998
 20
63.0
 30
0.0
 11
-11.99999999999999
 21
63.0
 31
0.0
  0
CIRCLE
  5
6302
330
1E
100
AcDbEntity
  8
24
  6
CONTINOUS
100
AcDbCircle
 10
-34.99999999999999
 20
72.0
 30
0.0
 40
5.0
  0
LINE
  5
6303
330
1E
100
AcDbEntity
  8
10
  6
CONTINOUS
100
AcDbLine
 10
-22.99999999999998
 20
82.50000000000001
 30
0.0
 11
-22.99999999999998
 21
65.0
 31
0.0
  0
LINE
  5
6304
330
1E
100
AcDbEntity
  8
10
  6
CONTINOUS
100
AcDbLine
 10
-47.00000000000001
 20
82.50000000000001
 30
0.0
 11
-47.00000000000001
 21
65.0
 31
0.0
  0
LINE
  5
6305
330
1E
100
AcDbEntity
  8
24
  6
CONTINOUS
100
AcDbLine
 10
-34.99999999999999
 20
78.99999999999997
 30
0.0
 11
-34.99999999999999
 21
65.0
 31
0.0
  0
LINE
  5
6306
330
1E
100
AcDbEntity
  8
10
  6
CONTINOUS
100
AcDbLine
 10
-27.99999999999998
 20
60.0
 30
0.0
 11
-42.00000000000001
 21
60.0
 31
0.0
  0
ARC
  5
6307
330
1E
100
AcDbEntity
  8
10
  6
CONTINOUS
100
AcDbCircle
 10
-42.00000000000001
 20
65.0
 30
0.0
 40
5.0
100
AcDbArc
 50
180.0
 51
270.0
  0
ARC
  5
6308
330
1E
100
AcDbEntity
  8
10
  6
CONTINOUS
100
AcDbCircle
 10
-27.99999999999998
 20
65.0
 30
0.0
 40
5.0
100
AcDbArc
 50
270.0
 51
0.0
  0
LINE
  5
6309
330
1E
100
AcDbEntity
  8
24
  6
CONTINOUS
100
AcDbLine
 10
-42.00000000000001
 20
72.0
 30
0.0
 11
-27.99999999999998
 21
72.0
 31
0.0
  0
CIRCLE
  5
630A
330
1E
100
AcDbEntity
  8
24
  6
CONTINOUS
100
AcDbCircle
 10
0.0
 20
72.0
 30
0.0
 40
5.0
  0
LINE
  5
630B
330
1E
100
AcDbEntity
  8
10
  6
CONTINOUS
100
AcDbLine
 10
12.00000000000001
 20
82.50000000000001
 30
0.0
 11
12.00000000000001
 21
65.0
 31
0.0
  0
LINE
  5
630C
330
1E
100
AcDbEntity
  8
10
  6
CONTINOUS
100
AcDbLine
 10
-11.99999999999999
 20
82.50000000000001
 30
0.0
 11
-11.99999999999999
 21
65.0
 31
0.0
  0
LINE
  5
630D
330
1E
100
AcDbEntity
  8
10
  6
CONTINOUS
100
AcDbLine
 10
7.000000000000013
 20
60.0
 30
0.0
 11
-6.999999999999997
 21
60.0
 31
0.0
  0
ARC
  5
630E
330
1E
100
AcDbEntity
  8
10
  6
CONTINOUS
100
AcDbCircle
 10
-6.999999999999997
 20
65.0
 30
0.0
 40
5.0
100
AcDbArc
 50
180.0
 51
270.0
  0
LINE
  5
630F
330
1E
100
AcDbEntity
  8
12
  6
DASHED
100
AcDbLine
 10
-17.49999999999999
 20
68.5
 30
0.0
 11
-17.49999999999999
 21
57.5
 31
0.0
  0
ARC
  5
6310
330
1E
100
AcDbEntity
  8
10
  6
CONTINOUS
100
AcDbCircle
 10
7.000000000000013
 20
65.0
 30
0.0
 40
5.0
100
AcDbArc
 50
270.0
 51
0.0
  0
LINE
  5
6311
330
1E
100
AcDbEntity
  8
24
  6
CONTINOUS
100
AcDbLine
 10
-6.999999999999997
 20
72.0
 30
0.0
 11
7.000000000000013
 21
72.0
 31
0.0
  0
LINE
  5
6314
330
1E
100
AcDbEntity
  8
18
100
AcDbLine
 10
-15.99999999999999
 20
182.4999999999999
 30
0.0
 11
-19.0
 21
182.4999999999999
 31
0.0
  0
LINE
  5
6315
330
1E
100
AcDbEntity
  8
18
100
AcDbLine
 10
16.0
 20
182.4999999999999
 30
0.0
 11
19.00000000000003
 21
182.4999999999999
 31
0.0
  0
LINE
  5
6316
330
1E
100
AcDbEntity
  8
10
  6
CONTINOUS
100
AcDbLine
 10
49.00000000000003
 20
25.0
 30
0.0
 11
49.00000000000003
 21
-25.0
 31
0.0
  0
LINE
  5
6317
330
1E
100
AcDbEntity
  8
10
  6
CONTINOUS
100
AcDbLine
 10
52.50000000000003
 20
-82.5
 30
0.0
 11
52.50000000000003
 21
82.50000000000001
 31
0.0
  0
ARC
  5
6318
330
1E
100
AcDbEntity
  8
10
  6
CONTINOUS
100
AcDbCircle
 10
-42.00000000000001
 20
-65.0
 30
0.0
 40
5.0
210
0.0
220
0.0
230
-1.0
100
AcDbArc
 50
90.0
 51
180.0
  0
CIRCLE
  5
6319
330
1E
100
AcDbEntity
  8
24
  6
CONTINOUS
100
AcDbCircle
 10
35.00000000000003
 20
-72.00000000000007
 30
0.0
 40
5.0
  0
LINE
  5
631A
330
1E
100
AcDbEntity
  8
10
  6
CONTINOUS
100
AcDbLine
 10
23.0
 20
-82.5
 30
0.0
 11
23.0
 21
-65.0
 31
0.0
  0
LINE
  5
631B
330
1E
100
AcDbEntity
  8
24
  6
CONTINOUS
100
AcDbLine
 10
35.00000000000003
 20
-65.0
 30
0.0
 11
35.00000000000003
 21
-79.00000000000003
 31
0.0
  0
LINE
  5
631C
330
1E
100
AcDbEntity
  8
24
  6
CONTINOUS
100
AcDbLine
 10
27.99999999999997
 20
-72.00000000000007
 30
0.0
 11
42.00000000000001
 21
-72.00000000000007
 31
0.0
  0
LINE
  5
631D
330
1E
100
AcDbEntity
  8
10
  6
CONTINOUS
100
AcDbLine
 10
42.00000000000001
 20
-60.0
 30
0.0
 11
27.99999999999997
 21
-60.0
 31
0.0
  0
ARC
  5
631E
330
1E
100
AcDbEntity
  8
10
  6
CONTINOUS
100
AcDbCircle
 10
-27.99999999999997
 20
-65.0
 30
0.0
 40
5.0
210
0.0
220
0.0
230
-1.0
100
AcDbArc
 50
0.0
 51
90.0
  0
LINE
  5
631F
330
1E
100
AcDbEntity
  8
10
  6
CONTINOUS
100
AcDbLine
 10
47.0
 20
-82.5
 30
0.0
 11
47.0
 21
-65.0
 31
0.0
  0
CIRCLE
  5
6320
330
1E
100
AcDbEntity
  8
24
  6
CONTINOUS
100
AcDbCircle
 10
35.00000000000003
 20
72.0
 30
0.0
 40
5.0
  0
LINE
  5
6321
330
1E
100
AcDbEntity
  8
10
  6
CONTINOUS
100
AcDbLine
 10
23.0
 20
82.50000000000001
 30
0.0
 11
23.0
 21
65.0
 31
0.0
  0
LINE
  5
6322
330
1E
100
AcDbEntity
  8
10
  6
CONTINOUS
100
AcDbLine
 10
47.0
 20
82.50000000000001
 30
0.0
 11
47.0
 21
65.0
 31
0.0
  0
LINE
  5
6323
330
1E
100
AcDbEntity
  8
24
  6
CONTINOUS
100
AcDbLine
 10
35.00000000000003
 20
78.99999999999997
 30
0.0
 11
35.00000000000003
 21
65.0
 31
0.0
  0
ARC
  5
6324
330
1E
100
AcDbEntity
  8
10
  6
CONTINOUS
100
AcDbCircle
 10
42.00000000000001
 20
65.0
 30
0.0
 40
5.0
100
AcDbArc
 50
270.0
 51
0.0
  0
LINE
  5
6325
330
1E
100
AcDbEntity
  8
10
  6
CONTINOUS
100
AcDbLine
 10
42.00000000000001
 20
60.0
 30
0.0
 11
27.99999999999997
 21
60.0
 31
0.0
  0
ARC
  5
6326
330
1E
100
AcDbEntity
  8
10
  6
CONTINOUS
100
AcDbCircle
 10
27.99999999999997
 20
65.0
 30
0.0
 40
5.0
100
AcDbArc
 50
180.0
 51
270.0
  0
LINE
  5
6327
330
1E
100
AcDbEntity
  8
24
  6
CONTINOUS
100
AcDbLine
 10
27.99999999999997
 20
72.0
 30
0.0
 11
42.00000000000001
 21
72.0
 31
0.0
  0
DIMENSION
  5
63B5
330
1E
100
AcDbEntity
  8
30
  6
Continuous
100
AcDbDimension
  2
*D5
 10
17.49999999999998
 20
-360.4544464119909
 30
0.0
 11
-0.0000000000000069
 21
-357.4544464119909
 31
0.0
 70
    32
 71
     5
 42
-1.0
  3
STANDARD
100
AcDbAlignedDimension
 13
-17.49999999999999
 23
-189.5000000165
 33
0.0
 14
17.49999999999999
 24
-315.5000000164998
 34
0.0
 50
180.0
100
AcDbRotatedDimension
1001
ACAD
1000
DSTYLE
1002
{
1070
    79
1070
     3
1002
}
  0
LINE
  5
63B7
330
1E
100
AcDbEntity
  8
18
  6
DIVIDE
100
AcDbLine
 10
-52.5
 20
-167.5
 30
0.0
 11
-52.5
 21
-332.4999999999998
 31
0.0
  0
LINE
  5
63B8
330
1E
100
AcDbEntity
  8
18
  6
DIVIDE
100
AcDbLine
 10
52.5
 20
-332.4999999999998
 30
0.0
 11
52.5
 21
-167.5
 31
0.0
  0
LINE
  5
63BA
330
1E
100
AcDbEntity
  8
18
  6
DIVIDE
100
AcDbLine
 10
-52.5
 20
-332.4999999999998
 30
0.0
 11
52.5
 21
-332.4999999999998
 31
0.0
  0
CIRCLE
  5
63BC
330
1E
100
AcDbEntity
  8
12
  6
Continuous
 62
     3
100
AcDbCircle
 10
17.49999999999999
 20
-312.9999999999999
 30
0.0
 40
2.0
  0
LINE
  5
63BD
330
1E
100
AcDbEntity
  8
12
  6
Continuous
 62
     3
100
AcDbLine
 10
12.00000000000009
 20
-312.9999999999999
 30
0.0
 11
22.99999999999998
 21
-312.9999999999999
 31
0.0
  0
LINE
  5
63BE
330
1E
100
AcDbEntity
  8
12
  6
Continuous
 62
     3
100
AcDbLine
 10
17.49999999999999
 20
-307.4999999999998
 30
0.0
 11
17.49999999999999
 21
-318.4999999999998
 31
0.0
  0
LINE
  5
63C3
330
1E
100
AcDbEntity
  8
18
  6
DIVIDE
100
AcDbLine
 10
52.5
 20
-167.5
 30
0.0
 11
-52.5
 21
-167.5
 31
0.0
  0
LINE
  5
63C9
330
1E
100
AcDbEntity
  8
12
  6
Continuous
 62
     3
100
AcDbLine
 10
-22.99999999999987
 20
-186.9999999999999
 30
0.0
 11
-11.99999999999999
 21
-186.9999999999999
 31
0.0
  0
CIRCLE
  5
63CA
330
1E
100
AcDbEntity
  8
12
  6
Continuous
 62
     3
100
AcDbCircle
 10
-17.49999999999999
 20
-186.9999999999999
 30
0.0
 40
2.0
  0
LINE
  5
63CB
330
1E
100
AcDbEntity
  8
12
  6
Continuous
 62
     3
100
AcDbLine
 10
-17.49999999999999
 20
-181.4999999999999
 30
0.0
 11
-17.49999999999999
 21
-192.4999999999999
 31
0.0
  0
DIMENSION
  5
6570
330
1E
100
AcDbEntity
  8
30
  6
Continuous
100
AcDbDimension
  2
*D12
 10
259.2602819584348
 20
-115.2797117119422
 30
0.0
 11
225.2602819584348
 21
-112.2797117119421
 31
0.0
 70
    32
 71
     5
 42
-1.0
  3
STANDARD
100
AcDbAlignedDimension
 13
191.2602819584348
 23
-51.00000000000002
 33
0.0
 14
259.2602819584348
 24
-82.5
 34
0.0
 50
180.0
100
AcDbRotatedDimension
1001
ACAD
1000
DSTYLE
1002
{
1070
    79
1070
     3
1002
}
  0
DIMENSION
  5
6571
330
1E
100
AcDbEntity
  8
30
  6
Continuous
100
AcDbDimension
  2
*D13
 10
259.2602819584348
 20
-138.0172213954554
 30
0.0
 11
213.2602819584348
 21
-135.0172213954554
 31
0.0
 70
    32
 71
     5
 42
-1.0
  3
STANDARD
100
AcDbAlignedDimension
 13
167.2602819584346
 23
-0.0000000000000027
 33
0.0
 14
259.2602819584348
 24
-82.5
 34
0.0
 50
180.0
100
AcDbRotatedDimension
1001
ACAD
1000
DSTYLE
1002
{
1070
    79
1070
     3
1002
}
  0
DIMENSION
  5
6573
330
1E
100
AcDbEntity
  8
30
  6
Continuous
100
AcDbDimension
  2
*D14
 10
259.2602819584348
 20
-127.7104650043364
 30
0.0
 11
223.2602819584348
 21
-124.7104650043364
 31
0.0
 70
    32
 71
     5
 42
-1.0
  3
STANDARD
100
AcDbAlignedDimension
 13
187.2602819584348
 23
-25.0
 33
0.0
 14
259.2602819584348
 24
-82.5
 34
0.0
 50
180.0
100
AcDbRotatedDimension
1001
ACAD
1000
DSTYLE
1002
{
1070
    79
1070
     3
1002
}
  0
INSERT
  5
6574
330
1E
100
AcDbEntity
  8
30
  6
Continuous
100
AcDbBlockReference
  2
*U11
 10
-303.8677084721872
 20
-246.6618080090514
 30
0.0
 41
2.5
 42
2.5
 43
2.5
  0
DIMENSION
  5
6575
330
1E
100
AcDbEntity
  8
30
  6
Continuous
100
AcDbDimension
  2
*D15
 10
259.2602819584348
 20
-104.1847078385367
 30
0.0
 11
228.7602819584348
 21
-101.1847078385367
 31
0.0
 70
    32
 71
     5
 42
-1.0
  3
STANDARD
100
AcDbAlignedDimension
 13
198.2602819584347
 23
-82.5
 33
0.0
 14
259.2602819584348
 24
-82.5
 34
0.0
 50
180.0
100
AcDbRotatedDimension
1001
ACAD
1000
DSTYLE
1002
{
1070
    79
1070
     3
1002
}
  0
LINE
  5
6576
330
1E
100
AcDbEntity
  8
12
  6
DASHED
100
AcDbLine
 10
198.260281958434
 20
-58.75
 30
0.0
 11
214.2602819584348
 21
-58.75
 31
0.0
  0
LINE
  5
6577
330
1E
100
AcDbEntity
  8
12
  6
DASHED
100
AcDbLine
 10
193.2602819584346
 20
-63.0
 30
0.0
 11
277.2602819584347
 21
-63.0
 31
0.0
  0
LINE
  5
6579
330
1E
100
AcDbEntity
  8
10
  6
CONTINOUS
100
AcDbLine
 10
259.2602819584348
 20
82.50000000000001
 30
0.0
 11
198.2602819584347
 21
82.50000000000001
 31
0.0
  0
LINE
  5
657A
330
1E
100
AcDbEntity
  8
10
  6
CONTINOUS
100
AcDbLine
 10
198.2602819584347
 20
-82.5
 30
0.0
 11
259.2602819584348
 21
-82.5
 31
0.0
  0
LINE
  5
657B
330
1E
100
AcDbEntity
  8
12
  6
DASHED
100
AcDbLine
 10
198.260281958434
 20
-67.25000000000003
 30
0.0
 11
214.2602819584348
 21
-67.25000000000003
 31
0.0
  0
DIMENSION
  5
657C
330
1E
100
AcDbEntity
  8
30
  6
Continuous
100
AcDbDimension
  2
*D16
 10
124.2572915325625
 20
-51.0
 30
0.0
 11
121.2572915325626
 21
0.0000000000000318
 31
0.0
 70
    32
 71
     5
 42
-1.0
  3
STANDARD
100
AcDbAlignedDimension
 13
191.2602819584348
 23
51.0
 33
0.0
 14
191.2602819584348
 24
-51.00000000000002
 34
0.0
 50
90.0
100
AcDbRotatedDimension
1001
ACAD
1000
DSTYLE
1002
{
1070
    79
1070
     3
1002
}
  0
DIMENSION
  5
657D
330
1E
100
AcDbEntity
  8
30
  6
Continuous
100
AcDbDimension
  2
*D17
 10
143.0072915325627
 20
-25.0
 30
0.0
 11
140.0072915325627
 21
0.0000000000000271
 31
0.0
 70
    32
 71
     5
 42
-1.0
  3
STANDARD
100
AcDbAlignedDimension
 13
183.2602819584345
 23
24.99999999999999
 33
0.0
 14
183.2602819584345
 24
-25.0
 34
0.0
 50
90.0
100
AcDbRotatedDimension
1001
ACAD
1000
DSTYLE
1002
{
1070
    79
1070
     3
1002
}
  0
LINE
  5
657E
330
1E
100
AcDbEntity
  8
10
  6
CONTINOUS
100
AcDbLine
 10
191.2602819584348
 20
51.0
 30
0.0
 11
191.2602819584348
 21
-51.00000000000002
 31
0.0
  0
LINE
  5
657F
330
1E
100
AcDbEntity
  8
10
  6
CONTINOUS
100
AcDbLine
 10
183.2602819584345
 20
24.99999999999999
 30
0.0
 11
183.2602819584345
 21
-25.0
 31
0.0
  0
LINE
  5
6580
330
1E
100
AcDbEntity
  8
10
  6
CONTINOUS
100
AcDbLine
 10
187.2602819584348
 20
24.99999999999999
 30
0.0
 11
187.2602819584348
 21
-25.0
 31
0.0
  0
LINE
  5
6581
330
1E
100
AcDbEntity
  8
10
  6
CONTINOUS
100
AcDbLine
 10
198.2602819584347
 20
-51.00000000000002
 30
0.0
 11
198.2602819584347
 21
-82.5
 31
0.0
  0
LINE
  5
6582
330
1E
100
AcDbEntity
  8
10
  6
CONTINOUS
100
AcDbLine
 10
183.2602819584345
 20
-25.0
 30
0.0
 11
191.2602819584348
 21
-25.0
 31
0.0
  0
LINE
  5
6583
330
1E
100
AcDbEntity
  8
10
  6
CONTINOUS
100
AcDbLine
 10
191.2602819584348
 20
-51.00000000000002
 30
0.0
 11
198.2602819584347
 21
-51.00000000000002
 31
0.0
  0
ARC
  5
6586
330
1E
100
AcDbEntity
  8
30
  6
Continuous
100
AcDbCircle
 10
198.2602819584347
 20
-0.0000000000000027
 30
0.0
 40
31.0
100
AcDbArc
 50
150.5534441956585
 51
180.0
  0
LINE
  5
6587
330
1E
100
AcDbEntity
  8
10
  6
CONTINOUS
100
AcDbLine
 10
183.2602819584345
 20
6.840789306861262
 30
0.0
 11
171.2650281588393
 21
15.23995644007663
 31
0.0
  0
LINE
  5
6588
330
1E
100
AcDbEntity
  8
10
  6
CONTINOUS
100
AcDbLine
 10
183.2602819584345
 20
24.99999999999999
 30
0.0
 11
191.2602819584348
 21
24.99999999999999
 31
0.0
  0
LINE
  5
6589
330
1E
100
AcDbEntity
  8
10
  6
CONTINOUS
100
AcDbLine
 10
171.2650281588393
 20
15.23995644007663
 30
0.0
 11
174.7064867769456
 21
20.15486870581053
 31
0.0
  0
LINE
  5
658A
330
1E
100
AcDbEntity
  8
10
  6
CONTINOUS
100
AcDbLine
 10
183.2602819584345
 20
14.16543683942997
 30
0.0
 11
174.7064867769456
 21
20.15486870581053
 31
0.0
  0
LINE
  5
658B
330
1E
100
AcDbEntity
  8
10
  6
CONTINOUS
100
AcDbLine
 10
198.2602819584347
 20
82.50000000000001
 30
0.0
 11
198.2602819584347
 21
51.0
 31
0.0
  0
LINE
  5
658C
330
1E
100
AcDbEntity
  8
10
  6
CONTINOUS
100
AcDbLine
 10
191.2602819584348
 20
51.0
 30
0.0
 11
198.2602819584347
 21
51.0
 31
0.0
  0
TEXT
  5
658D
330
1E
100
AcDbEntity
  8
30
  6
Continuous
100
AcDbText
 10
166.6218748611458
 20
105.7131919909485
 30
0.0
 40
6.25
  1
M8 
 41
0.8141304347826125
  7
UGMTXT
100
AcDbText
  0
DIMENSION
  5
658E
330
1E
100
AcDbEntity
  8
30
  6
Continuous
100
AcDbDimension
  2
*D18
 10
259.2602819584348
 20
109.5455535880087
 30
0.0
 11
247.2602819584348
 21
112.5455535880087
 31
0.0
 70
    32
 71
     5
 42
-1.0
  3
STANDARD
100
AcDbAlignedDimension
 13
235.2602819584347
 23
82.50000000000001
 33
0.0
 14
259.2602819584348
 24
82.50000000000001
 34
0.0
100
AcDbRotatedDimension
1001
ACAD
1000
DSTYLE
1002
{
1070
    79
1070
     3
1002
}
  0
LINE
  5
6590
330
1E
100
AcDbEntity
  8
10
  6
CONTINOUS
100
AcDbLine
 10
259.2602819584348
 20
82.50000000000001
 30
0.0
 11
259.2602819584348
 21
-82.5
 31
0.0
  0
DIMENSION
  5
6592
330
1E
100
AcDbEntity
  8
30
  6
Continuous
100
AcDbDimension
  2
*D19
 10
267.2602819584345
 20
-93.53495377146128
 30
0.0
 11
263.2602819584348
 21
-90.53495377146132
 31
0.0
 70
    32
 71
     5
 42
-1.0
  3
STANDARD
100
AcDbAlignedDimension
 13
259.2602819584348
 23
-82.5
 33
0.0
 14
267.2602819584345
 24
-65.25000000000003
 34
0.0
 50
180.0
100
AcDbRotatedDimension
1001
ACAD
1000
DSTYLE
1002
{
1070
    79
1070
     3
1002
}
  0
DIMENSION
  5
6593
330
1E
100
AcDbEntity
  8
30
  6
Continuous
100
AcDbDimension
  2
*D20
 10
259.2602819584348
 20
-93.53495377146128
 30
0.0
 11
236.7602819584348
 21
-90.53495377146132
 31
0.0
 70
    32
 71
     5
 42
-1.0
  3
STANDARD
100
AcDbAlignedDimension
 13
214.2602819584348
 23
-67.25000000000003
 33
0.0
 14
259.2602819584348
 24
-82.5
 34
0.0
 50
180.0
100
AcDbRotatedDimension
1001
ACAD
1000
DSTYLE
1002
{
1070
    79
1070
     3
1002
}
  0
LINE
  5
6595
330
1E
100
AcDbEntity
  8
12
  6
DASHED
100
AcDbLine
 10
214.2602819584348
 20
-65.25000000000003
 30
0.0
 11
259.2602819584348
 21
-65.25000000000003
 31
0.0
  0
LINE
  5
6596
330
1E
100
AcDbEntity
  8
12
  6
DASHED
100
AcDbLine
 10
214.2602819584348
 20
-60.75000000000006
 30
0.0
 11
259.2602819584348
 21
-60.75000000000006
 31
0.0
  0
LINE
  5
6597
330
1E
100
AcDbEntity
  8
12
  6
DASHED
100
AcDbLine
 10
214.2602819584348
 20
-58.75
 30
0.0
 11
214.2602819584348
 21
-67.25000000000003
 31
0.0
  0
LINE
  5
6598
330
1E
100
AcDbEntity
  8
12
  6
DASHED
100
AcDbLine
 10
208.2602819584346
 20
-58.75
 30
0.0
 11
208.2602819584346
 21
-67.25000000000003
 31
0.0
  0
LINE
  5
6599
330
1E
100
AcDbEntity
  8
12
  6
DASHED
100
AcDbLine
 10
214.2602819584348
 20
-65.25000000000003
 30
0.0
 11
214.2602819584348
 21
-67.25000000000003
 31
0.0
  0
LINE
  5
659A
330
1E
100
AcDbEntity
  8
12
  6
DASHED
100
AcDbLine
 10
214.2602819584348
 20
-58.75
 30
0.0
 11
214.2602819584348
 21
-60.75000000000006
 31
0.0
  0
LINE
  5
659B
330
1E
100
AcDbEntity
  8
12
  6
DASHED
100
AcDbLine
 10
259.2602819584348
 20
-60.75000000000006
 30
0.0
 11
267.2602819584345
 21
-60.75000000000006
 31
0.0
  0
LINE
  5
659C
330
1E
100
AcDbEntity
  8
12
  6
DASHED
100
AcDbLine
 10
259.2602819584348
 20
-65.25000000000003
 30
0.0
 11
267.2602819584345
 21
-65.25000000000003
 31
0.0
  0
LINE
  5
659D
330
1E
100
AcDbEntity
  8
12
  6
DASHED
100
AcDbLine
 10
267.2602819584345
 20
-60.75000000000006
 30
0.0
 11
267.2602819584345
 21
-65.25000000000003
 31
0.0
  0
LINE
  5
65A2
330
1E
100
AcDbEntity
  8
24
  6
CONTINOUS
100
AcDbLine
 10
225.2602819584347
 20
78.5
 30
0.0
 11
225.2602819584347
 21
65.5
 31
0.0
  0
LINE
  5
65A3
330
1E
100
AcDbEntity
  8
24
  6
CONTINOUS
100
AcDbLine
 10
239.2602819584348
 20
82.50000000000001
 30
0.0
 11
239.2602819584348
 21
61.5
 31
0.0
  0
LINE
  5
65A4
330
1E
100
AcDbEntity
  8
24
  6
CONTINOUS
100
AcDbLine
 10
233.2602819584346
 20
79.69999999999997
 30
0.0
 11
233.2602819584346
 21
64.29999999999994
 31
0.0
  0
LINE
  5
65A5
330
1E
100
AcDbEntity
  8
24
  6
CONTINOUS
100
AcDbLine
 10
235.2602819584347
 20
82.50000000000001
 30
0.0
 11
235.2602819584347
 21
61.5
 31
0.0
  0
LINE
  5
65A6
330
1E
100
AcDbEntity
  8
24
  6
CONTINOUS
100
AcDbLine
 10
225.2602819584347
 20
65.5
 30
0.0
 11
233.2602819584346
 21
65.5
 31
0.0
  0
LINE
  5
65A7
330
1E
100
AcDbEntity
  8
24
  6
CONTINOUS
100
AcDbLine
 10
235.2602819584347
 20
61.5
 30
0.0
 11
239.2602819584349
 21
61.5
 31
0.0
  0
LINE
  5
65A8
330
1E
100
AcDbEntity
  8
24
  6
CONTINOUS
100
AcDbLine
 10
233.2602819584346
 20
64.29999999999994
 30
0.0
 11
235.2602819584347
 21
64.29999999999994
 31
0.0
  0
LINE
  5
65A9
330
1E
100
AcDbEntity
  8
24
  6
CONTINOUS
100
AcDbLine
 10
220.2602819584345
 20
72.0
 30
0.0
 11
244.2602819584348
 21
72.0
 31
0.0
  0
LINE
  5
65AA
330
1E
100
AcDbEntity
  8
24
  6
CONTINOUS
100
AcDbLine
 10
225.2602819584347
 20
78.5
 30
0.0
 11
233.2602819584346
 21
78.5
 31
0.0
  0
LINE
  5
65AB
330
1E
100
AcDbEntity
  8
24
  6
CONTINOUS
100
AcDbLine
 10
233.2602819584346
 20
79.69999999999997
 30
0.0
 11
235.2602819584347
 21
79.69999999999997
 31
0.0
  0
DIMENSION
  5
65AC
330
1E
100
AcDbEntity
  8
30
  6
Continuous
100
AcDbDimension
  2
*D21
 10
328.2602819584328
 20
25.21319198619851
 30
0.0
 11
315.7602819584328
 21
28.21319198619851
 31
0.0
 70
    32
 71
     5
 42
-1.0
  3
STANDARD
100
AcDbAlignedDimension
 13
303.2602819584328
 23
48.92504825041531
 33
0.0
 14
328.2602819584328
 24
48.92504825041531
 34
0.0
 50
180.0
100
AcDbRotatedDimension
1001
ACAD
1000
DSTYLE
1002
{
1070
    79
1070
     3
1002
}
  0
INSERT
  5
65AD
330
1E
100
AcDbEntity
  8
30
  6
Continuous
100
AcDbBlockReference
  2
*U10
 10
-303.8677084721872
 20
-246.6618080090514
 30
0.0
 41
2.5
 42
2.5
 43
2.5
  0
INSERT
  5
65AE
330
1E
100
AcDbEntity
  8
30
  6
Continuous
100
AcDbBlockReference
  2
*U7
 10
-303.8677084721872
 20
-246.6618080090514
 30
0.0
 41
2.5
 42
2.5
 43
2.5
  0
INSERT
  5
65AF
330
1E
100
AcDbEntity
  8
30
  6
Continuous
100
AcDbBlockReference
  2
*U6
 10
-303.8677084721872
 20
-246.6618080090514
 30
0.0
 41
2.5
 42
2.5
 43
2.5
  0
DIMENSION
  5
65B0
330
1E
100
AcDbEntity
  8
30
  6
Continuous
100
AcDbDimension
  2
*D22
 10
338.5828896186868
 20
58.92504825041531
 30
0.0
 11
335.5828896186868
 21
53.92504825041537
 31
0.0
 70
    32
 71
     5
 42
-1.0
  3
STANDARD
100
AcDbAlignedDimension
 13
328.2602819584328
 23
48.92504825041531
 33
0.0
 14
318.2602819749328
 24
58.92504825041531
 34
0.0
 50
270.0
100
AcDbRotatedDimension
1001
ACAD
1000
DSTYLE
1002
{
1070
    79
1070
     3
1002
}
  0
LINE
  5
65B1
330
1E
100
AcDbEntity
  8
24
  6
Continuous
100
AcDbLine
 10
303.2602819584328
 20
80.92504825041528
 30
0.0
 11
303.2602819584328
 21
48.92504825041531
 31
0.0
  0
LINE
  5
65B2
330
1E
100
AcDbEntity
  8
24
  6
Continuous
100
AcDbLine
 10
328.2602819584328
 20
81.07495174958456
 30
0.0
 11
328.2602819584328
 21
48.92504825041531
 31
0.0
  0
CIRCLE
  5
65B3
330
1E
100
AcDbEntity
  8
24
  6
Continuous
100
AcDbCircle
 10
315.7602819584328
 20
58.92504825041531
 30
0.0
 40
4.5
  0
LINE
  5
65B4
330
1E
100
AcDbEntity
  8
24
  6
Continuous
100
AcDbLine
 10
309.5102819584328
 20
58.92504825041531
 30
0.0
 11
322.0102819584328
 21
58.92504825041531
 31
0.0
  0
LINE
  5
65B5
330
1E
100
AcDbEntity
  8
24
  6
Continuous
100
AcDbLine
 10
303.2602819584328
 20
48.92504825041531
 30
0.0
 11
328.2602819584328
 21
48.92504825041531
 31
0.0
  0
LINE
  5
65B6
330
1E
100
AcDbEntity
  8
24
  6
Continuous
100
AcDbLine
 10
315.7602819584328
 20
65.17504825041533
 30
0.0
 11
315.7602819584328
 21
52.67504825041531
 31
0.0
  0
LINE
  5
65B7
330
1E
100
AcDbEntity
  8
24
  6
Continuous
100
AcDbLine
 10
311.5181596414458
 20
80.92030134443616
 30
0.0
 11
315.3732909515546
 21
79.49930875165524
 31
0.0
  0
ARC
  5
65B8
330
1E
100
AcDbEntity
  8
24
  6
Continuous
100
AcDbCircle
 10
307.3852819584327
 20
74.07053331498777
 30
0.0
 40
8.0
100
AcDbArc
 50
58.9607599896022
 51
121.0392400103977
  0
LINE
  5
65B9
330
1E
100
AcDbEntity
  8
24
  6
Continuous
100
AcDbLine
 10
322.3227637432488
 20
79.08027989468191
 30
0.0
 11
328.2602819584328
 21
81.07495174958456
 31
0.0
  0
ARC
  5
65BA
330
1E
100
AcDbEntity
  8
24
  6
Continuous
100
AcDbCircle
 10
319.2478637793793
 20
85.92096627926309
 30
0.0
 40
7.5
100
AcDbArc
 50
238.8948889125936
 51
294.2039969225378
  0
INSERT
  5
65BB
330
1E
100
AcDbEntity
  8
30
  6
Continuous
100
AcDbBlockReference
  2
*U9
 10
-303.8677084721872
 20
-246.6618080090514
 30
0.0
 41
2.5
 42
2.5
 43
2.5
  0
INSERT
  5
65BC
330
1E
100
AcDbEntity
  8
30
  6
Continuous
100
AcDbBlockReference
  2
*U8
 10
-303.8677084721872
 20
-246.6618080090514
 30
0.0
 41
2.5
 42
2.5
 43
2.5
  0
TEXT
  5
67AA
330
1E
100
AcDbEntity
  8
TOP
  6
ByBlock
 62
     0
100
AcDbText
 10
371.3280318172496
 20
-98.62309151624522
 30
0.0
 40
7.500000049499999
  1
 
 41
1.189062499999995
  7
UGMTXT
100
AcDbText
  0
MTEXT
  5
67AE
330
1E
100
AcDbEntity
  8
30
  6
Continuous
100
AcDbMText
 10
326.1216727604241
 20
-106.5789363738149
 30
0.0
 40
4.0
 41
0.0
 71
     1
 72
     1
  1
 
 73
     1
 44
1.0
1001
ACAD
1000
MTEXTBEGIN
1070
    73
1070
     1
1070
    44
1040
1.0
1070
    74
1070
     0
1000
MTEXTEND
  0
DIMENSION
  5
67C1
330
1E
100
AcDbEntity
  8
30
  6
Continuous
100
AcDbDimension
  2
*D23
 10
187.2602819584348
 20
-127.7104650043364
 30
0.0
 11
193.5936152917681
 21
-124.7104650043364
 31
0.0
 70
    32
 71
     5
 42
-1.0
  3
STANDARD
100
AcDbAlignedDimension
 13
183.2602819584345
 23
-25.0
 33
0.0
 14
187.2602819584348
 24
-25.0
 34
0.0
100
AcDbRotatedDimension
1001
ACAD
1000
DSTYLE
1002
{
1070
    79
1070
     3
1002
}
  0
LEADER
  5
682E
330
1E
100
AcDbEntity
  8
30
  6
Continuous
100
AcDbLeader
  3
STANDARD
 40
4.0
 76
     3
 10
-19.09443121215412
 20
-185.1031223678139
 30
0.0
 10
-28.23745909179269
 20
-161.4714939763489
 30
0.0
 10
-65.49357431131709
 20
-161.5512357428174
 30
0.0
213
0.0
223
2.0
233
0.0
1001
ACAD
1000
DSTYLE
1002
{
1070
     5
1000
OPEN
1070
    77
1070
     0
1070
    79
1070
     3
1070
   147
1040
1.0
1070
   342
1005
3B2
1002
}
  0
DIMENSION
  5
68B3
330
1E
100
AcDbEntity
  8
30
  6
Continuous
100
AcDbDimension
  2
*D24
 10
99.3713240207437
 20
-312.9999999999999
 30
0.0
 11
96.37132402074371
 21
-249.9999999999999
 31
0.0
 70
    32
 71
     5
 42
-1.0
  3
STANDARD
100
AcDbAlignedDimension
 13
-11.99999999999999
 23
-186.9999999999999
 33
0.0
 14
22.99999999999998
 24
-312.9999999999999
 34
0.0
 50
90.0
100
AcDbRotatedDimension
1001
ACAD
1000
DSTYLE
1002
{
1070
    79
1070
     3
1002
}
  0
DIMENSION
  5
68C0
330
1E
100
AcDbEntity
  8
30
  6
Continuous
100
AcDbDimension
  2
*D25
 10
0.0000000000000015
 20
316.9820236200753
 30
0.0
 11
-17.49999999999999
 21
319.9820236200753
 31
0.0
 70
    32
 71
     5
 42
-1.0
  3
STANDARD
100
AcDbAlignedDimension
 13
-34.99999999999999
 23
277.415875659212
 33
0.0
 14
-0.0000000000000009
 24
277.415875659212
 34
0.0
100
AcDbRotatedDimension
1001
ACAD
1000
DSTYLE
1002
{
1070
    79
1070
     3
1002
}
  0
DIMENSION
  5
68CD
330
1E
100
AcDbEntity
  8
30
  6
Continuous
100
AcDbDimension
  2
*D26
 10
35.00000000000003
 20
316.9820236200753
 30
0.0
 11
17.50000000000001
 21
319.9820236200753
 31
0.0
 70
    32
 71
     5
 42
-1.0
  3
STANDARD
100
AcDbAlignedDimension
 13
-0.0000000000000009
 23
277.415875659212
 33
0.0
 14
35.00000000000003
 24
277.415875659212
 34
0.0
100
AcDbRotatedDimension
1001
ACAD
1000
DSTYLE
1002
{
1070
   287
1070
     4
1070
   287
1070
     4
1070
   287
1070
     4
1070
   287
1070
     4
1070
   279
1070
     1
1070
    79
1070
     3
1002
}
  0
DIMENSION
  5
696A
330
1E
100
AcDbEntity
  8
30
  6
Continuous
100
AcDbDimension
  2
*D27
 10
-83.04799272002638
 20
82.50000000000001
 30
0.0
 11
-86.04799272002637
 21
132.4999999999999
 31
0.0
 70
    32
 71
     5
 42
-1.0
  3
STANDARD
100
AcDbAlignedDimension
 13
-19.0
 23
182.4999999999999
 33
0.0
 14
-52.5
 24
82.50000000000001
 34
0.0
 50
90.0
100
AcDbRotatedDimension
1001
ACAD
1000
DSTYLE
1002
{
1070
    79
1070
     3
1002
}
  0
DIMENSION
  5
6977
330
1E
100
AcDbEntity
  8
30
  6
Continuous
100
AcDbDimension
  2
*D28
 10
-83.04799272002641
 20
-82.5
 30
0.0
 11
-86.0479927200264
 21
-0.0000000000000017
 31
0.0
 70
    32
 71
     5
 42
-1.0
  3
STANDARD
100
AcDbAlignedDimension
 13
-52.5
 23
82.50000000000001
 33
0.0
 14
-52.5
 24
-82.5
 34
0.0
 50
90.0
100
AcDbRotatedDimension
1001
ACAD
1000
DSTYLE
1002
{
1070
   287
1070
     4
1070
   287
1070
     4
1070
   287
1070
     4
1070
   279
1070
     1
1070
    79
1070
     3
1002
}
  0
LINE
  5
6FD3
330
1E
100
AcDbEntity
  8
16
100
AcDbLine
 10
210.0
 20
-347.7519397628456
 30
0.0
 11
210.0
 21
-148.6166007905139
 31
0.0
  0
LINE
  5
6FD4
330
1E
100
AcDbEntity
  8
11
 48
2.0
100
AcDbLine
 10
260.0
 20
-225.0
 30
0.0
 11
260.0
 21
-275.0
 31
0.0
  0
LINE
  5
6FD5
330
1E
100
AcDbEntity
  8
11
 48
2.0
100
AcDbLine
 10
159.9999999999999
 20
-225.0
 30
0.0
 11
159.9999999999999
 21
-275.0
 31
0.0
  0
LINE
  5
6FD7
330
1E
100
AcDbEntity
  8
18
  6
DIVIDE
100
AcDbLine
 10
157.4999999999999
 20
-167.5
 30
0.0
 11
157.4999999999999
 21
-332.4999999999998
 31
0.0
  0
LINE
  5
6FD8
330
1E
100
AcDbEntity
  8
18
  6
DIVIDE
100
AcDbLine
 10
262.5
 20
-332.4999999999998
 30
0.0
 11
262.5
 21
-167.5
 31
0.0
  0
DIMENSION
  5
6FD9
330
1E
100
AcDbEntity
  8
30
  6
Continuous
100
AcDbDimension
  2
*D30
 10
293.0178303542168
 20
-276.0
 30
0.0
 11
290.0178303542169
 21
-249.9999999999999
 31
0.0
 70
    32
 71
     5
 42
-1.0
  3
STANDARD
100
AcDbAlignedDimension
 13
259.0
 23
-223.9999999999997
 33
0.0
 14
259.0
 24
-276.0
 34
0.0
 50
90.0
100
AcDbRotatedDimension
1001
ACAD
1000
DSTYLE
1002
{
1070
    79
1070
     3
1002
}
  0
LINE
  5
6FDB
330
1E
100
AcDbEntity
  8
16
100
AcDbLine
 10
278.9038975494069
 20
-250.0
 30
0.0
 11
129.450086798419
 21
-250.0
 31
0.0
  0
LINE
  5
6FDC
330
1E
100
AcDbEntity
  8
11
 48
2.0
100
AcDbLine
 10
161.0000000000001
 20
-275.9999999999998
 30
0.0
 11
259.0
 21
-275.9999999999998
 31
0.0
  0
LINE
  5
6FDD
330
1E
100
AcDbEntity
  8
18
  6
DIVIDE
100
AcDbLine
 10
167.0566197674101
 20
-331.9458678625748
 30
0.0
 11
272.0566197674102
 21
-331.9458678625748
 31
0.0
  0
DIMENSION
  5
6FDF
330
1E
100
AcDbEntity
  8
30
  6
Continuous
100
AcDbDimension
  2
*D31
 10
260.0
 20
-360.5322413003591
 30
0.0
 11
210.0
 21
-357.5322413003592
 31
0.0
 70
    32
 71
     5
 42
-1.0
  3
STANDARD
100
AcDbAlignedDimension
 13
159.9999999999999
 23
-275.0
 33
0.0
 14
260.0
 24
-275.0
 34
0.0
100
AcDbRotatedDimension
1001
ACAD
1000
DSTYLE
1002
{
1070
    79
1070
     3
1002
}
  0
ARC
  5
6FE2
330
1E
100
AcDbEntity
  8
11
 48
2.0
100
AcDbCircle
 10
161.0000000000001
 20
-275.0
 30
0.0
 40
1.0
100
AcDbArc
 50
180.0
 51
270.0
  0
ARC
  5
6FE3
330
1E
100
AcDbEntity
  8
11
 48
2.0
100
AcDbCircle
 10
259.0
 20
-275.0
 30
0.0
 40
1.0
100
AcDbArc
 50
270.0
 51
0.0
  0
LINE
  5
6FE4
330
1E
100
AcDbEntity
  8
11
 48
2.0
100
AcDbLine
 10
161.0000000000001
 20
-223.9999999999997
 30
0.0
 11
259.0
 21
-223.9999999999997
 31
0.0
  0
LINE
  5
6FE5
330
1E
100
AcDbEntity
  8
18
  6
DIVIDE
100
AcDbLine
 10
262.5
 20
-167.5
 30
0.0
 11
157.4999999999999
 21
-167.5
 31
0.0
  0
ARC
  5
6FE8
330
1E
100
AcDbEntity
  8
11
 48
2.0
100
AcDbCircle
 10
161.0000000000001
 20
-225.0
 30
0.0
 40
1.0
100
AcDbArc
 50
90.0
 51
180.0
  0
DIMENSION
  5
6FEB
330
1E
100
AcDbEntity
  8
30
  6
Continuous
100
AcDbDimension
  2
*D29
 10
259.0000000000001
 20
-224.9999999999995
 30
0.0
 11
266.7623648776715
 21
-219.1320292601959
 31
0.0
 70
    36
 71
     5
 42
-1.0
  3
STANDARD
100
AcDbRadialDimension
 15
259.8191396422008
 25
-224.4264058520389
 35
0.0
 40
0.0
1001
ACAD
1000
DSTYLE
1002
{
1070
    79
1070
     3
1002
}
  0
ARC
  5
6FEC
330
1E
100
AcDbEntity
  8
11
 48
2.0
100
AcDbCircle
 10
259.0
 20
-225.0
 30
0.0
 40
1.0
100
AcDbArc
 50
0.0
 51
90.0
  0
TEXT
  5
7054
330
1E
100
AcDbEntity
  8
30
  6
Continuous
100
AcDbText
 10
-54.28688922544367
 20
-158.6868720611154
 30
0.0
 40
5.0
  1
M4x0.7
 41
0.8216911764705923
100
AcDbText
  0
CIRCLE
  5
70AE
330
1E
100
AcDbEntity
  8
10
  6
CONTINOUS
100
AcDbCircle
 10
31.10000000000005
 20
5.799999999999953
 30
0.0
 40
2.75
  0
LINE
  5
70AF
330
1E
100
AcDbEntity
  8
10
  6
CONTINOUS
100
AcDbLine
 10
31.10000000000005
 20
10.0495722744776
 30
0.0
 11
31.10000000000005
 21
-6.431389353983262
 31
0.0
  0
LINE
  5
70B5
330
1E
100
AcDbEntity
  8
10
  6
CONTINOUS
100
AcDbLine
 10
25.46090784604862
 20
5.800000000000012
 30
0.0
 11
36.34833098242578
 21
5.800000000000012
 31
0.0
  0
LINE
  5
70B7
330
1E
100
AcDbEntity
  8
10
  6
CONTINOUS
100
AcDbLine
 10
25.46090784604862
 20
-1.900000000000004
 30
0.0
 11
36.34833098242578
 21
-1.900000000000004
 31
0.0
  0
CIRCLE
  5
70B8
330
1E
100
AcDbEntity
  8
10
  6
CONTINOUS
100
AcDbCircle
 10
31.10000000000005
 20
-1.900000000000004
 30
0.0
 40
3.6
  0
CIRCLE
  5
70B9
330
1E
100
AcDbEntity
  8
10
  6
CONTINOUS
100
AcDbCircle
 10
31.10000000000005
 20
-1.900000000000004
 30
0.0
 40
2.5
  0
LINE
  5
711D
330
1E
100
AcDbEntity
  8
18
100
AcDbLine
 10
47.00000000000001
 20
-25.0
 30
0.0
 11
47.00000000000001
 21
-121.3320714556654
 31
0.0
  0
LINE
  5
711E
330
1E
100
AcDbEntity
  8
18
100
AcDbLine
 10
49.00000000000003
 20
-25.0
 30
0.0
 11
49.00000000000003
 21
-121.320789762729
 31
0.0
  0
LINE
  5
711F
330
1E
100
AcDbEntity
  8
18
100
AcDbLine
 10
49.00000000000003
 20
-124.320789762729
 30
0.0
 11
49.00000000000003
 21
-143.6565627441108
 31
0.0
  0
LINE
  5
7120
330
1E
100
AcDbEntity
  8
18
100
AcDbLine
 10
47.00000000000001
 20
-124.3320714556654
 30
0.0
 11
47.00000000000001
 21
-143.6565627441108
 31
0.0
  0
SPLINE
  5
7121
330
1E
100
AcDbEntity
  8
18
100
AcDbSpline
210
0.0
220
0.0
230
1.0
 70
     8
 71
     3
 72
    12
 73
     8
 74
     0
 42
0.0000000001
 43
0.0000000001
 40
0.0
 40
0.0
 40
0.0
 40
0.0
 40
0.25
 40
0.5
 40
0.75
 40
0.9027560157721172
 40
1.0
 40
1.0
 40
1.0
 40
1.0
 10
47.00000000000001
 20
-143.6565627441108
 30
0.0
 10
46.84307280093135
 20
-144.8451168340641
 30
0.0
 10
46.62410401446222
 20
-145.7313802108686
 30
0.0
 10
46.23312735725411
 20
-146.8424213675986
 30
0.0
 10
45.64561512540167
 20
-148.2423932746993
 30
0.0
 10
45.34300917392179
 20
-149.0133128032823
 30
0.0
 10
45.08256887038553
 20
-149.6921512374923
 30
0.0
 10
44.89725137218484
 20
-150.2326606072444
 30
0.0
  0
SPLINE
  5
7122
330
1E
100
AcDbEntity
  8
18
100
AcDbSpline
210
0.0
220
0.0
230
1.0
 70
     8
 71
     3
 72
    12
 73
     8
 74
     0
 42
0.0000000001
 43
0.0000000001
 40
0.0
 40
0.0
 40
0.0
 40
0.0
 40
0.25
 40
0.5
 40
0.75
 40
0.9027560157721172
 40
1.0
 40
1.0
 40
1.0
 40
1.0
 10
49.00000000000003
 20
-143.6565627441108
 30
0.0
 10
49.15692719906869
 20
-144.8451168340641
 30
0.0
 10
49.37589598553782
 20
-145.7313802108686
 30
0.0
 10
49.76687264274593
 20
-146.8424213675986
 30
0.0
 10
50.35438487459842
 20
-148.2423932746993
 30
0.0
 10
50.65699082607827
 20
-149.0133128032823
 30
0.0
 10
50.91743112961452
 20
-149.6921512374923
 30
0.0
 10
51.10274862781526
 20
-150.2326606072444
 30
0.0
  0
CIRCLE
  5
7123
330
1E
100
AcDbEntity
  8
18
100
AcDbCircle
 10
48.00000000000003
 20
-151.3565627441108
 30
0.0
 40
2.149999999999999
  0
ARC
  5
7124
330
1E
100
AcDbEntity
  8
18
100
AcDbCircle
 10
48.00000000000003
 20
-151.3565627441108
 30
0.0
 40
3.299999999999998
100
AcDbArc
 50
160.0881997351805
 51
19.91180026481935
  0
LINE
  5
7125
330
1E
100
AcDbEntity
  8
18
100
AcDbLine
 10
47.00000000000001
 20
-139.6565627441108
 30
0.0
 11
49.00000000000003
 21
-139.6565627441108
 31
0.0
  0
LINE
  5
7126
330
1E
100
AcDbEntity
  8
18
100
AcDbLine
 10
47.00000000000001
 20
-143.6565627441108
 30
0.0
 11
49.00000000000003
 21
-143.6565627441108
 31
0.0
  0
LINE
  5
7127
330
1E
100
AcDbEntity
  8
18
100
AcDbLine
 10
48.00000000000003
 20
-139.6565627441108
 30
0.0
 11
48.00000000000003
 21
-143.6565627441108
 31
0.0
  0
SPLINE
  5
7128
330
1E
100
AcDbEntity
  8
18
100
AcDbSpline
210
0.0
220
0.0
230
1.0
 70
     8
 71
     3
 72
     8
 73
     4
 74
     0
 42
0.0000000001
 43
0.0000000001
 40
0.0
 40
0.0
 40
0.0
 40
0.0
 40
1.0
 40
1.0
 40
1.0
 40
1.0
 10
47.00000000073261
 20
-121.3320714556655
 30
0.0
 10
47.54632667002564
 20
-120.3725357308544
 30
0.0
 10
48.48752698565377
 20
-122.6293881810182
 30
0.0
 10
49.0000000011668
 20
-121.320789762729
 30
0.0
  0
SPLINE
  5
7129
330
1E
100
AcDbEntity
  8
18
100
AcDbSpline
210
0.0
220
0.0
230
1.0
 70
     8
 71
     3
 72
     8
 73
     4
 74
     0
 42
0.0000000001
 43
0.0000000001
 40
0.0
 40
0.0
 40
0.0
 40
0.0
 40
1.0
 40
1.0
 40
1.0
 40
1.0
 10
47.00000000073261
 20
-124.3320714556655
 30
0.0
 10
47.54632667002564
 20
-123.3725357308544
 30
0.0
 10
48.48752698565377
 20
-125.6293881810182
 30
0.0
 10
49.0000000011668
 20
-124.320789762729
 30
0.0
  0
MTEXT
  5
7173
330
1E
100
AcDbEntity
  8
30
  6
Continuous
100
AcDbMText
 10
171.2686292604521
 20
275.4973907375729
 30
0.0
 40
5.0
 41
122.5389999999999
 71
     1
 72
     5
  1
NE225-NF 3P FC\PNS225-NF 3P FC\PNE250-NF 3P FC\PNS250-NF 3P FC
  7
STANDARD1
 73
     1
 44
1.0
  0
VIEWPORT
  5
9AC
330
1A
100
AcDbEntity
 67
     1
  8
0
  6
Continuous
100
AcDbViewport
 10
171.999535
 20
144.1384739999999
 30
0.0
 40
488.867686
 41
292.351491
 68
    -1
 69
     1
 12
171.999535
 22
144.1384739999999
 13
0.0
 23
0.0
 14
10.0
 24
10.0
 15
10.0
 25
10.0
 16
0.0
 26
0.0
 36
1.0
 17
0.0
 27
0.0
 37
0.0
 42
50.0
 43
0.0
 44
0.0
 45
292.351491
 50
0.0
 51
0.0
 72
   100
 90
    32800
  1

281
     0
 71
     1
 74
     0
110
0.0
120
0.0
130
0.0
111
1.0
121
0.0
131
0.0
112
0.0
122
1.0
132
0.0
 79
     0
146
0.0
  0
ENDSEC
  0
SECTION
  2
OBJECTS
  0
DICTIONARY
  5
C
330
0
100
AcDbDictionary
281
     1
  3
ACAD_GROUP
350
D
  3
ACAD_LAYOUT
350
19
  3
ACAD_MLINESTYLE
350
16
  3
ACAD_PLOTSETTINGS
350
18
  3
ACAD_PLOTSTYLENAME
350
E
  3
ACADDIM
350
67AC
  3
ACDBVARIABLEDICTIONARY
350
5697
  0
DICTIONARY
  5
178
330
1E
100
AcDbDictionary
280
     1
281
     1
  3
ACAD_LAYOUTSELFREF
360
7156
  0
DICTIONARY
  5
17A
330
1A
100
AcDbDictionary
280
     1
281
     1
  3
ACAD_LAYOUTSELFREF
360
7155
  0
DICTIONARY
  5
D
102
{ACAD_REACTORS
330
C
102
}
330
C
100
AcDbDictionary
281
     1
  0
DICTIONARY
  5
19
102
{ACAD_REACTORS
330
C
102
}
330
C
100
AcDbDictionary
281
     1
  3
Model
350
7171
  3
ﾚｲｱｳﾄ1
350
7172
  0
DICTIONARY
  5
16
102
{ACAD_REACTORS
330
C
102
}
330
C
100
AcDbDictionary
281
     1
  3
STANDARD
350
17
  0
DICTIONARY
  5
18
102
{ACAD_REACTORS
330
C
102
}
330
C
100
AcDbDictionary
281
     1
  0
ACDBDICTIONARYWDFLT
  5
E
102
{ACAD_REACTORS
330
C
102
}
330
C
100
AcDbDictionary
281
     1
  3
Normal
350
F
100
AcDbDictionaryWithDefault
340
F
  0
XRECORD
  5
67AC
102
{ACAD_REACTORS
330
C
102
}
330
C
100
AcDbXrecord
280
     1
 90
   990106
  3

 60
     0
 61
     0
 62
     1
 63
     3
 64
     0
 65
     0
 66
     0
 67
     3
 68
     1
 69
     0
 70
     0
 71
     0
 72
     0
 40
0.0
170
     0
340
67AE
  0
DICTIONARY
  5
5697
102
{ACAD_REACTORS
330
C
102
}
330
C
100
AcDbDictionary
281
     1
  3
DIMASSOC
350
5698
  0
XRECORD
  5
7156
102
{ACAD_REACTORS
330
178
102
}
330
178
100
AcDbXrecord
280
     1
340
1E
  0
XRECORD
  5
7155
102
{ACAD_REACTORS
330
17A
102
}
330
17A
100
AcDbXrecord
280
     1
340
1A
  0
LAYOUT
  5
7171
102
{ACAD_REACTORS
330
19
102
}
330
19
100
AcDbPlotSettings
  1

  2
Canon LBP3800 LIPSLX
  4

  6

 40
0.0
 41
0.0
 42
0.0
 43
0.0
 44
0.0
 45
0.0
 46
0.0
 47
0.0
 48
0.0
 49
0.0
140
0.0
141
0.0
142
1.0
143
1.0
 70
  1712
 72
     0
 73
     0
 74
     0
  7
monochrome.ctb
 75
     0
147
1.0
148
0.0
149
0.0
100
AcDbLayout
  1
Model
 70
     1
 71
     0
 10
0.0
 20
0.0
 11
12.0
 21
9.0
 12
0.0
 22
0.0
 32
0.0
 14
0.0
 24
0.0
 34
0.0
 15
0.0
 25
0.0
 35
0.0
146
0.0
 13
0.0
 23
0.0
 33
0.0
 16
1.0
 26
0.0
 36
0.0
 17
0.0
 27
1.0
 37
0.0
 76
     0
330
1E
  0
LAYOUT
  5
7172
102
{ACAD_REACTORS
330
19
102
}
330
19
100
AcDbPlotSettings
  1

  2
Canon LBP3800 LIPSLX
  4

  6

 40
0.0
 41
0.0
 42
0.0
 43
0.0
 44
0.0
 45
0.0
 46
0.0
 47
0.0
 48
0.0
 49
0.0
140
0.0
141
0.0
142
1.0
143
1.0
 70
   688
 72
     0
 73
     0
 74
     5
  7
monochrome.ctb
 75
    16
147
1.0
148
0.0
149
0.0
100
AcDbLayout
  1
ﾚｲｱｳﾄ1
 70
     1
 71
     1
 10
-5.873749
 20
-5.87375
 11
204.099579
 21
291.1369009999999
 12
0.0
 22
0.0
 32
0.0
 14
4.273573
 24
5.205245999999998
 34
0.0
 15
194.610095
 25
283.0697009999996
 35
0.0
146
0.0
 13
0.0
 23
0.0
 33
0.0
 16
1.0
 26
0.0
 36
0.0
 17
0.0
 27
1.0
 37
0.0
 76
     0
330
1A
  0
MLINESTYLE
  5
17
102
{ACAD_REACTORS
330
16
102
}
330
16
100
AcDbMlineStyle
  2
STANDARD
 70
     0
  3

 62
   256
 51
90.0
 52
90.0
 71
     2
 49
0.5
 62
   256
  6
BYLAYER
 49
-0.5
 62
   256
  6
BYLAYER
  0
ACDBPLACEHOLDER
  5
F
102
{ACAD_REACTORS
330
E
102
}
330
E
  0
DICTIONARYVAR
  5
5698
102
{ACAD_REACTORS
330
5697
102
}
330
5697
100
DictionaryVariables
280
     0
  1
1
  0
ENDSEC
  0
EOF
